  0
SECTION
  2
HEADER
  9
$ACADVER
  1
AC1012
  9
$DWGCODEPAGE
  3
ansi_1252
  9
$INSBASE
 10
0.0
 20
0.0
 30
0.0
  9
$EXTMIN
 10
25.4
 20
15.875
 30
0.0
  9
$EXTMAX
 10
813.97907
 20
519.368925
 30
0.0
  9
$LIMMIN
 10
0.0
 20
0.0
  9
$LIMMAX
 10
812.0
 20
533.0
  9
$ORTHOMODE
 70
     1
  9
$REGENMODE
 70
     1
  9
$FILLMODE
 70
     1
  9
$QTEXTMODE
 70
     0
  9
$MIRRTEXT
 70
     1
  9
$DRAGMODE
 70
     2
  9
$LTSCALE
 40
10.0
  9
$OSMODE
 70
     1
  9
$ATTMODE
 70
     1
  9
$TEXTSIZE
 40
3.0
  9
$TRACEWID
 40
0.05
  9
$TEXTSTYLE
  7
STANDARD
  9
$CLAYER
  8
DIM
  9
$CELTYPE
  6
BYLAYER
  9
$CECOLOR
 62
   256
  9
$CELTSCALE
 40
1.0
  9
$DELOBJ
 70
     1
  9
$DISPSILH
 70
     0
  9
$DIMSCALE
 40
25.4
  9
$DIMASZ
 40
0.18
  9
$DIMEXO
 40
0.0625
  9
$DIMDLI
 40
0.38
  9
$DIMRND
 40
0.0
  9
$DIMDLE
 40
0.0
  9
$DIMEXE
 40
0.18
  9
$DIMTP
 40
0.03
  9
$DIMTM
 40
0.03
  9
$DIMTXT
 40
0.18
  9
$DIMCEN
 40
0.09
  9
$DIMTSZ
 40
0.0
  9
$DIMTOL
 70
     1
  9
$DIMLIM
 70
     0
  9
$DIMTIH
 70
     1
  9
$DIMTOH
 70
     1
  9
$DIMSE1
 70
     0
  9
$DIMSE2
 70
     1
  9
$DIMTAD
 70
     0
  9
$DIMZIN
 70
     0
  9
$DIMBLK
  1

  9
$DIMASO
 70
     1
  9
$DIMSHO
 70
     1
  9
$DIMPOST
  1
mm
  9
$DIMAPOST
  1
"
  9
$DIMALT
 70
     1
  9
$DIMALTD
 70
     3
  9
$DIMALTF
 40
0.03937
  9
$DIMLFAC
 40
1.0
  9
$DIMTOFL
 70
     0
  9
$DIMTVP
 40
0.0
  9
$DIMTIX
 70
     0
  9
$DIMSOXD
 70
     0
  9
$DIMSAH
 70
     0
  9
$DIMBLK1
  1

  9
$DIMBLK2
  1

  9
$DIMSTYLE
  2
STANDARD
  9
$DIMCLRD
 70
     0
  9
$DIMCLRE
 70
     0
  9
$DIMCLRT
 70
     0
  9
$DIMTFAC
 40
1.0
  9
$DIMGAP
 40
0.09
  9
$DIMJUST
 70
     0
  9
$DIMSD1
 70
     0
  9
$DIMSD2
 70
     0
  9
$DIMTOLJ
 70
     1
  9
$DIMTZIN
 70
     0
  9
$DIMALTZ
 70
     0
  9
$DIMALTTZ
 70
     0
  9
$DIMFIT
 70
     0
  9
$DIMUPT
 70
     0
  9
$DIMUNIT
 70
     2
  9
$DIMDEC
 70
     2
  9
$DIMTDEC
 70
     2
  9
$DIMALTU
 70
     2
  9
$DIMALTTD
 70
     3
  9
$DIMTXSTY
  7
STANDARD
  9
$DIMAUNIT
 70
     0
  9
$LUNITS
 70
     2
  9
$LUPREC
 70
     4
  9
$SKETCHINC
 40
0.1
  9
$FILLETRAD
 40
0.0
  9
$AUNITS
 70
     0
  9
$AUPREC
 70
     0
  9
$MENU
  1
C:\CIM\ACAD
  9
$ELEVATION
 40
0.0
  9
$PELEVATION
 40
0.0
  9
$THICKNESS
 40
0.0
  9
$LIMCHECK
 70
     0
  9
$BLIPMODE
 70
     1
  9
$CHAMFERA
 40
0.0
  9
$CHAMFERB
 40
0.0
  9
$CHAMFERC
 40
0.0
  9
$CHAMFERD
 40
0.0
  9
$SKPOLY
 70
     0
  9
$TDCREATE
 40
2450030.500736111
  9
$TDUPDATE
 40
2450526.428818611
  9
$TDINDWG
 40
0.0452615162
  9
$TDUSRTIMER
 40
0.0452615162
  9
$USRTIMER
 70
     1
  9
$ANGBASE
 50
0.0
  9
$ANGDIR
 70
     0
  9
$PDMODE
 70
     0
  9
$PDSIZE
 40
0.0
  9
$PLINEWID
 40
0.0
  9
$COORDS
 70
     1
  9
$SPLFRAME
 70
     0
  9
$SPLINETYPE
 70
     6
  9
$SPLINESEGS
 70
     8
  9
$ATTDIA
 70
     0
  9
$ATTREQ
 70
     1
  9
$HANDLING
 70
     1
  9
$HANDSEED
  5
1094
  9
$SURFTAB1
 70
     6
  9
$SURFTAB2
 70
     6
  9
$SURFTYPE
 70
     6
  9
$SURFU
 70
     6
  9
$SURFV
 70
     6
  9
$UCSNAME
  2

  9
$UCSORG
 10
0.0
 20
0.0
 30
0.0
  9
$UCSXDIR
 10
1.0
 20
0.0
 30
0.0
  9
$UCSYDIR
 10
0.0
 20
1.0
 30
0.0
  9
$PUCSNAME
  2

  9
$PUCSORG
 10
0.0
 20
0.0
 30
0.0
  9
$PUCSXDIR
 10
1.0
 20
0.0
 30
0.0
  9
$PUCSYDIR
 10
0.0
 20
1.0
 30
0.0
  9
$USERI1
 70
     0
  9
$USERI2
 70
     0
  9
$USERI3
 70
     0
  9
$USERI4
 70
     0
  9
$USERI5
 70
     0
  9
$USERR1
 40
0.0
  9
$USERR2
 40
0.0
  9
$USERR3
 40
0.0
  9
$USERR4
 40
0.0
  9
$USERR5
 40
0.0
  9
$WORLDVIEW
 70
     1
  9
$SHADEDGE
 70
     3
  9
$SHADEDIF
 70
    70
  9
$TILEMODE
 70
     1
  9
$MAXACTVP
 70
    16
  9
$PINSBASE
 10
0.0
 20
0.0
 30
0.0
  9
$PLIMCHECK
 70
     0
  9
$PEXTMIN
 10
1.000000E+20
 20
1.000000E+20
 30
1.000000E+20
  9
$PEXTMAX
 10
-1.000000E+20
 20
-1.000000E+20
 30
-1.000000E+20
  9
$PLIMMIN
 10
0.0
 20
0.0
  9
$PLIMMAX
 10
12.0
 20
9.0
  9
$UNITMODE
 70
     0
  9
$VISRETAIN
 70
     0
  9
$PLINEGEN
 70
     0
  9
$PSLTSCALE
 70
     1
  9
$TREEDEPTH
 70
  3020
  9
$PICKSTYLE
 70
     1
  9
$CMLSTYLE
  2
STANDARD
  9
$CMLJUST
 70
     0
  9
$CMLSCALE
 40
1.0
  9
$SAVEIMAGES
 70
     0
  0
ENDSEC
  0
SECTION
  2
CLASSES
  0
ENDSEC
  0
SECTION
  2
TABLES
  0
TABLE
  2
VPORT
  5
8
100
AcDbSymbolTable
 70
     2
  0
VPORT
  5
1093
100
AcDbSymbolTableRecord
100
AcDbViewportTableRecord
  2
*ACTIVE
 70
     0
 10
0.0
 20
0.0
 11
1.0
 21
1.0
 12
428.722359
 22
267.621963
 13
0.0
 23
0.0
 14
1.0
 24
1.0
 15
10.0
 25
10.0
 16
0.0
 26
0.0
 36
1.0
 17
0.0
 27
0.0
 37
0.0
 40
503.493925
 41
1.602094
 42
50.0
 43
0.0
 44
0.0
 50
0.0
 51
0.0
 71
     0
 72
   100
 73
     1
 74
     0
 75
     0
 76
     1
 77
     0
 78
     0
  0
ENDTAB
  0
TABLE
  2
LTYPE
  5
5
100
AcDbSymbolTable
 70
     4
  0
LTYPE
  5
14
100
AcDbSymbolTableRecord
100
AcDbLinetypeTableRecord
  2
BYBLOCK
 70
     0
  3

 72
    65
 73
     0
 40
0.0
  0
LTYPE
  5
15
100
AcDbSymbolTableRecord
100
AcDbLinetypeTableRecord
  2
BYLAYER
 70
     0
  3

 72
    65
 73
     0
 40
0.0
  0
LTYPE
  5
16
100
AcDbSymbolTableRecord
100
AcDbLinetypeTableRecord
  2
CONTINUOUS
 70
    64
  3
Solid line
 72
    65
 73
     0
 40
0.0
  0
LTYPE
  5
24
100
AcDbSymbolTableRecord
100
AcDbLinetypeTableRecord
  2
CENTER
 70
    64
  3
____ _ ____ _ ____ _ ____ _ ____ _ ____ _ ____ 
 72
    65
 73
     4
 40
2.0
 49
1.25
 74
     0
 49
-0.25
 74
     0
 49
0.25
 74
     0
 49
-0.25
 74
     0
  0
LTYPE
  5
26
100
AcDbSymbolTableRecord
100
AcDbLinetypeTableRecord
  2
HIDDEN
 70
    64
  3
__ __ __ __ __ __ __ __ __ __ __ __ __ __ __ __
 72
    65
 73
     2
 40
0.375
 49
0.25
 74
     0
 49
-0.125
 74
     0
  0
LTYPE
  5
DF7
100
AcDbSymbolTableRecord
100
AcDbLinetypeTableRecord
  2
CENTERX2
 70
    64
  3
________  __  ________  __  ________  __  _____
 72
    65
 73
     4
 40
4.0
 49
2.5
 74
     0
 49
-0.5
 74
     0
 49
0.5
 74
     0
 49
-0.5
 74
     0
  0
ENDTAB
  0
TABLE
  2
LAYER
  5
2
100
AcDbSymbolTable
 70
     9
  0
LAYER
  5
F
100
AcDbSymbolTableRecord
100
AcDbLayerTableRecord
  2
0
 70
     0
 62
     7
  6
CONTINUOUS
  0
LAYER
  5
23
100
AcDbSymbolTableRecord
100
AcDbLayerTableRecord
  2
CENTER
 70
    64
 62
     1
  6
CENTER
  0
LAYER
  5
29
100
AcDbSymbolTableRecord
100
AcDbLayerTableRecord
  2
DIM
 70
    64
 62
     3
  6
CONTINUOUS
  0
LAYER
  5
2A
100
AcDbSymbolTableRecord
100
AcDbLayerTableRecord
  2
TEXT
 70
    64
 62
     7
  6
CONTINUOUS
  0
LAYER
  5
6F
100
AcDbSymbolTableRecord
100
AcDbLayerTableRecord
  2
BORDER
 70
    64
 62
     6
  6
CONTINUOUS
  0
LAYER
  5
FC
100
AcDbSymbolTableRecord
100
AcDbLayerTableRecord
  2
DEFPOINTS
 70
    64
 62
     7
  6
CONTINUOUS
  0
LAYER
  5
681
100
AcDbSymbolTableRecord
100
AcDbLayerTableRecord
  2
BEAMS-B
 70
    64
 62
     7
  6
CONTINUOUS
  0
LAYER
  5
C3E
100
AcDbSymbolTableRecord
100
AcDbLayerTableRecord
  2
KEVLAR
 70
    64
 62
     7
  6
CONTINUOUS
  0
LAYER
  5
F8F
100
AcDbSymbolTableRecord
100
AcDbLayerTableRecord
  2
C-FIBER
 70
    64
 62
     5
  6
CONTINUOUS
  0
ENDTAB
  0
TABLE
  2
STYLE
  5
3
100
AcDbSymbolTable
 70
     3
  0
STYLE
  5
10
100
AcDbSymbolTableRecord
100
AcDbTextStyleTableRecord
  2
STANDARD
 70
    64
 40
0.0
 41
1.0
 50
0.0
 71
     0
 42
3.0
  3
txt
  4

  0
STYLE
  5
28
100
AcDbSymbolTableRecord
100
AcDbTextStyleTableRecord
  2
CIM_TB
 70
    64
 40
0.0
 41
1.0
 50
0.0
 71
     0
 42
0.2
  3
romans
  4

  0
STYLE
  5
70
100
AcDbSymbolTableRecord
100
AcDbTextStyleTableRecord
  2
ADESK2
 70
    64
 40
0.0
 41
1.0
 50
0.0
 71
     0
 42
0.065
  3
romans
  4

  0
ENDTAB
  0
TABLE
  2
VIEW
  5
6
100
AcDbSymbolTable
 70
     0
  0
ENDTAB
  0
TABLE
  2
UCS
  5
7
100
AcDbSymbolTable
 70
     1
  0
UCS
  5
2D
100
AcDbSymbolTableRecord
100
AcDbUCSTableRecord
  2
CIM_TB_HOLD
 70
     0
 10
0.0
 20
0.0
 30
0.0
 11
1.0
 21
0.0
 31
0.0
 12
0.0
 22
1.0
 32
0.0
  0
ENDTAB
  0
TABLE
  2
APPID
  5
9
100
AcDbSymbolTable
 70
     2
  0
APPID
  5
11
100
AcDbSymbolTableRecord
100
AcDbRegAppTableRecord
  2
ACAD
 70
     0
  0
APPID
  5
22
100
AcDbSymbolTableRecord
100
AcDbRegAppTableRecord
  2
TB_S_MPD
 70
     0
  0
ENDTAB
  0
TABLE
  2
DIMSTYLE
  5
A
100
AcDbSymbolTable
 70
     5
  0
DIMSTYLE
105
1D
100
AcDbSymbolTableRecord
100
AcDbDimStyleTableRecord
  2
STANDARD
 70
     0
  3

  4

  5

  6

  7

 40
1.0
 41
0.18
 42
0.0625
 43
0.38
 44
0.18
 45
0.0
 46
0.0
 47
0.0
 48
0.0
140
0.18
141
0.09
142
0.0
143
25.4
144
1.0
145
0.0
146
1.0
147
0.09
 71
     0
 72
     0
 73
     1
 74
     1
 75
     0
 76
     0
 77
     0
 78
     0
170
     0
171
     2
172
     0
173
     0
174
     0
175
     0
176
     0
177
     0
178
     0
270
     2
271
     3
272
     4
273
     2
274
     2
340
10
275
     0
280
     0
281
     0
282
     0
283
     1
284
     0
285
     0
286
     0
287
     0
288
     0
  0
DIMSTYLE
105
2B
100
AcDbSymbolTableRecord
100
AcDbDimStyleTableRecord
  2
STANDARD$4
 70
     0
  3

  4

  5

  6

  7

 40
1.0
 41
0.18
 42
0.0625
 43
0.38
 44
0.18
 45
0.0
 46
0.0
 47
0.0
 48
0.0
140
0.18
141
0.09
142
0.0
143
25.4
144
1.0
145
0.0
146
1.0
147
0.09
 71
     0
 72
     0
 73
     1
 74
     1
 75
     0
 76
     0
 77
     0
 78
     0
170
     0
171
     2
172
     0
173
     0
174
     0
175
     0
176
     0
177
     0
178
     0
270
     2
271
     4
272
     4
273
     2
274
     2
340
10
275
     0
280
     0
281
     0
282
     0
283
     1
284
     0
285
     0
286
     0
287
     3
288
     0
  0
DIMSTYLE
105
2C
100
AcDbSymbolTableRecord
100
AcDbDimStyleTableRecord
  2
STANDARD$3
 70
     0
  3

  4

  5

  6

  7

 40
1.0
 41
0.18
 42
0.0625
 43
0.38
 44
0.18
 45
0.0
 46
0.0
 47
0.0
 48
0.0
140
0.18
141
0.09
142
0.0
143
25.4
144
1.0
145
0.0
146
1.0
147
0.09
 71
     0
 72
     0
 73
     1
 74
     1
 75
     0
 76
     0
 77
     0
 78
     0
170
     0
171
     2
172
     0
173
     0
174
     0
175
     0
176
     0
177
     0
178
     0
270
     2
271
     4
272
     4
273
     2
274
     2
340
10
275
     0
280
     0
281
     0
282
     0
283
     1
284
     0
285
     0
286
     0
287
     3
288
     0
  0
DIMSTYLE
105
326
100
AcDbSymbolTableRecord
100
AcDbDimStyleTableRecord
  2
STANDARD$2
 70
     0
  3

  4
"
  5

  6

  7

 40
25.4
 41
0.18
 42
0.0625
 43
0.38
 44
0.18
 45
0.0
 46
0.0
 47
0.0
 48
0.0
140
0.18
141
0.09
142
0.0
143
0.03937
144
1.0
145
0.0
146
1.0
147
0.09
 71
     0
 72
     0
 73
     1
 74
     1
 75
     0
 76
     0
 77
     0
 78
     0
170
     1
171
     3
172
     0
173
     0
174
     0
175
     0
176
     0
177
     0
178
     0
270
     2
271
     2
272
     4
273
     2
274
     2
340
10
275
     0
280
     0
281
     0
282
     0
283
     1
284
     0
285
     0
286
     0
287
     0
288
     0
  0
DIMSTYLE
105
9FE
100
AcDbSymbolTableRecord
100
AcDbDimStyleTableRecord
  2
SU1
 70
     0
  3

  4

  5

  6

  7

 40
1.0
 41
0.18
 42
0.0625
 43
0.38
 44
0.18
 45
0.0
 46
0.0
 47
0.001
 48
0.0
140
0.18
141
0.09
142
0.0
143
25.4
144
1.0
145
0.0
146
1.0
147
0.09
 71
     0
 72
     0
 73
     1
 74
     1
 75
     0
 76
     0
 77
     0
 78
     0
170
     0
171
     2
172
     0
173
     0
174
     0
175
     0
176
     0
177
     0
178
     0
270
     2
271
     3
272
     3
273
     2
274
     2
340
10
275
     0
280
     0
281
     0
282
     0
283
     1
284
     0
285
     0
286
     0
287
     0
288
     0
  0
ENDTAB
  0
TABLE
  2
BLOCK_RECORD
  5
1
100
AcDbSymbolTable
 70
    27
  0
BLOCK_RECORD
  5
1A
100
AcDbSymbolTableRecord
100
AcDbBlockTableRecord
  2
*MODEL_SPACE
  0
BLOCK_RECORD
  5
17
100
AcDbSymbolTableRecord
100
AcDbBlockTableRecord
  2
*PAPER_SPACE
  0
BLOCK_RECORD
  5
944
100
AcDbSymbolTableRecord
100
AcDbBlockTableRecord
  2
*D0
  0
BLOCK_RECORD
  5
C3F
100
AcDbSymbolTableRecord
100
AcDbBlockTableRecord
  2
D-BORDER
  0
BLOCK_RECORD
  5
E2D
100
AcDbSymbolTableRecord
100
AcDbBlockTableRecord
  2
*D2
  0
BLOCK_RECORD
  5
E3A
100
AcDbSymbolTableRecord
100
AcDbBlockTableRecord
  2
*D3
  0
BLOCK_RECORD
  5
E47
100
AcDbSymbolTableRecord
100
AcDbBlockTableRecord
  2
*D4
  0
BLOCK_RECORD
  5
E54
100
AcDbSymbolTableRecord
100
AcDbBlockTableRecord
  2
*D5
  0
BLOCK_RECORD
  5
E61
100
AcDbSymbolTableRecord
100
AcDbBlockTableRecord
  2
*D6
  0
BLOCK_RECORD
  5
E6E
100
AcDbSymbolTableRecord
100
AcDbBlockTableRecord
  2
*D7
  0
BLOCK_RECORD
  5
E7B
100
AcDbSymbolTableRecord
100
AcDbBlockTableRecord
  2
*D8
  0
BLOCK_RECORD
  5
E88
100
AcDbSymbolTableRecord
100
AcDbBlockTableRecord
  2
*D9
  0
BLOCK_RECORD
  5
EAD
100
AcDbSymbolTableRecord
100
AcDbBlockTableRecord
  2
*D10
  0
BLOCK_RECORD
  5
EBA
100
AcDbSymbolTableRecord
100
AcDbBlockTableRecord
  2
*D11
  0
BLOCK_RECORD
  5
EC7
100
AcDbSymbolTableRecord
100
AcDbBlockTableRecord
  2
*D12
  0
BLOCK_RECORD
  5
ED4
100
AcDbSymbolTableRecord
100
AcDbBlockTableRecord
  2
*D13
  0
BLOCK_RECORD
  5
EE1
100
AcDbSymbolTableRecord
100
AcDbBlockTableRecord
  2
*D14
  0
BLOCK_RECORD
  5
EEE
100
AcDbSymbolTableRecord
100
AcDbBlockTableRecord
  2
*D15
  0
BLOCK_RECORD
  5
EFB
100
AcDbSymbolTableRecord
100
AcDbBlockTableRecord
  2
*D16
  0
BLOCK_RECORD
  5
F09
100
AcDbSymbolTableRecord
100
AcDbBlockTableRecord
  2
*D17
  0
BLOCK_RECORD
  5
F17
100
AcDbSymbolTableRecord
100
AcDbBlockTableRecord
  2
*D18
  0
BLOCK_RECORD
  5
F31
100
AcDbSymbolTableRecord
100
AcDbBlockTableRecord
  2
*D19
  0
BLOCK_RECORD
  5
F3D
100
AcDbSymbolTableRecord
100
AcDbBlockTableRecord
  2
*D20
  0
BLOCK_RECORD
  5
FCE
100
AcDbSymbolTableRecord
100
AcDbBlockTableRecord
  2
*D21
  0
BLOCK_RECORD
  5
FDB
100
AcDbSymbolTableRecord
100
AcDbBlockTableRecord
  2
*D22
  0
BLOCK_RECORD
  5
FE8
100
AcDbSymbolTableRecord
100
AcDbBlockTableRecord
  2
*D23
  0
BLOCK_RECORD
  5
FF5
100
AcDbSymbolTableRecord
100
AcDbBlockTableRecord
  2
*D24
  0
BLOCK_RECORD
  5
1050
100
AcDbSymbolTableRecord
100
AcDbBlockTableRecord
  2
*D25
  0
BLOCK_RECORD
  5
1074
100
AcDbSymbolTableRecord
100
AcDbBlockTableRecord
  2
*D26
  0
ENDTAB
  0
ENDSEC
  0
SECTION
  2
BLOCKS
  0
BLOCK
  5
1B
100
AcDbEntity
  8
0
100
AcDbBlockBegin
  2
*MODEL_SPACE
 70
     0
 10
0.0
 20
0.0
 30
0.0
  3
*MODEL_SPACE
  1

  0
ENDBLK
  5
1C
100
AcDbEntity
  8
0
100
AcDbBlockEnd
  0
BLOCK
  5
18
100
AcDbEntity
 67
     1
  8
0
100
AcDbBlockBegin
  2
*PAPER_SPACE
 70
     0
 10
0.0
 20
0.0
 30
0.0
  3
*PAPER_SPACE
  1

  0
ENDBLK
  5
19
100
AcDbEntity
 67
     1
  8
0
100
AcDbBlockEnd
  0
BLOCK
  5
D9B
100
AcDbEntity
  8
0
100
AcDbBlockBegin
  2
*D0
 70
    65
 10
0.0
 20
0.0
 30
0.0
  3
*D0
  1

  0
LINE
  5
D9C
100
AcDbEntity
  8
0
  6
BYBLOCK
 62
     0
100
AcDbLine
 10
594.214268
 20
310.480096
 30
0.0
 11
673.408731
 21
398.578259
 31
0.0
  0
LINE
  5
D9D
100
AcDbEntity
  8
0
  6
BYBLOCK
 62
     0
100
AcDbLine
 10
673.408731
 20
398.578259
 30
0.0
 11
677.980731
 21
398.578259
 31
0.0
  0
SOLID
  5
D9E
100
AcDbEntity
  8
0
  6
BYBLOCK
 62
     0
100
AcDbTrace
 10
593.647578
 20
310.989513
 30
0.0
 11
594.780958
 21
309.970678
 31
0.0
 12
591.157764
 22
307.079954
 32
0.0
 13
591.157764
 23
307.079954
 33
0.0
  0
MTEXT
  5
D9F
100
AcDbEntity
  8
0
  6
BYBLOCK
 62
     0
100
AcDbMText
 10
709.222731
 20
398.578259
 30
0.0
 40
4.572
 41
0.0
 71
     5
 72
     1
  1
\A1;R2.00mm[R0.079"]
  0
LINE
  5
DA0
100
AcDbEntity
  8
0
  6
BYBLOCK
 62
     0
100
AcDbLine
 10
587.53471
 20
305.592578
 30
0.0
 11
592.10671
 21
305.592578
 31
0.0
  0
LINE
  5
DA1
100
AcDbEntity
  8
0
  6
BYBLOCK
 62
     0
100
AcDbLine
 10
589.82071
 20
303.306578
 30
0.0
 11
589.82071
 21
307.878578
 31
0.0
  0
POINT
  5
DA2
100
AcDbEntity
  8
DEFPOINTS
  6
BYBLOCK
 62
     0
100
AcDbPoint
 10
591.157764
 20
307.079954
 30
0.0
  0
POINT
  5
DA3
100
AcDbEntity
  8
DEFPOINTS
  6
BYBLOCK
 62
     0
100
AcDbPoint
 10
589.82071
 20
305.592578
 30
0.0
  0
ENDBLK
  5
DA4
100
AcDbEntity
  8
0
100
AcDbBlockEnd
  0
BLOCK
  5
C82
100
AcDbEntity
  8
TEXT
100
AcDbBlockBegin
  2
D-BORDER
 70
     0
 10
0.0
 20
0.0
 30
0.0
  3
D-BORDER
  1

  0
LINE
  5
C40
100
AcDbEntity
  8
TEXT
100
AcDbLine
 10
1.0
 20
19.947595
 30
0.0
 11
3.5625
 21
19.947595
 31
0.0
  0
LINE
  5
C41
100
AcDbEntity
  8
TEXT
100
AcDbLine
 10
3.5625
 20
19.947595
 30
0.0
 11
3.5625
 21
20.447595
 31
0.0
  0
CIRCLE
  5
C42
100
AcDbEntity
  8
TEXT
100
AcDbCircle
 10
1.677871
 20
20.184056
 30
0.0
 40
0.1875
  0
CIRCLE
  5
C43
100
AcDbEntity
  8
TEXT
100
AcDbCircle
 10
1.677871
 20
20.184056
 30
0.0
 40
0.09375
  0
LINE
  5
C44
100
AcDbEntity
  8
TEXT
  6
CENTER
100
AcDbLine
 10
1.443951
 20
20.184056
 30
0.0
 11
2.896621
 21
20.184056
 31
0.0
  0
LINE
  5
C45
100
AcDbEntity
  8
TEXT
  6
CENTER
100
AcDbLine
 10
1.677871
 20
19.955375
 30
0.0
 11
1.677871
 21
20.423251
 31
0.0
  0
LINE
  5
C46
100
AcDbEntity
  8
TEXT
100
AcDbLine
 10
2.146621
 20
20.277806
 30
0.0
 11
2.631263
 21
20.371556
 31
0.0
  0
LINE
  5
C47
100
AcDbEntity
  8
TEXT
100
AcDbLine
 10
2.146621
 20
20.090306
 30
0.0
 11
2.631263
 21
19.996556
 31
0.0
  0
LINE
  5
C48
100
AcDbEntity
  8
TEXT
100
AcDbLine
 10
2.146621
 20
20.090306
 30
0.0
 11
2.146621
 21
20.277806
 31
0.0
  0
LINE
  5
C49
100
AcDbEntity
  8
TEXT
100
AcDbLine
 10
2.631263
 20
20.371556
 30
0.0
 11
2.631263
 21
19.996556
 31
0.0
  0
TEXT
  5
C4A
100
AcDbEntity
  8
TEXT
100
AcDbText
 10
1.1875
 20
19.762423
 30
0.0
 40
0.1
  1
THIRD ANGLE PROJECTION
100
AcDbText
  0
LINE
  5
C4B
100
AcDbEntity
  8
TEXT
100
AcDbLine
 10
3.5625
 20
19.947595
 30
0.0
 11
3.5625
 21
19.697595
 31
0.0
  0
LINE
  5
C4C
100
AcDbEntity
  8
TEXT
100
AcDbLine
 10
3.5625
 20
19.697595
 30
0.0
 11
1.0
 21
19.697595
 31
0.0
  0
TEXT
  5
C4D
100
AcDbEntity
  8
TEXT
100
AcDbText
 10
31.135292
 20
0.744377
 30
0.0
 40
0.065
  1
OF
  7
ADESK2
100
AcDbText
  0
TEXT
  5
C4E
100
AcDbEntity
  8
TEXT
100
AcDbText
 10
27.375724
 20
1.474951
 30
0.0
 40
0.065
  1
DATE
  7
ADESK2
100
AcDbText
  0
LINE
  5
C4F
100
AcDbEntity
  8
TEXT
100
AcDbLine
 10
27.252305
 20
1.591501
 30
0.0
 11
27.252305
 21
0.625
 31
0.0
  0
TEXT
  5
C50
100
AcDbEntity
  8
TEXT
100
AcDbText
 10
25.832321
 20
0.856501
 30
0.0
 40
0.065
  1
DESIGN
  7
ADESK2
100
AcDbText
  0
TEXT
  5
C51
100
AcDbEntity
  8
TEXT
100
AcDbText
 10
25.832321
 20
1.171501
 30
0.0
 40
0.065
  1
CHECKED
  7
ADESK2
100
AcDbText
  0
LINE
  5
C52
100
AcDbEntity
  8
TEXT
100
AcDbLine
 10
25.752321
 20
1.591501
 30
0.0
 11
27.752321
 21
1.591501
 31
0.0
  0
TEXT
  5
C53
100
AcDbEntity
  8
TEXT
100
AcDbText
 10
31.234702
 20
19.965196
 30
0.0
 40
0.065
  1
APPROVED
  7
ADESK2
100
AcDbText
  0
TEXT
  5
C54
100
AcDbEntity
  8
TEXT
100
AcDbText
 10
30.441002
 20
19.965196
 30
0.0
 40
0.065
  1
DATE
  7
ADESK2
100
AcDbText
  0
TEXT
  5
C55
100
AcDbEntity
  8
TEXT
100
AcDbText
 10
28.375302
 20
19.965196
 30
0.0
 40
0.065
  1
DESCRIPTION
  7
ADESK2
100
AcDbText
  0
TEXT
  5
C56
100
AcDbEntity
  8
TEXT
100
AcDbText
 10
27.073402
 20
19.965196
 30
0.0
 40
0.065
  1
REV
  7
ADESK2
100
AcDbText
  0
TEXT
  5
C57
100
AcDbEntity
  8
TEXT
100
AcDbText
 10
29.203502
 20
20.207396
 30
0.0
 40
0.065
  1
REVISIONS
  7
ADESK2
100
AcDbText
  0
LINE
  5
C58
100
AcDbEntity
  8
TEXT
100
AcDbLine
 10
30.993302
 20
19.874896
 30
0.0
 11
30.993302
 21
20.124896
 31
0.0
  0
LINE
  5
C59
100
AcDbEntity
  8
TEXT
100
AcDbLine
 10
30.113302
 20
19.874896
 30
0.0
 11
30.113302
 21
20.124896
 31
0.0
  0
LINE
  5
C5A
100
AcDbEntity
  8
TEXT
100
AcDbLine
 10
27.373302
 20
19.874896
 30
0.0
 11
27.373302
 21
20.124896
 31
0.0
  0
LINE
  5
C5B
100
AcDbEntity
  8
TEXT
100
AcDbLine
 10
26.983049
 20
20.434959
 30
0.0
 11
26.983049
 21
19.874896
 31
0.0
  0
LINE
  5
C5C
100
AcDbEntity
  8
TEXT
100
AcDbLine
 10
26.983049
 20
19.874896
 30
0.0
 11
32.037356
 21
19.874896
 31
0.0
  0
LINE
  5
C5D
100
AcDbEntity
  8
TEXT
100
AcDbLine
 10
26.983049
 20
20.124896
 30
0.0
 11
32.037356
 21
20.124896
 31
0.0
  0
TEXT
  5
C5E
100
AcDbEntity
  8
TEXT
100
AcDbText
 10
31.702821
 20
1.167401
 30
0.0
 40
0.065
  1
REV
  7
ADESK2
100
AcDbText
  0
TEXT
  5
C5F
100
AcDbEntity
  8
TEXT
100
AcDbText
 10
29.323321
 20
1.167401
 30
0.0
 40
0.065
  1
DWG NO.
  7
ADESK2
100
AcDbText
  0
TEXT
  5
C60
100
AcDbEntity
  8
TEXT
100
AcDbText
 10
27.840221
 20
1.167401
 30
0.0
 40
0.065
  1
SIZE
  7
ADESK2
100
AcDbText
  0
TEXT
  5
C61
100
AcDbEntity
  8
TEXT
100
AcDbText
 10
30.305121
 20
0.744001
 30
0.0
 40
0.065
  1
SHEET
  7
ADESK2
100
AcDbText
  0
TEXT
  5
C62
100
AcDbEntity
  8
TEXT
100
AcDbText
 10
27.804621
 20
0.744001
 30
0.0
 40
0.065
  1
SCALE
  7
ADESK2
100
AcDbText
  0
LINE
  5
C63
100
AcDbEntity
  8
TEXT
100
AcDbLine
 10
31.622321
 20
0.901501
 30
0.0
 11
31.622321
 21
1.281501
 31
0.0
  0
LINE
  5
C64
100
AcDbEntity
  8
TEXT
100
AcDbLine
 10
29.252321
 20
0.901501
 30
0.0
 11
29.252321
 21
1.281501
 31
0.0
  0
LINE
  5
C65
100
AcDbEntity
  8
TEXT
100
AcDbLine
 10
28.132321
 20
0.901501
 30
0.0
 11
28.132321
 21
1.281501
 31
0.0
  0
LINE
  5
C66
100
AcDbEntity
  8
TEXT
100
AcDbLine
 10
30.252321
 20
0.625
 30
0.0
 11
30.252321
 21
0.901501
 31
0.0
  0
LINE
  5
C67
100
AcDbEntity
  8
TEXT
100
AcDbLine
 10
28.752321
 20
0.625
 30
0.0
 11
28.752321
 21
0.901501
 31
0.0
  0
LINE
  5
C68
100
AcDbEntity
  8
BORDER
100
AcDbLine
 10
27.752321
 20
0.625
 30
0.0
 11
27.752321
 21
2.401501
 31
0.0
  0
LINE
  5
C69
100
AcDbEntity
  8
BORDER
100
AcDbLine
 10
27.752321
 20
1.901501
 30
0.0
 11
32.024118
 21
1.901501
 31
0.0
  0
LINE
  5
C6A
100
AcDbEntity
  8
TEXT
100
AcDbLine
 10
27.752321
 20
0.901501
 30
0.0
 11
32.024118
 21
0.901501
 31
0.0
  0
LINE
  5
C6B
100
AcDbEntity
  8
TEXT
100
AcDbLine
 10
25.752321
 20
1.281501
 30
0.0
 11
32.024118
 21
1.281501
 31
0.0
  0
LINE
  5
C6C
100
AcDbEntity
  8
TEXT
100
AcDbLine
 10
25.752321
 20
0.966501
 30
0.0
 11
27.752321
 21
0.966501
 31
0.0
  0
LINE
  5
C6D
100
AcDbEntity
  8
BORDER
100
AcDbLine
 10
25.752321
 20
2.401501
 30
0.0
 11
32.024118
 21
2.401501
 31
0.0
  0
LINE
  5
C6E
100
AcDbEntity
  8
BORDER
100
AcDbLine
 10
25.752321
 20
0.625
 30
0.0
 11
25.752321
 21
2.824147
 31
0.0
  0
TEXT
  5
C6F
100
AcDbEntity
  8
TEXT
100
AcDbText
 10
25.820631
 20
1.479964
 30
0.0
 40
0.065
  1
DRAWN
  7
ADESK2
100
AcDbText
  0
TEXT
  5
C70
100
AcDbEntity
  8
BORDER
100
AcDbText
 10
25.930285
 20
2.549228
 30
0.0
 40
0.15
  1
UNIVERSITY OF CALIFORNIA @ SANTA BARBARA
100
AcDbText
  0
LINE
  5
C71
100
AcDbEntity
  8
BORDER
100
AcDbLine
 10
25.75128
 20
2.824147
 30
0.0
 11
32.024118
 21
2.824147
 31
0.0
  0
LINE
  5
C72
100
AcDbEntity
  8
BORDER
100
AcDbLine
 10
32.04642
 20
0.625
 30
0.0
 11
32.04642
 21
20.447595
 31
0.0
  0
LINE
  5
C73
100
AcDbEntity
  8
BORDER
100
AcDbLine
 10
1.0
 20
20.447595
 30
0.0
 11
1.0
 21
0.625
 31
0.0
  0
LINE
  5
C74
100
AcDbEntity
  8
BORDER
100
AcDbLine
 10
1.0
 20
0.625
 30
0.0
 11
32.04642
 21
0.625
 31
0.0
  0
TEXT
  5
C75
100
AcDbEntity
  8
TEXT
100
AcDbText
 10
28.203393
 20
1.165354
 30
0.0
 40
0.075
  1
DIRECTORY
100
AcDbText
  0
LINE
  5
C76
100
AcDbEntity
  8
BORDER
100
AcDbLine
 10
1.0
 20
20.447595
 30
0.0
 11
32.04642
 21
20.447595
 31
0.0
  0
TEXT
  5
C77
100
AcDbEntity
  8
BORDER
100
AcDbText
 10
28.439864
 20
2.075566
 30
0.0
 40
0.15
  1
HIGH ENERGY PHYSICS
100
AcDbText
  0
TEXT
  5
C78
100
AcDbEntity
  8
BORDER
100
AcDbText
 10
27.876167
 20
0.934778
 30
0.0
 40
0.2
  1
D
100
AcDbText
  0
TEXT
  5
C79
100
AcDbEntity
  8
TEXT
100
AcDbText
 10
25.981606
 20
2.285089
 30
0.0
 40
0.065
  1
UNLESS OTHERWISE SPECIFIED:
  7
ADESK2
 72
     1
 11
26.752321
 21
2.285089
 31
0.0
100
AcDbText
  0
TEXT
  5
C7A
100
AcDbEntity
  8
TEXT
100
AcDbText
 10
26.055892
 20
2.179851
 30
0.0
 40
0.065
  1
DIMENSIONS ARE IN INCHES
  7
ADESK2
 72
     1
 11
26.752321
 21
2.179851
 31
0.0
100
AcDbText
  0
TEXT
  5
C7B
100
AcDbEntity
  8
TEXT
100
AcDbText
 10
26.45363
 20
2.074613
 30
0.0
 40
0.065
  1
TOLERANCES
  7
ADESK2
 72
     1
 11
26.752321
 21
2.074613
 31
0.0
100
AcDbText
  0
TEXT
  5
C7C
100
AcDbEntity
  8
TEXT
100
AcDbText
 10
26.067279
 20
1.966743
 30
0.0
 40
0.065
  1
DECIMALS
  7
ADESK2
100
AcDbText
  0
TEXT
  5
C7D
100
AcDbEntity
  8
TEXT
100
AcDbText
 10
26.067279
 20
1.861505
 30
0.0
 40
0.065
  1
.XX  %%P .05
  7
ADESK2
100
AcDbText
  0
TEXT
  5
C7E
100
AcDbEntity
  8
TEXT
100
AcDbText
 10
26.067279
 20
1.756267
 30
0.0
 40
0.065
  1
.XXX %%P .005
  7
ADESK2
100
AcDbText
  0
TEXT
  5
C7F
100
AcDbEntity
  8
TEXT
100
AcDbText
 10
26.137916
 20
1.653744
 30
0.0
 40
0.065
  1
DO NOT SCALE DRAWING
  7
ADESK2
 72
     1
 11
26.752321
 21
1.653744
 31
0.0
100
AcDbText
  0
TEXT
  5
C80
100
AcDbEntity
  8
TEXT
100
AcDbText
 10
26.931176
 20
1.966743
 30
0.0
 40
0.065
  1
ANGULAR
  7
ADESK2
100
AcDbText
  0
TEXT
  5
C81
100
AcDbEntity
  8
TEXT
100
AcDbText
 10
26.931176
 20
1.861505
 30
0.0
 40
0.065
  1
  %%P 0.5%%D
  7
ADESK2
100
AcDbText
  0
ENDBLK
  5
C83
100
AcDbEntity
  8
TEXT
100
AcDbBlockEnd
  0
BLOCK
  5
E2E
100
AcDbEntity
  8
0
100
AcDbBlockBegin
  2
*D2
 70
    65
 10
0.0
 20
0.0
 30
0.0
  3
*D2
  1

  0
LINE
  5
E2F
100
AcDbEntity
  8
0
  6
BYBLOCK
 62
     0
100
AcDbLine
 10
454.848327
 20
310.429494
 30
0.0
 11
454.848327
 21
428.412989
 31
0.0
  0
LINE
  5
E30
100
AcDbEntity
  8
0
  6
BYBLOCK
 62
     0
100
AcDbLine
 10
459.420327
 20
423.840989
 30
0.0
 11
463.992327
 21
423.840989
 31
0.0
  0
LINE
  5
E31
100
AcDbEntity
  8
0
  6
BYBLOCK
 62
     0
100
AcDbLine
 10
392.659723
 20
423.840989
 30
0.0
 11
388.087723
 21
423.840989
 31
0.0
  0
SOLID
  5
E32
100
AcDbEntity
  8
0
  6
BYBLOCK
 62
     0
100
AcDbTrace
 10
459.420327
 20
424.602989
 30
0.0
 11
459.420327
 21
423.078989
 31
0.0
 12
454.848327
 22
423.840989
 32
0.0
 13
454.848327
 23
423.840989
 33
0.0
  0
SOLID
  5
E33
100
AcDbEntity
  8
0
  6
BYBLOCK
 62
     0
100
AcDbTrace
 10
392.659723
 20
424.602989
 30
0.0
 11
392.659723
 21
423.078989
 31
0.0
 12
397.231723
 22
423.840989
 32
0.0
 13
397.231723
 23
423.840989
 33
0.0
  0
MTEXT
  5
E34
100
AcDbEntity
  8
0
  6
BYBLOCK
 62
     0
100
AcDbMText
 10
357.607723
 20
423.840989
 30
0.0
 40
4.572
 41
0.0
 71
     5
 72
     1
  1
\A1;57.62mm[2.268"]
  0
POINT
  5
E35
100
AcDbEntity
  8
DEFPOINTS
  6
BYBLOCK
 62
     0
100
AcDbPoint
 10
454.848327
 20
308.841994
 30
0.0
  0
POINT
  5
E36
100
AcDbEntity
  8
DEFPOINTS
  6
BYBLOCK
 62
     0
100
AcDbPoint
 10
397.231723
 20
517.298496
 30
0.0
  0
POINT
  5
E37
100
AcDbEntity
  8
DEFPOINTS
  6
BYBLOCK
 62
     0
100
AcDbPoint
 10
397.231723
 20
423.840989
 30
0.0
  0
ENDBLK
  5
E38
100
AcDbEntity
  8
0
100
AcDbBlockEnd
  0
BLOCK
  5
E3B
100
AcDbEntity
  8
0
100
AcDbBlockBegin
  2
*D3
 70
    65
 10
0.0
 20
0.0
 30
0.0
  3
*D3
  1

  0
LINE
  5
E3C
100
AcDbEntity
  8
0
  6
BYBLOCK
 62
     0
100
AcDbLine
 10
518.13571
 20
310.429494
 30
0.0
 11
518.13571
 21
442.107165
 31
0.0
  0
LINE
  5
E3D
100
AcDbEntity
  8
0
  6
BYBLOCK
 62
     0
100
AcDbLine
 10
513.56371
 20
437.535165
 30
0.0
 11
488.544716
 21
437.535165
 31
0.0
  0
LINE
  5
E3E
100
AcDbEntity
  8
0
  6
BYBLOCK
 62
     0
100
AcDbLine
 10
401.803723
 20
437.535165
 30
0.0
 11
426.822716
 21
437.535165
 31
0.0
  0
SOLID
  5
E3F
100
AcDbEntity
  8
0
  6
BYBLOCK
 62
     0
100
AcDbTrace
 10
513.56371
 20
438.297165
 30
0.0
 11
513.56371
 21
436.773165
 31
0.0
 12
518.13571
 22
437.535165
 32
0.0
 13
518.13571
 23
437.535165
 33
0.0
  0
SOLID
  5
E40
100
AcDbEntity
  8
0
  6
BYBLOCK
 62
     0
100
AcDbTrace
 10
401.803723
 20
438.297165
 30
0.0
 11
401.803723
 21
436.773165
 31
0.0
 12
397.231723
 22
437.535165
 32
0.0
 13
397.231723
 23
437.535165
 33
0.0
  0
MTEXT
  5
E41
100
AcDbEntity
  8
0
  6
BYBLOCK
 62
     0
100
AcDbMText
 10
457.683716
 20
437.535165
 30
0.0
 40
4.572
 41
0.0
 71
     5
 72
     1
  1
\A1;120.90mm[4.760"]
  0
POINT
  5
E42
100
AcDbEntity
  8
DEFPOINTS
  6
BYBLOCK
 62
     0
100
AcDbPoint
 10
518.13571
 20
308.841994
 30
0.0
  0
POINT
  5
E43
100
AcDbEntity
  8
DEFPOINTS
  6
BYBLOCK
 62
     0
100
AcDbPoint
 10
397.231723
 20
517.298496
 30
0.0
  0
POINT
  5
E44
100
AcDbEntity
  8
DEFPOINTS
  6
BYBLOCK
 62
     0
100
AcDbPoint
 10
397.231723
 20
437.535165
 30
0.0
  0
ENDBLK
  5
E45
100
AcDbEntity
  8
0
100
AcDbBlockEnd
  0
BLOCK
  5
E48
100
AcDbEntity
  8
0
100
AcDbBlockBegin
  2
*D4
 70
    65
 10
0.0
 20
0.0
 30
0.0
  3
*D4
  1

  0
LINE
  5
E49
100
AcDbEntity
  8
0
  6
BYBLOCK
 62
     0
100
AcDbLine
 10
522.13571
 20
310.429494
 30
0.0
 11
522.13571
 21
455.420946
 31
0.0
  0
LINE
  5
E4A
100
AcDbEntity
  8
0
  6
BYBLOCK
 62
     0
100
AcDbLine
 10
517.56371
 20
450.848946
 30
0.0
 11
490.544716
 21
450.848946
 31
0.0
  0
LINE
  5
E4B
100
AcDbEntity
  8
0
  6
BYBLOCK
 62
     0
100
AcDbLine
 10
401.803723
 20
450.848946
 30
0.0
 11
428.822716
 21
450.848946
 31
0.0
  0
SOLID
  5
E4C
100
AcDbEntity
  8
0
  6
BYBLOCK
 62
     0
100
AcDbTrace
 10
517.56371
 20
451.610946
 30
0.0
 11
517.56371
 21
450.086946
 31
0.0
 12
522.13571
 22
450.848946
 32
0.0
 13
522.13571
 23
450.848946
 33
0.0
  0
SOLID
  5
E4D
100
AcDbEntity
  8
0
  6
BYBLOCK
 62
     0
100
AcDbTrace
 10
401.803723
 20
451.610946
 30
0.0
 11
401.803723
 21
450.086946
 31
0.0
 12
397.231723
 22
450.848946
 32
0.0
 13
397.231723
 23
450.848946
 33
0.0
  0
MTEXT
  5
E4E
100
AcDbEntity
  8
0
  6
BYBLOCK
 62
     0
100
AcDbMText
 10
459.683716
 20
450.848946
 30
0.0
 40
4.572
 41
0.0
 71
     5
 72
     1
  1
\A1;124.90mm[4.917"]
  0
POINT
  5
E4F
100
AcDbEntity
  8
DEFPOINTS
  6
BYBLOCK
 62
     0
100
AcDbPoint
 10
522.13571
 20
308.841994
 30
0.0
  0
POINT
  5
E50
100
AcDbEntity
  8
DEFPOINTS
  6
BYBLOCK
 62
     0
100
AcDbPoint
 10
397.231723
 20
517.298496
 30
0.0
  0
POINT
  5
E51
100
AcDbEntity
  8
DEFPOINTS
  6
BYBLOCK
 62
     0
100
AcDbPoint
 10
397.231723
 20
450.848946
 30
0.0
  0
ENDBLK
  5
E52
100
AcDbEntity
  8
0
100
AcDbBlockEnd
  0
BLOCK
  5
E55
100
AcDbEntity
  8
0
100
AcDbBlockBegin
  2
*D5
 70
    65
 10
0.0
 20
0.0
 30
0.0
  3
*D5
  1

  0
LINE
  5
E56
100
AcDbEntity
  8
0
  6
BYBLOCK
 62
     0
100
AcDbLine
 10
585.82071
 20
310.429494
 30
0.0
 11
585.82071
 21
468.734727
 31
0.0
  0
LINE
  5
E57
100
AcDbEntity
  8
0
  6
BYBLOCK
 62
     0
100
AcDbLine
 10
581.24871
 20
464.162727
 30
0.0
 11
523.530216
 21
464.162727
 31
0.0
  0
LINE
  5
E58
100
AcDbEntity
  8
0
  6
BYBLOCK
 62
     0
100
AcDbLine
 10
401.803723
 20
464.162727
 30
0.0
 11
459.522216
 21
464.162727
 31
0.0
  0
SOLID
  5
E59
100
AcDbEntity
  8
0
  6
BYBLOCK
 62
     0
100
AcDbTrace
 10
581.24871
 20
464.924727
 30
0.0
 11
581.24871
 21
463.400727
 31
0.0
 12
585.82071
 22
464.162727
 32
0.0
 13
585.82071
 23
464.162727
 33
0.0
  0
SOLID
  5
E5A
100
AcDbEntity
  8
0
  6
BYBLOCK
 62
     0
100
AcDbTrace
 10
401.803723
 20
464.924727
 30
0.0
 11
401.803723
 21
463.400727
 31
0.0
 12
397.231723
 22
464.162727
 32
0.0
 13
397.231723
 23
464.162727
 33
0.0
  0
MTEXT
  5
E5B
100
AcDbEntity
  8
0
  6
BYBLOCK
 62
     0
100
AcDbMText
 10
491.526216
 20
464.162727
 30
0.0
 40
4.572
 41
0.0
 71
     5
 72
     1
  1
\A1;188.59mm[7.425"]
  0
POINT
  5
E5C
100
AcDbEntity
  8
DEFPOINTS
  6
BYBLOCK
 62
     0
100
AcDbPoint
 10
585.82071
 20
308.841994
 30
0.0
  0
POINT
  5
E5D
100
AcDbEntity
  8
DEFPOINTS
  6
BYBLOCK
 62
     0
100
AcDbPoint
 10
397.231723
 20
517.298496
 30
0.0
  0
POINT
  5
E5E
100
AcDbEntity
  8
DEFPOINTS
  6
BYBLOCK
 62
     0
100
AcDbPoint
 10
397.231723
 20
464.162727
 30
0.0
  0
ENDBLK
  5
E5F
100
AcDbEntity
  8
0
100
AcDbBlockEnd
  0
BLOCK
  5
E62
100
AcDbEntity
  8
0
100
AcDbBlockBegin
  2
*D6
 70
    65
 10
0.0
 20
0.0
 30
0.0
  3
*D6
  1

  0
LINE
  5
E63
100
AcDbEntity
  8
0
  6
BYBLOCK
 62
     0
100
AcDbLine
 10
589.82071
 20
310.429494
 30
0.0
 11
589.82071
 21
481.668115
 31
0.0
  0
LINE
  5
E64
100
AcDbEntity
  8
0
  6
BYBLOCK
 62
     0
100
AcDbLine
 10
585.24871
 20
477.096115
 30
0.0
 11
525.530216
 21
477.096115
 31
0.0
  0
LINE
  5
E65
100
AcDbEntity
  8
0
  6
BYBLOCK
 62
     0
100
AcDbLine
 10
401.803723
 20
477.096115
 30
0.0
 11
461.522216
 21
477.096115
 31
0.0
  0
SOLID
  5
E66
100
AcDbEntity
  8
0
  6
BYBLOCK
 62
     0
100
AcDbTrace
 10
585.24871
 20
477.858115
 30
0.0
 11
585.24871
 21
476.334115
 31
0.0
 12
589.82071
 22
477.096115
 32
0.0
 13
589.82071
 23
477.096115
 33
0.0
  0
SOLID
  5
E67
100
AcDbEntity
  8
0
  6
BYBLOCK
 62
     0
100
AcDbTrace
 10
401.803723
 20
477.858115
 30
0.0
 11
401.803723
 21
476.334115
 31
0.0
 12
397.231723
 22
477.096115
 32
0.0
 13
397.231723
 23
477.096115
 33
0.0
  0
MTEXT
  5
E68
100
AcDbEntity
  8
0
  6
BYBLOCK
 62
     0
100
AcDbMText
 10
493.526216
 20
477.096115
 30
0.0
 40
4.572
 41
0.0
 71
     5
 72
     1
  1
\A1;192.59mm[7.582"]
  0
POINT
  5
E69
100
AcDbEntity
  8
DEFPOINTS
  6
BYBLOCK
 62
     0
100
AcDbPoint
 10
589.82071
 20
308.841994
 30
0.0
  0
POINT
  5
E6A
100
AcDbEntity
  8
DEFPOINTS
  6
BYBLOCK
 62
     0
100
AcDbPoint
 10
397.231723
 20
517.298496
 30
0.0
  0
POINT
  5
E6B
100
AcDbEntity
  8
DEFPOINTS
  6
BYBLOCK
 62
     0
100
AcDbPoint
 10
397.231723
 20
477.096115
 30
0.0
  0
ENDBLK
  5
E6C
100
AcDbEntity
  8
0
100
AcDbBlockEnd
  0
BLOCK
  5
1045
100
AcDbEntity
  8
0
100
AcDbBlockBegin
  2
*D7
 70
    65
 10
0.0
 20
0.0
 30
0.0
  3
*D7
  1

  0
LINE
  5
1046
100
AcDbEntity
  8
0
  6
BYBLOCK
 62
     0
100
AcDbLine
 10
600.652311
 20
317.180031
 30
0.0
 11
600.652311
 21
507.668177
 31
0.0
  0
LINE
  5
1047
100
AcDbEntity
  8
0
  6
BYBLOCK
 62
     0
100
AcDbLine
 10
596.080311
 20
503.096177
 30
0.0
 11
505.162305
 21
503.096177
 31
0.0
  0
LINE
  5
1048
100
AcDbEntity
  8
0
  6
BYBLOCK
 62
     0
100
AcDbLine
 10
347.9503
 20
503.096177
 30
0.0
 11
438.868305
 21
503.096177
 31
0.0
  0
SOLID
  5
1049
100
AcDbEntity
  8
0
  6
BYBLOCK
 62
     0
100
AcDbTrace
 10
596.080311
 20
503.858177
 30
0.0
 11
596.080311
 21
502.334177
 31
0.0
 12
600.652311
 22
503.096177
 32
0.0
 13
600.652311
 23
503.096177
 33
0.0
  0
SOLID
  5
104A
100
AcDbEntity
  8
0
  6
BYBLOCK
 62
     0
100
AcDbTrace
 10
347.9503
 20
503.858177
 30
0.0
 11
347.9503
 21
502.334177
 31
0.0
 12
343.3783
 22
503.096177
 32
0.0
 13
343.3783
 23
503.096177
 33
0.0
  0
MTEXT
  5
104B
100
AcDbEntity
  8
0
  6
BYBLOCK
 62
     0
100
AcDbMText
 10
472.015305
 20
503.096177
 30
0.0
 40
4.572
 41
0.0
 71
     5
 72
     1
  1
\A1;257.27mm[10.129"]
  0
POINT
  5
104C
100
AcDbEntity
  8
DEFPOINTS
  6
BYBLOCK
 62
     0
100
AcDbPoint
 10
600.652311
 20
315.592531
 30
0.0
  0
POINT
  5
104D
100
AcDbEntity
  8
DEFPOINTS
  6
BYBLOCK
 62
     0
100
AcDbPoint
 10
343.3783
 20
517.298496
 30
0.0
  0
POINT
  5
104E
100
AcDbEntity
  8
DEFPOINTS
  6
BYBLOCK
 62
     0
100
AcDbPoint
 10
343.3783
 20
503.096177
 30
0.0
  0
ENDBLK
  5
104F
100
AcDbEntity
  8
0
100
AcDbBlockEnd
  0
BLOCK
  5
1069
100
AcDbEntity
  8
0
100
AcDbBlockBegin
  2
*D8
 70
    65
 10
0.0
 20
0.0
 30
0.0
  3
*D8
  1

  0
LINE
  5
106A
100
AcDbEntity
  8
0
  6
BYBLOCK
 62
     0
100
AcDbLine
 10
602.239811
 20
315.592531
 30
0.0
 11
787.789748
 21
315.592531
 31
0.0
  0
LINE
  5
106B
100
AcDbEntity
  8
0
  6
BYBLOCK
 62
     0
100
AcDbLine
 10
783.217748
 20
311.020531
 30
0.0
 11
783.217748
 21
308.179521
 31
0.0
  0
LINE
  5
106C
100
AcDbEntity
  8
0
  6
BYBLOCK
 62
     0
100
AcDbLine
 10
783.217748
 20
296.194511
 30
0.0
 11
783.217748
 21
299.035521
 31
0.0
  0
SOLID
  5
106D
100
AcDbEntity
  8
0
  6
BYBLOCK
 62
     0
100
AcDbTrace
 10
782.455748
 20
311.020531
 30
0.0
 11
783.979748
 21
311.020531
 31
0.0
 12
783.217748
 22
315.592531
 32
0.0
 13
783.217748
 23
315.592531
 33
0.0
  0
SOLID
  5
106E
100
AcDbEntity
  8
0
  6
BYBLOCK
 62
     0
100
AcDbTrace
 10
782.455748
 20
296.194511
 30
0.0
 11
783.979748
 21
296.194511
 31
0.0
 12
783.217748
 22
291.622511
 32
0.0
 13
783.217748
 23
291.622511
 33
0.0
  0
MTEXT
  5
106F
100
AcDbEntity
  8
0
  6
BYBLOCK
 62
     0
100
AcDbMText
 10
783.217748
 20
303.607521
 30
0.0
 40
4.572
 41
0.0
 71
     5
 72
     1
  1
\A1;23.97mm[0.944"]
  0
POINT
  5
1070
100
AcDbEntity
  8
DEFPOINTS
  6
BYBLOCK
 62
     0
100
AcDbPoint
 10
600.652311
 20
315.592531
 30
0.0
  0
POINT
  5
1071
100
AcDbEntity
  8
DEFPOINTS
  6
BYBLOCK
 62
     0
100
AcDbPoint
 10
800.299086
 20
291.622511
 30
0.0
  0
POINT
  5
1072
100
AcDbEntity
  8
DEFPOINTS
  6
BYBLOCK
 62
     0
100
AcDbPoint
 10
783.217748
 20
291.622511
 30
0.0
  0
ENDBLK
  5
1073
100
AcDbEntity
  8
0
100
AcDbBlockEnd
  0
BLOCK
  5
105D
100
AcDbEntity
  8
0
100
AcDbBlockBegin
  2
*D9
 70
    65
 10
0.0
 20
0.0
 30
0.0
  3
*D9
  1

  0
LINE
  5
105E
100
AcDbEntity
  8
0
  6
BYBLOCK
 62
     0
100
AcDbLine
 10
602.239811
 20
305.592531
 30
0.0
 11
748.475135
 21
305.592531
 31
0.0
  0
LINE
  5
105F
100
AcDbEntity
  8
0
  6
BYBLOCK
 62
     0
100
AcDbLine
 10
743.903135
 20
310.164531
 30
0.0
 11
743.903135
 21
314.736531
 31
0.0
  0
LINE
  5
1060
100
AcDbEntity
  8
0
  6
BYBLOCK
 62
     0
100
AcDbLine
 10
743.903135
 20
287.050511
 30
0.0
 11
743.903135
 21
282.478511
 31
0.0
  0
LINE
  5
1061
100
AcDbEntity
  8
0
  6
BYBLOCK
 62
     0
100
AcDbLine
 10
743.903135
 20
282.478511
 30
0.0
 11
739.331135
 21
282.478511
 31
0.0
  0
SOLID
  5
1062
100
AcDbEntity
  8
0
  6
BYBLOCK
 62
     0
100
AcDbTrace
 10
743.141135
 20
310.164531
 30
0.0
 11
744.665135
 21
310.164531
 31
0.0
 12
743.903135
 22
305.592531
 32
0.0
 13
743.903135
 23
305.592531
 33
0.0
  0
SOLID
  5
1063
100
AcDbEntity
  8
0
  6
BYBLOCK
 62
     0
100
AcDbTrace
 10
743.141135
 20
287.050511
 30
0.0
 11
744.665135
 21
287.050511
 31
0.0
 12
743.903135
 22
291.622511
 32
0.0
 13
743.903135
 23
291.622511
 33
0.0
  0
MTEXT
  5
1064
100
AcDbEntity
  8
0
  6
BYBLOCK
 62
     0
100
AcDbMText
 10
679.361735
 20
282.478511
 30
0.0
 40
4.572
 41
0.0
 71
     5
 72
     1
  1
\A1;13.97mm\S+0.05mm^  0.00mm;{\o\l\H10.972800;[}0.550"\S+0.002"^  0.000";{\o\l\H10.972800;]}
  0
POINT
  5
1065
100
AcDbEntity
  8
DEFPOINTS
  6
BYBLOCK
 62
     0
100
AcDbPoint
 10
600.652311
 20
305.592531
 30
0.0
  0
POINT
  5
1066
100
AcDbEntity
  8
DEFPOINTS
  6
BYBLOCK
 62
     0
100
AcDbPoint
 10
800.299086
 20
291.622511
 30
0.0
  0
POINT
  5
1067
100
AcDbEntity
  8
DEFPOINTS
  6
BYBLOCK
 62
     0
100
AcDbPoint
 10
743.903135
 20
291.622511
 30
0.0
  0
ENDBLK
  5
1068
100
AcDbEntity
  8
0
100
AcDbBlockEnd
  0
BLOCK
  5
EAE
100
AcDbEntity
  8
0
100
AcDbBlockBegin
  2
*D10
 70
    65
 10
0.0
 20
0.0
 30
0.0
  3
*D10
  1

  0
LINE
  5
EAF
100
AcDbEntity
  8
0
  6
BYBLOCK
 62
     0
100
AcDbLine
 10
450.298899
 20
317.074589
 30
0.0
 11
413.983704
 21
411.678906
 31
0.0
  0
LINE
  5
EB0
100
AcDbEntity
  8
0
  6
BYBLOCK
 62
     0
100
AcDbLine
 10
419.890492
 20
409.049034
 30
0.0
 11
424.158822
 21
410.687493
 31
0.0
  0
LINE
  5
EB1
100
AcDbEntity
  8
0
  6
BYBLOCK
 62
     0
100
AcDbLine
 10
356.586564
 20
384.748933
 30
0.0
 11
352.318234
 21
383.110475
 31
0.0
  0
SOLID
  5
EB2
100
AcDbEntity
  8
0
  6
BYBLOCK
 62
     0
100
AcDbTrace
 10
419.617416
 20
409.760423
 30
0.0
 11
420.163569
 21
408.337646
 31
0.0
 12
415.622163
 22
407.410576
 32
0.0
 13
415.622163
 23
407.410576
 33
0.0
  0
SOLID
  5
EB3
100
AcDbEntity
  8
0
  6
BYBLOCK
 62
     0
100
AcDbTrace
 10
356.313487
 20
385.460321
 30
0.0
 11
356.85964
 21
384.037545
 31
0.0
 12
360.854894
 22
386.387391
 32
0.0
 13
360.854894
 23
386.387391
 33
0.0
  0
MTEXT
  5
EB4
100
AcDbEntity
  8
0
  6
BYBLOCK
 62
     0
100
AcDbMText
 10
324.929785
 20
372.597034
 30
0.0
 40
4.572
 41
0.0
 71
     5
 72
     1
  1
\A1;58.66mm[2.310"]
 11
0.93358
 21
0.358368
 31
0.0
  0
POINT
  5
EB5
100
AcDbEntity
  8
DEFPOINTS
  6
BYBLOCK
 62
     0
100
AcDbPoint
 10
450.867808
 20
315.592531
 30
0.0
 50
339.0
  0
POINT
  5
EB6
100
AcDbEntity
  8
DEFPOINTS
  6
BYBLOCK
 62
     0
100
AcDbPoint
 10
358.579348
 20
392.315391
 30
0.0
 50
339.0
  0
POINT
  5
EB7
100
AcDbEntity
  8
DEFPOINTS
  6
BYBLOCK
 62
     0
100
AcDbPoint
 10
360.854894
 20
386.387391
 30
0.0
 50
339.0
  0
ENDBLK
  5
EB8
100
AcDbEntity
  8
0
100
AcDbBlockEnd
  0
BLOCK
  5
EBB
100
AcDbEntity
  8
0
100
AcDbBlockBegin
  2
*D11
 70
    65
 10
0.0
 20
0.0
 30
0.0
  3
*D11
  1

  0
LINE
  5
EBC
100
AcDbEntity
  8
0
  6
BYBLOCK
 62
     0
100
AcDbLine
 10
451.781734
 20
309.074637
 30
0.0
 11
416.201602
 21
401.764051
 31
0.0
  0
LINE
  5
EBD
100
AcDbEntity
  8
0
  6
BYBLOCK
 62
     0
100
AcDbLine
 10
422.10839
 20
399.134179
 30
0.0
 11
426.376719
 21
400.772638
 31
0.0
  0
LINE
  5
EBE
100
AcDbEntity
  8
0
  6
BYBLOCK
 62
     0
100
AcDbLine
 10
360.188569
 20
375.365387
 30
0.0
 11
355.92024
 21
373.726929
 31
0.0
  0
SOLID
  5
EBF
100
AcDbEntity
  8
0
  6
BYBLOCK
 62
     0
100
AcDbTrace
 10
421.835313
 20
399.845568
 30
0.0
 11
422.381466
 21
398.422791
 31
0.0
 12
417.84006
 22
397.495721
 32
0.0
 13
417.84006
 23
397.495721
 33
0.0
  0
SOLID
  5
EC0
100
AcDbEntity
  8
0
  6
BYBLOCK
 62
     0
100
AcDbTrace
 10
359.915493
 20
376.076776
 30
0.0
 11
360.461646
 21
374.653999
 31
0.0
 12
364.456899
 22
377.003846
 32
0.0
 13
364.456899
 23
377.003846
 33
0.0
  0
MTEXT
  5
EC1
100
AcDbEntity
  8
0
  6
BYBLOCK
 62
     0
100
AcDbMText
 10
328.887485
 20
363.350027
 30
0.0
 40
4.572
 41
0.0
 71
     5
 72
     1
  1
\A1;57.18mm[2.251"]
 11
0.93358
 21
0.358368
 31
0.0
  0
POINT
  5
EC2
100
AcDbEntity
  8
DEFPOINTS
  6
BYBLOCK
 62
     0
100
AcDbPoint
 10
452.350643
 20
307.592578
 30
0.0
 50
339.0
  0
POINT
  5
EC3
100
AcDbEntity
  8
DEFPOINTS
  6
BYBLOCK
 62
     0
100
AcDbPoint
 10
358.579348
 20
392.315391
 30
0.0
 50
339.0
  0
POINT
  5
EC4
100
AcDbEntity
  8
DEFPOINTS
  6
BYBLOCK
 62
     0
100
AcDbPoint
 10
364.456899
 20
377.003846
 30
0.0
 50
339.0
  0
ENDBLK
  5
EC5
100
AcDbEntity
  8
0
100
AcDbBlockEnd
  0
BLOCK
  5
EC8
100
AcDbEntity
  8
0
100
AcDbBlockBegin
  2
*D12
 70
    65
 10
0.0
 20
0.0
 30
0.0
  3
*D12
  1

  0
LINE
  5
EC9
100
AcDbEntity
  8
0
  6
BYBLOCK
 62
     0
100
AcDbLine
 10
448.911126
 20
309.582989
 30
0.0
 11
417.932782
 21
390.284336
 31
0.0
  0
LINE
  5
ECA
100
AcDbEntity
  8
0
  6
BYBLOCK
 62
     0
100
AcDbLine
 10
423.83957
 20
387.654464
 30
0.0
 11
428.107899
 21
389.292922
 31
0.0
  0
LINE
  5
ECB
100
AcDbEntity
  8
0
  6
BYBLOCK
 62
     0
100
AcDbLine
 10
364.251615
 20
364.780791
 30
0.0
 11
359.983285
 21
363.142333
 31
0.0
  0
SOLID
  5
ECC
100
AcDbEntity
  8
0
  6
BYBLOCK
 62
     0
100
AcDbTrace
 10
423.566493
 20
388.365852
 30
0.0
 11
424.112646
 21
386.943076
 31
0.0
 12
419.57124
 22
386.016006
 32
0.0
 13
419.57124
 23
386.016006
 33
0.0
  0
SOLID
  5
ECD
100
AcDbEntity
  8
0
  6
BYBLOCK
 62
     0
100
AcDbTrace
 10
363.978539
 20
365.49218
 30
0.0
 11
364.524692
 21
364.069403
 31
0.0
 12
368.519945
 22
366.41925
 32
0.0
 13
368.519945
 23
366.41925
 33
0.0
  0
MTEXT
  5
ECE
100
AcDbEntity
  8
0
  6
BYBLOCK
 62
     0
100
AcDbMText
 10
332.239142
 20
352.492354
 30
0.0
 40
4.572
 41
0.0
 71
     5
 72
     1
  1
\A1;54.68mm[2.153"]
 11
0.93358
 21
0.358368
 31
0.0
  0
POINT
  5
ECF
100
AcDbEntity
  8
DEFPOINTS
  6
BYBLOCK
 62
     0
100
AcDbPoint
 10
449.480035
 20
308.10093
 30
0.0
 50
339.0
  0
POINT
  5
ED0
100
AcDbEntity
  8
DEFPOINTS
  6
BYBLOCK
 62
     0
100
AcDbPoint
 10
358.579348
 20
392.315391
 30
0.0
 50
339.0
  0
POINT
  5
ED1
100
AcDbEntity
  8
DEFPOINTS
  6
BYBLOCK
 62
     0
100
AcDbPoint
 10
368.519945
 20
366.41925
 30
0.0
 50
339.0
  0
ENDBLK
  5
ED2
100
AcDbEntity
  8
0
100
AcDbBlockEnd
  0
BLOCK
  5
ED5
100
AcDbEntity
  8
0
100
AcDbBlockBegin
  2
*D13
 70
    65
 10
0.0
 20
0.0
 30
0.0
  3
*D13
  1

  0
LINE
  5
ED6
100
AcDbEntity
  8
0
  6
BYBLOCK
 62
     0
100
AcDbLine
 10
393.48035
 20
289.433553
 30
0.0
 11
366.89291
 21
358.696201
 31
0.0
  0
LINE
  5
ED7
100
AcDbEntity
  8
0
  6
BYBLOCK
 62
     0
100
AcDbLine
 10
376.801641
 20
357.602531
 30
0.0
 11
381.069971
 21
359.240989
 31
0.0
  0
LINE
  5
ED8
100
AcDbEntity
  8
0
  6
BYBLOCK
 62
     0
100
AcDbLine
 10
364.263039
 20
352.789413
 30
0.0
 11
359.994709
 21
351.150954
 31
0.0
  0
SOLID
  5
ED9
100
AcDbEntity
  8
0
  6
BYBLOCK
 62
     0
100
AcDbTrace
 10
376.528565
 20
358.31392
 30
0.0
 11
377.074717
 21
356.891143
 31
0.0
 12
372.533311
 22
355.964073
 32
0.0
 13
372.533311
 23
355.964073
 33
0.0
  0
SOLID
  5
EDA
100
AcDbEntity
  8
0
  6
BYBLOCK
 62
     0
100
AcDbTrace
 10
363.989962
 20
353.500801
 30
0.0
 11
364.536115
 21
352.078024
 31
0.0
 12
368.531368
 22
354.427871
 32
0.0
 13
368.531368
 23
354.427871
 33
0.0
  0
MTEXT
  5
EDB
100
AcDbEntity
  8
0
  6
BYBLOCK
 62
     0
100
AcDbMText
 10
334.740425
 20
341.456743
 30
0.0
 40
4.572
 41
0.0
 71
     5
 72
     1
  1
\A1;4.29mm[0.169"]
 11
0.93358
 21
0.358368
 31
0.0
  0
POINT
  5
EDC
100
AcDbEntity
  8
DEFPOINTS
  6
BYBLOCK
 62
     0
100
AcDbPoint
 10
358.579348
 20
392.315391
 30
0.0
 50
339.0
  0
POINT
  5
EDD
100
AcDbEntity
  8
DEFPOINTS
  6
BYBLOCK
 62
     0
100
AcDbPoint
 10
394.049259
 20
287.951494
 30
0.0
 50
339.0
  0
POINT
  5
EDE
100
AcDbEntity
  8
DEFPOINTS
  6
BYBLOCK
 62
     0
100
AcDbPoint
 10
368.531368
 20
354.427871
 30
0.0
 50
339.0
  0
ENDBLK
  5
EDF
100
AcDbEntity
  8
0
100
AcDbBlockEnd
  0
BLOCK
  5
EE2
100
AcDbEntity
  8
0
100
AcDbBlockBegin
  2
*D14
 70
    65
 10
0.0
 20
0.0
 30
0.0
  3
*D14
  1

  0
LINE
  5
EE3
100
AcDbEntity
  8
0
  6
BYBLOCK
 62
     0
100
AcDbLine
 10
380.505473
 20
282.785388
 30
0.0
 11
357.133621
 21
343.671145
 31
0.0
  0
LINE
  5
EE4
100
AcDbEntity
  8
0
  6
BYBLOCK
 62
     0
100
AcDbLine
 10
380.575141
 20
347.772227
 30
0.0
 11
384.843471
 21
349.410685
 31
0.0
  0
LINE
  5
EE5
100
AcDbEntity
  8
0
  6
BYBLOCK
 62
     0
100
AcDbLine
 10
354.503749
 20
337.764357
 30
0.0
 11
350.235419
 21
336.125899
 31
0.0
  0
SOLID
  5
EE6
100
AcDbEntity
  8
0
  6
BYBLOCK
 62
     0
100
AcDbTrace
 10
380.302065
 20
348.483615
 30
0.0
 11
380.848218
 21
347.060839
 31
0.0
 12
376.306811
 22
346.133769
 32
0.0
 13
376.306811
 23
346.133769
 33
0.0
  0
SOLID
  5
EE7
100
AcDbEntity
  8
0
  6
BYBLOCK
 62
     0
100
AcDbTrace
 10
354.230673
 20
338.475745
 30
0.0
 11
354.776825
 21
337.052969
 31
0.0
 12
358.772079
 22
339.402815
 32
0.0
 13
358.772079
 23
339.402815
 33
0.0
  0
MTEXT
  5
EE8
100
AcDbEntity
  8
0
  6
BYBLOCK
 62
     0
100
AcDbMText
 10
322.84697
 20
325.612458
 30
0.0
 40
4.572
 41
0.0
 71
     5
 72
     1
  1
\A1;18.78mm[0.739"]
 11
0.93358
 21
0.358368
 31
0.0
  0
POINT
  5
EE9
100
AcDbEntity
  8
DEFPOINTS
  6
BYBLOCK
 62
     0
100
AcDbPoint
 10
358.579348
 20
392.315391
 30
0.0
 50
339.0
  0
POINT
  5
EEA
100
AcDbEntity
  8
DEFPOINTS
  6
BYBLOCK
 62
     0
100
AcDbPoint
 10
381.074382
 20
281.303329
 30
0.0
 50
339.0
  0
POINT
  5
EEB
100
AcDbEntity
  8
DEFPOINTS
  6
BYBLOCK
 62
     0
100
AcDbPoint
 10
358.772079
 20
339.402815
 30
0.0
 50
339.0
  0
ENDBLK
  5
EEC
100
AcDbEntity
  8
0
100
AcDbBlockEnd
  0
BLOCK
  5
EEF
100
AcDbEntity
  8
0
100
AcDbBlockBegin
  2
*D15
 70
    65
 10
0.0
 20
0.0
 30
0.0
  3
*D15
  1

  0
LINE
  5
EF0
100
AcDbEntity
  8
0
  6
BYBLOCK
 62
     0
100
AcDbLine
 10
360.972476
 20
282.785388
 30
0.0
 11
344.449998
 21
325.827916
 31
0.0
  0
LINE
  5
EF1
100
AcDbEntity
  8
0
  6
BYBLOCK
 62
     0
100
AcDbLine
 10
384.915939
 20
336.464061
 30
0.0
 11
389.184269
 21
338.102519
 31
0.0
  0
LINE
  5
EF2
100
AcDbEntity
  8
0
  6
BYBLOCK
 62
     0
100
AcDbLine
 10
341.820126
 20
319.921128
 30
0.0
 11
337.551797
 21
318.28267
 31
0.0
  0
SOLID
  5
EF3
100
AcDbEntity
  8
0
  6
BYBLOCK
 62
     0
100
AcDbTrace
 10
384.642863
 20
337.175449
 30
0.0
 11
385.189016
 21
335.752672
 31
0.0
 12
380.64761
 22
334.825602
 32
0.0
 13
380.64761
 23
334.825602
 33
0.0
  0
SOLID
  5
EF4
100
AcDbEntity
  8
0
  6
BYBLOCK
 62
     0
100
AcDbTrace
 10
341.54705
 20
320.632516
 30
0.0
 11
342.093203
 21
319.20974
 31
0.0
 12
346.088456
 22
321.559586
 32
0.0
 13
346.088456
 23
321.559586
 33
0.0
  0
MTEXT
  5
EF5
100
AcDbEntity
  8
0
  6
BYBLOCK
 62
     0
100
AcDbMText
 10
310.163348
 20
307.769229
 30
0.0
 40
4.572
 41
0.0
 71
     5
 72
     1
  1
\A1;37.02mm[1.457"]
 11
0.93358
 21
0.358368
 31
0.0
  0
POINT
  5
EF6
100
AcDbEntity
  8
DEFPOINTS
  6
BYBLOCK
 62
     0
100
AcDbPoint
 10
358.579348
 20
392.315391
 30
0.0
 50
339.0
  0
POINT
  5
EF7
100
AcDbEntity
  8
DEFPOINTS
  6
BYBLOCK
 62
     0
100
AcDbPoint
 10
361.541385
 20
281.303329
 30
0.0
 50
339.0
  0
POINT
  5
EF8
100
AcDbEntity
  8
DEFPOINTS
  6
BYBLOCK
 62
     0
100
AcDbPoint
 10
346.088456
 20
321.559586
 30
0.0
 50
339.0
  0
ENDBLK
  5
EF9
100
AcDbEntity
  8
0
100
AcDbBlockEnd
  0
BLOCK
  5
EFC
100
AcDbEntity
  8
0
100
AcDbBlockBegin
  2
*D16
 70
    65
 10
0.0
 20
0.0
 30
0.0
  3
*D16
  1

  0
LINE
  5
EFD
100
AcDbEntity
  8
0
  6
BYBLOCK
 62
     0
100
AcDbLine
 10
396.067378
 20
283.845166
 30
0.0
 11
355.521108
 21
268.280912
 31
0.0
  0
LINE
  5
EFE
100
AcDbEntity
  8
0
  6
BYBLOCK
 62
     0
100
AcDbLine
 10
355.698484
 20
280.576669
 30
0.0
 11
354.060025
 21
284.844999
 31
0.0
  0
LINE
  5
EFF
100
AcDbEntity
  8
0
  6
BYBLOCK
 62
     0
100
AcDbLine
 10
361.427896
 20
265.65104
 30
0.0
 11
363.066354
 21
261.38271
 31
0.0
  0
LINE
  5
F00
100
AcDbEntity
  8
0
  6
BYBLOCK
 62
     0
100
AcDbLine
 10
363.066354
 20
261.38271
 30
0.0
 11
358.798025
 21
259.744252
 31
0.0
  0
SOLID
  5
F01
100
AcDbEntity
  8
0
  6
BYBLOCK
 62
     0
100
AcDbTrace
 10
354.987095
 20
280.303593
 30
0.0
 11
356.409872
 21
280.849746
 31
0.0
 12
357.336942
 22
276.30834
 32
0.0
 13
357.336942
 23
276.30834
 33
0.0
  0
SOLID
  5
F02
100
AcDbEntity
  8
0
  6
BYBLOCK
 62
     0
100
AcDbTrace
 10
360.716508
 20
265.377964
 30
0.0
 11
362.139284
 21
265.924117
 31
0.0
 12
359.789438
 22
269.91937
 32
0.0
 13
359.789438
 23
269.91937
 33
0.0
  0
MTEXT
  5
F03
100
AcDbEntity
  8
0
  6
BYBLOCK
 62
     0
100
AcDbMText
 10
303.878849
 20
238.662756
 30
0.0
 40
4.572
 41
0.0
 71
     5
 72
     1
  1
\A1;6.84mm\S 0.00mm^ -0.05mm;{\o\l\H10.972800;[}0.269"\S 0.000"^ -0.002";{\o\l\H10.972800;]}
 11
0.93358
 21
0.358368
 31
0.0
  0
POINT
  5
F04
100
AcDbEntity
  8
DEFPOINTS
  6
BYBLOCK
 62
     0
100
AcDbPoint
 10
495.494732
 20
329.342146
 30
0.0
 50
339.0
  0
POINT
  5
F05
100
AcDbEntity
  8
DEFPOINTS
  6
BYBLOCK
 62
     0
100
AcDbPoint
 10
397.549436
 20
284.414075
 30
0.0
 50
339.0
  0
POINT
  5
F06
100
AcDbEntity
  8
DEFPOINTS
  6
BYBLOCK
 62
     0
100
AcDbPoint
 10
359.789438
 20
269.91937
 30
0.0
 50
339.0
  0
ENDBLK
  5
F07
100
AcDbEntity
  8
0
100
AcDbBlockEnd
  0
BLOCK
  5
F0A
100
AcDbEntity
  8
0
100
AcDbBlockBegin
  2
*D17
 70
    65
 10
0.0
 20
0.0
 30
0.0
  3
*D17
  1

  0
LINE
  5
F0B
100
AcDbEntity
  8
0
  6
BYBLOCK
 62
     0
100
AcDbLine
 10
379.592323
 20
280.73442
 30
0.0
 11
232.813702
 21
224.391387
 31
0.0
  0
LINE
  5
F0C
100
AcDbEntity
  8
0
  6
BYBLOCK
 62
     0
100
AcDbLine
 10
234.066182
 20
233.886403
 30
0.0
 11
232.427723
 21
238.154733
 31
0.0
  0
LINE
  5
F0D
100
AcDbEntity
  8
0
  6
BYBLOCK
 62
     0
100
AcDbLine
 10
238.72049
 20
221.761515
 30
0.0
 11
240.358948
 21
217.493185
 31
0.0
  0
LINE
  5
F0E
100
AcDbEntity
  8
0
  6
BYBLOCK
 62
     0
100
AcDbLine
 10
240.358948
 20
217.493185
 30
0.0
 11
236.090619
 21
215.854727
 31
0.0
  0
SOLID
  5
F0F
100
AcDbEntity
  8
0
  6
BYBLOCK
 62
     0
100
AcDbTrace
 10
233.354793
 20
233.613327
 30
0.0
 11
234.77757
 21
234.15948
 31
0.0
 12
235.70464
 22
229.618073
 32
0.0
 13
235.70464
 23
229.618073
 33
0.0
  0
SOLID
  5
F10
100
AcDbEntity
  8
0
  6
BYBLOCK
 62
     0
100
AcDbTrace
 10
238.009102
 20
221.488439
 30
0.0
 11
239.431878
 21
222.034592
 31
0.0
 12
237.082032
 22
226.029845
 32
0.0
 13
237.082032
 23
226.029845
 33
0.0
  0
MTEXT
  5
F11
100
AcDbEntity
  8
0
  6
BYBLOCK
 62
     0
100
AcDbMText
 10
211.547723
 20
206.433592
 30
0.0
 40
4.572
 41
0.0
 71
     5
 72
     1
  1
\A1;3.84mm[0.151"]
 11
0.93358
 21
0.358368
 31
0.0
  0
POINT
  5
F12
100
AcDbEntity
  8
DEFPOINTS
  6
BYBLOCK
 62
     0
100
AcDbPoint
 10
495.494732
 20
329.342146
 30
0.0
 50
339.0
  0
POINT
  5
F13
100
AcDbEntity
  8
DEFPOINTS
  6
BYBLOCK
 62
     0
100
AcDbPoint
 10
381.074382
 20
281.303329
 30
0.0
 50
339.0
  0
POINT
  5
F14
100
AcDbEntity
  8
DEFPOINTS
  6
BYBLOCK
 62
     0
100
AcDbPoint
 10
237.082032
 20
226.029845
 30
0.0
 50
339.0
  0
ENDBLK
  5
F15
100
AcDbEntity
  8
0
100
AcDbBlockEnd
  0
BLOCK
  5
F25
100
AcDbEntity
  8
0
100
AcDbBlockBegin
  2
*D18
 70
    65
 10
0.0
 20
0.0
 30
0.0
  3
*D18
  1

  0
LINE
  5
F26
100
AcDbEntity
  8
0
  6
BYBLOCK
 62
     0
100
AcDbLine
 10
360.059326
 20
280.73442
 30
0.0
 11
172.669925
 21
208.802369
 31
0.0
  0
LINE
  5
F27
100
AcDbEntity
  8
0
  6
BYBLOCK
 62
     0
100
AcDbLine
 10
175.299797
 20
214.709157
 30
0.0
 11
173.661338
 21
218.977486
 31
0.0
  0
LINE
  5
F28
100
AcDbEntity
  8
0
  6
BYBLOCK
 62
     0
100
AcDbLine
 10
179.707897
 20
203.225663
 30
0.0
 11
181.346355
 21
198.957333
 31
0.0
  0
LINE
  5
F29
100
AcDbEntity
  8
0
  6
BYBLOCK
 62
     0
100
AcDbLine
 10
181.346355
 20
198.957333
 30
0.0
 11
177.078025
 21
197.318875
 31
0.0
  0
SOLID
  5
F2A
100
AcDbEntity
  8
0
  6
BYBLOCK
 62
     0
100
AcDbTrace
 10
174.588408
 20
214.43608
 30
0.0
 11
176.011185
 21
214.982233
 31
0.0
 12
176.938255
 22
210.440827
 32
0.0
 13
176.938255
 23
210.440827
 33
0.0
  0
SOLID
  5
F2B
100
AcDbEntity
  8
0
  6
BYBLOCK
 62
     0
100
AcDbTrace
 10
178.996509
 20
202.952586
 30
0.0
 11
180.419285
 21
203.498739
 31
0.0
 12
178.069439
 22
207.493993
 32
0.0
 13
178.069439
 23
207.493993
 33
0.0
  0
MTEXT
  5
F2C
100
AcDbEntity
  8
0
  6
BYBLOCK
 62
     0
100
AcDbMText
 10
152.53513
 20
187.89774
 30
0.0
 40
4.572
 41
0.0
 71
     5
 72
     1
  1
\A1;3.16mm[0.124"]
 11
0.93358
 21
0.358368
 31
0.0
  0
POINT
  5
F2D
100
AcDbEntity
  8
DEFPOINTS
  6
BYBLOCK
 62
     0
100
AcDbPoint
 10
361.541385
 20
281.303329
 30
0.0
 50
339.0
  0
POINT
  5
F2E
100
AcDbEntity
  8
DEFPOINTS
  6
BYBLOCK
 62
     0
100
AcDbPoint
 10
120.179517
 20
185.272134
 30
0.0
 50
339.0
  0
POINT
  5
F2F
100
AcDbEntity
  8
DEFPOINTS
  6
BYBLOCK
 62
     0
100
AcDbPoint
 10
178.069439
 20
207.493993
 30
0.0
 50
339.0
  0
ENDBLK
  5
F30
100
AcDbEntity
  8
0
100
AcDbBlockEnd
  0
BLOCK
  5
1082
100
AcDbEntity
  8
0
100
AcDbBlockBegin
  2
*D19
 70
    65
 10
0.0
 20
0.0
 30
0.0
  3
*D19
  1

  0
LINE
  5
1083
100
AcDbEntity
  8
0
  6
BYBLOCK
 62
     0
100
AcDbLine
 10
347.523846
 20
287.619689
 30
0.0
 11
378.500319
 21
257.709685
 31
0.0
  0
LINE
  5
1084
100
AcDbEntity
  8
0
  6
BYBLOCK
 62
     0
100
AcDbLine
 10
378.500319
 20
257.709685
 30
0.0
 11
383.072319
 21
257.709685
 31
0.0
  0
SOLID
  5
1085
100
AcDbEntity
  8
0
  6
BYBLOCK
 62
     0
100
AcDbTrace
 10
348.053142
 20
288.167858
 30
0.0
 11
346.994549
 21
287.07152
 31
0.0
 12
344.234832
 22
290.795468
 32
0.0
 13
344.234832
 23
290.795468
 33
0.0
  0
MTEXT
  5
1086
100
AcDbEntity
  8
0
  6
BYBLOCK
 62
     0
100
AcDbMText
 10
440.603319
 20
257.709685
 30
0.0
 40
4.572
 41
0.0
 71
     5
 72
     1
  1
\A1;{\U+22052.38mm±0.03mm[\U+22050.094"±0.001"]}\P{2X}
  0
LINE
  5
1087
100
AcDbEntity
  8
0
  6
BYBLOCK
 62
     0
100
AcDbLine
 10
341.0923
 20
291.622511
 30
0.0
 11
345.6643
 21
291.622511
 31
0.0
  0
LINE
  5
1088
100
AcDbEntity
  8
0
  6
BYBLOCK
 62
     0
100
AcDbLine
 10
343.3783
 20
289.336511
 30
0.0
 11
343.3783
 21
293.908511
 31
0.0
  0
POINT
  5
1089
100
AcDbEntity
  8
DEFPOINTS
  6
BYBLOCK
 62
     0
100
AcDbPoint
 10
344.234832
 20
290.795468
 30
0.0
  0
POINT
  5
108A
100
AcDbEntity
  8
DEFPOINTS
  6
BYBLOCK
 62
     0
100
AcDbPoint
 10
342.521767
 20
292.449554
 30
0.0
  0
ENDBLK
  5
108B
100
AcDbEntity
  8
0
100
AcDbBlockEnd
  0
BLOCK
  5
F3E
100
AcDbEntity
  8
0
100
AcDbBlockBegin
  2
*D20
 70
    65
 10
0.0
 20
0.0
 30
0.0
  3
*D20
  1

  0
ARC
  5
F3F
100
AcDbEntity
  8
0
  6
BYBLOCK
 62
     0
100
AcDbCircle
 10
397.231723
 20
291.622511
 30
0.0
 40
121.118788
100
AcDbArc
 50
272.162933
 51
275.040815
  0
ARC
  5
F40
100
AcDbEntity
  8
0
  6
BYBLOCK
 62
     0
100
AcDbCircle
 10
397.231723
 20
291.622511
 30
0.0
 40
121.118788
100
AcDbArc
 50
286.057726
 51
288.837067
  0
SOLID
  5
F41
100
AcDbEntity
  8
0
  6
BYBLOCK
 62
     0
100
AcDbTrace
 10
401.81729
 20
169.828151
 30
0.0
 11
401.788526
 21
171.35188
 31
0.0
 12
397.231723
 22
170.503723
 32
0.0
 13
397.231723
 23
170.503723
 33
0.0
  0
SOLID
  5
F42
100
AcDbEntity
  8
0
  6
BYBLOCK
 62
     0
100
AcDbTrace
 10
436.07872
 20
177.707191
 30
0.0
 11
436.597922
 21
176.27436
 31
0.0
 12
440.636814
 22
178.548381
 32
0.0
 13
440.636814
 23
178.548381
 33
0.0
  0
MTEXT
  5
F43
100
AcDbEntity
  8
0
  6
BYBLOCK
 62
     0
100
AcDbMText
 10
419.303869
 20
172.531868
 30
0.0
 40
4.572
 41
0.0
 71
     5
 72
     1
  1
\A1;21.00°
  0
POINT
  5
F44
100
AcDbEntity
  8
DEFPOINTS
  6
BYBLOCK
 62
     0
100
AcDbPoint
 10
411.99239
 20
171.406524
 30
0.0
  0
POINT
  5
F45
100
AcDbEntity
  8
DEFPOINTS
  6
BYBLOCK
 62
     0
100
AcDbPoint
 10
397.231723
 20
161.293268
 30
0.0
  0
POINT
  5
F46
100
AcDbEntity
  8
DEFPOINTS
  6
BYBLOCK
 62
     0
100
AcDbPoint
 10
446.531473
 20
163.19227
 30
0.0
  0
POINT
  5
F47
100
AcDbEntity
  8
DEFPOINTS
  6
BYBLOCK
 62
     0
100
AcDbPoint
 10
358.579348
 20
392.315391
 30
0.0
  0
POINT
  5
F48
100
AcDbEntity
  8
DEFPOINTS
  6
BYBLOCK
 62
     0
100
AcDbPoint
 10
397.231723
 20
517.298496
 30
0.0
  0
ENDBLK
  5
F49
100
AcDbEntity
  8
0
100
AcDbBlockEnd
  0
BLOCK
  5
1002
100
AcDbEntity
  8
0
100
AcDbBlockBegin
  2
*D21
 70
    65
 10
0.0
 20
0.0
 30
0.0
  3
*D21
  1

  0
LINE
  5
1003
100
AcDbEntity
  8
0
  6
BYBLOCK
 62
     0
100
AcDbLine
 10
605.853391
 20
189.756071
 30
0.0
 11
605.853391
 21
227.148575
 31
0.0
  0
LINE
  5
1004
100
AcDbEntity
  8
0
  6
BYBLOCK
 62
     0
100
AcDbLine
 10
604.329391
 20
189.756071
 30
0.0
 11
604.329391
 21
227.148575
 31
0.0
  0
LINE
  5
1005
100
AcDbEntity
  8
0
  6
BYBLOCK
 62
     0
100
AcDbLine
 10
610.425391
 20
222.576575
 30
0.0
 11
614.997391
 21
222.576575
 31
0.0
  0
LINE
  5
1006
100
AcDbEntity
  8
0
  6
BYBLOCK
 62
     0
100
AcDbLine
 10
599.757391
 20
222.576575
 30
0.0
 11
595.185391
 21
222.576575
 31
0.0
  0
SOLID
  5
1007
100
AcDbEntity
  8
0
  6
BYBLOCK
 62
     0
100
AcDbTrace
 10
610.425391
 20
223.338575
 30
0.0
 11
610.425391
 21
221.814575
 31
0.0
 12
605.853391
 22
222.576575
 32
0.0
 13
605.853391
 23
222.576575
 33
0.0
  0
SOLID
  5
1008
100
AcDbEntity
  8
0
  6
BYBLOCK
 62
     0
100
AcDbTrace
 10
599.757391
 20
223.338575
 30
0.0
 11
599.757391
 21
221.814575
 31
0.0
 12
604.329391
 22
222.576575
 32
0.0
 13
604.329391
 23
222.576575
 33
0.0
  0
MTEXT
  5
1009
100
AcDbEntity
  8
0
  6
BYBLOCK
 62
     0
100
AcDbMText
 10
543.750391
 20
222.576575
 30
0.0
 40
4.572
 41
0.0
 71
     5
 72
     1
  1
\A1;0.15mm±0.03mm[0.006"±0.001"]
  0
POINT
  5
100A
100
AcDbEntity
  8
DEFPOINTS
  6
BYBLOCK
 62
     0
100
AcDbPoint
 10
605.853391
 20
188.168571
 30
0.0
  0
POINT
  5
100B
100
AcDbEntity
  8
DEFPOINTS
  6
BYBLOCK
 62
     0
100
AcDbPoint
 10
604.329391
 20
188.168571
 30
0.0
  0
POINT
  5
100C
100
AcDbEntity
  8
DEFPOINTS
  6
BYBLOCK
 62
     0
100
AcDbPoint
 10
604.329391
 20
222.576575
 30
0.0
  0
ENDBLK
  5
100D
100
AcDbEntity
  8
0
100
AcDbBlockEnd
  0
BLOCK
  5
100E
100
AcDbEntity
  8
0
100
AcDbBlockBegin
  2
*D22
 70
    65
 10
0.0
 20
0.0
 30
0.0
  3
*D22
  1

  0
LINE
  5
100F
100
AcDbEntity
  8
0
  6
BYBLOCK
 62
     0
100
AcDbLine
 10
607.885391
 20
189.756071
 30
0.0
 11
607.885391
 21
214.447102
 31
0.0
  0
LINE
  5
1010
100
AcDbEntity
  8
0
  6
BYBLOCK
 62
     0
100
AcDbLine
 10
609.409391
 20
189.756071
 30
0.0
 11
609.409391
 21
214.447102
 31
0.0
  0
LINE
  5
1011
100
AcDbEntity
  8
0
  6
BYBLOCK
 62
     0
100
AcDbLine
 10
603.313391
 20
209.875102
 30
0.0
 11
598.741391
 21
209.875102
 31
0.0
  0
LINE
  5
1012
100
AcDbEntity
  8
0
  6
BYBLOCK
 62
     0
100
AcDbLine
 10
613.981391
 20
209.875102
 30
0.0
 11
618.553391
 21
209.875102
 31
0.0
  0
SOLID
  5
1013
100
AcDbEntity
  8
0
  6
BYBLOCK
 62
     0
100
AcDbTrace
 10
603.313391
 20
210.637102
 30
0.0
 11
603.313391
 21
209.113102
 31
0.0
 12
607.885391
 22
209.875102
 32
0.0
 13
607.885391
 23
209.875102
 33
0.0
  0
SOLID
  5
1014
100
AcDbEntity
  8
0
  6
BYBLOCK
 62
     0
100
AcDbTrace
 10
613.981391
 20
210.637102
 30
0.0
 11
613.981391
 21
209.113102
 31
0.0
 12
609.409391
 22
209.875102
 32
0.0
 13
609.409391
 23
209.875102
 33
0.0
  0
MTEXT
  5
1015
100
AcDbEntity
  8
0
  6
BYBLOCK
 62
     0
100
AcDbMText
 10
669.988391
 20
209.875102
 30
0.0
 40
4.572
 41
0.0
 71
     5
 72
     1
  1
\A1;0.15mm±0.03mm[0.006"±0.001"]
  0
POINT
  5
1016
100
AcDbEntity
  8
DEFPOINTS
  6
BYBLOCK
 62
     0
100
AcDbPoint
 10
607.885391
 20
188.168571
 30
0.0
  0
POINT
  5
1017
100
AcDbEntity
  8
DEFPOINTS
  6
BYBLOCK
 62
     0
100
AcDbPoint
 10
609.409391
 20
188.168571
 30
0.0
  0
POINT
  5
1018
100
AcDbEntity
  8
DEFPOINTS
  6
BYBLOCK
 62
     0
100
AcDbPoint
 10
609.409391
 20
209.875102
 30
0.0
  0
ENDBLK
  5
1019
100
AcDbEntity
  8
0
100
AcDbBlockEnd
  0
BLOCK
  5
101A
100
AcDbEntity
  8
0
100
AcDbBlockBegin
  2
*D23
 70
    65
 10
0.0
 20
0.0
 30
0.0
  3
*D23
  1

  0
LINE
  5
101B
100
AcDbEntity
  8
0
  6
BYBLOCK
 62
     0
100
AcDbLine
 10
604.329391
 20
189.756071
 30
0.0
 11
604.329391
 21
202.130522
 31
0.0
  0
LINE
  5
101C
100
AcDbEntity
  8
0
  6
BYBLOCK
 62
     0
100
AcDbLine
 10
609.409391
 20
189.756071
 30
0.0
 11
609.409391
 21
202.130522
 31
0.0
  0
LINE
  5
101D
100
AcDbEntity
  8
0
  6
BYBLOCK
 62
     0
100
AcDbLine
 10
599.757391
 20
197.558522
 30
0.0
 11
595.185391
 21
197.558522
 31
0.0
  0
LINE
  5
101E
100
AcDbEntity
  8
0
  6
BYBLOCK
 62
     0
100
AcDbLine
 10
613.981391
 20
197.558522
 30
0.0
 11
618.553391
 21
197.558522
 31
0.0
  0
SOLID
  5
101F
100
AcDbEntity
  8
0
  6
BYBLOCK
 62
     0
100
AcDbTrace
 10
599.757391
 20
198.320522
 30
0.0
 11
599.757391
 21
196.796522
 31
0.0
 12
604.329391
 22
197.558522
 32
0.0
 13
604.329391
 23
197.558522
 33
0.0
  0
SOLID
  5
1020
100
AcDbEntity
  8
0
  6
BYBLOCK
 62
     0
100
AcDbTrace
 10
613.981391
 20
198.320522
 30
0.0
 11
613.981391
 21
196.796522
 31
0.0
 12
609.409391
 22
197.558522
 32
0.0
 13
609.409391
 23
197.558522
 33
0.0
  0
MTEXT
  5
1021
100
AcDbEntity
  8
0
  6
BYBLOCK
 62
     0
100
AcDbMText
 10
669.988391
 20
197.558522
 30
0.0
 40
4.572
 41
0.0
 71
     5
 72
     1
  1
\A1;0.51mm±0.03mm[0.020"±0.001"]
  0
POINT
  5
1022
100
AcDbEntity
  8
DEFPOINTS
  6
BYBLOCK
 62
     0
100
AcDbPoint
 10
604.329391
 20
188.168571
 30
0.0
  0
POINT
  5
1023
100
AcDbEntity
  8
DEFPOINTS
  6
BYBLOCK
 62
     0
100
AcDbPoint
 10
609.409391
 20
188.168571
 30
0.0
  0
POINT
  5
1024
100
AcDbEntity
  8
DEFPOINTS
  6
BYBLOCK
 62
     0
100
AcDbPoint
 10
609.409391
 20
197.558522
 30
0.0
  0
ENDBLK
  5
1025
100
AcDbEntity
  8
0
100
AcDbBlockEnd
  0
BLOCK
  5
1026
100
AcDbEntity
  8
0
100
AcDbBlockBegin
  2
*D24
 70
    65
 10
0.0
 20
0.0
 30
0.0
  3
*D24
  1

  0
LINE
  5
1027
100
AcDbEntity
  8
0
  6
BYBLOCK
 62
     0
100
AcDbLine
 10
602.741891
 20
118.168571
 30
0.0
 11
569.364318
 21
118.168571
 31
0.0
  0
LINE
  5
1028
100
AcDbEntity
  8
0
  6
BYBLOCK
 62
     0
100
AcDbLine
 10
604.265891
 20
88.168571
 30
0.0
 11
569.364318
 21
88.168571
 31
0.0
  0
LINE
  5
1029
100
AcDbEntity
  8
0
  6
BYBLOCK
 62
     0
100
AcDbLine
 10
573.936318
 20
113.596571
 30
0.0
 11
573.936318
 21
107.740571
 31
0.0
  0
LINE
  5
102A
100
AcDbEntity
  8
0
  6
BYBLOCK
 62
     0
100
AcDbLine
 10
573.936318
 20
92.740571
 30
0.0
 11
573.936318
 21
98.596571
 31
0.0
  0
SOLID
  5
102B
100
AcDbEntity
  8
0
  6
BYBLOCK
 62
     0
100
AcDbTrace
 10
573.174318
 20
113.596571
 30
0.0
 11
574.698318
 21
113.596571
 31
0.0
 12
573.936318
 22
118.168571
 32
0.0
 13
573.936318
 23
118.168571
 33
0.0
  0
SOLID
  5
102C
100
AcDbEntity
  8
0
  6
BYBLOCK
 62
     0
100
AcDbTrace
 10
573.174318
 20
92.740571
 30
0.0
 11
574.698318
 21
92.740571
 31
0.0
 12
573.936318
 22
88.168571
 32
0.0
 13
573.936318
 23
88.168571
 33
0.0
  0
MTEXT
  5
102D
100
AcDbEntity
  8
0
  6
BYBLOCK
 62
     0
100
AcDbMText
 10
573.936318
 20
103.168571
 30
0.0
 40
4.572
 41
0.0
 71
     5
 72
     1
  1
\A1;3.00mm[0.118"]
  0
POINT
  5
102E
100
AcDbEntity
  8
DEFPOINTS
  6
BYBLOCK
 62
     0
100
AcDbPoint
 10
604.329391
 20
118.168571
 30
0.0
  0
POINT
  5
102F
100
AcDbEntity
  8
DEFPOINTS
  6
BYBLOCK
 62
     0
100
AcDbPoint
 10
605.853391
 20
88.168571
 30
0.0
  0
POINT
  5
1030
100
AcDbEntity
  8
DEFPOINTS
  6
BYBLOCK
 62
     0
100
AcDbPoint
 10
573.936318
 20
88.168571
 30
0.0
  0
ENDBLK
  5
1031
100
AcDbEntity
  8
0
100
AcDbBlockEnd
  0
BLOCK
  5
1051
100
AcDbEntity
  8
0
100
AcDbBlockBegin
  2
*D25
 70
    65
 10
0.0
 20
0.0
 30
0.0
  3
*D25
  1

  0
LINE
  5
1052
100
AcDbEntity
  8
0
  6
BYBLOCK
 62
     0
100
AcDbLine
 10
590.652311
 20
315.81946
 30
0.0
 11
590.652311
 21
494.736794
 31
0.0
  0
LINE
  5
1053
100
AcDbEntity
  8
0
  6
BYBLOCK
 62
     0
100
AcDbLine
 10
586.080311
 20
490.164794
 30
0.0
 11
525.308305
 21
490.164794
 31
0.0
  0
LINE
  5
1054
100
AcDbEntity
  8
0
  6
BYBLOCK
 62
     0
100
AcDbLine
 10
347.9503
 20
490.164794
 30
0.0
 11
408.722305
 21
490.164794
 31
0.0
  0
SOLID
  5
1055
100
AcDbEntity
  8
0
  6
BYBLOCK
 62
     0
100
AcDbTrace
 10
586.080311
 20
490.926794
 30
0.0
 11
586.080311
 21
489.402794
 31
0.0
 12
590.652311
 22
490.164794
 32
0.0
 13
590.652311
 23
490.164794
 33
0.0
  0
SOLID
  5
1056
100
AcDbEntity
  8
0
  6
BYBLOCK
 62
     0
100
AcDbTrace
 10
347.9503
 20
490.926794
 30
0.0
 11
347.9503
 21
489.402794
 31
0.0
 12
343.3783
 22
490.164794
 32
0.0
 13
343.3783
 23
490.164794
 33
0.0
  0
MTEXT
  5
1057
100
AcDbEntity
  8
0
  6
BYBLOCK
 62
     0
100
AcDbMText
 10
467.015305
 20
490.164794
 30
0.0
 40
4.572
 41
0.0
 71
     5
 72
     1
  1
\A1;247.27mm±0.03mm[9.735"±0.001"]
  0
POINT
  5
1058
100
AcDbEntity
  8
DEFPOINTS
  6
BYBLOCK
 62
     0
100
AcDbPoint
 10
590.652311
 20
314.23196
 30
0.0
  0
POINT
  5
1059
100
AcDbEntity
  8
DEFPOINTS
  6
BYBLOCK
 62
     0
100
AcDbPoint
 10
343.3783
 20
517.298496
 30
0.0
  0
POINT
  5
105A
100
AcDbEntity
  8
DEFPOINTS
  6
BYBLOCK
 62
     0
100
AcDbPoint
 10
343.3783
 20
490.164794
 30
0.0
  0
ENDBLK
  5
105B
100
AcDbEntity
  8
0
100
AcDbBlockEnd
  0
BLOCK
  5
1075
100
AcDbEntity
  8
0
100
AcDbBlockBegin
  2
*D26
 70
    65
 10
0.0
 20
0.0
 30
0.0
  3
*D26
  1

  0
LINE
  5
1076
100
AcDbEntity
  8
0
  6
BYBLOCK
 62
     0
100
AcDbLine
 10
594.185702
 20
312.092531
 30
0.0
 11
617.312002
 21
312.092531
 31
0.0
  0
LINE
  5
1077
100
AcDbEntity
  8
0
  6
BYBLOCK
 62
     0
100
AcDbLine
 10
612.740002
 20
316.664531
 30
0.0
 11
612.740002
 21
321.236531
 31
0.0
  0
LINE
  5
1078
100
AcDbEntity
  8
0
  6
BYBLOCK
 62
     0
100
AcDbLine
 10
612.740002
 20
287.050511
 30
0.0
 11
612.740002
 21
282.478511
 31
0.0
  0
LINE
  5
1079
100
AcDbEntity
  8
0
  6
BYBLOCK
 62
     0
100
AcDbLine
 10
612.740002
 20
282.478511
 30
0.0
 11
608.168002
 21
282.478511
 31
0.0
  0
SOLID
  5
107A
100
AcDbEntity
  8
0
  6
BYBLOCK
 62
     0
100
AcDbTrace
 10
611.978002
 20
316.664531
 30
0.0
 11
613.502002
 21
316.664531
 31
0.0
 12
612.740002
 22
312.092531
 32
0.0
 13
612.740002
 23
312.092531
 33
0.0
  0
SOLID
  5
107B
100
AcDbEntity
  8
0
  6
BYBLOCK
 62
     0
100
AcDbTrace
 10
611.978002
 20
287.050511
 30
0.0
 11
613.502002
 21
287.050511
 31
0.0
 12
612.740002
 22
291.622511
 32
0.0
 13
612.740002
 23
291.622511
 33
0.0
  0
MTEXT
  5
107C
100
AcDbEntity
  8
0
  6
BYBLOCK
 62
     0
100
AcDbMText
 10
553.304002
 20
282.478511
 30
0.0
 40
4.572
 41
0.0
 71
     5
 72
     1
  1
\A1;20.47mm±0.03mm[0.806"±0.001"]
  0
POINT
  5
107D
100
AcDbEntity
  8
DEFPOINTS
  6
BYBLOCK
 62
     0
100
AcDbPoint
 10
592.598202
 20
312.092531
 30
0.0
  0
POINT
  5
107E
100
AcDbEntity
  8
DEFPOINTS
  6
BYBLOCK
 62
     0
100
AcDbPoint
 10
800.299086
 20
291.622511
 30
0.0
  0
POINT
  5
107F
100
AcDbEntity
  8
DEFPOINTS
  6
BYBLOCK
 62
     0
100
AcDbPoint
 10
612.740002
 20
291.622511
 30
0.0
  0
ENDBLK
  5
1080
100
AcDbEntity
  8
0
100
AcDbBlockEnd
  0
ENDSEC
  0
SECTION
  2
ENTITIES
  0
LINE
  5
CC
100
AcDbEntity
  8
CENTER
100
AcDbLine
 10
464.282287
 20
304.191409
 30
0.0
 11
464.282287
 21
308.841994
 31
0.0
  0
LINE
  5
CD
100
AcDbEntity
  8
CENTER
100
AcDbLine
 10
465.828073
 20
305.592578
 30
0.0
 11
460.725498
 21
305.592578
 31
0.0
  0
LINE
  5
CE
100
AcDbEntity
  8
CENTER
100
AcDbLine
 10
468.282287
 20
304.191409
 30
0.0
 11
468.282287
 21
308.841994
 31
0.0
  0
LINE
  5
CF
100
AcDbEntity
  8
CENTER
100
AcDbLine
 10
466.736501
 20
305.592578
 30
0.0
 11
471.839076
 21
305.592578
 31
0.0
  0
LINE
  5
D0
100
AcDbEntity
  8
CENTER
100
AcDbLine
 10
534.421501
 20
305.592578
 30
0.0
 11
539.524076
 21
305.592578
 31
0.0
  0
LINE
  5
D1
100
AcDbEntity
  8
CENTER
100
AcDbLine
 10
531.967287
 20
304.191409
 30
0.0
 11
531.967287
 21
308.841994
 31
0.0
  0
LINE
  5
D2
100
AcDbEntity
  8
CENTER
100
AcDbLine
 10
533.513073
 20
305.592578
 30
0.0
 11
528.410498
 21
305.592578
 31
0.0
  0
LINE
  5
D3
100
AcDbEntity
  8
CENTER
100
AcDbLine
 10
535.967287
 20
304.191409
 30
0.0
 11
535.967287
 21
308.841994
 31
0.0
  0
LINE
  5
D8
100
AcDbEntity
  8
CENTER
100
AcDbLine
 10
399.449117
 20
305.592578
 30
0.0
 11
404.551692
 21
305.592578
 31
0.0
  0
LINE
  5
D9
100
AcDbEntity
  8
CENTER
100
AcDbLine
 10
400.994904
 20
304.191409
 30
0.0
 11
400.994904
 21
308.841994
 31
0.0
  0
TEXT
  5
67A
100
AcDbEntity
  8
TEXT
100
AcDbText
 10
713.906648
 20
38.318619
 30
0.0
 40
3.0
  1
LAYER 5B BACKWARD SUPPORT RIB
100
AcDbText
  0
TEXT
  5
67B
100
AcDbEntity
  8
TEXT
100
AcDbText
 10
718.028796
 20
24.58672
 30
0.0
 40
3.0
  1
B-FAC
100
AcDbText
  0
TEXT
  5
67C
100
AcDbEntity
  8
TEXT
100
AcDbText
 10
766.017079
 20
25.319088
 30
0.0
 40
3.0
  1
L5-RIB04
100
AcDbText
  0
TEXT
  5
67D
100
AcDbEntity
  8
TEXT
100
AcDbText
 10
668.2089
 20
34.107503
 30
0.0
 40
3.0
  1
S. KYRE
100
AcDbText
  0
TEXT
  5
67E
100
AcDbEntity
  8
TEXT
100
AcDbText
 10
693.30201
 20
33.924411
 30
0.0
 40
1.5
  1
11-10-95
100
AcDbText
  0
LINE
  5
6D2
100
AcDbEntity
  8
CENTER
100
AcDbLine
 10
397.393671
 20
303.497585
 30
0.0
 11
395.626612
 21
308.10093
 31
0.0
  0
LINE
  5
6D3
100
AcDbEntity
  8
CENTER
100
AcDbLine
 10
393.52337
 20
303.541006
 30
0.0
 11
398.163184
 21
305.322063
 31
0.0
  0
LINE
  5
6D4
100
AcDbEntity
  8
CENTER
100
AcDbLine
 10
340.195835
 20
287.951494
 30
0.0
 11
342.275355
 21
282.53416
 31
0.0
  0
LINE
  5
6D5
100
AcDbEntity
  8
CENTER
100
AcDbLine
 10
345.037001
 20
285.999977
 30
0.0
 11
339.858195
 21
284.01202
 31
0.0
  0
TEXT
  5
8D6
100
AcDbEntity
  8
TEXT
100
AcDbText
 10
718.535029
 20
17.215846
 30
0.0
 40
3.0
  1
1=1
100
AcDbText
  0
LINE
  5
90D
100
AcDbEntity
  8
BEAMS-B
100
AcDbLine
 10
397.014385
 20
315.592531
 30
0.0
 11
600.652311
 21
315.592531
 31
0.0
  0
LINE
  5
90E
100
AcDbEntity
  8
BEAMS-B
100
AcDbLine
 10
307.687962
 20
281.303329
 30
0.0
 11
397.014385
 21
315.592531
 31
0.0
  0
LINE
  5
90F
100
AcDbEntity
  8
BEAMS-B
100
AcDbLine
 10
343.696013
 20
284.414075
 30
0.0
 11
395.01493
 21
304.113562
 31
0.0
  0
LINE
  5
910
100
AcDbEntity
  8
BEAMS-B
100
AcDbLine
 10
470.282287
 20
305.592531
 30
0.0
 11
529.967287
 21
305.592531
 31
0.0
  0
LINE
  5
911
100
AcDbEntity
  8
BEAMS-B
100
AcDbLine
 10
402.994904
 20
305.592531
 30
0.0
 11
462.282287
 21
305.592531
 31
0.0
  0
LINE
  5
912
100
AcDbEntity
  8
BEAMS-B
100
AcDbLine
 10
464.282287
 20
307.592578
 30
0.0
 11
468.282287
 21
307.592578
 31
0.0
  0
ARC
  5
913
100
AcDbEntity
  8
BEAMS-B
100
AcDbCircle
 10
464.282287
 20
305.592578
 30
0.0
 40
2.0
100
AcDbArc
 50
90.0
 51
180.00135
  0
ARC
  5
914
100
AcDbEntity
  8
BEAMS-B
100
AcDbCircle
 10
468.282287
 20
305.592578
 30
0.0
 40
2.0
100
AcDbArc
 50
359.99865
 51
90.0
  0
LINE
  5
915
100
AcDbEntity
  8
BEAMS-B
100
AcDbLine
 10
537.967287
 20
305.592531
 30
0.0
 11
600.652311
 21
305.592531
 31
0.0
  0
LINE
  5
916
100
AcDbEntity
  8
BEAMS-B
100
AcDbLine
 10
531.967287
 20
307.592578
 30
0.0
 11
535.967287
 21
307.592578
 31
0.0
  0
ARC
  5
917
100
AcDbEntity
  8
BEAMS-B
100
AcDbCircle
 10
531.967287
 20
305.592578
 30
0.0
 40
2.0
100
AcDbArc
 50
90.0
 51
180.00135
  0
ARC
  5
918
100
AcDbEntity
  8
BEAMS-B
100
AcDbCircle
 10
535.967287
 20
305.592578
 30
0.0
 40
2.0
100
AcDbArc
 50
359.99865
 51
90.0
  0
LINE
  5
926
100
AcDbEntity
  8
BEAMS-B
100
AcDbLine
 10
327.220959
 20
281.303329
 30
0.0
 11
307.687962
 21
281.303329
 31
0.0
  0
LINE
  5
927
100
AcDbEntity
  8
BEAMS-B
100
AcDbLine
 10
343.696013
 20
284.414075
 30
0.0
 11
343.337645
 21
285.347656
 31
0.0
  0
LINE
  5
928
100
AcDbEntity
  8
BEAMS-B
100
AcDbLine
 10
340.753749
 20
286.498081
 30
0.0
 11
327.220959
 21
281.303329
 31
0.0
  0
ARC
  5
929
100
AcDbEntity
  8
BEAMS-B
100
AcDbCircle
 10
341.470484
 20
284.63092
 30
0.0
 40
2.0
100
AcDbArc
 50
21.0
 51
111.0
  0
ARC
  5
92E
100
AcDbEntity
  8
BEAMS-B
100
AcDbCircle
 10
400.994904
 20
305.592578
 30
0.0
 40
2.0
100
AcDbArc
 50
359.99865
 51
90.0
  0
ARC
  5
92F
100
AcDbEntity
  8
BEAMS-B
100
AcDbCircle
 10
396.88209
 20
304.830298
 30
0.0
 40
2.0
100
AcDbArc
 50
111.0
 51
201.0
  0
LINE
  5
930
100
AcDbEntity
  8
BEAMS-B
100
AcDbLine
 10
396.165355
 20
306.697458
 30
0.0
 11
398.49722
 21
307.592578
 31
0.0
  0
LINE
  5
931
100
AcDbEntity
  8
BEAMS-B
100
AcDbLine
 10
398.49722
 20
307.592578
 30
0.0
 11
400.994904
 21
307.592578
 31
0.0
  0
LINE
  5
932
100
AcDbEntity
  8
BEAMS-B
100
AcDbLine
 10
600.652311
 20
305.592531
 30
0.0
 11
600.652311
 21
315.592531
 31
0.0
  0
DIMENSION
  5
94F
100
AcDbEntity
  8
DIM
100
AcDbDimension
  2
*D0
 10
535.967287
 20
305.592578
 30
0.0
 11
655.369307
 21
398.578259
 31
0.0
 12
-53.853423
 22
0.0
 32
0.0
 70
   164
  3
STANDARD$4
100
AcDbRadialDimension
 15
537.304341
 25
307.079954
 35
0.0
 40
0.0
1001
ACAD
1000
DSTYLE
1002
{
1070
    40
1040
25.4
1070
     3
1000
mm
1070
   271
1070
     2
1070
     4
1000
"
1070
   143
1040
0.03937
1070
   171
1070
     3
1070
   170
1070
     1
1002
}
  0
LINE
  5
BD6
100
AcDbEntity
  8
CENTER
100
AcDbLine
 10
344.265134
 20
289.312228
 30
0.0
 11
342.428331
 21
294.097264
 31
0.0
  0
LINE
  5
BD7
100
AcDbEntity
  8
CENTER
100
AcDbLine
 10
345.758771
 20
292.536289
 30
0.0
 11
341.016737
 21
290.715992
 31
0.0
  0
LINE
  5
C33
100
AcDbEntity
  8
TEXT
100
AcDbLine
 10
685.369457
 20
504.822347
 30
0.0
 11
685.369457
 21
477.415931
 31
0.0
  0
LINE
  5
C34
100
AcDbEntity
  8
TEXT
100
AcDbLine
 10
695.281868
 20
504.822347
 30
0.0
 11
695.281868
 21
477.415931
 31
0.0
  0
LINE
  5
C35
100
AcDbEntity
  8
TEXT
100
AcDbLine
 10
764.877868
 20
504.822347
 30
0.0
 11
764.877868
 21
477.415931
 31
0.0
  0
LINE
  5
C36
100
AcDbEntity
  8
TEXT
100
AcDbLine
 10
787.229868
 20
504.822347
 30
0.0
 11
787.229868
 21
477.415931
 31
0.0
  0
TEXT
  5
C37
100
AcDbEntity
  8
TEXT
100
AcDbText
 10
688.048837
 20
499.694942
 30
0.0
 40
2.0
  1
01
100
AcDbText
  0
TEXT
  5
C38
100
AcDbEntity
  8
TEXT
100
AcDbText
 10
698.048837
 20
499.694942
 30
0.0
 40
2.0
  1
ADD ALIGNMENT HOLE
100
AcDbText
  0
TEXT
  5
C39
100
AcDbEntity
  8
TEXT
100
AcDbText
 10
769.048837
 20
499.694942
 30
0.0
 40
2.0
  1
03-27-96
100
AcDbText
  0
INSERT
  5
C84
100
AcDbEntity
  8
TEXT
100
AcDbBlockReference
  2
D-BORDER
 10
0.0
 20
0.0
 30
0.0
 41
25.4
 42
25.4
 43
25.4
  0
LINE
  5
C85
100
AcDbEntity
  8
CENTER
100
AcDbLine
 10
343.3783
 20
161.293268
 30
0.0
 11
343.3783
 21
517.298496
 31
0.0
  0
LINE
  5
C86
100
AcDbEntity
  8
CENTER
100
AcDbLine
 10
279.652321
 20
291.622511
 30
0.0
 11
800.299086
 21
291.622511
 31
0.0
  0
LINE
  5
C87
100
AcDbEntity
  8
CENTER
100
AcDbLine
 10
66.326094
 20
185.272134
 30
0.0
 11
441.641309
 21
329.342146
 31
0.0
  0
LINE
  5
C88
100
AcDbEntity
  8
CENTER
100
AcDbLine
 10
392.67805
 20
163.19227
 30
0.0
 11
304.725924
 21
392.315391
 31
0.0
  0
TEXT
  5
DB0
100
AcDbEntity
  8
DIM
100
AcDbText
 10
626.414518
 20
389.493791
 30
0.0
 40
4.572
  1
7X
100
AcDbText
  0
CIRCLE
  5
E2C
100
AcDbEntity
  8
BEAMS-B
100
AcDbCircle
 10
343.3783
 20
291.622511
 30
0.0
 40
1.19065
  0
DIMENSION
  5
E39
100
AcDbEntity
  8
DIM
100
AcDbDimension
  2
*D2
 10
343.3783
 20
423.840989
 30
0.0
 11
303.7543
 21
423.840989
 31
0.0
 12
-53.853423
 22
0.0
 32
0.0
 70
    32
  3
STANDARD
100
AcDbAlignedDimension
 13
400.994904
 23
308.841994
 33
0.0
 14
343.3783
 24
517.298496
 34
0.0
100
AcDbRotatedDimension
1001
ACAD
1000
DSTYLE
1002
{
1070
    47
1040
0.03
1070
    48
1040
0.03
1070
   272
1070
     2
1070
    76
1070
     1
1070
    40
1040
25.4
1070
     3
1000
mm
1070
   271
1070
     2
1070
     4
1000
"
1070
   274
1070
     3
1070
   143
1040
0.03937
1070
   171
1070
     3
1070
   170
1070
     1
1002
}
  0
DIMENSION
  5
E46
100
AcDbEntity
  8
DIM
100
AcDbDimension
  2
*D3
 10
343.3783
 20
437.535165
 30
0.0
 11
403.830293
 21
437.535165
 31
0.0
 12
-53.853423
 22
0.0
 32
0.0
 70
    32
  3
STANDARD
100
AcDbAlignedDimension
 13
464.282287
 23
308.841994
 33
0.0
 14
343.3783
 24
517.298496
 34
0.0
100
AcDbRotatedDimension
1001
ACAD
1000
DSTYLE
1002
{
1070
    47
1040
0.03
1070
    48
1040
0.03
1070
   272
1070
     2
1070
    76
1070
     1
1070
    40
1040
25.4
1070
     3
1000
mm
1070
   271
1070
     2
1070
     4
1000
"
1070
   274
1070
     3
1070
   143
1040
0.03937
1070
   171
1070
     3
1070
   170
1070
     1
1002
}
  0
DIMENSION
  5
E53
100
AcDbEntity
  8
DIM
100
AcDbDimension
  2
*D4
 10
343.3783
 20
450.848946
 30
0.0
 11
405.830293
 21
450.848946
 31
0.0
 12
-53.853423
 22
0.0
 32
0.0
 70
    32
  3
STANDARD
100
AcDbAlignedDimension
 13
468.282287
 23
308.841994
 33
0.0
 14
343.3783
 24
517.298496
 34
0.0
100
AcDbRotatedDimension
1001
ACAD
1000
DSTYLE
1002
{
1070
    47
1040
0.03
1070
    48
1040
0.03
1070
   272
1070
     2
1070
    76
1070
     1
1070
    40
1040
25.4
1070
     3
1000
mm
1070
   271
1070
     2
1070
     4
1000
"
1070
   274
1070
     3
1070
   143
1040
0.03937
1070
   171
1070
     3
1070
   170
1070
     1
1002
}
  0
DIMENSION
  5
E60
100
AcDbEntity
  8
DIM
100
AcDbDimension
  2
*D5
 10
343.3783
 20
464.162727
 30
0.0
 11
437.672793
 21
464.162727
 31
0.0
 12
-53.853423
 22
0.0
 32
0.0
 70
    32
  3
STANDARD
100
AcDbAlignedDimension
 13
531.967287
 23
308.841994
 33
0.0
 14
343.3783
 24
517.298496
 34
0.0
100
AcDbRotatedDimension
1001
ACAD
1000
DSTYLE
1002
{
1070
    47
1040
0.03
1070
    48
1040
0.03
1070
   272
1070
     2
1070
    76
1070
     1
1070
    40
1040
25.4
1070
     3
1000
mm
1070
   271
1070
     2
1070
     4
1000
"
1070
   274
1070
     3
1070
   143
1040
0.03937
1070
   171
1070
     3
1070
   170
1070
     1
1002
}
  0
DIMENSION
  5
E6D
100
AcDbEntity
  8
DIM
100
AcDbDimension
  2
*D6
 10
343.3783
 20
477.096115
 30
0.0
 11
439.672793
 21
477.096115
 31
0.0
 12
-53.853423
 22
0.0
 32
0.0
 70
    32
  3
STANDARD
100
AcDbAlignedDimension
 13
535.967287
 23
308.841994
 33
0.0
 14
343.3783
 24
517.298496
 34
0.0
100
AcDbRotatedDimension
1001
ACAD
1000
DSTYLE
1002
{
1070
    47
1040
0.03
1070
    48
1040
0.03
1070
   272
1070
     2
1070
    76
1070
     1
1070
    40
1040
25.4
1070
     3
1000
mm
1070
   271
1070
     2
1070
     4
1000
"
1070
   274
1070
     3
1070
   143
1040
0.03937
1070
   171
1070
     3
1070
   170
1070
     1
1002
}
  0
DIMENSION
  5
E7A
100
AcDbEntity
  8
DIM
100
AcDbDimension
  2
*D7
 10
343.3783
 20
503.096177
 30
0.0
 11
472.015305
 21
503.096177
 31
0.0
 70
    32
  3
STANDARD
100
AcDbAlignedDimension
 13
600.652311
 23
315.592531
 33
0.0
 14
343.3783
 24
517.298496
 34
0.0
100
AcDbRotatedDimension
1001
ACAD
1000
DSTYLE
1002
{
1070
    47
1040
0.03
1070
    48
1040
0.03
1070
   272
1070
     2
1070
    76
1070
     1
1070
    40
1040
25.4
1070
     3
1000
mm
1070
   271
1070
     2
1070
     4
1000
"
1070
   274
1070
     3
1070
   143
1040
0.03937
1070
   171
1070
     3
1070
   170
1070
     1
1002
}
  0
DIMENSION
  5
E87
100
AcDbEntity
  8
DIM
100
AcDbDimension
  2
*D8
 10
783.217748
 20
291.622511
 30
0.0
 11
783.217748
 21
303.607521
 31
0.0
 70
    32
  3
STANDARD
100
AcDbAlignedDimension
 13
600.652311
 23
315.592531
 33
0.0
 14
800.299086
 24
291.622511
 34
0.0
 50
90.0
100
AcDbRotatedDimension
1001
ACAD
1000
DSTYLE
1002
{
1070
    47
1040
0.03
1070
    48
1040
0.03
1070
   272
1070
     2
1070
    76
1070
     1
1070
    40
1040
25.4
1070
     3
1000
mm
1070
   271
1070
     2
1070
     4
1000
"
1070
   274
1070
     3
1070
   143
1040
0.03937
1070
   171
1070
     3
1070
   170
1070
     1
1002
}
  0
DIMENSION
  5
E95
100
AcDbEntity
  8
DIM
100
AcDbDimension
  2
*D9
 10
743.903135
 20
291.622511
 30
0.0
 11
679.361735
 21
282.478511
 31
0.0
 70
    32
  3
STANDARD
100
AcDbAlignedDimension
 13
600.652311
 23
305.592531
 33
0.0
 14
800.299086
 24
291.622511
 34
0.0
 50
90.0
100
AcDbRotatedDimension
1001
ACAD
1000
DSTYLE
1002
{
1070
    47
1040
0.05
1070
    71
1070
     1
1070
   272
1070
     2
1070
    76
1070
     1
1070
    40
1040
25.4
1070
     3
1000
mm
1070
   271
1070
     2
1070
     4
1000
"
1070
   274
1070
     3
1070
   143
1040
0.03937
1070
   171
1070
     3
1070
   170
1070
     1
1002
}
  0
DIMENSION
  5
EB9
100
AcDbEntity
  8
DIM
100
AcDbDimension
  2
*D10
 10
307.00147
 20
386.387391
 30
0.0
 11
271.076362
 21
372.597034
 31
0.0
 12
-53.853423
 22
0.0
 32
0.0
 70
    32
 51
339.0
  3
STANDARD
100
AcDbAlignedDimension
 13
397.014385
 23
315.592531
 33
0.0
 14
304.725924
 24
392.315391
 34
0.0
 50
21.0
100
AcDbRotatedDimension
1001
ACAD
1000
DSTYLE
1002
{
1070
    47
1040
0.05
1070
   272
1070
     2
1070
    76
1070
     1
1070
    40
1040
25.4
1070
     3
1000
mm
1070
   271
1070
     2
1070
     4
1000
"
1070
   274
1070
     3
1070
   143
1040
0.03937
1070
   171
1070
     3
1070
   170
1070
     1
1002
}
  0
DIMENSION
  5
EC6
100
AcDbEntity
  8
DIM
100
AcDbDimension
  2
*D11
 10
310.603476
 20
377.003846
 30
0.0
 11
275.034062
 21
363.350027
 31
0.0
 12
-53.853423
 22
0.0
 32
0.0
 70
    32
 51
339.0
  3
STANDARD
100
AcDbAlignedDimension
 13
398.49722
 23
307.592578
 33
0.0
 14
304.725924
 24
392.315391
 34
0.0
 50
21.0
100
AcDbRotatedDimension
1001
ACAD
1000
DSTYLE
1002
{
1070
    47
1040
0.05
1070
   272
1070
     2
1070
    76
1070
     1
1070
    40
1040
25.4
1070
     3
1000
mm
1070
   271
1070
     2
1070
     4
1000
"
1070
   274
1070
     3
1070
   143
1040
0.03937
1070
   171
1070
     3
1070
   170
1070
     1
1002
}
  0
DIMENSION
  5
ED3
100
AcDbEntity
  8
DIM
100
AcDbDimension
  2
*D12
 10
314.666522
 20
366.41925
 30
0.0
 11
278.385719
 21
352.492354
 31
0.0
 12
-53.853423
 22
0.0
 32
0.0
 70
    32
 51
339.0
  3
STANDARD
100
AcDbAlignedDimension
 13
395.626612
 23
308.10093
 33
0.0
 14
304.725924
 24
392.315391
 34
0.0
 50
21.0
100
AcDbRotatedDimension
1001
ACAD
1000
DSTYLE
1002
{
1070
    47
1040
0.05
1070
   272
1070
     2
1070
    76
1070
     1
1070
    40
1040
25.4
1070
     3
1000
mm
1070
   271
1070
     2
1070
     4
1000
"
1070
   274
1070
     3
1070
   143
1040
0.03937
1070
   171
1070
     3
1070
   170
1070
     1
1002
}
  0
DIMENSION
  5
EE0
100
AcDbEntity
  8
DIM
100
AcDbDimension
  2
*D13
 10
314.677945
 20
354.427871
 30
0.0
 11
280.887002
 21
341.456743
 31
0.0
 12
-53.853423
 22
0.0
 32
0.0
 70
    32
 51
339.0
  3
STANDARD
100
AcDbAlignedDimension
 13
304.725924
 23
392.315391
 33
0.0
 14
340.195835
 24
287.951494
 34
0.0
 50
21.0
100
AcDbRotatedDimension
1001
ACAD
1000
DSTYLE
1002
{
1070
    47
1040
0.05
1070
   272
1070
     2
1070
    75
1070
     1
1070
    40
1040
25.4
1070
     3
1000
mm
1070
   271
1070
     2
1070
     4
1000
"
1070
   274
1070
     3
1070
   143
1040
0.03937
1070
   171
1070
     3
1070
   170
1070
     1
1002
}
  0
DIMENSION
  5
EED
100
AcDbEntity
  8
DIM
100
AcDbDimension
  2
*D14
 10
304.918656
 20
339.402815
 30
0.0
 11
268.993547
 21
325.612458
 31
0.0
 12
-53.853423
 22
0.0
 32
0.0
 70
    32
 51
339.0
  3
STANDARD
100
AcDbAlignedDimension
 13
304.725924
 23
392.315391
 33
0.0
 14
327.220959
 24
281.303329
 34
0.0
 50
21.0
100
AcDbRotatedDimension
1001
ACAD
1000
DSTYLE
1002
{
1070
    47
1040
0.05
1070
   272
1070
     2
1070
    75
1070
     1
1070
    40
1040
25.4
1070
     3
1000
mm
1070
   271
1070
     2
1070
     4
1000
"
1070
   274
1070
     3
1070
   143
1040
0.03937
1070
   171
1070
     3
1070
   170
1070
     1
1002
}
  0
DIMENSION
  5
EFA
100
AcDbEntity
  8
DIM
100
AcDbDimension
  2
*D15
 10
292.235033
 20
321.559586
 30
0.0
 11
256.309924
 21
307.769229
 31
0.0
 12
-53.853423
 22
0.0
 32
0.0
 70
    32
 51
339.0
  3
STANDARD
100
AcDbAlignedDimension
 13
304.725924
 23
392.315391
 33
0.0
 14
307.687962
 24
281.303329
 34
0.0
 50
21.0
100
AcDbRotatedDimension
1001
ACAD
1000
DSTYLE
1002
{
1070
    47
1040
0.05
1070
   272
1070
     2
1070
    75
1070
     1
1070
    40
1040
25.4
1070
     3
1000
mm
1070
   271
1070
     2
1070
     4
1000
"
1070
   274
1070
     3
1070
   143
1040
0.03937
1070
   171
1070
     3
1070
   170
1070
     1
1002
}
  0
DIMENSION
  5
F08
100
AcDbEntity
  8
DIM
100
AcDbDimension
  2
*D16
 10
305.936015
 20
269.91937
 30
0.0
 11
250.025426
 21
238.662756
 31
0.0
 12
-53.853423
 22
0.0
 32
0.0
 70
    32
 51
339.0
  3
STANDARD
100
AcDbAlignedDimension
 13
441.641309
 23
329.342146
 33
0.0
 14
343.696013
 24
284.414075
 34
0.0
 50
111.0
100
AcDbRotatedDimension
1001
ACAD
1000
DSTYLE
1002
{
1070
    71
1070
     1
1070
    48
1040
0.05
1070
   272
1070
     2
1070
    75
1070
     1
1070
    40
1040
25.4
1070
     3
1000
mm
1070
   271
1070
     2
1070
     4
1000
"
1070
   274
1070
     3
1070
   143
1040
0.03937
1070
   171
1070
     3
1070
   170
1070
     1
1002
}
  0
DIMENSION
  5
F16
100
AcDbEntity
  8
DIM
100
AcDbDimension
  2
*D17
 10
183.228609
 20
226.029845
 30
0.0
 11
157.6943
 21
206.433592
 31
0.0
 12
-53.853423
 22
0.0
 32
0.0
 70
    32
 51
339.0
  3
STANDARD
100
AcDbAlignedDimension
 13
441.641309
 23
329.342146
 33
0.0
 14
327.220959
 24
281.303329
 34
0.0
 50
111.0
100
AcDbRotatedDimension
1001
ACAD
1000
DSTYLE
1002
{
1070
    48
1040
0.05
1070
   272
1070
     2
1070
    75
1070
     1
1070
    40
1040
25.4
1070
     3
1000
mm
1070
   271
1070
     2
1070
     4
1000
"
1070
   274
1070
     3
1070
   143
1040
0.03937
1070
   171
1070
     3
1070
   170
1070
     1
1002
}
  0
DIMENSION
  5
F24
100
AcDbEntity
  8
DIM
100
AcDbDimension
  2
*D18
 10
124.216015
 20
207.493993
 30
0.0
 11
98.681706
 21
187.89774
 31
0.0
 12
-53.853423
 22
0.0
 32
0.0
 70
    32
 51
339.0
  3
STANDARD
100
AcDbAlignedDimension
 13
307.687962
 23
281.303329
 33
0.0
 14
66.326094
 24
185.272134
 34
0.0
 50
111.0
100
AcDbRotatedDimension
1001
ACAD
1000
DSTYLE
1002
{
1070
    48
1040
0.05
1070
   272
1070
     2
1070
    76
1070
     1
1070
    40
1040
25.4
1070
     3
1000
mm
1070
   271
1070
     2
1070
     4
1000
"
1070
   274
1070
     3
1070
   143
1040
0.03937
1070
   171
1070
     3
1070
   170
1070
     1
1002
}
  0
DIMENSION
  5
F3C
100
AcDbEntity
  8
DIM
100
AcDbDimension
  2
*D19
 10
342.521767
 20
292.449554
 30
0.0
 11
440.603319
 21
257.709685
 31
0.0
 70
   163
  1
{<>}\P{2X}
  3
STANDARD$3
100
AcDbDiametricDimension
 15
344.234832
 25
290.795468
 35
0.0
 40
0.0
1001
ACAD
1000
DSTYLE
1002
{
1070
   288
1070
     1
1070
    47
1040
0.03
1070
    71
1070
     1
1070
    48
1040
0.03
1070
   272
1070
     2
1070
    76
1070
     1
1070
    40
1040
25.4
1070
     3
1000
mm
1070
   271
1070
     2
1070
     4
1000
"
1070
   274
1070
     3
1070
   143
1040
0.03937
1070
   171
1070
     3
1070
   170
1070
     1
1002
}
  0
DIMENSION
  5
F4A
100
AcDbEntity
  8
DIM
100
AcDbDimension
  2
*D20
 10
343.3783
 20
517.298496
 30
0.0
 11
365.450446
 21
172.531868
 31
0.0
 12
-53.853423
 22
0.0
 32
0.0
 70
    34
  3
STANDARD$2
100
AcDb2LineAngularDimension
 13
392.67805
 23
163.19227
 33
0.0
 14
304.725924
 24
392.315391
 34
0.0
 15
343.3783
 25
161.293268
 35
0.0
 16
381.206551
 26
176.562596
 36
0.0
1001
ACAD
1000
DSTYLE
1002
{
1070
    47
1040
0.03
1070
    48
1040
0.03
1070
   272
1070
     2
1070
    76
1070
     1
1070
    40
1040
25.4
1070
   271
1070
     2
1070
     4
1000
"
1070
   274
1070
     3
1070
   143
1040
0.03937
1070
   171
1070
     3
1070
   170
1070
     1
1002
}
  0
MTEXT
  5
F4B
100
AcDbEntity
  8
TEXT
100
AcDbMText
 10
36.426731
 20
487.79236
 30
0.0
 40
4.0
 41
199.804
 71
     1
 72
     1
  3
{MATERIAL: }\P{0.51mm [0.020"] thick Kevlar-Carbon-fiber-Epoxy-composite}\P\P{LAMINATE SCHEDULE:}\P\P{Core:}\P{cloth:  2 layers Kevlar 29 (0.004" thick ea.)}\P{ 1.7 oz/sq. yd. plain weave}\P{epoxy: heat resistant laminating epoxy}\P{ Ciba-Geigy RP400
  3
5R/RP1500H}\P{cure: 24 hrs at room temp. @ 20psi}\P{ 2 hrs postcure at 66°C}\P\P{Skins:}\P{cloth: 1 layer Carbon fiber (0.006" thick)}\P{ xx oz/sq. yd. plain weave}\P{epoxy: heat resistant laminating epoxy}\P{ Ciba-Geigy RP4005R/RP1500H}\P{cure: 24 h
  1
rs at room temp. @ 20psi}\P{ 2 hrs postcure at 66°C}\P\P{LASER CUTTING:}\P{use fixture L5-RIB14}\P
  0
TEXT
  5
F55
100
AcDbEntity
  8
TEXT
100
AcDbText
 10
697.15183
 20
494.201571
 30
0.0
 40
2.0
  1
CHANGE LOCATION OF LOCATING HOLES
100
AcDbText
  0
TEXT
  5
F56
100
AcDbEntity
  8
TEXT
100
AcDbText
 10
697.15183
 20
490.899338
 30
0.0
 40
2.0
  1
CHANGE MATERIAL TO CARBON-FIBER -
100
AcDbText
  0
TEXT
  5
F57
100
AcDbEntity
  8
TEXT
100
AcDbText
 10
697.15183
 20
487.851123
 30
0.0
 40
2.0
  1
KEVLAR COMPOSITE
100
AcDbText
  0
TEXT
  5
F58
100
AcDbEntity
  8
TEXT
100
AcDbText
 10
688.15183
 20
494.201571
 30
0.0
 40
2.0
  1
02
100
AcDbText
  0
TEXT
  5
F59
100
AcDbEntity
  8
TEXT
100
AcDbText
 10
769.037387
 20
494.201571
 30
0.0
 40
2.0
  1
02-06-97
100
AcDbText
  0
TEXT
  5
F5A
100
AcDbEntity
  8
TEXT
100
AcDbText
 10
805.986874
 20
24.703431
 30
0.0
 40
3.0
  1
03
100
AcDbText
  0
TEXT
  5
FB1
100
AcDbEntity
  8
TEXT
100
AcDbText
 10
550.315096
 20
54.443257
 30
0.0
 40
8.0
  1
SCALE: 10=1
100
AcDbText
  0
DIMENSION
  5
FB2
100
AcDbEntity
  8
DIM
100
AcDbDimension
  2
*D21
 10
604.329391
 20
222.576575
 30
0.0
 11
543.750391
 21
222.576575
 31
0.0
 70
    32
  3
STANDARD
100
AcDbAlignedDimension
 13
605.853391
 23
188.168571
 33
0.0
 14
604.329391
 24
188.168571
 34
0.0
100
AcDbRotatedDimension
1001
ACAD
1000
DSTYLE
1002
{
1070
    47
1040
0.03
1070
    71
1070
     1
1070
    48
1040
0.03
1070
   272
1070
     2
1070
    40
1040
25.4
1070
     3
1000
mm
1070
   144
1040
0.1
1070
   271
1070
     2
1070
     4
1000
"
1070
   274
1070
     3
1070
   143
1040
0.03937
1070
   171
1070
     3
1070
   170
1070
     1
1002
}
  0
DIMENSION
  5
FB3
100
AcDbEntity
  8
DIM
100
AcDbDimension
  2
*D22
 10
609.409391
 20
209.875102
 30
0.0
 11
669.988391
 21
209.875102
 31
0.0
 70
    32
  3
STANDARD
100
AcDbAlignedDimension
 13
607.885391
 23
188.168571
 33
0.0
 14
609.409391
 24
188.168571
 34
0.0
100
AcDbRotatedDimension
1001
ACAD
1000
DSTYLE
1002
{
1070
    47
1040
0.03
1070
    71
1070
     1
1070
    48
1040
0.03
1070
   272
1070
     2
1070
    40
1040
25.4
1070
     3
1000
mm
1070
   144
1040
0.1
1070
   271
1070
     2
1070
     4
1000
"
1070
   274
1070
     3
1070
   143
1040
0.03937
1070
   171
1070
     3
1070
   170
1070
     1
1002
}
  0
DIMENSION
  5
FB4
100
AcDbEntity
  8
DIM
100
AcDbDimension
  2
*D23
 10
609.409391
 20
197.558522
 30
0.0
 11
669.988391
 21
197.558522
 31
0.0
 70
    32
  3
STANDARD
100
AcDbAlignedDimension
 13
604.329391
 23
188.168571
 33
0.0
 14
609.409391
 24
188.168571
 34
0.0
100
AcDbRotatedDimension
1001
ACAD
1000
DSTYLE
1002
{
1070
    47
1040
0.03
1070
    71
1070
     1
1070
    48
1040
0.03
1070
   272
1070
     2
1070
    40
1040
25.4
1070
     3
1000
mm
1070
   144
1040
0.1
1070
   271
1070
     2
1070
     4
1000
"
1070
   274
1070
     3
1070
   143
1040
0.03937
1070
   171
1070
     3
1070
   170
1070
     1
1002
}
  0
LEADER
  5
FB5
100
AcDbEntity
  8
KEVLAR
100
AcDbLeader
  3
STANDARD
 73
     0
 74
     0
 75
     1
 40
4.572
 41
27.432
 76
     3
 10
606.586365
 20
98.21058
 30
0.0
 10
626.1896
 20
128.29298
 30
0.0
 10
630.7616
 20
128.29298
 30
0.0
 77
   256
1001
ACAD
1000
DSTYLE
1002
{
1070
   288
1070
     1
1070
    47
1040
0.03
1070
    71
1070
     1
1070
    48
1040
0.03
1070
   272
1070
     2
1070
    76
1070
     1
1070
    40
1040
25.4
1070
     3
1000
mm
1070
   271
1070
     2
1070
     4
1000
"
1070
   274
1070
     3
1070
   143
1040
0.03937
1070
   171
1070
     3
1070
   170
1070
     1
1002
}
  0
LEADER
  5
FB6
100
AcDbEntity
  8
C-FIBER
100
AcDbLeader
  3
STANDARD
 76
     2
 10
605.003527
 20
143.799627
 30
0.0
 10
631.333422
 20
167.73102
 30
0.0
 77
   256
1001
ACAD
1000
DSTYLE
1002
{
1070
   288
1070
     1
1070
    47
1040
0.03
1070
    71
1070
     1
1070
    48
1040
0.03
1070
   272
1070
     2
1070
    76
1070
     1
1070
    40
1040
25.4
1070
     3
1000
mm
1070
   271
1070
     2
1070
     4
1000
"
1070
   274
1070
     3
1070
   143
1040
0.03937
1070
   171
1070
     3
1070
   170
1070
     1
1002
}
  0
LEADER
  5
FB7
100
AcDbEntity
  8
C-FIBER
100
AcDbLeader
  3
STANDARD
 73
     0
 74
     0
 75
     1
 40
4.572
 41
51.816
 76
     3
 10
609.066989
 20
135.436432
 30
0.0
 10
631.333422
 20
167.73102
 30
0.0
 10
635.905422
 20
167.73102
 30
0.0
 77
   256
1001
ACAD
1000
DSTYLE
1002
{
1070
   288
1070
     1
1070
    47
1040
0.03
1070
    71
1070
     1
1070
    48
1040
0.03
1070
   272
1070
     2
1070
    76
1070
     1
1070
    40
1040
25.4
1070
     3
1000
mm
1070
   271
1070
     2
1070
     4
1000
"
1070
   274
1070
     3
1070
   143
1040
0.03937
1070
   171
1070
     3
1070
   170
1070
     1
1002
}
  0
POLYLINE
  5
FB8
100
AcDbEntity
  8
C-FIBER
100
AcDb2dPolyline
 66
     1
 10
0.0
 20
0.0
 30
0.0
 70
     1
  0
VERTEX
  5
FB9
100
AcDbEntity
  8
C-FIBER
100
AcDbVertex
100
AcDb2dVertex
 10
605.853391
 20
188.168571
 30
0.0
  0
VERTEX
  5
FBA
100
AcDbEntity
  8
C-FIBER
100
AcDbVertex
100
AcDb2dVertex
 10
605.853391
 20
118.168571
 30
0.0
  0
VERTEX
  5
FBB
100
AcDbEntity
  8
C-FIBER
100
AcDbVertex
100
AcDb2dVertex
 10
604.329391
 20
118.168571
 30
0.0
  0
VERTEX
  5
FBC
100
AcDbEntity
  8
C-FIBER
100
AcDbVertex
100
AcDb2dVertex
 10
604.329391
 20
188.168571
 30
0.0
  0
SEQEND
  5
FBD
100
AcDbEntity
  8
C-FIBER
  0
POLYLINE
  5
FBE
100
AcDbEntity
  8
C-FIBER
100
AcDb2dPolyline
 66
     1
 10
0.0
 20
0.0
 30
0.0
 70
     1
  0
VERTEX
  5
FBF
100
AcDbEntity
  8
C-FIBER
100
AcDbVertex
100
AcDb2dVertex
 10
607.885391
 20
188.168571
 30
0.0
  0
VERTEX
  5
FC0
100
AcDbEntity
  8
C-FIBER
100
AcDbVertex
100
AcDb2dVertex
 10
607.885391
 20
118.168571
 30
0.0
  0
VERTEX
  5
FC1
100
AcDbEntity
  8
C-FIBER
100
AcDbVertex
100
AcDb2dVertex
 10
609.409391
 20
118.168571
 30
0.0
  0
VERTEX
  5
FC2
100
AcDbEntity
  8
C-FIBER
100
AcDbVertex
100
AcDb2dVertex
 10
609.409391
 20
188.168571
 30
0.0
  0
SEQEND
  5
FC3
100
AcDbEntity
  8
C-FIBER
  0
POLYLINE
  5
FC4
100
AcDbEntity
  8
TEXT
100
AcDb2dPolyline
 66
     1
 10
0.0
 20
0.0
 30
0.0
 70
     1
  0
VERTEX
  5
FC5
100
AcDbEntity
  8
TEXT
100
AcDbVertex
100
AcDb2dVertex
 10
605.853391
 20
88.168571
 30
0.0
  0
VERTEX
  5
FC6
100
AcDbEntity
  8
TEXT
100
AcDbVertex
100
AcDb2dVertex
 10
605.853391
 20
188.168571
 30
0.0
  0
VERTEX
  5
FC7
100
AcDbEntity
  8
TEXT
100
AcDbVertex
100
AcDb2dVertex
 10
607.885391
 20
188.168571
 30
0.0
  0
VERTEX
  5
FC8
100
AcDbEntity
  8
TEXT
100
AcDbVertex
100
AcDb2dVertex
 10
607.885391
 20
88.168571
 30
0.0
  0
SEQEND
  5
FC9
100
AcDbEntity
  8
TEXT
  0
TEXT
  5
FCA
100
AcDbEntity
  8
TEXT
100
AcDbText
 10
550.315096
 20
67.77659
 30
0.0
 40
8.0
  1
ENDVIEW
100
AcDbText
  0
DIMENSION
  5
FCB
100
AcDbEntity
  8
DIM
100
AcDbDimension
  2
*D24
 10
573.936318
 20
88.168571
 30
0.0
 11
573.936318
 21
103.168571
 31
0.0
 70
    32
  3
STANDARD
100
AcDbAlignedDimension
 13
604.329391
 23
118.168571
 33
0.0
 14
605.853391
 24
88.168571
 34
0.0
 50
90.0
100
AcDbRotatedDimension
1001
ACAD
1000
DSTYLE
1002
{
1070
    47
1040
0.03
1070
    48
1040
0.03
1070
   272
1070
     2
1070
    40
1040
25.4
1070
     3
1000
mm
1070
   144
1040
0.1
1070
   271
1070
     2
1070
     4
1000
"
1070
   274
1070
     3
1070
   143
1040
0.03937
1070
   171
1070
     3
1070
   170
1070
     1
1002
}
  0
MTEXT
  5
FCC
100
AcDbEntity
  8
C-FIBER
100
AcDbMText
 10
638.191422
 20
167.73102
 30
0.0
 40
4.572
 41
0.0
 71
     4
 72
     1
  1
{CARBON FIBER}
  0
MTEXT
  5
FCD
100
AcDbEntity
  8
KEVLAR
100
AcDbMText
 10
633.0476
 20
128.29298
 30
0.0
 40
4.572
 41
0.0
 71
     4
 72
     1
  1
{KEVLAR}
  0
LINE
  5
1036
100
AcDbEntity
  8
BEAMS-B
100
AcDbLine
 10
398.311758
 20
308.592531
 30
0.0
 11
600.652311
 21
308.592531
 31
0.0
  0
LINE
  5
1037
100
AcDbEntity
  8
BEAMS-B
100
AcDbLine
 10
327.220959
 20
281.303329
 30
0.0
 11
398.311758
 21
308.592531
 31
0.0
  0
CIRCLE
  5
1040
100
AcDbEntity
  8
KEVLAR
100
AcDbCircle
 10
590.652311
 20
312.092531
 30
0.0
 40
1.1905
  0
LINE
  5
1041
100
AcDbEntity
  8
CENTER
100
AcDbLine
 10
592.598202
 20
312.092531
 30
0.0
 11
588.511829
 21
312.092531
 31
0.0
  0
LINE
  5
1042
100
AcDbEntity
  8
CENTER
100
AcDbLine
 10
590.652311
 20
314.23196
 30
0.0
 11
590.652311
 21
310.050348
 31
0.0
  0
DIMENSION
  5
105C
100
AcDbEntity
  8
DIM
100
AcDbDimension
  2
*D25
 10
343.3783
 20
490.164794
 30
0.0
 11
467.015305
 21
490.164794
 31
0.0
 70
    32
  3
STANDARD
100
AcDbAlignedDimension
 13
590.652311
 23
314.23196
 33
0.0
 14
343.3783
 24
517.298496
 34
0.0
100
AcDbRotatedDimension
1001
ACAD
1000
DSTYLE
1002
{
1070
    47
1040
0.03
1070
    71
1070
     1
1070
    48
1040
0.03
1070
   272
1070
     2
1070
    76
1070
     1
1070
    40
1040
25.4
1070
     3
1000
mm
1070
   271
1070
     2
1070
     4
1000
"
1070
   274
1070
     3
1070
   143
1040
0.03937
1070
   171
1070
     3
1070
   170
1070
     1
1002
}
  0
DIMENSION
  5
1081
100
AcDbEntity
  8
DIM
100
AcDbDimension
  2
*D26
 10
612.740002
 20
291.622511
 30
0.0
 11
553.304002
 21
282.478511
 31
0.0
 70
    32
  3
STANDARD
100
AcDbAlignedDimension
 13
592.598202
 23
312.092531
 33
0.0
 14
800.299086
 24
291.622511
 34
0.0
 50
90.0
100
AcDbRotatedDimension
1001
ACAD
1000
DSTYLE
1002
{
1070
    47
1040
0.03
1070
    71
1070
     1
1070
    48
1040
0.03
1070
   272
1070
     2
1070
    76
1070
     1
1070
    40
1040
25.4
1070
     3
1000
mm
1070
   271
1070
     2
1070
     4
1000
"
1070
   274
1070
     3
1070
   143
1040
0.03937
1070
   171
1070
     3
1070
   170
1070
     1
1002
}
  0
TEXT
  5
108C
100
AcDbEntity
  8
TEXT
100
AcDbText
 10
688.15183
 20
483.694852
 30
0.0
 40
2.0
  1
03
100
AcDbText
  0
TEXT
  5
108D
100
AcDbEntity
  8
TEXT
100
AcDbText
 10
697.15183
 20
483.694852
 30
0.0
 40
2.0
  1
ADD SECOND LOCATING HOLE
100
AcDbText
  0
TEXT
  5
108E
100
AcDbEntity
  8
TEXT
100
AcDbText
 10
769.037387
 20
483.694852
 30
0.0
 40
2.0
  1
03-18-97
100
AcDbText
  0
ENDSEC
  0
SECTION
  2
OBJECTS
  0
DICTIONARY
  5
C
100
AcDbDictionary
  3
ACAD_GROUP
350
D
  3
ACAD_MLINESTYLE
350
E
  0
DICTIONARY
  5
D
102
{ACAD_REACTORS
330
C
102
}
100
AcDbDictionary
  0
DICTIONARY
  5
E
102
{ACAD_REACTORS
330
C
102
}
100
AcDbDictionary
  3
STANDARD
350
13
  0
MLINESTYLE
  5
13
102
{ACAD_REACTORS
330
E
102
}
100
AcDbMlineStyle
  2
STANDARD
 70
     0
  3

 62
     0
 51
90.0
 52
90.0
 71
     2
 49
0.5
 62
   256
  6
BYLAYER
 49
-0.5
 62
   256
  6
BYLAYER
  0
ENDSEC
  0
EOF
