  0
SECTION
  2
HEADER
  9
$ACADVER
  1
AC1012
  9
$DWGCODEPAGE
  3
ansi_1252
  9
$INSBASE
 10
0.0
 20
0.0
 30
0.0
  9
$EXTMIN
 10
3.175
 20
3.175
 30
0.0
  9
$EXTMAX
 10
791.75407
 20
506.668925
 30
0.0
  9
$LIMMIN
 10
0.0
 20
0.0
  9
$LIMMAX
 10
838.0
 20
533.0
  9
$ORTHOMODE
 70
     0
  9
$REGENMODE
 70
     1
  9
$FILLMODE
 70
     1
  9
$QTEXTMODE
 70
     0
  9
$MIRRTEXT
 70
     1
  9
$DRAGMODE
 70
     2
  9
$LTSCALE
 40
10.0
  9
$OSMODE
 70
     0
  9
$ATTMODE
 70
     1
  9
$TEXTSIZE
 40
6.0
  9
$TRACEWID
 40
0.05
  9
$TEXTSTYLE
  7
STANDARD
  9
$CLAYER
  8
DIM
  9
$CELTYPE
  6
BYLAYER
  9
$CECOLOR
 62
   256
  9
$CELTSCALE
 40
1.0
  9
$DELOBJ
 70
     1
  9
$DISPSILH
 70
     0
  9
$DIMSCALE
 40
25.4
  9
$DIMASZ
 40
0.18
  9
$DIMEXO
 40
0.0625
  9
$DIMDLI
 40
0.38
  9
$DIMRND
 40
0.0
  9
$DIMDLE
 40
0.0
  9
$DIMEXE
 40
0.18
  9
$DIMTP
 40
0.03
  9
$DIMTM
 40
0.03
  9
$DIMTXT
 40
0.18
  9
$DIMCEN
 40
0.09
  9
$DIMTSZ
 40
0.0
  9
$DIMTOL
 70
     0
  9
$DIMLIM
 70
     0
  9
$DIMTIH
 70
     1
  9
$DIMTOH
 70
     1
  9
$DIMSE1
 70
     0
  9
$DIMSE2
 70
     0
  9
$DIMTAD
 70
     0
  9
$DIMZIN
 70
     0
  9
$DIMBLK
  1

  9
$DIMASO
 70
     1
  9
$DIMSHO
 70
     1
  9
$DIMPOST
  1

  9
$DIMAPOST
  1
"
  9
$DIMALT
 70
     1
  9
$DIMALTD
 70
     3
  9
$DIMALTF
 40
0.03937
  9
$DIMLFAC
 40
1.0
  9
$DIMTOFL
 70
     0
  9
$DIMTVP
 40
0.0
  9
$DIMTIX
 70
     0
  9
$DIMSOXD
 70
     0
  9
$DIMSAH
 70
     0
  9
$DIMBLK1
  1

  9
$DIMBLK2
  1

  9
$DIMSTYLE
  2
SU1
  9
$DIMCLRD
 70
     0
  9
$DIMCLRE
 70
     0
  9
$DIMCLRT
 70
     0
  9
$DIMTFAC
 40
1.0
  9
$DIMGAP
 40
0.09
  9
$DIMJUST
 70
     0
  9
$DIMSD1
 70
     0
  9
$DIMSD2
 70
     0
  9
$DIMTOLJ
 70
     1
  9
$DIMTZIN
 70
     0
  9
$DIMALTZ
 70
     0
  9
$DIMALTTZ
 70
     0
  9
$DIMFIT
 70
     0
  9
$DIMUPT
 70
     0
  9
$DIMUNIT
 70
     2
  9
$DIMDEC
 70
     2
  9
$DIMTDEC
 70
     2
  9
$DIMALTU
 70
     2
  9
$DIMALTTD
 70
     3
  9
$DIMTXSTY
  7
STANDARD
  9
$DIMAUNIT
 70
     0
  9
$LUNITS
 70
     2
  9
$LUPREC
 70
     4
  9
$SKETCHINC
 40
0.1
  9
$FILLETRAD
 40
1.5875
  9
$AUNITS
 70
     0
  9
$AUPREC
 70
     0
  9
$MENU
  1
acad
  9
$ELEVATION
 40
0.0
  9
$PELEVATION
 40
0.0
  9
$THICKNESS
 40
0.0
  9
$LIMCHECK
 70
     0
  9
$BLIPMODE
 70
     1
  9
$CHAMFERA
 40
0.0
  9
$CHAMFERB
 40
0.0
  9
$CHAMFERC
 40
0.0
  9
$CHAMFERD
 40
0.0
  9
$SKPOLY
 70
     0
  9
$TDCREATE
 40
2450478.650828032
  9
$TDUPDATE
 40
2450487.628330382
  9
$TDINDWG
 40
0.1912523148
  9
$TDUSRTIMER
 40
0.1912523148
  9
$USRTIMER
 70
     1
  9
$ANGBASE
 50
0.0
  9
$ANGDIR
 70
     0
  9
$PDMODE
 70
     0
  9
$PDSIZE
 40
0.0
  9
$PLINEWID
 40
0.0
  9
$COORDS
 70
     1
  9
$SPLFRAME
 70
     0
  9
$SPLINETYPE
 70
     6
  9
$SPLINESEGS
 70
     8
  9
$ATTDIA
 70
     0
  9
$ATTREQ
 70
     1
  9
$HANDLING
 70
     1
  9
$HANDSEED
  5
72C
  9
$SURFTAB1
 70
     6
  9
$SURFTAB2
 70
     6
  9
$SURFTYPE
 70
     6
  9
$SURFU
 70
     6
  9
$SURFV
 70
     6
  9
$UCSNAME
  2

  9
$UCSORG
 10
0.0
 20
0.0
 30
0.0
  9
$UCSXDIR
 10
1.0
 20
0.0
 30
0.0
  9
$UCSYDIR
 10
0.0
 20
1.0
 30
0.0
  9
$PUCSNAME
  2

  9
$PUCSORG
 10
0.0
 20
0.0
 30
0.0
  9
$PUCSXDIR
 10
1.0
 20
0.0
 30
0.0
  9
$PUCSYDIR
 10
0.0
 20
1.0
 30
0.0
  9
$USERI1
 70
     0
  9
$USERI2
 70
     0
  9
$USERI3
 70
     0
  9
$USERI4
 70
     0
  9
$USERI5
 70
     0
  9
$USERR1
 40
0.0
  9
$USERR2
 40
0.0
  9
$USERR3
 40
0.0
  9
$USERR4
 40
0.0
  9
$USERR5
 40
0.0
  9
$WORLDVIEW
 70
     1
  9
$SHADEDGE
 70
     3
  9
$SHADEDIF
 70
    70
  9
$TILEMODE
 70
     1
  9
$MAXACTVP
 70
    16
  9
$PINSBASE
 10
0.0
 20
0.0
 30
0.0
  9
$PLIMCHECK
 70
     0
  9
$PEXTMIN
 10
1.000000E+20
 20
1.000000E+20
 30
1.000000E+20
  9
$PEXTMAX
 10
-1.000000E+20
 20
-1.000000E+20
 30
-1.000000E+20
  9
$PLIMMIN
 10
0.0
 20
0.0
  9
$PLIMMAX
 10
12.0
 20
9.0
  9
$UNITMODE
 70
     0
  9
$VISRETAIN
 70
     0
  9
$PLINEGEN
 70
     0
  9
$PSLTSCALE
 70
     1
  9
$TREEDEPTH
 70
  3020
  9
$PICKSTYLE
 70
     1
  9
$CMLSTYLE
  2
STANDARD
  9
$CMLJUST
 70
     0
  9
$CMLSCALE
 40
1.0
  9
$SAVEIMAGES
 70
     0
  0
ENDSEC
  0
SECTION
  2
CLASSES
  0
CLASS
  1
ACMESCOPE
  2
AcMeScope
  3
ACME_MODULE_NAME
 90
        0
280
     0
281
     0
  0
CLASS
  1
ACMECOMMANDHISTORY
  2
AcMeCommandHistory
  3
ACME_MODULE_NAME
 90
        0
280
     0
281
     0
  0
CLASS
  1
AcRfInsAdjusterMgr
  2
AcRfInsAdjusterMgr
  3
ACME_MODULE_NAME
 90
        0
280
     0
281
     0
  0
CLASS
  1
ACGREFMASTER
  2
AcGrefMaster
  3
"AcadRfServer"
 90
        0
280
     0
281
     0
  0
CLASS
  1
AmiMaster
  2
AmiMaster
  3
"AmiServices"
 90
        0
280
     0
281
     0
  0
CLASS
  1
ACASGREFMASTER
  2
AcAsGrefMaster
  3
"AutoSurfResolver"
 90
        0
280
     0
281
     0
  0
CLASS
  1
ADAPPL
  2
AcAdAppl
  3
"DesignerServices"
 90
        0
280
     0
281
     0
  0
CLASS
  1
DEPMGR
  2
AcAdDepMgr
  3
"DesignerServices"
 90
        0
280
     0
281
     0
  0
CLASS
  1
PARAMMGR
  2
AcAdParamMgr
  3
"DesignerServices"
 90
        0
280
     0
281
     0
  0
CLASS
  1
PARAMSCOPE
  2
AcAdParamScope
  3
"DesignerServices"
 90
        0
280
     0
281
     0
  0
CLASS
  1
"IM_SYSVAR_MAN"
  2
AcImSysVarManager
  3
"ADAM"
 90
        0
280
     0
281
     0
  0
CLASS
  1
SYSTEM_VAR_INT
  2
AcImIntSysVar
  3
"ADAM"
 90
        0
280
     0
281
     0
  0
CLASS
  1
SYSTEM_VAR_REAL
  2
AcImRealSysVar
  3
"ADAM"
 90
        0
280
     0
281
     0
  0
CLASS
  1
SYSTEM_VAR_STR
  2
AcImStrSysVar
  3
"ADAM"
 90
        0
280
     0
281
     0
  0
CLASS
  1
NAMEDAPPL
  2
AcAdNamedAppl
  3
"DesignerServices"
 90
        0
280
     0
281
     0
  0
CLASS
  1
ADPART
  2
AcAdPart
  3
"DesignerServices"
 90
        0
280
     0
281
     1
  0
CLASS
  1
ADBASE
  2
AcAdBase
  3
"DesignerServices"
 90
        0
280
     0
281
     0
  0
CLASS
  1
BODYID
  2
AcAdBodyId
  3
"DesignerServices"
 90
        0
280
     0
281
     0
  0
CLASS
  1
WORKPLANEDISPLAYMGR
  2
AcAdDisplayMgr
  3
"DesignerServices"
 90
        0
280
     0
281
     0
  0
CLASS
  1
ADHNTMPLT
  2
AdHoleNoteTemplateMgr
  3
"DesignerServices"
 90
        0
280
     0
281
     0
  0
CLASS
  1
AM_HNTEMPLATE_MGR_NAME
  2
AdHoleNoteTemplateMgrName
  3
"DesignerServices"
 90
        0
280
     0
281
     0
  0
CLASS
  1
AcAdGrefModule
  2
AcAdGrefModule
  3
AD_GREF_SERVICES_NSTR
 90
        0
280
     0
281
     0
  0
CLASS
  1
AM_DRAWING_MGR
  2
AcDmDwgMgr
  3
"Designer_Drawing_Mgmt"
 90
        0
280
     0
281
     0
  0
CLASS
  1
AM_DWG_DOCUMENT
  2
AcDmDwgDocument
  3
"Designer_Drawing_Mgmt"
 90
        0
280
     0
281
     0
  0
CLASS
  1
AM_DWG_SHEET
  2
AcDmSheet
  3
"Designer_Drawing_Mgmt"
 90
        0
280
     0
281
     0
  0
CLASS
  1
AM_VIEWDIMPARMAP
  2
AcDmViewDimParMap
  3
"Designer_Drawing_Mgmt"
 90
        0
280
     0
281
     0
  0
CLASS
  1
AM_DWGMGR_NAME
  2
AcDmDwgMgrName
  3
"Designer_Drawing_Mgmt"
 90
        0
280
     0
281
     0
  0
CLASS
  1
ACAMPROJECT
  2
AcAmProject
  3
"DesignerAssemblies"
 90
        0
280
     0
281
     0
  0
CLASS
  1
ACAMGRCOMPDEF
  2
AcAmGrCompDef
  3
"DesignerAssemblies"
 90
        0
280
     0
281
     0
  0
CLASS
  1
ACAMCOMPDEF
  2
AcAmCompDef
  3
"DesignerAssemblies"
 90
        0
280
     0
281
     0
  0
CLASS
  1
ACAMCOMPDEFMGR
  2
AcAmCompDefMgr
  3
"DesignerAssemblies"
 90
        0
280
     0
281
     0
  0
CLASS
  1
AMCONTEXTMGR
  2
AcAmContextMgr
  3
"DesignerAssemblies"
 90
        0
280
     0
281
     0
  0
CLASS
  1
AcAmContextModeler
  2
AcAmContextModeler
  3
"DesignerAssemblies"
 90
        0
280
     0
281
     0
  0
CLASS
  1
ACAMDRAWINGMAN
  2
AcAmDrawingMan
  3
"DesignerAssemblies"
 90
        0
280
     0
281
     0
  0
CLASS
  1
ASSYSVARS
  2
AcAsSysVars
  3
"AutoSurf"
 90
        0
280
     0
281
     0
  0
CLASS
  1
ASSTATICVARS
  2
AcAsStaticVars
  3
"AutoSurf"
 90
        0
280
     0
281
     0
  0
CLASS
  1
ASAPP
  2
AcAsAppObject
  3
"AutoSurf"
 90
        0
280
     0
281
     0
  0
CLASS
  1
AGDICTIONARY
  2
AgDictionary
  3
"AccelView"
 90
        1
280
     0
281
     0
  0
ENDSEC
  0
SECTION
  2
TABLES
  0
TABLE
  2
VPORT
  5
8
100
AcDbSymbolTable
 70
     3
  0
VPORT
  5
72B
100
AcDbSymbolTableRecord
100
AcDbViewportTableRecord
  2
*ACTIVE
 70
     0
 10
0.0
 20
0.0
 11
1.0
 21
1.0
 12
406.497359
 22
254.921963
 13
0.0
 23
0.0
 14
1.0
 24
1.0
 15
10.0
 25
10.0
 16
0.0
 26
0.0
 36
1.0
 17
0.0
 27
0.0
 37
0.0
 40
503.493925
 41
1.602094
 42
50.0
 43
0.0
 44
0.0
 50
0.0
 51
0.0
 71
     0
 72
   100
 73
     1
 74
     0
 75
     0
 76
     1
 77
     0
 78
     0
  0
ENDTAB
  0
TABLE
  2
LTYPE
  5
5
100
AcDbSymbolTable
 70
     6
  0
LTYPE
  5
14
100
AcDbSymbolTableRecord
100
AcDbLinetypeTableRecord
  2
BYBLOCK
 70
     0
  3

 72
    65
 73
     0
 40
0.0
  0
LTYPE
  5
15
100
AcDbSymbolTableRecord
100
AcDbLinetypeTableRecord
  2
BYLAYER
 70
     0
  3

 72
    65
 73
     0
 40
0.0
  0
LTYPE
  5
16
100
AcDbSymbolTableRecord
100
AcDbLinetypeTableRecord
  2
CONTINUOUS
 70
    64
  3
Solid line
 72
    65
 73
     0
 40
0.0
  0
LTYPE
  5
4F
100
AcDbSymbolTableRecord
100
AcDbLinetypeTableRecord
  2
HIDDEN
 70
    64
  3
__ __ __ __ __ __ __ __ __ __ __ __ __ __ __ __
 72
    65
 73
     2
 40
0.375
 49
0.25
 74
     0
 49
-0.125
 74
     0
  0
LTYPE
  5
51
100
AcDbSymbolTableRecord
100
AcDbLinetypeTableRecord
  2
PHANTOM2
 70
     0
  3
___ _ _ ___ _ _ ___ _ _ ___ _ _ ___ _ _ ___ _ _
 72
    65
 73
     6
 40
1.25
 49
0.625
 74
     0
 49
-0.125
 74
     0
 49
0.125
 74
     0
 49
-0.125
 74
     0
 49
0.125
 74
     0
 49
-0.125
 74
     0
  0
LTYPE
  5
5C
100
AcDbSymbolTableRecord
100
AcDbLinetypeTableRecord
  2
CENTER
 70
    64
  3
____ _ ____ _ ____ _ ____ _ ____ _ ____ _ ____ 
 72
    65
 73
     4
 40
2.0
 49
1.25
 74
     0
 49
-0.25
 74
     0
 49
0.25
 74
     0
 49
-0.25
 74
     0
  0
LTYPE
  5
7C
100
AcDbSymbolTableRecord
100
AcDbLinetypeTableRecord
  2
ASULTYPE
 70
     0
  3
Solid line
 72
    65
 73
     2
 40
3.0
 49
2.5
 74
     0
 49
0.5
 74
     0
  0
LTYPE
  5
7D
100
AcDbSymbolTableRecord
100
AcDbLinetypeTableRecord
  2
ASVLTYPE
 70
     0
  3
__ __ __ __ __ __ __ __ __ __ __ __ __ __ __ __ __ __ __ __ __
 72
    65
 73
     2
 40
0.75
 49
0.5
 74
     0
 49
-0.25
 74
     0
  0
ENDTAB
  0
TABLE
  2
LAYER
  5
2
100
AcDbSymbolTable
 70
    20
  0
LAYER
  5
F
100
AcDbSymbolTableRecord
100
AcDbLayerTableRecord
  2
0
 70
    64
 62
     7
  6
CONTINUOUS
  0
LAYER
  5
7F
100
AcDbSymbolTableRecord
100
AcDbLayerTableRecord
  2
CENTER
 70
    64
 62
     1
  6
CENTER
  0
LAYER
  5
80
100
AcDbSymbolTableRecord
100
AcDbLayerTableRecord
  2
DIM
 70
    64
 62
     3
  6
CONTINUOUS
  0
LAYER
  5
81
100
AcDbSymbolTableRecord
100
AcDbLayerTableRecord
  2
TEXT
 70
    64
 62
     7
  6
CONTINUOUS
  0
LAYER
  5
9C
100
AcDbSymbolTableRecord
100
AcDbLayerTableRecord
  2
BORDER
 70
    64
 62
     6
  6
CONTINUOUS
  0
LAYER
  5
E9
100
AcDbSymbolTableRecord
100
AcDbLayerTableRecord
  2
FOOT-B
 70
    64
 62
     7
  6
CONTINUOUS
  0
LAYER
  5
122
100
AcDbSymbolTableRecord
100
AcDbLayerTableRecord
  2
FOOT-A
 70
    64
 62
     7
  6
CONTINUOUS
  0
LAYER
  5
123
100
AcDbSymbolTableRecord
100
AcDbLayerTableRecord
  2
FOOT-2
 70
    64
 62
     7
  6
CONTINUOUS
  0
LAYER
  5
1C7
100
AcDbSymbolTableRecord
100
AcDbLayerTableRecord
  2
HATCH
 70
    64
 62
     7
  6
CONTINUOUS
  0
LAYER
  5
20F
100
AcDbSymbolTableRecord
100
AcDbLayerTableRecord
  2
DEFPOINTS
 70
    64
 62
     7
  6
CONTINUOUS
  0
ENDTAB
  0
TABLE
  2
STYLE
  5
3
100
AcDbSymbolTable
 70
     3
  0
STYLE
  5
10
100
AcDbSymbolTableRecord
100
AcDbTextStyleTableRecord
  2
STANDARD
 70
    64
 40
0.0
 41
1.0
 50
0.0
 71
     0
 42
6.0
  3
txt
  4

  0
STYLE
  5
85
100
AcDbSymbolTableRecord
100
AcDbTextStyleTableRecord
  2
CIM_TB
 70
    64
 40
0.0
 41
1.0
 50
0.0
 71
     0
 42
0.2
  3
romans
  4

  0
STYLE
  5
9D
100
AcDbSymbolTableRecord
100
AcDbTextStyleTableRecord
  2
ADESK2
 70
    64
 40
0.0
 41
1.0
 50
0.0
 71
     0
 42
0.065
  3
romans
  4

  0
ENDTAB
  0
TABLE
  2
VIEW
  5
6
100
AcDbSymbolTable
 70
     0
  0
ENDTAB
  0
TABLE
  2
UCS
  5
7
100
AcDbSymbolTable
 70
     0
  0
ENDTAB
  0
TABLE
  2
APPID
  5
9
100
AcDbSymbolTable
 70
     6
  0
APPID
  5
11
100
AcDbSymbolTableRecord
100
AcDbRegAppTableRecord
  2
ACAD
 70
     0
  0
APPID
  5
5F
100
AcDbSymbolTableRecord
100
AcDbRegAppTableRecord
  2
AD_DRAW
 70
     0
  0
APPID
  5
77
100
AcDbSymbolTableRecord
100
AcDbRegAppTableRecord
  2
DESIGNERASSEMBLIES
 70
     0
  0
APPID
  5
78
100
AcDbSymbolTableRecord
100
AcDbRegAppTableRecord
  2
MCAD_NO_VIS
 70
     0
  0
APPID
  5
7E
100
AcDbSymbolTableRecord
100
AcDbRegAppTableRecord
  2
ASURF_PCURVE_APPNAME
 70
     0
  0
APPID
  5
82
100
AcDbSymbolTableRecord
100
AcDbRegAppTableRecord
  2
TB_S_MPD
 70
     0
  0
ENDTAB
  0
TABLE
  2
DIMSTYLE
  5
A
100
AcDbSymbolTable
 70
     6
  0
DIMSTYLE
105
1D
100
AcDbSymbolTableRecord
100
AcDbDimStyleTableRecord
  2
STANDARD
 70
     0
  3

  4

  5

  6

  7

 40
1.0
 41
0.18
 42
0.0625
 43
0.38
 44
0.18
 45
0.0
 46
0.0
 47
0.0
 48
0.0
140
0.18
141
0.09
142
0.0
143
25.4
144
1.0
145
0.0
146
1.0
147
0.09
 71
     0
 72
     0
 73
     1
 74
     1
 75
     0
 76
     0
 77
     0
 78
     0
170
     0
171
     2
172
     0
173
     0
174
     0
175
     0
176
     0
177
     0
178
     0
270
     2
271
     4
272
     4
273
     2
274
     2
340
10
275
     0
280
     0
281
     0
282
     0
283
     1
284
     0
285
     0
286
     0
287
     3
288
     0
  0
DIMSTYLE
105
8D
100
AcDbSymbolTableRecord
100
AcDbDimStyleTableRecord
  2
SU1
 70
     0
  3

  4

  5

  6

  7

 40
1.0
 41
0.18
 42
0.0625
 43
0.38
 44
0.18
 45
0.0
 46
0.0
 47
0.001
 48
0.0
140
0.18
141
0.09
142
0.0
143
25.4
144
1.0
145
0.0
146
1.0
147
0.09
 71
     0
 72
     0
 73
     1
 74
     1
 75
     0
 76
     0
 77
     0
 78
     0
170
     0
171
     2
172
     0
173
     0
174
     0
175
     0
176
     0
177
     0
178
     0
270
     2
271
     3
272
     3
273
     2
274
     2
340
10
275
     0
280
     0
281
     0
282
     0
283
     1
284
     0
285
     0
286
     0
287
     0
288
     0
  0
DIMSTYLE
105
8E
100
AcDbSymbolTableRecord
100
AcDbDimStyleTableRecord
  2
SU1$4
 70
     0
  3

  4

  5

  6

  7

 40
1.0
 41
0.18
 42
0.0625
 43
0.38
 44
0.18
 45
0.0
 46
0.0
 47
0.001
 48
0.0
140
0.18
141
0.09
142
0.0
143
25.4
144
1.0
145
0.0
146
1.0
147
0.09
 71
     0
 72
     0
 73
     1
 74
     1
 75
     0
 76
     0
 77
     0
 78
     0
170
     0
171
     2
172
     0
173
     0
174
     0
175
     0
176
     0
177
     0
178
     0
270
     2
271
     3
272
     3
273
     2
274
     2
340
10
275
     0
280
     0
281
     0
282
     0
283
     1
284
     0
285
     0
286
     0
287
     0
288
     1
  0
DIMSTYLE
105
8F
100
AcDbSymbolTableRecord
100
AcDbDimStyleTableRecord
  2
SU1$2
 70
     0
  3

  4

  5

  6

  7

 40
1.0
 41
0.18
 42
0.0625
 43
0.38
 44
0.18
 45
0.0
 46
0.0
 47
0.001
 48
0.0
140
0.18
141
0.09
142
0.0
143
25.4
144
1.0
145
0.0
146
1.0
147
0.09
 71
     0
 72
     0
 73
     1
 74
     1
 75
     0
 76
     0
 77
     0
 78
     0
170
     0
171
     2
172
     0
173
     0
174
     0
175
     0
176
     0
177
     0
178
     0
270
     2
271
     1
272
     3
273
     2
274
     2
340
10
275
     0
280
     0
281
     0
282
     0
283
     1
284
     0
285
     0
286
     0
287
     0
288
     0
  0
DIMSTYLE
105
90
100
AcDbSymbolTableRecord
100
AcDbDimStyleTableRecord
  2
SU1$3
 70
     0
  3

  4

  5

  6

  7

 40
1.0
 41
0.18
 42
0.0625
 43
0.38
 44
0.18
 45
0.0
 46
0.0
 47
0.001
 48
0.0
140
0.18
141
0.09
142
0.0
143
25.4
144
1.0
145
0.0
146
1.0
147
0.09
 71
     0
 72
     0
 73
     1
 74
     1
 75
     0
 76
     0
 77
     0
 78
     0
170
     0
171
     2
172
     0
173
     0
174
     0
175
     0
176
     0
177
     0
178
     0
270
     2
271
     3
272
     3
273
     2
274
     2
340
10
275
     0
280
     0
281
     0
282
     0
283
     1
284
     0
285
     0
286
     0
287
     0
288
     1
  0
DIMSTYLE
105
91
100
AcDbSymbolTableRecord
100
AcDbDimStyleTableRecord
  2
SU1$7
 70
     0
  3

  4

  5

  6

  7

 40
1.0
 41
0.18
 42
0.0625
 43
0.38
 44
0.18
 45
0.0
 46
0.0
 47
0.001
 48
0.0
140
0.18
141
0.09
142
0.0
143
25.4
144
1.0
145
0.0
146
1.0
147
0.09
 71
     0
 72
     0
 73
     1
 74
     1
 75
     0
 76
     0
 77
     0
 78
     0
170
     0
171
     2
172
     0
173
     0
174
     0
175
     0
176
     0
177
     0
178
     0
270
     2
271
     3
272
     3
273
     2
274
     2
340
10
275
     0
280
     0
281
     0
282
     0
283
     1
284
     0
285
     0
286
     0
287
     0
288
     1
  0
ENDTAB
  0
TABLE
  2
BLOCK_RECORD
  5
1
100
AcDbSymbolTable
 70
    44
  0
BLOCK_RECORD
  5
1A
100
AcDbSymbolTableRecord
100
AcDbBlockTableRecord
  2
*MODEL_SPACE
  0
BLOCK_RECORD
  5
17
100
AcDbSymbolTableRecord
100
AcDbBlockTableRecord
  2
*PAPER_SPACE
  0
BLOCK_RECORD
  5
6B
100
AcDbSymbolTableRecord
100
AcDbBlockTableRecord
  2
*U0
  0
BLOCK_RECORD
  5
9E
100
AcDbSymbolTableRecord
100
AcDbBlockTableRecord
  2
D-BORDER
  0
BLOCK_RECORD
  5
F9
100
AcDbSymbolTableRecord
100
AcDbBlockTableRecord
  2
*U3
  0
BLOCK_RECORD
  5
103
100
AcDbSymbolTableRecord
100
AcDbBlockTableRecord
  2
*U4
  0
BLOCK_RECORD
  5
10D
100
AcDbSymbolTableRecord
100
AcDbBlockTableRecord
  2
*U5
  0
BLOCK_RECORD
  5
1D6
100
AcDbSymbolTableRecord
100
AcDbBlockTableRecord
  2
*X7
  0
BLOCK_RECORD
  5
207
100
AcDbSymbolTableRecord
100
AcDbBlockTableRecord
  2
*D8
  0
BLOCK_RECORD
  5
215
100
AcDbSymbolTableRecord
100
AcDbBlockTableRecord
  2
*D9
  0
BLOCK_RECORD
  5
222
100
AcDbSymbolTableRecord
100
AcDbBlockTableRecord
  2
*D10
  0
BLOCK_RECORD
  5
22F
100
AcDbSymbolTableRecord
100
AcDbBlockTableRecord
  2
*D11
  0
BLOCK_RECORD
  5
23D
100
AcDbSymbolTableRecord
100
AcDbBlockTableRecord
  2
*D12
  0
BLOCK_RECORD
  5
24B
100
AcDbSymbolTableRecord
100
AcDbBlockTableRecord
  2
*D13
  0
BLOCK_RECORD
  5
27D
100
AcDbSymbolTableRecord
100
AcDbBlockTableRecord
  2
*D14
  0
BLOCK_RECORD
  5
28A
100
AcDbSymbolTableRecord
100
AcDbBlockTableRecord
  2
*D15
  0
BLOCK_RECORD
  5
297
100
AcDbSymbolTableRecord
100
AcDbBlockTableRecord
  2
*D16
  0
BLOCK_RECORD
  5
2A5
100
AcDbSymbolTableRecord
100
AcDbBlockTableRecord
  2
*D17
  0
BLOCK_RECORD
  5
2CB
100
AcDbSymbolTableRecord
100
AcDbBlockTableRecord
  2
*D18
  0
BLOCK_RECORD
  5
31A
100
AcDbSymbolTableRecord
100
AcDbBlockTableRecord
  2
*D19
  0
BLOCK_RECORD
  5
327
100
AcDbSymbolTableRecord
100
AcDbBlockTableRecord
  2
*D20
  0
BLOCK_RECORD
  5
334
100
AcDbSymbolTableRecord
100
AcDbBlockTableRecord
  2
*D21
  0
BLOCK_RECORD
  5
341
100
AcDbSymbolTableRecord
100
AcDbBlockTableRecord
  2
*D22
  0
BLOCK_RECORD
  5
34E
100
AcDbSymbolTableRecord
100
AcDbBlockTableRecord
  2
*D23
  0
BLOCK_RECORD
  5
35B
100
AcDbSymbolTableRecord
100
AcDbBlockTableRecord
  2
*D24
  0
BLOCK_RECORD
  5
378
100
AcDbSymbolTableRecord
100
AcDbBlockTableRecord
  2
*D25
  0
BLOCK_RECORD
  5
387
100
AcDbSymbolTableRecord
100
AcDbBlockTableRecord
  2
*D26
  0
BLOCK_RECORD
  5
396
100
AcDbSymbolTableRecord
100
AcDbBlockTableRecord
  2
*D27
  0
BLOCK_RECORD
  5
3A5
100
AcDbSymbolTableRecord
100
AcDbBlockTableRecord
  2
*D28
  0
BLOCK_RECORD
  5
3B3
100
AcDbSymbolTableRecord
100
AcDbBlockTableRecord
  2
*D29
  0
BLOCK_RECORD
  5
3C2
100
AcDbSymbolTableRecord
100
AcDbBlockTableRecord
  2
*D30
  0
BLOCK_RECORD
  5
3DF
100
AcDbSymbolTableRecord
100
AcDbBlockTableRecord
  2
*D31
  0
BLOCK_RECORD
  5
3ED
100
AcDbSymbolTableRecord
100
AcDbBlockTableRecord
  2
*D32
  0
BLOCK_RECORD
  5
4E2
100
AcDbSymbolTableRecord
100
AcDbBlockTableRecord
  2
*D33
  0
BLOCK_RECORD
  5
4F8
100
AcDbSymbolTableRecord
100
AcDbBlockTableRecord
  2
*D34
  0
BLOCK_RECORD
  5
59C
100
AcDbSymbolTableRecord
100
AcDbBlockTableRecord
  2
*D35
  0
BLOCK_RECORD
  5
5F4
100
AcDbSymbolTableRecord
100
AcDbBlockTableRecord
  2
*D37
  0
BLOCK_RECORD
  5
600
100
AcDbSymbolTableRecord
100
AcDbBlockTableRecord
  2
*D38
  0
BLOCK_RECORD
  5
6F3
100
AcDbSymbolTableRecord
100
AcDbBlockTableRecord
  2
*D41
  0
BLOCK_RECORD
  5
718
100
AcDbSymbolTableRecord
100
AcDbBlockTableRecord
  2
*D43
  0
ENDTAB
  0
ENDSEC
  0
SECTION
  2
BLOCKS
  0
BLOCK
  5
1B
100
AcDbEntity
  8
0
100
AcDbBlockBegin
  2
*MODEL_SPACE
 70
     0
 10
0.0
 20
0.0
 30
0.0
  3
*MODEL_SPACE
  1

  0
ENDBLK
  5
1C
100
AcDbEntity
  8
0
100
AcDbBlockEnd
  0
BLOCK
  5
18
100
AcDbEntity
 67
     1
  8
0
100
AcDbBlockBegin
  2
*PAPER_SPACE
 70
     0
 10
0.0
 20
0.0
 30
0.0
  3
*PAPER_SPACE
  1

  0
ENDBLK
  5
19
100
AcDbEntity
 67
     1
  8
0
100
AcDbBlockEnd
  0
BLOCK
  5
6C
100
AcDbEntity
  8
0
100
AcDbBlockBegin
  2
*U0
 70
     1
 10
0.0
 20
0.0
 30
0.0
  3
*U0
  1

  0
ENDBLK
  5
6D
100
AcDbEntity
  8
0
100
AcDbBlockEnd
  0
BLOCK
  5
E1
100
AcDbEntity
  8
0
100
AcDbBlockBegin
  2
D-BORDER
 70
     0
 10
0.0
 20
0.0
 30
0.0
  3
D-BORDER
  1

  0
LINE
  5
9F
100
AcDbEntity
  8
TEXT
100
AcDbLine
 10
0.125
 20
19.447595
 30
0.0
 11
2.6875
 21
19.447595
 31
0.0
  0
LINE
  5
A0
100
AcDbEntity
  8
TEXT
100
AcDbLine
 10
2.6875
 20
19.447595
 30
0.0
 11
2.6875
 21
19.947595
 31
0.0
  0
CIRCLE
  5
A1
100
AcDbEntity
  8
TEXT
100
AcDbCircle
 10
0.802871
 20
19.684056
 30
0.0
 40
0.1875
  0
CIRCLE
  5
A2
100
AcDbEntity
  8
TEXT
100
AcDbCircle
 10
0.802871
 20
19.684056
 30
0.0
 40
0.09375
  0
LINE
  5
A3
100
AcDbEntity
  8
TEXT
  6
CENTER
100
AcDbLine
 10
0.568951
 20
19.684056
 30
0.0
 11
2.021621
 21
19.684056
 31
0.0
  0
LINE
  5
A4
100
AcDbEntity
  8
TEXT
  6
CENTER
100
AcDbLine
 10
0.802871
 20
19.455375
 30
0.0
 11
0.802871
 21
19.923251
 31
0.0
  0
LINE
  5
A5
100
AcDbEntity
  8
TEXT
100
AcDbLine
 10
1.271621
 20
19.777806
 30
0.0
 11
1.756263
 21
19.871556
 31
0.0
  0
LINE
  5
A6
100
AcDbEntity
  8
TEXT
100
AcDbLine
 10
1.271621
 20
19.590306
 30
0.0
 11
1.756263
 21
19.496556
 31
0.0
  0
LINE
  5
A7
100
AcDbEntity
  8
TEXT
100
AcDbLine
 10
1.271621
 20
19.590306
 30
0.0
 11
1.271621
 21
19.777806
 31
0.0
  0
LINE
  5
A8
100
AcDbEntity
  8
TEXT
100
AcDbLine
 10
1.756263
 20
19.871556
 30
0.0
 11
1.756263
 21
19.496556
 31
0.0
  0
TEXT
  5
A9
100
AcDbEntity
  8
TEXT
100
AcDbText
 10
0.3125
 20
19.262423
 30
0.0
 40
0.1
  1
THIRD ANGLE PROJECTION
100
AcDbText
  0
LINE
  5
AA
100
AcDbEntity
  8
TEXT
100
AcDbLine
 10
2.6875
 20
19.447595
 30
0.0
 11
2.6875
 21
19.197595
 31
0.0
  0
LINE
  5
AB
100
AcDbEntity
  8
TEXT
100
AcDbLine
 10
2.6875
 20
19.197595
 30
0.0
 11
0.125
 21
19.197595
 31
0.0
  0
TEXT
  5
AC
100
AcDbEntity
  8
TEXT
100
AcDbText
 10
30.260292
 20
0.244377
 30
0.0
 40
0.065
  1
OF
  7
ADESK2
100
AcDbText
  0
TEXT
  5
AD
100
AcDbEntity
  8
TEXT
100
AcDbText
 10
26.500724
 20
0.974951
 30
0.0
 40
0.065
  1
DATE
  7
ADESK2
100
AcDbText
  0
LINE
  5
AE
100
AcDbEntity
  8
TEXT
100
AcDbLine
 10
26.377305
 20
1.091501
 30
0.0
 11
26.377305
 21
0.125
 31
0.0
  0
TEXT
  5
AF
100
AcDbEntity
  8
TEXT
100
AcDbText
 10
24.957321
 20
0.356501
 30
0.0
 40
0.065
  1
DESIGN
  7
ADESK2
100
AcDbText
  0
TEXT
  5
B0
100
AcDbEntity
  8
TEXT
100
AcDbText
 10
24.957321
 20
0.671501
 30
0.0
 40
0.065
  1
CHECKED
  7
ADESK2
100
AcDbText
  0
LINE
  5
B1
100
AcDbEntity
  8
TEXT
100
AcDbLine
 10
24.877321
 20
1.091501
 30
0.0
 11
26.877321
 21
1.091501
 31
0.0
  0
TEXT
  5
B2
100
AcDbEntity
  8
TEXT
100
AcDbText
 10
30.359702
 20
19.465196
 30
0.0
 40
0.065
  1
APPROVED
  7
ADESK2
100
AcDbText
  0
TEXT
  5
B3
100
AcDbEntity
  8
TEXT
100
AcDbText
 10
29.566002
 20
19.465196
 30
0.0
 40
0.065
  1
DATE
  7
ADESK2
100
AcDbText
  0
TEXT
  5
B4
100
AcDbEntity
  8
TEXT
100
AcDbText
 10
27.500302
 20
19.465196
 30
0.0
 40
0.065
  1
DESCRIPTION
  7
ADESK2
100
AcDbText
  0
TEXT
  5
B5
100
AcDbEntity
  8
TEXT
100
AcDbText
 10
26.198402
 20
19.465196
 30
0.0
 40
0.065
  1
REV
  7
ADESK2
100
AcDbText
  0
TEXT
  5
B6
100
AcDbEntity
  8
TEXT
100
AcDbText
 10
28.328502
 20
19.707396
 30
0.0
 40
0.065
  1
REVISIONS
  7
ADESK2
100
AcDbText
  0
LINE
  5
B7
100
AcDbEntity
  8
TEXT
100
AcDbLine
 10
30.118302
 20
19.374896
 30
0.0
 11
30.118302
 21
19.624896
 31
0.0
  0
LINE
  5
B8
100
AcDbEntity
  8
TEXT
100
AcDbLine
 10
29.238302
 20
19.374896
 30
0.0
 11
29.238302
 21
19.624896
 31
0.0
  0
LINE
  5
B9
100
AcDbEntity
  8
TEXT
100
AcDbLine
 10
26.498302
 20
19.374896
 30
0.0
 11
26.498302
 21
19.624896
 31
0.0
  0
LINE
  5
BA
100
AcDbEntity
  8
TEXT
100
AcDbLine
 10
26.108049
 20
19.934959
 30
0.0
 11
26.108049
 21
19.374896
 31
0.0
  0
LINE
  5
BB
100
AcDbEntity
  8
TEXT
100
AcDbLine
 10
26.108049
 20
19.374896
 30
0.0
 11
31.162356
 21
19.374896
 31
0.0
  0
LINE
  5
BC
100
AcDbEntity
  8
TEXT
100
AcDbLine
 10
26.108049
 20
19.624896
 30
0.0
 11
31.162356
 21
19.624896
 31
0.0
  0
TEXT
  5
BD
100
AcDbEntity
  8
TEXT
100
AcDbText
 10
30.827821
 20
0.667401
 30
0.0
 40
0.065
  1
REV
  7
ADESK2
100
AcDbText
  0
TEXT
  5
BE
100
AcDbEntity
  8
TEXT
100
AcDbText
 10
28.448321
 20
0.667401
 30
0.0
 40
0.065
  1
DWG NO.
  7
ADESK2
100
AcDbText
  0
TEXT
  5
BF
100
AcDbEntity
  8
TEXT
100
AcDbText
 10
26.965221
 20
0.667401
 30
0.0
 40
0.065
  1
SIZE
  7
ADESK2
100
AcDbText
  0
TEXT
  5
C0
100
AcDbEntity
  8
TEXT
100
AcDbText
 10
29.430121
 20
0.244001
 30
0.0
 40
0.065
  1
SHEET
  7
ADESK2
100
AcDbText
  0
TEXT
  5
C1
100
AcDbEntity
  8
TEXT
100
AcDbText
 10
26.929621
 20
0.244001
 30
0.0
 40
0.065
  1
SCALE
  7
ADESK2
100
AcDbText
  0
LINE
  5
C2
100
AcDbEntity
  8
TEXT
100
AcDbLine
 10
30.747321
 20
0.401501
 30
0.0
 11
30.747321
 21
0.781501
 31
0.0
  0
LINE
  5
C3
100
AcDbEntity
  8
TEXT
100
AcDbLine
 10
28.377321
 20
0.401501
 30
0.0
 11
28.377321
 21
0.781501
 31
0.0
  0
LINE
  5
C4
100
AcDbEntity
  8
TEXT
100
AcDbLine
 10
27.257321
 20
0.401501
 30
0.0
 11
27.257321
 21
0.781501
 31
0.0
  0
LINE
  5
C5
100
AcDbEntity
  8
TEXT
100
AcDbLine
 10
29.377321
 20
0.125
 30
0.0
 11
29.377321
 21
0.401501
 31
0.0
  0
LINE
  5
C6
100
AcDbEntity
  8
TEXT
100
AcDbLine
 10
27.877321
 20
0.125
 30
0.0
 11
27.877321
 21
0.401501
 31
0.0
  0
LINE
  5
C7
100
AcDbEntity
  8
BORDER
100
AcDbLine
 10
26.877321
 20
0.125
 30
0.0
 11
26.877321
 21
1.901501
 31
0.0
  0
LINE
  5
C8
100
AcDbEntity
  8
BORDER
100
AcDbLine
 10
26.877321
 20
1.401501
 30
0.0
 11
31.149118
 21
1.401501
 31
0.0
  0
LINE
  5
C9
100
AcDbEntity
  8
TEXT
100
AcDbLine
 10
26.877321
 20
0.401501
 30
0.0
 11
31.149118
 21
0.401501
 31
0.0
  0
LINE
  5
CA
100
AcDbEntity
  8
TEXT
100
AcDbLine
 10
24.877321
 20
0.781501
 30
0.0
 11
31.149118
 21
0.781501
 31
0.0
  0
LINE
  5
CB
100
AcDbEntity
  8
TEXT
100
AcDbLine
 10
24.877321
 20
0.466501
 30
0.0
 11
26.877321
 21
0.466501
 31
0.0
  0
LINE
  5
CC
100
AcDbEntity
  8
BORDER
100
AcDbLine
 10
24.877321
 20
1.901501
 30
0.0
 11
31.149118
 21
1.901501
 31
0.0
  0
LINE
  5
CD
100
AcDbEntity
  8
BORDER
100
AcDbLine
 10
24.877321
 20
0.125
 30
0.0
 11
24.877321
 21
2.324147
 31
0.0
  0
TEXT
  5
CE
100
AcDbEntity
  8
TEXT
100
AcDbText
 10
24.945631
 20
0.979964
 30
0.0
 40
0.065
  1
DRAWN
  7
ADESK2
100
AcDbText
  0
TEXT
  5
CF
100
AcDbEntity
  8
BORDER
100
AcDbText
 10
25.055285
 20
2.049228
 30
0.0
 40
0.15
  1
UNIVERSITY OF CALIFORNIA @ SANTA BARBARA
100
AcDbText
  0
LINE
  5
D0
100
AcDbEntity
  8
BORDER
100
AcDbLine
 10
24.87628
 20
2.324147
 30
0.0
 11
31.149118
 21
2.324147
 31
0.0
  0
LINE
  5
D1
100
AcDbEntity
  8
BORDER
100
AcDbLine
 10
31.17142
 20
0.125
 30
0.0
 11
31.17142
 21
19.947595
 31
0.0
  0
LINE
  5
D2
100
AcDbEntity
  8
BORDER
100
AcDbLine
 10
0.125
 20
19.947595
 30
0.0
 11
0.125
 21
0.125
 31
0.0
  0
LINE
  5
D3
100
AcDbEntity
  8
BORDER
100
AcDbLine
 10
0.125
 20
0.125
 30
0.0
 11
31.17142
 21
0.125
 31
0.0
  0
TEXT
  5
D4
100
AcDbEntity
  8
TEXT
100
AcDbText
 10
27.328393
 20
0.665354
 30
0.0
 40
0.075
  1
DIRECTORY
100
AcDbText
  0
LINE
  5
D5
100
AcDbEntity
  8
BORDER
100
AcDbLine
 10
0.125
 20
19.947595
 30
0.0
 11
31.17142
 21
19.947595
 31
0.0
  0
TEXT
  5
D6
100
AcDbEntity
  8
BORDER
100
AcDbText
 10
27.564864
 20
1.575566
 30
0.0
 40
0.15
  1
HIGH ENERGY PHYSICS
100
AcDbText
  0
TEXT
  5
D7
100
AcDbEntity
  8
BORDER
100
AcDbText
 10
27.001167
 20
0.434778
 30
0.0
 40
0.2
  1
D
100
AcDbText
  0
TEXT
  5
D8
100
AcDbEntity
  8
TEXT
100
AcDbText
 10
25.106606
 20
1.785089
 30
0.0
 40
0.065
  1
UNLESS OTHERWISE SPECIFIED:
  7
ADESK2
 72
     1
 11
25.877321
 21
1.785089
 31
0.0
100
AcDbText
  0
TEXT
  5
D9
100
AcDbEntity
  8
TEXT
100
AcDbText
 10
25.180892
 20
1.679851
 30
0.0
 40
0.065
  1
DIMENSIONS ARE IN INCHES
  7
ADESK2
 72
     1
 11
25.877321
 21
1.679851
 31
0.0
100
AcDbText
  0
TEXT
  5
DA
100
AcDbEntity
  8
TEXT
100
AcDbText
 10
25.57863
 20
1.574613
 30
0.0
 40
0.065
  1
TOLERANCES
  7
ADESK2
 72
     1
 11
25.877321
 21
1.574613
 31
0.0
100
AcDbText
  0
TEXT
  5
DB
100
AcDbEntity
  8
TEXT
100
AcDbText
 10
25.192279
 20
1.466743
 30
0.0
 40
0.065
  1
DECIMALS
  7
ADESK2
100
AcDbText
  0
TEXT
  5
DC
100
AcDbEntity
  8
TEXT
100
AcDbText
 10
25.192279
 20
1.361505
 30
0.0
 40
0.065
  1
.XX  %%P .05
  7
ADESK2
100
AcDbText
  0
TEXT
  5
DD
100
AcDbEntity
  8
TEXT
100
AcDbText
 10
25.192279
 20
1.256267
 30
0.0
 40
0.065
  1
.XXX %%P .005
  7
ADESK2
100
AcDbText
  0
TEXT
  5
DE
100
AcDbEntity
  8
TEXT
100
AcDbText
 10
25.262916
 20
1.153744
 30
0.0
 40
0.065
  1
DO NOT SCALE DRAWING
  7
ADESK2
 72
     1
 11
25.877321
 21
1.153744
 31
0.0
100
AcDbText
  0
TEXT
  5
DF
100
AcDbEntity
  8
TEXT
100
AcDbText
 10
26.056176
 20
1.466743
 30
0.0
 40
0.065
  1
ANGULAR
  7
ADESK2
100
AcDbText
  0
TEXT
  5
E0
100
AcDbEntity
  8
TEXT
100
AcDbText
 10
26.056176
 20
1.361505
 30
0.0
 40
0.065
  1
  %%P 0.5%%D
  7
ADESK2
100
AcDbText
  0
ENDBLK
  5
E2
100
AcDbEntity
  8
0
100
AcDbBlockEnd
  0
BLOCK
  5
101
100
AcDbEntity
  8
0
100
AcDbBlockBegin
  2
*U3
 70
    65
 10
0.0
 20
0.0
 30
0.0
  3
*U3
  1
*TB
  0
CIRCLE
  5
FA
100
AcDbEntity
  8
FOOT-2
100
AcDbCircle
 10
0.0
 20
0.0
 30
0.0
 40
0.058
  0
LINE
  5
FB
100
AcDbEntity
  8
CENTER
100
AcDbLine
 10
-0.019333
 20
0.0
 30
0.0
 11
0.019333
 21
0.0
 31
0.0
  0
LINE
  5
FC
100
AcDbEntity
  8
CENTER
100
AcDbLine
 10
0.0
 20
-0.019333
 30
0.0
 11
0.0
 21
0.019333
 31
0.0
  0
LINE
  5
FD
100
AcDbEntity
  8
CENTER
100
AcDbLine
 10
0.038667
 20
0.0
 30
0.0
 11
0.183
 21
0.0
 31
0.0
  0
LINE
  5
FE
100
AcDbEntity
  8
CENTER
100
AcDbLine
 10
0.0
 20
0.038667
 30
0.0
 11
0.0
 21
0.183
 31
0.0
  0
LINE
  5
FF
100
AcDbEntity
  8
CENTER
100
AcDbLine
 10
-0.038667
 20
0.0
 30
0.0
 11
-0.183
 21
0.0
 31
0.0
  0
LINE
  5
100
100
AcDbEntity
  8
CENTER
100
AcDbLine
 10
0.0
 20
-0.038667
 30
0.0
 11
0.0
 21
-0.183
 31
0.0
  0
ENDBLK
  5
102
100
AcDbEntity
  8
0
100
AcDbBlockEnd
  0
BLOCK
  5
10B
100
AcDbEntity
  8
0
100
AcDbBlockBegin
  2
*U4
 70
    65
 10
0.0
 20
0.0
 30
0.0
  3
*U4
  1
*TB
  0
CIRCLE
  5
104
100
AcDbEntity
  8
FOOT-2
100
AcDbCircle
 10
0.0
 20
0.0
 30
0.0
 40
0.046875
  0
LINE
  5
105
100
AcDbEntity
  8
CENTER
100
AcDbLine
 10
-0.015625
 20
0.0
 30
0.0
 11
0.015625
 21
0.0
 31
0.0
  0
LINE
  5
106
100
AcDbEntity
  8
CENTER
100
AcDbLine
 10
0.0
 20
-0.015625
 30
0.0
 11
0.0
 21
0.015625
 31
0.0
  0
LINE
  5
107
100
AcDbEntity
  8
CENTER
100
AcDbLine
 10
0.03125
 20
0.0
 30
0.0
 11
0.171875
 21
0.0
 31
0.0
  0
LINE
  5
108
100
AcDbEntity
  8
CENTER
100
AcDbLine
 10
0.0
 20
0.03125
 30
0.0
 11
0.0
 21
0.171875
 31
0.0
  0
LINE
  5
109
100
AcDbEntity
  8
CENTER
100
AcDbLine
 10
-0.03125
 20
0.0
 30
0.0
 11
-0.171875
 21
0.0
 31
0.0
  0
LINE
  5
10A
100
AcDbEntity
  8
CENTER
100
AcDbLine
 10
0.0
 20
-0.03125
 30
0.0
 11
0.0
 21
-0.171875
 31
0.0
  0
ENDBLK
  5
10C
100
AcDbEntity
  8
0
100
AcDbBlockEnd
  0
BLOCK
  5
120
100
AcDbEntity
  8
0
100
AcDbBlockBegin
  2
*U5
 70
    65
 10
0.0
 20
0.0
 30
0.0
  3
*U5
  1
*TB
  0
POLYLINE
  5
10E
100
AcDbEntity
  8
FOOT-2
100
AcDb2dPolyline
 66
     1
 10
0.0
 20
0.0
 30
0.0
 70
     1
  0
VERTEX
  5
10F
100
AcDbEntity
  8
FOOT-2
100
AcDbVertex
100
AcDb2dVertex
 10
-0.176
 20
0.063
 30
0.0
 42
1.0
  0
VERTEX
  5
110
100
AcDbEntity
  8
FOOT-2
100
AcDbVertex
100
AcDb2dVertex
 10
-0.176
 20
-0.063
 30
0.0
  0
VERTEX
  5
111
100
AcDbEntity
  8
FOOT-2
100
AcDbVertex
100
AcDb2dVertex
 10
0.0
 20
-0.063
 30
0.0
 42
1.0
  0
VERTEX
  5
112
100
AcDbEntity
  8
FOOT-2
100
AcDbVertex
100
AcDb2dVertex
 10
0.0
 20
0.063
 30
0.0
  0
SEQEND
  5
113
100
AcDbEntity
  8
FOOT-2
  0
LINE
  5
114
100
AcDbEntity
  8
CENTER
100
AcDbLine
 10
-0.197
 20
0.0
 30
0.0
 11
-0.155
 21
0.0
 31
0.0
  0
LINE
  5
115
100
AcDbEntity
  8
CENTER
100
AcDbLine
 10
-0.176
 20
-0.021
 30
0.0
 11
-0.176
 21
0.021
 31
0.0
  0
LINE
  5
116
100
AcDbEntity
  8
CENTER
100
AcDbLine
 10
-0.134
 20
0.0
 30
0.0
 11
0.012
 21
0.0
 31
0.0
  0
LINE
  5
117
100
AcDbEntity
  8
CENTER
100
AcDbLine
 10
-0.176
 20
0.042
 30
0.0
 11
-0.176
 21
0.188
 31
0.0
  0
LINE
  5
118
100
AcDbEntity
  8
CENTER
100
AcDbLine
 10
-0.218
 20
0.0
 30
0.0
 11
-0.364
 21
0.0
 31
0.0
  0
LINE
  5
119
100
AcDbEntity
  8
CENTER
100
AcDbLine
 10
-0.176
 20
-0.042
 30
0.0
 11
-0.176
 21
-0.188
 31
0.0
  0
LINE
  5
11A
100
AcDbEntity
  8
CENTER
100
AcDbLine
 10
-0.021
 20
0.0
 30
0.0
 11
0.021
 21
0.0
 31
0.0
  0
LINE
  5
11B
100
AcDbEntity
  8
CENTER
100
AcDbLine
 10
0.0
 20
-0.021
 30
0.0
 11
0.0
 21
0.021
 31
0.0
  0
LINE
  5
11C
100
AcDbEntity
  8
CENTER
100
AcDbLine
 10
0.042
 20
0.0
 30
0.0
 11
0.188
 21
0.0
 31
0.0
  0
LINE
  5
11D
100
AcDbEntity
  8
CENTER
100
AcDbLine
 10
0.0
 20
0.042
 30
0.0
 11
0.0
 21
0.188
 31
0.0
  0
LINE
  5
11E
100
AcDbEntity
  8
CENTER
100
AcDbLine
 10
-0.042
 20
0.0
 30
0.0
 11
-0.188
 21
0.0
 31
0.0
  0
LINE
  5
11F
100
AcDbEntity
  8
CENTER
100
AcDbLine
 10
0.0
 20
-0.042
 30
0.0
 11
0.0
 21
-0.188
 31
0.0
  0
ENDBLK
  5
121
100
AcDbEntity
  8
0
100
AcDbBlockEnd
  0
BLOCK
  5
1D7
100
AcDbEntity
  8
0
100
AcDbBlockBegin
  2
*X7
 70
    65
 10
0.0
 20
0.0
 30
0.0
  3
*X7
  1

  0
LINE
  5
1D9
100
AcDbEntity
  8
0
 62
     0
100
AcDbLine
 10
296.151695
 20
119.375
 30
0.0
 11
296.913695
 21
120.137
 31
0.0
  0
LINE
  5
1DA
100
AcDbEntity
  8
0
 62
     0
100
AcDbLine
 10
294.789935
 20
119.781006
 30
0.0
 11
295.328824
 21
120.319896
 31
0.0
  0
LINE
  5
1DB
100
AcDbEntity
  8
0
 62
     0
100
AcDbLine
 10
293.891395
 20
120.650233
 30
0.0
 11
294.430284
 21
121.189123
 31
0.0
  0
LINE
  5
1DC
100
AcDbEntity
  8
0
 62
     0
100
AcDbLine
 10
292.992854
 20
121.51946
 30
0.0
 11
293.531744
 21
122.058349
 31
0.0
  0
LINE
  5
1DD
100
AcDbEntity
  8
0
 62
     0
100
AcDbLine
 10
292.094314
 20
122.388687
 30
0.0
 11
292.633204
 21
122.927576
 31
0.0
  0
LINE
  5
1DE
100
AcDbEntity
  8
0
 62
     0
100
AcDbLine
 10
291.195774
 20
123.257914
 30
0.0
 11
291.734664
 21
123.796803
 31
0.0
  0
LINE
  5
1DF
100
AcDbEntity
  8
0
 62
     0
100
AcDbLine
 10
290.297234
 20
124.12714
 30
0.0
 11
290.836123
 21
124.66603
 31
0.0
  0
LINE
  5
1E0
100
AcDbEntity
  8
0
 62
     0
100
AcDbLine
 10
289.398694
 20
124.996367
 30
0.0
 11
289.937583
 21
125.535257
 31
0.0
  0
LINE
  5
1E1
100
AcDbEntity
  8
0
 62
     0
100
AcDbLine
 10
288.500154
 20
125.865594
 30
0.0
 11
289.039043
 21
126.404483
 31
0.0
  0
LINE
  5
1E2
100
AcDbEntity
  8
0
 62
     0
100
AcDbLine
 10
287.601613
 20
126.734821
 30
0.0
 11
288.140503
 21
127.27371
 31
0.0
  0
LINE
  5
1E3
100
AcDbEntity
  8
0
 62
     0
100
AcDbLine
 10
286.703073
 20
127.604048
 30
0.0
 11
287.241963
 21
128.142937
 31
0.0
  0
LINE
  5
1E4
100
AcDbEntity
  8
0
 62
     0
100
AcDbLine
 10
285.804533
 20
128.473274
 30
0.0
 11
286.343423
 21
129.012164
 31
0.0
  0
LINE
  5
1E5
100
AcDbEntity
  8
0
 62
     0
100
AcDbLine
 10
284.905993
 20
129.342501
 30
0.0
 11
285.444882
 21
129.881391
 31
0.0
  0
LINE
  5
1E6
100
AcDbEntity
  8
0
 62
     0
100
AcDbLine
 10
284.007453
 20
130.211728
 30
0.0
 11
284.546342
 21
130.750617
 31
0.0
  0
LINE
  5
1E7
100
AcDbEntity
  8
0
 62
     0
100
AcDbLine
 10
283.108913
 20
131.080955
 30
0.0
 11
283.647802
 21
131.619844
 31
0.0
  0
LINE
  5
1E8
100
AcDbEntity
  8
0
 62
     0
100
AcDbLine
 10
282.210373
 20
131.950182
 30
0.0
 11
282.749262
 21
132.489071
 31
0.0
  0
LINE
  5
1E9
100
AcDbEntity
  8
0
 62
     0
100
AcDbLine
 10
281.311832
 20
132.819408
 30
0.0
 11
281.850722
 21
133.358298
 31
0.0
  0
LINE
  5
1EA
100
AcDbEntity
  8
0
 62
     0
100
AcDbLine
 10
280.413292
 20
133.688635
 30
0.0
 11
280.952182
 21
134.227525
 31
0.0
  0
LINE
  5
1EB
100
AcDbEntity
  8
0
 62
     0
100
AcDbLine
 10
279.514752
 20
134.557862
 30
0.0
 11
280.053641
 21
135.096751
 31
0.0
  0
LINE
  5
1EC
100
AcDbEntity
  8
0
 62
     0
100
AcDbLine
 10
278.616212
 20
135.427089
 30
0.0
 11
279.155101
 21
135.965978
 31
0.0
  0
LINE
  5
1ED
100
AcDbEntity
  8
0
 62
     0
100
AcDbLine
 10
277.717672
 20
136.296315
 30
0.0
 11
278.256561
 21
136.835205
 31
0.0
  0
LINE
  5
1EE
100
AcDbEntity
  8
0
 62
     0
100
AcDbLine
 10
276.819132
 20
137.165542
 30
0.0
 11
277.358021
 21
137.704432
 31
0.0
  0
LINE
  5
1EF
100
AcDbEntity
  8
0
 62
     0
100
AcDbLine
 10
275.920591
 20
138.034769
 30
0.0
 11
276.459481
 21
138.573658
 31
0.0
  0
LINE
  5
1F0
100
AcDbEntity
  8
0
 62
     0
100
AcDbLine
 10
297.919462
 20
119.375
 30
0.0
 11
298.681462
 21
120.137
 31
0.0
  0
LINE
  5
1F1
100
AcDbEntity
  8
0
 62
     0
100
AcDbLine
 10
299.687229
 20
119.375
 30
0.0
 11
300.449229
 21
120.137
 31
0.0
  0
LINE
  5
1F2
100
AcDbEntity
  8
0
 62
     0
100
AcDbLine
 10
301.454996
 20
119.375
 30
0.0
 11
302.216996
 21
120.137
 31
0.0
  0
LINE
  5
1F3
100
AcDbEntity
  8
0
 62
     0
100
AcDbLine
 10
303.222763
 20
119.375
 30
0.0
 11
303.984763
 21
120.137
 31
0.0
  0
LINE
  5
1F4
100
AcDbEntity
  8
0
 62
     0
100
AcDbLine
 10
304.99053
 20
119.375
 30
0.0
 11
305.75253
 21
120.137
 31
0.0
  0
LINE
  5
1F5
100
AcDbEntity
  8
0
 62
     0
100
AcDbLine
 10
306.758297
 20
119.375
 30
0.0
 11
307.520297
 21
120.137
 31
0.0
  0
LINE
  5
1F6
100
AcDbEntity
  8
0
 62
     0
100
AcDbLine
 10
308.526064
 20
119.375
 30
0.0
 11
309.288064
 21
120.137
 31
0.0
  0
LINE
  5
1F7
100
AcDbEntity
  8
0
 62
     0
100
AcDbLine
 10
310.293831
 20
119.375
 30
0.0
 11
311.055831
 21
120.137
 31
0.0
  0
LINE
  5
1F8
100
AcDbEntity
  8
0
 62
     0
100
AcDbLine
 10
312.061598
 20
119.375
 30
0.0
 11
312.823598
 21
120.137
 31
0.0
  0
LINE
  5
1F9
100
AcDbEntity
  8
0
 62
     0
100
AcDbLine
 10
313.829365
 20
119.375
 30
0.0
 11
314.591365
 21
120.137
 31
0.0
  0
LINE
  5
1FA
100
AcDbEntity
  8
0
 62
     0
100
AcDbLine
 10
315.597132
 20
119.375
 30
0.0
 11
316.359132
 21
120.137
 31
0.0
  0
LINE
  5
1FB
100
AcDbEntity
  8
0
 62
     0
100
AcDbLine
 10
317.364899
 20
119.375
 30
0.0
 11
318.126899
 21
120.137
 31
0.0
  0
LINE
  5
1FC
100
AcDbEntity
  8
0
 62
     0
100
AcDbLine
 10
319.132666
 20
119.375
 30
0.0
 11
319.894666
 21
120.137
 31
0.0
  0
LINE
  5
1FD
100
AcDbEntity
  8
0
 62
     0
100
AcDbLine
 10
320.900433
 20
119.375
 30
0.0
 11
321.662433
 21
120.137
 31
0.0
  0
LINE
  5
1FE
100
AcDbEntity
  8
0
 62
     0
100
AcDbLine
 10
322.6682
 20
119.375
 30
0.0
 11
323.4302
 21
120.137
 31
0.0
  0
LINE
  5
1FF
100
AcDbEntity
  8
0
 62
     0
100
AcDbLine
 10
324.435967
 20
119.375
 30
0.0
 11
325.197967
 21
120.137
 31
0.0
  0
LINE
  5
200
100
AcDbEntity
  8
0
 62
     0
100
AcDbLine
 10
326.203733
 20
119.375
 30
0.0
 11
326.965733
 21
120.137
 31
0.0
  0
LINE
  5
201
100
AcDbEntity
  8
0
 62
     0
100
AcDbLine
 10
327.9715
 20
119.375
 30
0.0
 11
328.7335
 21
120.137
 31
0.0
  0
LINE
  5
202
100
AcDbEntity
  8
0
 62
     0
100
AcDbLine
 10
329.739267
 20
119.375
 30
0.0
 11
330.501267
 21
120.137
 31
0.0
  0
LINE
  5
203
100
AcDbEntity
  8
0
 62
     0
100
AcDbLine
 10
331.507034
 20
119.375
 30
0.0
 11
332.269034
 21
120.137
 31
0.0
  0
LINE
  5
204
100
AcDbEntity
  8
0
 62
     0
100
AcDbLine
 10
333.274801
 20
119.375
 30
0.0
 11
334.036801
 21
120.137
 31
0.0
  0
LINE
  5
205
100
AcDbEntity
  8
0
 62
     0
100
AcDbLine
 10
335.042568
 20
119.375
 30
0.0
 11
335.804568
 21
120.137
 31
0.0
  0
ENDBLK
  5
206
100
AcDbEntity
  8
0
100
AcDbBlockEnd
  0
BLOCK
  5
5E9
100
AcDbEntity
  8
0
100
AcDbBlockBegin
  2
*D8
 70
    65
 10
0.0
 20
0.0
 30
0.0
  3
*D8
  1
*TB
  0
LINE
  5
5EA
100
AcDbEntity
  8
0
  6
BYBLOCK
 62
     0
100
AcDbLine
 10
301.550378
 20
130.9625
 30
0.0
 11
301.550378
 21
171.121228
 31
0.0
  0
LINE
  5
5EB
100
AcDbEntity
  8
0
  6
BYBLOCK
 62
     0
100
AcDbLine
 10
282.22003
 20
166.549228
 30
0.0
 11
277.64803
 21
166.549228
 31
0.0
  0
LINE
  5
5EC
100
AcDbEntity
  8
0
  6
BYBLOCK
 62
     0
100
AcDbLine
 10
306.122378
 20
166.549228
 30
0.0
 11
310.694378
 21
166.549228
 31
0.0
  0
SOLID
  5
5ED
100
AcDbEntity
  8
0
  6
BYBLOCK
 62
     0
100
AcDbTrace
 10
282.22003
 20
167.311228
 30
0.0
 11
282.22003
 21
165.787228
 31
0.0
 12
286.79203
 22
166.549228
 32
0.0
 13
286.79203
 23
166.549228
 33
0.0
  0
SOLID
  5
5EE
100
AcDbEntity
  8
0
  6
BYBLOCK
 62
     0
100
AcDbTrace
 10
306.122378
 20
167.311228
 30
0.0
 11
306.122378
 21
165.787228
 31
0.0
 12
301.550378
 22
166.549228
 32
0.0
 13
301.550378
 23
166.549228
 33
0.0
  0
MTEXT
  5
5EF
100
AcDbEntity
  8
0
  6
BYBLOCK
 62
     0
100
AcDbMText
 10
339.269378
 20
166.549228
 30
0.0
 40
4.572
 41
0.0
 71
     5
 72
     1
  1
\A1;14.76mm[0.581"]
  0
POINT
  5
5F0
100
AcDbEntity
  8
DEFPOINTS
  6
BYBLOCK
 62
     0
100
AcDbPoint
 10
286.79203
 20
76.082664
 30
0.0
  0
POINT
  5
5F1
100
AcDbEntity
  8
DEFPOINTS
  6
BYBLOCK
 62
     0
100
AcDbPoint
 10
301.550378
 20
129.375
 30
0.0
  0
POINT
  5
5F2
100
AcDbEntity
  8
DEFPOINTS
  6
BYBLOCK
 62
     0
100
AcDbPoint
 10
301.550378
 20
166.549228
 30
0.0
  0
ENDBLK
  5
5F3
100
AcDbEntity
  8
0
100
AcDbBlockEnd
  0
BLOCK
  5
30F
100
AcDbEntity
  8
0
100
AcDbBlockBegin
  2
*D9
 70
    65
 10
0.0
 20
0.0
 30
0.0
  3
*D9
  1

  0
LINE
  5
310
100
AcDbEntity
  8
0
  6
BYBLOCK
 62
     0
100
AcDbLine
 10
336.75
 20
117.7875
 30
0.0
 11
336.75
 21
91.549624
 31
0.0
  0
LINE
  5
311
100
AcDbEntity
  8
0
  6
BYBLOCK
 62
     0
100
AcDbLine
 10
282.22003
 20
96.121624
 30
0.0
 11
277.64803
 21
96.121624
 31
0.0
  0
LINE
  5
312
100
AcDbEntity
  8
0
  6
BYBLOCK
 62
     0
100
AcDbLine
 10
341.322
 20
96.121624
 30
0.0
 11
345.894
 21
96.121624
 31
0.0
  0
SOLID
  5
313
100
AcDbEntity
  8
0
  6
BYBLOCK
 62
     0
100
AcDbTrace
 10
282.22003
 20
96.883624
 30
0.0
 11
282.22003
 21
95.359624
 31
0.0
 12
286.79203
 22
96.121624
 32
0.0
 13
286.79203
 23
96.121624
 33
0.0
  0
SOLID
  5
314
100
AcDbEntity
  8
0
  6
BYBLOCK
 62
     0
100
AcDbTrace
 10
341.322
 20
96.883624
 30
0.0
 11
341.322
 21
95.359624
 31
0.0
 12
336.75
 22
96.121624
 32
0.0
 13
336.75
 23
96.121624
 33
0.0
  0
MTEXT
  5
315
100
AcDbEntity
  8
0
  6
BYBLOCK
 62
     0
100
AcDbMText
 10
375.612
 20
96.121624
 30
0.0
 40
4.572
 41
0.0
 71
     5
 72
     1
  1
\A1;49.96mm[1.967"]
  0
POINT
  5
316
100
AcDbEntity
  8
DEFPOINTS
  6
BYBLOCK
 62
     0
100
AcDbPoint
 10
286.79203
 20
76.082664
 30
0.0
  0
POINT
  5
317
100
AcDbEntity
  8
DEFPOINTS
  6
BYBLOCK
 62
     0
100
AcDbPoint
 10
336.75
 20
119.375
 30
0.0
  0
POINT
  5
318
100
AcDbEntity
  8
DEFPOINTS
  6
BYBLOCK
 62
     0
100
AcDbPoint
 10
336.75
 20
96.121624
 30
0.0
  0
ENDBLK
  5
319
100
AcDbEntity
  8
0
100
AcDbBlockEnd
  0
BLOCK
  5
304
100
AcDbEntity
  8
0
100
AcDbBlockBegin
  2
*D10
 70
    65
 10
0.0
 20
0.0
 30
0.0
  3
*D10
  1

  0
LINE
  5
305
100
AcDbEntity
  8
0
  6
BYBLOCK
 62
     0
100
AcDbLine
 10
317.700011
 20
119.587332
 30
0.0
 11
317.700011
 21
80.439371
 31
0.0
  0
LINE
  5
306
100
AcDbEntity
  8
0
  6
BYBLOCK
 62
     0
100
AcDbLine
 10
282.22003
 20
85.011371
 30
0.0
 11
277.64803
 21
85.011371
 31
0.0
  0
LINE
  5
307
100
AcDbEntity
  8
0
  6
BYBLOCK
 62
     0
100
AcDbLine
 10
322.272011
 20
85.011371
 30
0.0
 11
326.844011
 21
85.011371
 31
0.0
  0
SOLID
  5
308
100
AcDbEntity
  8
0
  6
BYBLOCK
 62
     0
100
AcDbTrace
 10
282.22003
 20
85.773371
 30
0.0
 11
282.22003
 21
84.249371
 31
0.0
 12
286.79203
 22
85.011371
 32
0.0
 13
286.79203
 23
85.011371
 33
0.0
  0
SOLID
  5
309
100
AcDbEntity
  8
0
  6
BYBLOCK
 62
     0
100
AcDbTrace
 10
322.272011
 20
85.773371
 30
0.0
 11
322.272011
 21
84.249371
 31
0.0
 12
317.700011
 22
85.011371
 32
0.0
 13
317.700011
 23
85.011371
 33
0.0
  0
MTEXT
  5
30A
100
AcDbEntity
  8
0
  6
BYBLOCK
 62
     0
100
AcDbMText
 10
380.184011
 20
85.011371
 30
0.0
 40
4.572
 41
0.0
 71
     5
 72
     1
  1
\A1;30.91mm±0.03mm[1.217"±0.001"]
  0
POINT
  5
30B
100
AcDbEntity
  8
DEFPOINTS
  6
BYBLOCK
 62
     0
100
AcDbPoint
 10
286.79203
 20
76.082664
 30
0.0
  0
POINT
  5
30C
100
AcDbEntity
  8
DEFPOINTS
  6
BYBLOCK
 62
     0
100
AcDbPoint
 10
317.700011
 20
121.174832
 30
0.0
  0
POINT
  5
30D
100
AcDbEntity
  8
DEFPOINTS
  6
BYBLOCK
 62
     0
100
AcDbPoint
 10
317.700011
 20
85.011371
 30
0.0
  0
ENDBLK
  5
30E
100
AcDbEntity
  8
0
100
AcDbBlockEnd
  0
BLOCK
  5
271
100
AcDbEntity
  8
0
100
AcDbBlockBegin
  2
*D11
 70
    65
 10
0.0
 20
0.0
 30
0.0
  3
*D11
  1

  0
LINE
  5
272
100
AcDbEntity
  8
0
  6
BYBLOCK
 62
     0
100
AcDbLine
 10
336.3375
 20
129.375
 30
0.0
 11
379.313029
 21
129.375
 31
0.0
  0
LINE
  5
273
100
AcDbEntity
  8
0
  6
BYBLOCK
 62
     0
100
AcDbLine
 10
374.741029
 20
124.803
 30
0.0
 11
374.741029
 21
120.231
 31
0.0
  0
LINE
  5
274
100
AcDbEntity
  8
0
  6
BYBLOCK
 62
     0
100
AcDbLine
 10
374.741029
 20
137.567669
 30
0.0
 11
374.741029
 21
142.139669
 31
0.0
  0
LINE
  5
275
100
AcDbEntity
  8
0
  6
BYBLOCK
 62
     0
100
AcDbLine
 10
374.741029
 20
142.139669
 30
0.0
 11
379.313029
 21
142.139669
 31
0.0
  0
SOLID
  5
276
100
AcDbEntity
  8
0
  6
BYBLOCK
 62
     0
100
AcDbTrace
 10
373.979029
 20
124.803
 30
0.0
 11
375.503029
 21
124.803
 31
0.0
 12
374.741029
 22
129.375
 32
0.0
 13
374.741029
 23
129.375
 33
0.0
  0
SOLID
  5
277
100
AcDbEntity
  8
0
  6
BYBLOCK
 62
     0
100
AcDbTrace
 10
373.979029
 20
137.567669
 30
0.0
 11
375.503029
 21
137.567669
 31
0.0
 12
374.741029
 22
132.995669
 32
0.0
 13
374.741029
 23
132.995669
 33
0.0
  0
MTEXT
  5
278
100
AcDbEntity
  8
0
  6
BYBLOCK
 62
     0
100
AcDbMText
 10
406.364029
 20
142.139669
 30
0.0
 40
4.572
 41
0.0
 71
     5
 72
     1
  1
\A1;3.62mm[0.143"]
  0
POINT
  5
279
100
AcDbEntity
  8
DEFPOINTS
  6
BYBLOCK
 62
     0
100
AcDbPoint
 10
334.75
 20
129.375
 30
0.0
  0
POINT
  5
27A
100
AcDbEntity
  8
DEFPOINTS
  6
BYBLOCK
 62
     0
100
AcDbPoint
 10
729.252593
 20
132.995669
 30
0.0
  0
POINT
  5
27B
100
AcDbEntity
  8
DEFPOINTS
  6
BYBLOCK
 62
     0
100
AcDbPoint
 10
374.741029
 20
132.995669
 30
0.0
  0
ENDBLK
  5
27C
100
AcDbEntity
  8
0
100
AcDbBlockEnd
  0
BLOCK
  5
265
100
AcDbEntity
  8
0
100
AcDbBlockBegin
  2
*D12
 70
    65
 10
0.0
 20
0.0
 30
0.0
  3
*D12
  1

  0
LINE
  5
266
100
AcDbEntity
  8
0
  6
BYBLOCK
 62
     0
100
AcDbLine
 10
322.245481
 20
124.045501
 30
0.0
 11
445.080147
 21
124.045501
 31
0.0
  0
LINE
  5
267
100
AcDbEntity
  8
0
  6
BYBLOCK
 62
     0
100
AcDbLine
 10
440.508147
 20
119.473501
 30
0.0
 11
440.508147
 21
114.901501
 31
0.0
  0
LINE
  5
268
100
AcDbEntity
  8
0
  6
BYBLOCK
 62
     0
100
AcDbLine
 10
440.508147
 20
137.567669
 30
0.0
 11
440.508147
 21
142.139669
 31
0.0
  0
LINE
  5
269
100
AcDbEntity
  8
0
  6
BYBLOCK
 62
     0
100
AcDbLine
 10
440.508147
 20
142.139669
 30
0.0
 11
445.080147
 21
142.139669
 31
0.0
  0
SOLID
  5
26A
100
AcDbEntity
  8
0
  6
BYBLOCK
 62
     0
100
AcDbTrace
 10
439.746147
 20
119.473501
 30
0.0
 11
441.270147
 21
119.473501
 31
0.0
 12
440.508147
 22
124.045501
 32
0.0
 13
440.508147
 23
124.045501
 33
0.0
  0
SOLID
  5
26B
100
AcDbEntity
  8
0
  6
BYBLOCK
 62
     0
100
AcDbTrace
 10
439.746147
 20
137.567669
 30
0.0
 11
441.270147
 21
137.567669
 31
0.0
 12
440.508147
 22
132.995669
 32
0.0
 13
440.508147
 23
132.995669
 33
0.0
  0
MTEXT
  5
26C
100
AcDbEntity
  8
0
  6
BYBLOCK
 62
     0
100
AcDbMText
 10
498.420147
 20
142.139669
 30
0.0
 40
4.572
 41
0.0
 71
     5
 72
     1
  1
\A1;8.95mm±0.03mm[0.352"±0.001"]
  0
POINT
  5
26D
100
AcDbEntity
  8
DEFPOINTS
  6
BYBLOCK
 62
     0
100
AcDbPoint
 10
320.657981
 20
124.045501
 30
0.0
  0
POINT
  5
26E
100
AcDbEntity
  8
DEFPOINTS
  6
BYBLOCK
 62
     0
100
AcDbPoint
 10
729.252593
 20
132.995669
 30
0.0
  0
POINT
  5
26F
100
AcDbEntity
  8
DEFPOINTS
  6
BYBLOCK
 62
     0
100
AcDbPoint
 10
440.508147
 20
132.995669
 30
0.0
  0
ENDBLK
  5
270
100
AcDbEntity
  8
0
100
AcDbBlockEnd
  0
BLOCK
  5
259
100
AcDbEntity
  8
0
100
AcDbBlockBegin
  2
*D13
 70
    65
 10
0.0
 20
0.0
 30
0.0
  3
*D13
  1

  0
LINE
  5
25A
100
AcDbEntity
  8
0
  6
BYBLOCK
 62
     0
100
AcDbLine
 10
338.3375
 20
119.375
 30
0.0
 11
564.823206
 21
119.375
 31
0.0
  0
LINE
  5
25B
100
AcDbEntity
  8
0
  6
BYBLOCK
 62
     0
100
AcDbLine
 10
560.251206
 20
114.803
 30
0.0
 11
560.251206
 21
110.231
 31
0.0
  0
LINE
  5
25C
100
AcDbEntity
  8
0
  6
BYBLOCK
 62
     0
100
AcDbLine
 10
560.251206
 20
137.567669
 30
0.0
 11
560.251206
 21
142.139669
 31
0.0
  0
LINE
  5
25D
100
AcDbEntity
  8
0
  6
BYBLOCK
 62
     0
100
AcDbLine
 10
560.251206
 20
142.139669
 30
0.0
 11
564.823206
 21
142.139669
 31
0.0
  0
SOLID
  5
25E
100
AcDbEntity
  8
0
  6
BYBLOCK
 62
     0
100
AcDbTrace
 10
559.489206
 20
114.803
 30
0.0
 11
561.013206
 21
114.803
 31
0.0
 12
560.251206
 22
119.375
 32
0.0
 13
560.251206
 23
119.375
 33
0.0
  0
SOLID
  5
25F
100
AcDbEntity
  8
0
  6
BYBLOCK
 62
     0
100
AcDbTrace
 10
559.489206
 20
137.567669
 30
0.0
 11
561.013206
 21
137.567669
 31
0.0
 12
560.251206
 22
132.995669
 32
0.0
 13
560.251206
 23
132.995669
 33
0.0
  0
MTEXT
  5
260
100
AcDbEntity
  8
0
  6
BYBLOCK
 62
     0
100
AcDbMText
 10
625.173606
 20
142.139669
 30
0.0
 40
4.572
 41
0.0
 71
     5
 72
     1
  1
\A1;13.62mm\S 0.00mm^ -0.05mm;{\o\l\H10.972800;[}0.536"\S 0.000"^ -0.002";{\o\l\H10.972800;]}
  0
POINT
  5
261
100
AcDbEntity
  8
DEFPOINTS
  6
BYBLOCK
 62
     0
100
AcDbPoint
 10
336.75
 20
119.375
 30
0.0
  0
POINT
  5
262
100
AcDbEntity
  8
DEFPOINTS
  6
BYBLOCK
 62
     0
100
AcDbPoint
 10
729.252593
 20
132.995669
 30
0.0
  0
POINT
  5
263
100
AcDbEntity
  8
DEFPOINTS
  6
BYBLOCK
 62
     0
100
AcDbPoint
 10
560.251206
 20
132.995669
 30
0.0
  0
ENDBLK
  5
264
100
AcDbEntity
  8
0
100
AcDbBlockEnd
  0
BLOCK
  5
27E
100
AcDbEntity
  8
0
100
AcDbBlockBegin
  2
*D14
 70
    65
 10
0.0
 20
0.0
 30
0.0
  3
*D14
  1

  0
LINE
  5
27F
100
AcDbEntity
  8
0
  6
BYBLOCK
 62
     0
100
AcDbLine
 10
274.300329
 20
137.393426
 30
0.0
 11
230.632146
 21
92.2526
 31
0.0
  0
LINE
  5
280
100
AcDbEntity
  8
0
  6
BYBLOCK
 62
     0
100
AcDbLine
 10
230.524945
 20
98.717496
 30
0.0
 11
227.238896
 21
101.896343
 31
0.0
  0
LINE
  5
281
100
AcDbEntity
  8
0
  6
BYBLOCK
 62
     0
100
AcDbLine
 10
245.747645
 20
83.991411
 30
0.0
 11
249.033694
 21
80.812564
 31
0.0
  0
SOLID
  5
282
100
AcDbEntity
  8
0
  6
BYBLOCK
 62
     0
100
AcDbTrace
 10
231.054752
 20
99.265171
 30
0.0
 11
229.995137
 21
98.169821
 31
0.0
 12
233.810993
 22
95.538649
 32
0.0
 13
233.810993
 23
95.538649
 33
0.0
  0
SOLID
  5
283
100
AcDbEntity
  8
0
  6
BYBLOCK
 62
     0
100
AcDbTrace
 10
246.277453
 20
84.539085
 30
0.0
 11
245.217837
 21
83.443736
 31
0.0
 12
242.461596
 22
87.170257
 32
0.0
 13
242.461596
 23
87.170257
 33
0.0
  0
MTEXT
  5
284
100
AcDbEntity
  8
0
  6
BYBLOCK
 62
     0
100
AcDbMText
 10
269.845336
 20
60.679867
 30
0.0
 40
4.572
 41
0.0
 71
     5
 72
     1
  1
\A1;12.04mm[0.474"]
 11
0.718733
 21
-0.695286
 31
0.0
  0
POINT
  5
285
100
AcDbEntity
  8
DEFPOINTS
  6
BYBLOCK
 62
     0
100
AcDbPoint
 10
275.404095
 20
138.534416
 30
0.0
 50
44.05
  0
POINT
  5
286
100
AcDbEntity
  8
DEFPOINTS
  6
BYBLOCK
 62
     0
100
AcDbPoint
 10
237.200255
 20
81.731485
 30
0.0
 50
44.05
  0
POINT
  5
287
100
AcDbEntity
  8
DEFPOINTS
  6
BYBLOCK
 62
     0
100
AcDbPoint
 10
242.461596
 20
87.170257
 30
0.0
 50
44.05
  0
ENDBLK
  5
288
100
AcDbEntity
  8
0
100
AcDbBlockEnd
  0
BLOCK
  5
28B
100
AcDbEntity
  8
0
100
AcDbBlockBegin
  2
*D15
 70
    65
 10
0.0
 20
0.0
 30
0.0
  3
*D15
  1

  0
LINE
  5
28C
100
AcDbEntity
  8
0
  6
BYBLOCK
 62
     0
100
AcDbLine
 10
294.105867
 20
118.234011
 30
0.0
 11
259.40933
 21
82.367386
 31
0.0
  0
LINE
  5
28D
100
AcDbEntity
  8
0
  6
BYBLOCK
 62
     0
100
AcDbLine
 10
248.147193
 20
99.623305
 30
0.0
 11
244.861145
 21
102.802152
 31
0.0
  0
LINE
  5
28E
100
AcDbEntity
  8
0
  6
BYBLOCK
 62
     0
100
AcDbLine
 10
265.874226
 20
82.474587
 30
0.0
 11
269.160275
 21
79.295741
 31
0.0
  0
SOLID
  5
28F
100
AcDbEntity
  8
0
  6
BYBLOCK
 62
     0
100
AcDbTrace
 10
248.677001
 20
100.17098
 30
0.0
 11
247.617386
 21
99.075631
 31
0.0
 12
251.433242
 22
96.444459
 32
0.0
 13
251.433242
 23
96.444459
 33
0.0
  0
SOLID
  5
290
100
AcDbEntity
  8
0
  6
BYBLOCK
 62
     0
100
AcDbTrace
 10
266.404034
 20
83.022262
 30
0.0
 11
265.344418
 21
81.926913
 31
0.0
 12
262.588177
 22
85.653434
 32
0.0
 13
262.588177
 23
85.653434
 33
0.0
  0
MTEXT
  5
291
100
AcDbEntity
  8
0
  6
BYBLOCK
 62
     0
100
AcDbMText
 10
289.150405
 20
59.957755
 30
0.0
 40
4.572
 41
0.0
 71
     5
 72
     1
  1
\A1;15.52mm[0.611"]
 11
0.718733
 21
-0.695286
 31
0.0
  0
POINT
  5
292
100
AcDbEntity
  8
DEFPOINTS
  6
BYBLOCK
 62
     0
100
AcDbPoint
 10
237.200255
 20
81.731485
 30
0.0
 50
44.05
  0
POINT
  5
293
100
AcDbEntity
  8
DEFPOINTS
  6
BYBLOCK
 62
     0
100
AcDbPoint
 10
295.209633
 20
119.375
 30
0.0
 50
44.05
  0
POINT
  5
294
100
AcDbEntity
  8
DEFPOINTS
  6
BYBLOCK
 62
     0
100
AcDbPoint
 10
262.588177
 20
85.653434
 30
0.0
 50
44.05
  0
ENDBLK
  5
295
100
AcDbEntity
  8
0
100
AcDbBlockEnd
  0
BLOCK
  5
2BF
100
AcDbEntity
  8
0
100
AcDbBlockBegin
  2
*D16
 70
    65
 10
0.0
 20
0.0
 30
0.0
  3
*D16
  1

  0
LINE
  5
2C0
100
AcDbEntity
  8
0
  6
BYBLOCK
 62
     0
100
AcDbLine
 10
274.263106
 20
139.638182
 30
0.0
 11
264.30827
 21
149.268258
 31
0.0
  0
LINE
  5
2C1
100
AcDbEntity
  8
0
  6
BYBLOCK
 62
     0
100
AcDbLine
 10
273.510498
 20
152.205104
 30
0.0
 11
276.689345
 21
155.491153
 31
0.0
  0
LINE
  5
2C2
100
AcDbEntity
  8
0
  6
BYBLOCK
 62
     0
100
AcDbLine
 10
264.415472
 20
142.803362
 30
0.0
 11
261.236625
 21
139.517313
 31
0.0
  0
LINE
  5
2C3
100
AcDbEntity
  8
0
  6
BYBLOCK
 62
     0
100
AcDbLine
 10
261.236625
 20
139.517313
 30
0.0
 11
257.950576
 21
142.69616
 31
0.0
  0
SOLID
  5
2C4
100
AcDbEntity
  8
0
  6
BYBLOCK
 62
     0
100
AcDbTrace
 10
272.962823
 20
152.734912
 30
0.0
 11
274.058173
 21
151.675297
 31
0.0
 12
270.331651
 22
148.919056
 32
0.0
 13
270.331651
 23
148.919056
 33
0.0
  0
SOLID
  5
2C5
100
AcDbEntity
  8
0
  6
BYBLOCK
 62
     0
100
AcDbTrace
 10
263.867797
 20
143.33317
 30
0.0
 11
264.963147
 21
142.273554
 31
0.0
 12
267.594319
 22
146.089411
 32
0.0
 13
267.594319
 23
146.089411
 33
0.0
  0
MTEXT
  5
2C6
100
AcDbEntity
  8
0
  6
BYBLOCK
 62
     0
100
AcDbMText
 10
238.508121
 20
161.504338
 30
0.0
 40
4.572
 41
0.0
 71
     5
 72
     1
  1
\A1;3.94mm[0.155"]
 11
0.718733
 21
-0.695286
 31
0.0
  0
POINT
  5
2C7
100
AcDbEntity
  8
DEFPOINTS
  6
BYBLOCK
 62
     0
100
AcDbPoint
 10
173.082532
 20
242.995585
 30
0.0
 50
44.05
  0
POINT
  5
2C8
100
AcDbEntity
  8
DEFPOINTS
  6
BYBLOCK
 62
     0
100
AcDbPoint
 10
275.404095
 20
138.534416
 30
0.0
 50
44.05
  0
POINT
  5
2C9
100
AcDbEntity
  8
DEFPOINTS
  6
BYBLOCK
 62
     0
100
AcDbPoint
 10
267.594319
 20
146.089411
 30
0.0
 50
44.05
  0
ENDBLK
  5
2CA
100
AcDbEntity
  8
0
100
AcDbBlockEnd
  0
BLOCK
  5
2B3
100
AcDbEntity
  8
0
100
AcDbBlockBegin
  2
*D17
 70
    65
 10
0.0
 20
0.0
 30
0.0
  3
*D17
  1

  0
LINE
  5
2B4
100
AcDbEntity
  8
0
  6
BYBLOCK
 62
     0
100
AcDbLine
 10
276.348963
 20
141.794382
 30
0.0
 11
220.103213
 21
196.205209
 31
0.0
  0
LINE
  5
2B5
100
AcDbEntity
  8
0
  6
BYBLOCK
 62
     0
100
AcDbLine
 10
227.219583
 20
196.985856
 30
0.0
 11
230.39843
 21
200.271904
 31
0.0
  0
LINE
  5
2B6
100
AcDbEntity
  8
0
  6
BYBLOCK
 62
     0
100
AcDbLine
 10
220.210415
 20
189.740313
 30
0.0
 11
217.031568
 21
186.454265
 31
0.0
  0
LINE
  5
2B7
100
AcDbEntity
  8
0
  6
BYBLOCK
 62
     0
100
AcDbLine
 10
217.031568
 20
186.454265
 30
0.0
 11
213.745519
 21
189.633111
 31
0.0
  0
SOLID
  5
2B8
100
AcDbEntity
  8
0
  6
BYBLOCK
 62
     0
100
AcDbTrace
 10
226.671908
 20
197.515663
 30
0.0
 11
227.767258
 21
196.456048
 31
0.0
 12
224.040736
 22
193.699807
 32
0.0
 13
224.040736
 23
193.699807
 33
0.0
  0
SOLID
  5
2B9
100
AcDbEntity
  8
0
  6
BYBLOCK
 62
     0
100
AcDbTrace
 10
219.66274
 20
190.270121
 30
0.0
 11
220.758089
 21
189.210505
 31
0.0
 12
223.389261
 22
193.026362
 32
0.0
 13
223.389261
 23
193.026362
 33
0.0
  0
MTEXT
  5
2BA
100
AcDbEntity
  8
0
  6
BYBLOCK
 62
     0
100
AcDbMText
 10
194.303064
 20
208.441289
 30
0.0
 40
4.572
 41
0.0
 71
     5
 72
     1
  1
\A1;0.94mm[0.037"]
 11
0.718733
 21
-0.695286
 31
0.0
  0
POINT
  5
2BB
100
AcDbEntity
  8
DEFPOINTS
  6
BYBLOCK
 62
     0
100
AcDbPoint
 10
173.082532
 20
242.995585
 30
0.0
 50
44.05
  0
POINT
  5
2BC
100
AcDbEntity
  8
DEFPOINTS
  6
BYBLOCK
 62
     0
100
AcDbPoint
 10
277.489953
 20
140.690616
 30
0.0
 50
44.05
  0
POINT
  5
2BD
100
AcDbEntity
  8
DEFPOINTS
  6
BYBLOCK
 62
     0
100
AcDbPoint
 10
223.389261
 20
193.026362
 30
0.0
 50
44.05
  0
ENDBLK
  5
2BE
100
AcDbEntity
  8
0
100
AcDbBlockEnd
  0
BLOCK
  5
2D8
100
AcDbEntity
  8
0
100
AcDbBlockBegin
  2
*D18
 70
    65
 10
0.0
 20
0.0
 30
0.0
  3
*D18
  1

  0
LINE
  5
2D9
100
AcDbEntity
  8
0
  6
BYBLOCK
 62
     0
100
AcDbLine
 10
371.259784
 20
224.878438
 30
0.0
 11
391.070386
 21
245.357124
 31
0.0
  0
LINE
  5
2DA
100
AcDbEntity
  8
0
  6
BYBLOCK
 62
     0
100
AcDbLine
 10
384.605491
 20
245.249922
 30
0.0
 11
381.319442
 21
248.428769
 31
0.0
  0
LINE
  5
2DB
100
AcDbEntity
  8
0
  6
BYBLOCK
 62
     0
100
AcDbLine
 10
393.459567
 20
236.684695
 30
0.0
 11
396.745615
 21
233.505849
 31
0.0
  0
SOLID
  5
2DC
100
AcDbEntity
  8
0
  6
BYBLOCK
 62
     0
100
AcDbTrace
 10
385.135299
 20
245.797597
 30
0.0
 11
384.075683
 21
244.702247
 31
0.0
 12
387.891539
 22
242.071075
 32
0.0
 13
387.891539
 23
242.071075
 33
0.0
  0
SOLID
  5
2DD
100
AcDbEntity
  8
0
  6
BYBLOCK
 62
     0
100
AcDbTrace
 10
393.989374
 20
237.23237
 30
0.0
 11
392.929759
 21
236.137021
 31
0.0
 12
390.173518
 22
239.863542
 32
0.0
 13
390.173518
 23
239.863542
 33
0.0
  0
MTEXT
  5
2DE
100
AcDbEntity
  8
0
  6
BYBLOCK
 62
     0
100
AcDbMText
 10
433.987501
 20
197.478917
 30
0.0
 40
4.572
 41
0.0
 71
     5
 72
     1
  1
\A1;3.18mm±0.03mm[0.125"±0.001"]
 11
0.718733
 21
-0.695286
 31
0.0
  0
POINT
  5
2DF
100
AcDbEntity
  8
DEFPOINTS
  6
BYBLOCK
 62
     0
100
AcDbPoint
 10
370.156018
 20
223.737449
 30
0.0
 50
44.05
  0
POINT
  5
2E0
100
AcDbEntity
  8
DEFPOINTS
  6
BYBLOCK
 62
     0
100
AcDbPoint
 10
399.634031
 20
249.643098
 30
0.0
 50
44.05
  0
POINT
  5
2E1
100
AcDbEntity
  8
DEFPOINTS
  6
BYBLOCK
 62
     0
100
AcDbPoint
 10
390.173518
 20
239.863542
 30
0.0
 50
44.05
  0
ENDBLK
  5
2E2
100
AcDbEntity
  8
0
100
AcDbBlockEnd
  0
BLOCK
  5
6D1
100
AcDbEntity
  8
0
100
AcDbBlockBegin
  2
*D19
 70
    65
 10
0.0
 20
0.0
 30
0.0
  3
*D19
  1

  0
LINE
  5
6D2
100
AcDbEntity
  8
0
  6
BYBLOCK
 62
     0
100
AcDbLine
 10
384.911208
 20
341.743447
 30
0.0
 11
384.911208
 21
371.44894
 31
0.0
  0
LINE
  5
6D3
100
AcDbEntity
  8
0
  6
BYBLOCK
 62
     0
100
AcDbLine
 10
333.581898
 20
366.87694
 30
0.0
 11
329.009898
 21
366.87694
 31
0.0
  0
LINE
  5
6D4
100
AcDbEntity
  8
0
  6
BYBLOCK
 62
     0
100
AcDbLine
 10
389.483208
 20
366.87694
 30
0.0
 11
394.055208
 21
366.87694
 31
0.0
  0
SOLID
  5
6D5
100
AcDbEntity
  8
0
  6
BYBLOCK
 62
     0
100
AcDbTrace
 10
333.581898
 20
367.63894
 30
0.0
 11
333.581898
 21
366.11494
 31
0.0
 12
338.153898
 22
366.87694
 32
0.0
 13
338.153898
 23
366.87694
 33
0.0
  0
SOLID
  5
6D6
100
AcDbEntity
  8
0
  6
BYBLOCK
 62
     0
100
AcDbTrace
 10
389.483208
 20
367.63894
 30
0.0
 11
389.483208
 21
366.11494
 31
0.0
 12
384.911208
 22
366.87694
 32
0.0
 13
384.911208
 23
366.87694
 33
0.0
  0
MTEXT
  5
6D7
100
AcDbEntity
  8
0
  6
BYBLOCK
 62
     0
100
AcDbMText
 10
423.011208
 20
366.87694
 30
0.0
 40
4.572
 41
0.0
 71
     5
 72
     1
  1
\A1;46.76mm[1.841"]
  0
POINT
  5
6D8
100
AcDbEntity
  8
DEFPOINTS
  6
BYBLOCK
 62
     0
100
AcDbPoint
 10
338.153898
 20
493.127923
 30
0.0
  0
POINT
  5
6D9
100
AcDbEntity
  8
DEFPOINTS
  6
BYBLOCK
 62
     0
100
AcDbPoint
 10
384.911208
 20
340.155947
 30
0.0
  0
POINT
  5
6DA
100
AcDbEntity
  8
DEFPOINTS
  6
BYBLOCK
 62
     0
100
AcDbPoint
 10
384.911208
 20
366.87694
 30
0.0
  0
ENDBLK
  5
6DB
100
AcDbEntity
  8
0
100
AcDbBlockEnd
  0
BLOCK
  5
6C6
100
AcDbEntity
  8
0
100
AcDbBlockBegin
  2
*D20
 70
    65
 10
0.0
 20
0.0
 30
0.0
  3
*D20
  1

  0
LINE
  5
6C7
100
AcDbEntity
  8
0
  6
BYBLOCK
 62
     0
100
AcDbLine
 10
382.213949
 20
333.332872
 30
0.0
 11
382.213949
 21
384.25103
 31
0.0
  0
LINE
  5
6C8
100
AcDbEntity
  8
0
  6
BYBLOCK
 62
     0
100
AcDbLine
 10
333.581898
 20
379.67903
 30
0.0
 11
329.009898
 21
379.67903
 31
0.0
  0
LINE
  5
6C9
100
AcDbEntity
  8
0
  6
BYBLOCK
 62
     0
100
AcDbLine
 10
386.785949
 20
379.67903
 30
0.0
 11
391.357949
 21
379.67903
 31
0.0
  0
SOLID
  5
6CA
100
AcDbEntity
  8
0
  6
BYBLOCK
 62
     0
100
AcDbTrace
 10
333.581898
 20
380.44103
 30
0.0
 11
333.581898
 21
378.91703
 31
0.0
 12
338.153898
 22
379.67903
 32
0.0
 13
338.153898
 23
379.67903
 33
0.0
  0
SOLID
  5
6CB
100
AcDbEntity
  8
0
  6
BYBLOCK
 62
     0
100
AcDbTrace
 10
386.785949
 20
380.44103
 30
0.0
 11
386.785949
 21
378.91703
 31
0.0
 12
382.213949
 22
379.67903
 32
0.0
 13
382.213949
 23
379.67903
 33
0.0
  0
MTEXT
  5
6CC
100
AcDbEntity
  8
0
  6
BYBLOCK
 62
     0
100
AcDbMText
 10
446.221949
 20
379.67903
 30
0.0
 40
4.572
 41
0.0
 71
     5
 72
     1
  1
\A1;44.06mm±0.03mm[1.735"±0.001"]
  0
POINT
  5
6CD
100
AcDbEntity
  8
DEFPOINTS
  6
BYBLOCK
 62
     0
100
AcDbPoint
 10
338.153898
 20
493.127923
 30
0.0
  0
POINT
  5
6CE
100
AcDbEntity
  8
DEFPOINTS
  6
BYBLOCK
 62
     0
100
AcDbPoint
 10
382.213949
 20
331.745372
 30
0.0
  0
POINT
  5
6CF
100
AcDbEntity
  8
DEFPOINTS
  6
BYBLOCK
 62
     0
100
AcDbPoint
 10
382.213949
 20
379.67903
 30
0.0
  0
ENDBLK
  5
6D0
100
AcDbEntity
  8
0
100
AcDbBlockEnd
  0
BLOCK
  5
6BB
100
AcDbEntity
  8
0
100
AcDbBlockBegin
  2
*D21
 70
    65
 10
0.0
 20
0.0
 30
0.0
  3
*D21
  1

  0
LINE
  5
6BC
100
AcDbEntity
  8
0
  6
BYBLOCK
 62
     0
100
AcDbLine
 10
380.440808
 20
341.743447
 30
0.0
 11
380.440808
 21
396.312495
 31
0.0
  0
LINE
  5
6BD
100
AcDbEntity
  8
0
  6
BYBLOCK
 62
     0
100
AcDbLine
 10
333.581898
 20
391.740495
 30
0.0
 11
329.009898
 21
391.740495
 31
0.0
  0
LINE
  5
6BE
100
AcDbEntity
  8
0
  6
BYBLOCK
 62
     0
100
AcDbLine
 10
385.012808
 20
391.740495
 30
0.0
 11
389.584808
 21
391.740495
 31
0.0
  0
SOLID
  5
6BF
100
AcDbEntity
  8
0
  6
BYBLOCK
 62
     0
100
AcDbTrace
 10
333.581898
 20
392.502495
 30
0.0
 11
333.581898
 21
390.978495
 31
0.0
 12
338.153898
 22
391.740495
 32
0.0
 13
338.153898
 23
391.740495
 33
0.0
  0
SOLID
  5
6C0
100
AcDbEntity
  8
0
  6
BYBLOCK
 62
     0
100
AcDbTrace
 10
385.012808
 20
392.502495
 30
0.0
 11
385.012808
 21
390.978495
 31
0.0
 12
380.440808
 22
391.740495
 32
0.0
 13
380.440808
 23
391.740495
 33
0.0
  0
MTEXT
  5
6C1
100
AcDbEntity
  8
0
  6
BYBLOCK
 62
     0
100
AcDbMText
 10
419.302808
 20
391.740495
 30
0.0
 40
4.572
 41
0.0
 71
     5
 72
     1
  1
\A1;42.29mm[1.665"]
  0
POINT
  5
6C2
100
AcDbEntity
  8
DEFPOINTS
  6
BYBLOCK
 62
     0
100
AcDbPoint
 10
338.153898
 20
493.127923
 30
0.0
  0
POINT
  5
6C3
100
AcDbEntity
  8
DEFPOINTS
  6
BYBLOCK
 62
     0
100
AcDbPoint
 10
380.440808
 20
340.155947
 30
0.0
  0
POINT
  5
6C4
100
AcDbEntity
  8
DEFPOINTS
  6
BYBLOCK
 62
     0
100
AcDbPoint
 10
380.440808
 20
391.740495
 30
0.0
  0
ENDBLK
  5
6C5
100
AcDbEntity
  8
0
100
AcDbBlockEnd
  0
BLOCK
  5
6B0
100
AcDbEntity
  8
0
100
AcDbBlockBegin
  2
*D22
 70
    65
 10
0.0
 20
0.0
 30
0.0
  3
*D22
  1

  0
LINE
  5
6B1
100
AcDbEntity
  8
0
  6
BYBLOCK
 62
     0
100
AcDbLine
 10
378.235931
 20
337.969007
 30
0.0
 11
378.235931
 21
407.625342
 31
0.0
  0
LINE
  5
6B2
100
AcDbEntity
  8
0
  6
BYBLOCK
 62
     0
100
AcDbLine
 10
333.581898
 20
403.053342
 30
0.0
 11
329.009898
 21
403.053342
 31
0.0
  0
LINE
  5
6B3
100
AcDbEntity
  8
0
  6
BYBLOCK
 62
     0
100
AcDbLine
 10
382.807931
 20
403.053342
 30
0.0
 11
387.379931
 21
403.053342
 31
0.0
  0
SOLID
  5
6B4
100
AcDbEntity
  8
0
  6
BYBLOCK
 62
     0
100
AcDbTrace
 10
333.581898
 20
403.815342
 30
0.0
 11
333.581898
 21
402.291342
 31
0.0
 12
338.153898
 22
403.053342
 32
0.0
 13
338.153898
 23
403.053342
 33
0.0
  0
SOLID
  5
6B5
100
AcDbEntity
  8
0
  6
BYBLOCK
 62
     0
100
AcDbTrace
 10
382.807931
 20
403.815342
 30
0.0
 11
382.807931
 21
402.291342
 31
0.0
 12
378.235931
 22
403.053342
 32
0.0
 13
378.235931
 23
403.053342
 33
0.0
  0
MTEXT
  5
6B6
100
AcDbEntity
  8
0
  6
BYBLOCK
 62
     0
100
AcDbMText
 10
416.335931
 20
403.053342
 30
0.0
 40
4.572
 41
0.0
 71
     5
 72
     1
  1
\A1;40.08mm[1.578"]
  0
POINT
  5
6B7
100
AcDbEntity
  8
DEFPOINTS
  6
BYBLOCK
 62
     0
100
AcDbPoint
 10
338.153898
 20
493.127923
 30
0.0
  0
POINT
  5
6B8
100
AcDbEntity
  8
DEFPOINTS
  6
BYBLOCK
 62
     0
100
AcDbPoint
 10
378.235931
 20
336.381507
 30
0.0
  0
POINT
  5
6B9
100
AcDbEntity
  8
DEFPOINTS
  6
BYBLOCK
 62
     0
100
AcDbPoint
 10
378.235931
 20
403.053342
 30
0.0
  0
ENDBLK
  5
6BA
100
AcDbEntity
  8
0
100
AcDbBlockEnd
  0
BLOCK
  5
6A5
100
AcDbEntity
  8
0
100
AcDbBlockBegin
  2
*D23
 70
    65
 10
0.0
 20
0.0
 30
0.0
  3
*D23
  1

  0
LINE
  5
6A6
100
AcDbEntity
  8
0
  6
BYBLOCK
 62
     0
100
AcDbLine
 10
374.735811
 20
337.969007
 30
0.0
 11
374.735811
 21
417.357365
 31
0.0
  0
LINE
  5
6A7
100
AcDbEntity
  8
0
  6
BYBLOCK
 62
     0
100
AcDbLine
 10
333.581898
 20
412.785365
 30
0.0
 11
329.009898
 21
412.785365
 31
0.0
  0
LINE
  5
6A8
100
AcDbEntity
  8
0
  6
BYBLOCK
 62
     0
100
AcDbLine
 10
379.307811
 20
412.785365
 30
0.0
 11
383.879811
 21
412.785365
 31
0.0
  0
SOLID
  5
6A9
100
AcDbEntity
  8
0
  6
BYBLOCK
 62
     0
100
AcDbTrace
 10
333.581898
 20
413.547365
 30
0.0
 11
333.581898
 21
412.023365
 31
0.0
 12
338.153898
 22
412.785365
 32
0.0
 13
338.153898
 23
412.785365
 33
0.0
  0
SOLID
  5
6AA
100
AcDbEntity
  8
0
  6
BYBLOCK
 62
     0
100
AcDbTrace
 10
379.307811
 20
413.547365
 30
0.0
 11
379.307811
 21
412.023365
 31
0.0
 12
374.735811
 22
412.785365
 32
0.0
 13
374.735811
 23
412.785365
 33
0.0
  0
MTEXT
  5
6AB
100
AcDbEntity
  8
0
  6
BYBLOCK
 62
     0
100
AcDbMText
 10
413.216811
 20
412.785365
 30
0.0
 40
4.572
 41
0.0
 71
     5
 72
     1
  1
\A1;36.58mm[1.440"]
  0
POINT
  5
6AC
100
AcDbEntity
  8
DEFPOINTS
  6
BYBLOCK
 62
     0
100
AcDbPoint
 10
338.153898
 20
493.127923
 30
0.0
  0
POINT
  5
6AD
100
AcDbEntity
  8
DEFPOINTS
  6
BYBLOCK
 62
     0
100
AcDbPoint
 10
374.735811
 20
336.381507
 30
0.0
  0
POINT
  5
6AE
100
AcDbEntity
  8
DEFPOINTS
  6
BYBLOCK
 62
     0
100
AcDbPoint
 10
374.735811
 20
412.785365
 30
0.0
  0
ENDBLK
  5
6AF
100
AcDbEntity
  8
0
100
AcDbBlockEnd
  0
BLOCK
  5
6DC
100
AcDbEntity
  8
0
100
AcDbBlockBegin
  2
*D24
 70
    65
 10
0.0
 20
0.0
 30
0.0
  3
*D24
  1

  0
LINE
  5
6DD
100
AcDbEntity
  8
0
  6
BYBLOCK
 62
     0
100
AcDbLine
 10
350.054756
 20
333.615447
 30
0.0
 11
350.054756
 21
429.980293
 31
0.0
  0
LINE
  5
6DE
100
AcDbEntity
  8
0
  6
BYBLOCK
 62
     0
100
AcDbLine
 10
333.581898
 20
425.408293
 30
0.0
 11
329.009898
 21
425.408293
 31
0.0
  0
LINE
  5
6DF
100
AcDbEntity
  8
0
  6
BYBLOCK
 62
     0
100
AcDbLine
 10
354.626756
 20
425.408293
 30
0.0
 11
359.198756
 21
425.408293
 31
0.0
  0
SOLID
  5
6E0
100
AcDbEntity
  8
0
  6
BYBLOCK
 62
     0
100
AcDbTrace
 10
333.581898
 20
426.170293
 30
0.0
 11
333.581898
 21
424.646293
 31
0.0
 12
338.153898
 22
425.408293
 32
0.0
 13
338.153898
 23
425.408293
 33
0.0
  0
SOLID
  5
6E1
100
AcDbEntity
  8
0
  6
BYBLOCK
 62
     0
100
AcDbTrace
 10
354.626756
 20
426.170293
 30
0.0
 11
354.626756
 21
424.646293
 31
0.0
 12
350.054756
 22
425.408293
 32
0.0
 13
350.054756
 23
425.408293
 33
0.0
  0
MTEXT
  5
6E2
100
AcDbEntity
  8
0
  6
BYBLOCK
 62
     0
100
AcDbMText
 10
387.392756
 20
425.408293
 30
0.0
 40
4.572
 41
0.0
 71
     5
 72
     1
  1
\A1;11.90mm[0.469"]
  0
POINT
  5
6E3
100
AcDbEntity
  8
DEFPOINTS
  6
BYBLOCK
 62
     0
100
AcDbPoint
 10
338.153898
 20
493.127923
 30
0.0
  0
POINT
  5
6E4
100
AcDbEntity
  8
DEFPOINTS
  6
BYBLOCK
 62
     0
100
AcDbPoint
 10
350.054756
 20
332.027947
 30
0.0
  0
POINT
  5
6E5
100
AcDbEntity
  8
DEFPOINTS
  6
BYBLOCK
 62
     0
100
AcDbPoint
 10
350.054756
 20
425.408293
 30
0.0
  0
ENDBLK
  5
6E6
100
AcDbEntity
  8
0
100
AcDbBlockEnd
  0
BLOCK
  5
694
100
AcDbEntity
  8
0
100
AcDbBlockBegin
  2
*D25
 70
    65
 10
0.0
 20
0.0
 30
0.0
  3
*D25
  1

  0
LINE
  5
695
100
AcDbEntity
  8
0
  6
BYBLOCK
 62
     0
100
AcDbLine
 10
373.648691
 20
336.881887
 30
0.0
 11
243.018175
 21
336.881887
 31
0.0
  0
LINE
  5
696
100
AcDbEntity
  8
0
  6
BYBLOCK
 62
     0
100
AcDbLine
 10
325.178463
 20
343.592547
 30
0.0
 11
243.018175
 21
343.592547
 31
0.0
  0
LINE
  5
697
100
AcDbEntity
  8
0
  6
BYBLOCK
 62
     0
100
AcDbLine
 10
247.590175
 20
332.309887
 30
0.0
 11
247.590175
 21
327.737887
 31
0.0
  0
LINE
  5
698
100
AcDbEntity
  8
0
  6
BYBLOCK
 62
     0
100
AcDbLine
 10
247.590175
 20
348.164547
 30
0.0
 11
247.590175
 21
352.736547
 31
0.0
  0
LINE
  5
699
100
AcDbEntity
  8
0
  6
BYBLOCK
 62
     0
100
AcDbLine
 10
247.590175
 20
352.736547
 30
0.0
 11
252.162175
 21
352.736547
 31
0.0
  0
SOLID
  5
69A
100
AcDbEntity
  8
0
  6
BYBLOCK
 62
     0
100
AcDbTrace
 10
246.828175
 20
332.309887
 30
0.0
 11
248.352175
 21
332.309887
 31
0.0
 12
247.590175
 22
336.881887
 32
0.0
 13
247.590175
 23
336.881887
 33
0.0
  0
SOLID
  5
69B
100
AcDbEntity
  8
0
  6
BYBLOCK
 62
     0
100
AcDbTrace
 10
246.828175
 20
348.164547
 30
0.0
 11
248.352175
 21
348.164547
 31
0.0
 12
247.590175
 22
343.592547
 32
0.0
 13
247.590175
 23
343.592547
 33
0.0
  0
MTEXT
  5
69C
100
AcDbEntity
  8
0
  6
BYBLOCK
 62
     0
100
AcDbMText
 10
279.213175
 20
352.736547
 30
0.0
 40
4.572
 41
0.0
 71
     5
 72
     1
  1
\A1;6.71mm[0.264"]
  0
POINT
  5
69D
100
AcDbEntity
  8
DEFPOINTS
  6
BYBLOCK
 62
     0
100
AcDbPoint
 10
375.236191
 20
336.881887
 30
0.0
  0
POINT
  5
69E
100
AcDbEntity
  8
DEFPOINTS
  6
BYBLOCK
 62
     0
100
AcDbPoint
 10
326.765963
 20
343.592547
 30
0.0
  0
POINT
  5
69F
100
AcDbEntity
  8
DEFPOINTS
  6
BYBLOCK
 62
     0
100
AcDbPoint
 10
247.590175
 20
343.592547
 30
0.0
  0
ENDBLK
  5
6A0
100
AcDbEntity
  8
0
100
AcDbBlockEnd
  0
BLOCK
  5
687
100
AcDbEntity
  8
0
100
AcDbBlockBegin
  2
*D26
 70
    65
 10
0.0
 20
0.0
 30
0.0
  3
*D26
  1

  0
LINE
  5
688
100
AcDbEntity
  8
0
  6
BYBLOCK
 62
     0
100
AcDbLine
 10
373.648691
 20
333.879607
 30
0.0
 11
178.774036
 21
333.879607
 31
0.0
  0
LINE
  5
689
100
AcDbEntity
  8
0
  6
BYBLOCK
 62
     0
100
AcDbLine
 10
325.178463
 20
343.592547
 30
0.0
 11
178.774036
 21
343.592547
 31
0.0
  0
LINE
  5
68A
100
AcDbEntity
  8
0
  6
BYBLOCK
 62
     0
100
AcDbLine
 10
183.346036
 20
329.307607
 30
0.0
 11
183.346036
 21
324.735607
 31
0.0
  0
LINE
  5
68B
100
AcDbEntity
  8
0
  6
BYBLOCK
 62
     0
100
AcDbLine
 10
183.346036
 20
348.164547
 30
0.0
 11
183.346036
 21
352.736547
 31
0.0
  0
LINE
  5
68C
100
AcDbEntity
  8
0
  6
BYBLOCK
 62
     0
100
AcDbLine
 10
183.346036
 20
352.736547
 30
0.0
 11
187.918036
 21
352.736547
 31
0.0
  0
SOLID
  5
68D
100
AcDbEntity
  8
0
  6
BYBLOCK
 62
     0
100
AcDbTrace
 10
182.584036
 20
329.307607
 30
0.0
 11
184.108036
 21
329.307607
 31
0.0
 12
183.346036
 22
333.879607
 32
0.0
 13
183.346036
 23
333.879607
 33
0.0
  0
SOLID
  5
68E
100
AcDbEntity
  8
0
  6
BYBLOCK
 62
     0
100
AcDbTrace
 10
182.584036
 20
348.164547
 30
0.0
 11
184.108036
 21
348.164547
 31
0.0
 12
183.346036
 22
343.592547
 32
0.0
 13
183.346036
 23
343.592547
 33
0.0
  0
MTEXT
  5
68F
100
AcDbEntity
  8
0
  6
BYBLOCK
 62
     0
100
AcDbMText
 10
214.969036
 20
352.736547
 30
0.0
 40
4.572
 41
0.0
 71
     5
 72
     1
  1
\A1;9.71mm[0.382"]
  0
POINT
  5
690
100
AcDbEntity
  8
DEFPOINTS
  6
BYBLOCK
 62
     0
100
AcDbPoint
 10
375.236191
 20
333.879607
 30
0.0
  0
POINT
  5
691
100
AcDbEntity
  8
DEFPOINTS
  6
BYBLOCK
 62
     0
100
AcDbPoint
 10
326.765963
 20
343.592547
 30
0.0
  0
POINT
  5
692
100
AcDbEntity
  8
DEFPOINTS
  6
BYBLOCK
 62
     0
100
AcDbPoint
 10
183.346036
 20
343.592547
 30
0.0
  0
ENDBLK
  5
693
100
AcDbEntity
  8
0
100
AcDbBlockEnd
  0
BLOCK
  5
67A
100
AcDbEntity
  8
0
100
AcDbBlockBegin
  2
*D27
 70
    65
 10
0.0
 20
0.0
 30
0.0
  3
*D27
  1

  0
LINE
  5
67B
100
AcDbEntity
  8
0
  6
BYBLOCK
 62
     0
100
AcDbLine
 10
373.648691
 20
320.879887
 30
0.0
 11
113.013263
 21
320.879887
 31
0.0
  0
LINE
  5
67C
100
AcDbEntity
  8
0
  6
BYBLOCK
 62
     0
100
AcDbLine
 10
325.178463
 20
343.592547
 30
0.0
 11
113.013263
 21
343.592547
 31
0.0
  0
LINE
  5
67D
100
AcDbEntity
  8
0
  6
BYBLOCK
 62
     0
100
AcDbLine
 10
117.585263
 20
316.307887
 30
0.0
 11
117.585263
 21
311.735887
 31
0.0
  0
LINE
  5
67E
100
AcDbEntity
  8
0
  6
BYBLOCK
 62
     0
100
AcDbLine
 10
117.585263
 20
348.164547
 30
0.0
 11
117.585263
 21
352.736547
 31
0.0
  0
LINE
  5
67F
100
AcDbEntity
  8
0
  6
BYBLOCK
 62
     0
100
AcDbLine
 10
117.585263
 20
352.736547
 30
0.0
 11
122.157263
 21
352.736547
 31
0.0
  0
SOLID
  5
680
100
AcDbEntity
  8
0
  6
BYBLOCK
 62
     0
100
AcDbTrace
 10
116.823263
 20
316.307887
 30
0.0
 11
118.347263
 21
316.307887
 31
0.0
 12
117.585263
 22
320.879887
 32
0.0
 13
117.585263
 23
320.879887
 33
0.0
  0
SOLID
  5
681
100
AcDbEntity
  8
0
  6
BYBLOCK
 62
     0
100
AcDbTrace
 10
116.823263
 20
348.164547
 30
0.0
 11
118.347263
 21
348.164547
 31
0.0
 12
117.585263
 22
343.592547
 32
0.0
 13
117.585263
 23
343.592547
 33
0.0
  0
MTEXT
  5
682
100
AcDbEntity
  8
0
  6
BYBLOCK
 62
     0
100
AcDbMText
 10
151.494263
 20
352.736547
 30
0.0
 40
4.572
 41
0.0
 71
     5
 72
     1
  1
\A1;22.71mm[0.894"]
  0
POINT
  5
683
100
AcDbEntity
  8
DEFPOINTS
  6
BYBLOCK
 62
     0
100
AcDbPoint
 10
375.236191
 20
320.879887
 30
0.0
  0
POINT
  5
684
100
AcDbEntity
  8
DEFPOINTS
  6
BYBLOCK
 62
     0
100
AcDbPoint
 10
326.765963
 20
343.592547
 30
0.0
  0
POINT
  5
685
100
AcDbEntity
  8
DEFPOINTS
  6
BYBLOCK
 62
     0
100
AcDbPoint
 10
117.585263
 20
343.592547
 30
0.0
  0
ENDBLK
  5
686
100
AcDbEntity
  8
0
100
AcDbBlockEnd
  0
BLOCK
  5
66E
100
AcDbEntity
  8
0
100
AcDbBlockBegin
  2
*D28
 70
    65
 10
0.0
 20
0.0
 30
0.0
  3
*D28
  1

  0
LINE
  5
66F
100
AcDbEntity
  8
0
  6
BYBLOCK
 62
     0
100
AcDbLine
 10
373.648691
 20
317.877607
 30
0.0
 11
76.03197
 21
317.877607
 31
0.0
  0
LINE
  5
670
100
AcDbEntity
  8
0
  6
BYBLOCK
 62
     0
100
AcDbLine
 10
325.178463
 20
343.592547
 30
0.0
 11
76.03197
 21
343.592547
 31
0.0
  0
LINE
  5
671
100
AcDbEntity
  8
0
  6
BYBLOCK
 62
     0
100
AcDbLine
 10
80.60397
 20
322.449607
 30
0.0
 11
80.60397
 21
326.163077
 31
0.0
  0
LINE
  5
672
100
AcDbEntity
  8
0
  6
BYBLOCK
 62
     0
100
AcDbLine
 10
80.60397
 20
339.020547
 30
0.0
 11
80.60397
 21
335.307077
 31
0.0
  0
SOLID
  5
673
100
AcDbEntity
  8
0
  6
BYBLOCK
 62
     0
100
AcDbTrace
 10
79.84197
 20
322.449607
 30
0.0
 11
81.36597
 21
322.449607
 31
0.0
 12
80.60397
 22
317.877607
 32
0.0
 13
80.60397
 23
317.877607
 33
0.0
  0
SOLID
  5
674
100
AcDbEntity
  8
0
  6
BYBLOCK
 62
     0
100
AcDbTrace
 10
79.84197
 20
339.020547
 30
0.0
 11
81.36597
 21
339.020547
 31
0.0
 12
80.60397
 22
343.592547
 32
0.0
 13
80.60397
 23
343.592547
 33
0.0
  0
MTEXT
  5
675
100
AcDbEntity
  8
0
  6
BYBLOCK
 62
     0
100
AcDbMText
 10
80.60397
 20
330.735077
 30
0.0
 40
4.572
 41
0.0
 71
     5
 72
     1
  1
\A1;25.71mm[1.012"]
  0
POINT
  5
676
100
AcDbEntity
  8
DEFPOINTS
  6
BYBLOCK
 62
     0
100
AcDbPoint
 10
375.236191
 20
317.877607
 30
0.0
  0
POINT
  5
677
100
AcDbEntity
  8
DEFPOINTS
  6
BYBLOCK
 62
     0
100
AcDbPoint
 10
326.765963
 20
343.592547
 30
0.0
  0
POINT
  5
678
100
AcDbEntity
  8
DEFPOINTS
  6
BYBLOCK
 62
     0
100
AcDbPoint
 10
80.60397
 20
343.592547
 30
0.0
  0
ENDBLK
  5
679
100
AcDbEntity
  8
0
100
AcDbBlockEnd
  0
BLOCK
  5
3B4
100
AcDbEntity
  8
0
100
AcDbBlockBegin
  2
*D29
 70
    65
 10
0.0
 20
0.0
 30
0.0
  3
*D29
  1
*TB
  0
LINE
  5
3B5
100
AcDbEntity
  8
0
  6
BYBLOCK
 62
     0
100
AcDbLine
 10
339.91204
 20
288.292541
 30
0.0
 11
456.641916
 21
288.292541
 31
0.0
  0
LINE
  5
3B6
100
AcDbEntity
  8
0
  6
BYBLOCK
 62
     0
100
AcDbLine
 10
338.3375
 20
296.504341
 30
0.0
 11
456.641916
 21
296.504341
 31
0.0
  0
LINE
  5
3B7
100
AcDbEntity
  8
0
  6
BYBLOCK
 62
     0
100
AcDbLine
 10
452.069916
 20
283.720541
 30
0.0
 11
452.069916
 21
279.148541
 31
0.0
  0
LINE
  5
3B8
100
AcDbEntity
  8
0
  6
BYBLOCK
 62
     0
100
AcDbLine
 10
452.069916
 20
301.076341
 30
0.0
 11
452.069916
 21
305.648341
 31
0.0
  0
LINE
  5
3B9
100
AcDbEntity
  8
0
  6
BYBLOCK
 62
     0
100
AcDbLine
 10
452.069916
 20
305.648341
 30
0.0
 11
456.641916
 21
305.648341
 31
0.0
  0
SOLID
  5
3BA
100
AcDbEntity
  8
0
  6
BYBLOCK
 62
     0
100
AcDbTrace
 10
451.307916
 20
283.720541
 30
0.0
 11
452.831916
 21
283.720541
 31
0.0
 12
452.069916
 22
288.292541
 32
0.0
 13
452.069916
 23
288.292541
 33
0.0
  0
SOLID
  5
3BB
100
AcDbEntity
  8
0
  6
BYBLOCK
 62
     0
100
AcDbTrace
 10
451.307916
 20
301.076341
 30
0.0
 11
452.831916
 21
301.076341
 31
0.0
 12
452.069916
 22
296.504341
 32
0.0
 13
452.069916
 23
296.504341
 33
0.0
  0
MTEXT
  5
3BC
100
AcDbEntity
  8
0
  6
BYBLOCK
 62
     0
100
AcDbMText
 10
483.692916
 20
305.648341
 30
0.0
 40
4.572
 41
0.0
 71
     5
 72
     1
  1
\A1;8.21mm[0.323"]
  0
POINT
  5
3BD
100
AcDbEntity
  8
DEFPOINTS
  6
BYBLOCK
 62
     0
100
AcDbPoint
 10
338.32454
 20
288.292541
 30
0.0
  0
POINT
  5
3BE
100
AcDbEntity
  8
DEFPOINTS
  6
BYBLOCK
 62
     0
100
AcDbPoint
 10
336.75
 20
296.504341
 30
0.0
  0
POINT
  5
3BF
100
AcDbEntity
  8
DEFPOINTS
  6
BYBLOCK
 62
     0
100
AcDbPoint
 10
452.069916
 20
296.504341
 30
0.0
  0
ENDBLK
  5
3C0
100
AcDbEntity
  8
0
100
AcDbBlockEnd
  0
BLOCK
  5
3C3
100
AcDbEntity
  8
0
100
AcDbBlockBegin
  2
*D30
 70
    65
 10
0.0
 20
0.0
 30
0.0
  3
*D30
  1
*TB
  0
LINE
  5
3C4
100
AcDbEntity
  8
0
  6
BYBLOCK
 62
     0
100
AcDbLine
 10
336.805206
 20
280.291541
 30
0.0
 11
519.706434
 21
280.291541
 31
0.0
  0
LINE
  5
3C5
100
AcDbEntity
  8
0
  6
BYBLOCK
 62
     0
100
AcDbLine
 10
338.3375
 20
296.504341
 30
0.0
 11
519.706434
 21
296.504341
 31
0.0
  0
LINE
  5
3C6
100
AcDbEntity
  8
0
  6
BYBLOCK
 62
     0
100
AcDbLine
 10
515.134434
 20
275.719541
 30
0.0
 11
515.134434
 21
271.147541
 31
0.0
  0
LINE
  5
3C7
100
AcDbEntity
  8
0
  6
BYBLOCK
 62
     0
100
AcDbLine
 10
515.134434
 20
301.076341
 30
0.0
 11
515.134434
 21
305.648341
 31
0.0
  0
LINE
  5
3C8
100
AcDbEntity
  8
0
  6
BYBLOCK
 62
     0
100
AcDbLine
 10
515.134434
 20
305.648341
 30
0.0
 11
519.706434
 21
305.648341
 31
0.0
  0
SOLID
  5
3C9
100
AcDbEntity
  8
0
  6
BYBLOCK
 62
     0
100
AcDbTrace
 10
514.372434
 20
275.719541
 30
0.0
 11
515.896434
 21
275.719541
 31
0.0
 12
515.134434
 22
280.291541
 32
0.0
 13
515.134434
 23
280.291541
 33
0.0
  0
SOLID
  5
3CA
100
AcDbEntity
  8
0
  6
BYBLOCK
 62
     0
100
AcDbTrace
 10
514.372434
 20
301.076341
 30
0.0
 11
515.896434
 21
301.076341
 31
0.0
 12
515.134434
 22
296.504341
 32
0.0
 13
515.134434
 23
296.504341
 33
0.0
  0
MTEXT
  5
3CB
100
AcDbEntity
  8
0
  6
BYBLOCK
 62
     0
100
AcDbMText
 10
573.808434
 20
305.648341
 30
0.0
 40
4.572
 41
0.0
 71
     5
 72
     1
  1
\A1;16.21mm±0.03mm[0.638"±0.001"]
  0
POINT
  5
3CC
100
AcDbEntity
  8
DEFPOINTS
  6
BYBLOCK
 62
     0
100
AcDbPoint
 10
335.217706
 20
280.291541
 30
0.0
  0
POINT
  5
3CD
100
AcDbEntity
  8
DEFPOINTS
  6
BYBLOCK
 62
     0
100
AcDbPoint
 10
336.75
 20
296.504341
 30
0.0
  0
POINT
  5
3CE
100
AcDbEntity
  8
DEFPOINTS
  6
BYBLOCK
 62
     0
100
AcDbPoint
 10
515.134434
 20
296.504341
 30
0.0
  0
ENDBLK
  5
3CF
100
AcDbEntity
  8
0
100
AcDbBlockEnd
  0
BLOCK
  5
3E0
100
AcDbEntity
  8
0
100
AcDbBlockBegin
  2
*D31
 70
    65
 10
0.0
 20
0.0
 30
0.0
  3
*D31
  1
*TB
  0
LINE
  5
3E1
100
AcDbEntity
  8
0
  6
BYBLOCK
 62
     0
100
AcDbLine
 10
339.91204
 20
272.290541
 30
0.0
 11
640.293049
 21
272.290541
 31
0.0
  0
LINE
  5
3E2
100
AcDbEntity
  8
0
  6
BYBLOCK
 62
     0
100
AcDbLine
 10
338.3375
 20
296.504341
 30
0.0
 11
640.293049
 21
296.504341
 31
0.0
  0
LINE
  5
3E3
100
AcDbEntity
  8
0
  6
BYBLOCK
 62
     0
100
AcDbLine
 10
635.721049
 20
276.862541
 30
0.0
 11
635.721049
 21
279.825441
 31
0.0
  0
LINE
  5
3E4
100
AcDbEntity
  8
0
  6
BYBLOCK
 62
     0
100
AcDbLine
 10
635.721049
 20
291.932341
 30
0.0
 11
635.721049
 21
288.969441
 31
0.0
  0
SOLID
  5
3E5
100
AcDbEntity
  8
0
  6
BYBLOCK
 62
     0
100
AcDbTrace
 10
634.959049
 20
276.862541
 30
0.0
 11
636.483049
 21
276.862541
 31
0.0
 12
635.721049
 22
272.290541
 32
0.0
 13
635.721049
 23
272.290541
 33
0.0
  0
SOLID
  5
3E6
100
AcDbEntity
  8
0
  6
BYBLOCK
 62
     0
100
AcDbTrace
 10
634.959049
 20
291.932341
 30
0.0
 11
636.483049
 21
291.932341
 31
0.0
 12
635.721049
 22
296.504341
 32
0.0
 13
635.721049
 23
296.504341
 33
0.0
  0
MTEXT
  5
3E7
100
AcDbEntity
  8
0
  6
BYBLOCK
 62
     0
100
AcDbMText
 10
635.721049
 20
284.397441
 30
0.0
 40
4.572
 41
0.0
 71
     5
 72
     1
  1
\A1;24.21mm[0.953"]
  0
POINT
  5
3E8
100
AcDbEntity
  8
DEFPOINTS
  6
BYBLOCK
 62
     0
100
AcDbPoint
 10
338.32454
 20
272.290541
 30
0.0
  0
POINT
  5
3E9
100
AcDbEntity
  8
DEFPOINTS
  6
BYBLOCK
 62
     0
100
AcDbPoint
 10
336.75
 20
296.504341
 30
0.0
  0
POINT
  5
3EA
100
AcDbEntity
  8
DEFPOINTS
  6
BYBLOCK
 62
     0
100
AcDbPoint
 10
635.721049
 20
296.504341
 30
0.0
  0
ENDBLK
  5
3EB
100
AcDbEntity
  8
0
100
AcDbBlockEnd
  0
BLOCK
  5
3EE
100
AcDbEntity
  8
0
100
AcDbBlockBegin
  2
*D32
 70
    65
 10
0.0
 20
0.0
 30
0.0
  3
*D32
  1
*TB
  0
LINE
  5
3EF
100
AcDbEntity
  8
0
  6
BYBLOCK
 62
     0
100
AcDbLine
 10
338.3375
 20
264.078741
 30
0.0
 11
703.956581
 21
264.078741
 31
0.0
  0
LINE
  5
3F0
100
AcDbEntity
  8
0
  6
BYBLOCK
 62
     0
100
AcDbLine
 10
338.3375
 20
296.504341
 30
0.0
 11
703.956581
 21
296.504341
 31
0.0
  0
LINE
  5
3F1
100
AcDbEntity
  8
0
  6
BYBLOCK
 62
     0
100
AcDbLine
 10
699.384581
 20
268.650741
 30
0.0
 11
699.384581
 21
275.719541
 31
0.0
  0
LINE
  5
3F2
100
AcDbEntity
  8
0
  6
BYBLOCK
 62
     0
100
AcDbLine
 10
699.384581
 20
291.932341
 30
0.0
 11
699.384581
 21
284.863541
 31
0.0
  0
SOLID
  5
3F3
100
AcDbEntity
  8
0
  6
BYBLOCK
 62
     0
100
AcDbTrace
 10
698.622581
 20
268.650741
 30
0.0
 11
700.146581
 21
268.650741
 31
0.0
 12
699.384581
 22
264.078741
 32
0.0
 13
699.384581
 23
264.078741
 33
0.0
  0
SOLID
  5
3F4
100
AcDbEntity
  8
0
  6
BYBLOCK
 62
     0
100
AcDbTrace
 10
698.622581
 20
291.932341
 30
0.0
 11
700.146581
 21
291.932341
 31
0.0
 12
699.384581
 22
296.504341
 32
0.0
 13
699.384581
 23
296.504341
 33
0.0
  0
MTEXT
  5
3F5
100
AcDbEntity
  8
0
  6
BYBLOCK
 62
     0
100
AcDbMText
 10
699.384581
 20
280.291541
 30
0.0
 40
4.572
 41
0.0
 71
     5
 72
     1
  1
\A1;32.43mm[1.277"]
  0
POINT
  5
3F6
100
AcDbEntity
  8
DEFPOINTS
  6
BYBLOCK
 62
     0
100
AcDbPoint
 10
336.75
 20
264.078741
 30
0.0
  0
POINT
  5
3F7
100
AcDbEntity
  8
DEFPOINTS
  6
BYBLOCK
 62
     0
100
AcDbPoint
 10
336.75
 20
296.504341
 30
0.0
  0
POINT
  5
3F8
100
AcDbEntity
  8
DEFPOINTS
  6
BYBLOCK
 62
     0
100
AcDbPoint
 10
699.384581
 20
296.504341
 30
0.0
  0
ENDBLK
  5
3F9
100
AcDbEntity
  8
0
100
AcDbBlockEnd
  0
BLOCK
  5
6E9
100
AcDbEntity
  8
0
100
AcDbBlockBegin
  2
*D33
 70
    65
 10
0.0
 20
0.0
 30
0.0
  3
*D33
  1
*TB
  0
LINE
  5
6EA
100
AcDbEntity
  8
0
  6
BYBLOCK
 62
     0
100
AcDbLine
 10
372.761404
 20
473.85988
 30
0.0
 11
402.069502
 21
438.857315
 31
0.0
  0
LINE
  5
6EB
100
AcDbEntity
  8
0
  6
BYBLOCK
 62
     0
100
AcDbLine
 10
402.069502
 20
438.857315
 30
0.0
 11
406.641502
 21
438.857315
 31
0.0
  0
SOLID
  5
6EC
100
AcDbEntity
  8
0
  6
BYBLOCK
 62
     0
100
AcDbTrace
 10
373.345644
 20
474.349072
 30
0.0
 11
372.177165
 21
473.370689
 31
0.0
 12
369.826256
 22
477.365318
 32
0.0
 13
369.826256
 23
477.365318
 33
0.0
  0
MTEXT
  5
6ED
100
AcDbEntity
  8
0
  6
BYBLOCK
 62
     0
100
AcDbMText
 10
464.172502
 20
438.857315
 30
0.0
 40
4.572
 41
0.0
 71
     5
 72
     1
  1
\A1;{\U+22052.38mm±0.03mm[\U+22050.094"±0.001"]}\P{4X}
  0
LINE
  5
6EE
100
AcDbEntity
  8
0
  6
BYBLOCK
 62
     0
100
AcDbLine
 10
366.775879
 20
478.278211
 30
0.0
 11
371.347879
 21
478.278211
 31
0.0
  0
LINE
  5
6EF
100
AcDbEntity
  8
0
  6
BYBLOCK
 62
     0
100
AcDbLine
 10
369.061879
 20
475.992211
 30
0.0
 11
369.061879
 21
480.564211
 31
0.0
  0
POINT
  5
6F0
100
AcDbEntity
  8
DEFPOINTS
  6
BYBLOCK
 62
     0
100
AcDbPoint
 10
369.826256
 20
477.365318
 30
0.0
  0
POINT
  5
6F1
100
AcDbEntity
  8
DEFPOINTS
  6
BYBLOCK
 62
     0
100
AcDbPoint
 10
368.297501
 20
479.191105
 30
0.0
  0
ENDBLK
  5
6F2
100
AcDbEntity
  8
0
100
AcDbBlockEnd
  0
BLOCK
  5
588
100
AcDbEntity
  8
0
100
AcDbBlockBegin
  2
*D34
 70
    65
 10
0.0
 20
0.0
 30
0.0
  3
*D34
  1
*TB
  0
LINE
  5
589
100
AcDbEntity
  8
0
  6
BYBLOCK
 62
     0
100
AcDbLine
 10
334.338762
 20
322.791621
 30
0.0
 11
349.783636
 21
302.467702
 31
0.0
  0
LINE
  5
58A
100
AcDbEntity
  8
0
  6
BYBLOCK
 62
     0
100
AcDbLine
 10
349.783636
 20
302.467702
 30
0.0
 11
354.355636
 21
302.467702
 31
0.0
  0
SOLID
  5
58B
100
AcDbEntity
  8
0
  6
BYBLOCK
 62
     0
100
AcDbTrace
 10
334.945457
 20
323.252669
 30
0.0
 11
333.732068
 21
322.330572
 31
0.0
 12
331.57247
 22
326.431787
 32
0.0
 13
331.57247
 23
326.431787
 33
0.0
  0
MTEXT
  5
58C
100
AcDbEntity
  8
0
  6
BYBLOCK
 62
     0
100
AcDbMText
 10
411.886636
 20
302.467702
 30
0.0
 40
4.572
 41
0.0
 71
     5
 72
     1
  1
\A1;{\U+22052.38mm±0.03mm[\U+22050.094"±0.001"]}\P{2X}
  0
LINE
  5
58D
100
AcDbEntity
  8
0
  6
BYBLOCK
 62
     0
100
AcDbLine
 10
328.566081
 20
327.379747
 30
0.0
 11
333.138081
 21
327.379747
 31
0.0
  0
LINE
  5
58E
100
AcDbEntity
  8
0
  6
BYBLOCK
 62
     0
100
AcDbLine
 10
330.852081
 20
325.093747
 30
0.0
 11
330.852081
 21
329.665747
 31
0.0
  0
POINT
  5
58F
100
AcDbEntity
  8
DEFPOINTS
  6
BYBLOCK
 62
     0
100
AcDbPoint
 10
331.57247
 20
326.431787
 30
0.0
  0
POINT
  5
590
100
AcDbEntity
  8
DEFPOINTS
  6
BYBLOCK
 62
     0
100
AcDbPoint
 10
330.131692
 20
328.327706
 30
0.0
  0
ENDBLK
  5
591
100
AcDbEntity
  8
0
100
AcDbBlockEnd
  0
BLOCK
  5
5A8
100
AcDbEntity
  8
0
100
AcDbBlockBegin
  2
*D35
 70
    65
 10
0.0
 20
0.0
 30
0.0
  3
*D35
  1
*TB
  0
LINE
  5
5A9
100
AcDbEntity
  8
0
  6
BYBLOCK
 62
     0
100
AcDbLine
 10
337.216892
 20
314.414362
 30
0.0
 11
360.821345
 21
282.463456
 31
0.0
  0
LINE
  5
5AA
100
AcDbEntity
  8
0
  6
BYBLOCK
 62
     0
100
AcDbLine
 10
360.821345
 20
282.463456
 30
0.0
 11
365.393345
 21
282.463456
 31
0.0
  0
SOLID
  5
5AB
100
AcDbEntity
  8
0
  6
BYBLOCK
 62
     0
100
AcDbTrace
 10
337.829779
 20
314.867146
 30
0.0
 11
336.604005
 21
313.961577
 31
0.0
 12
334.500187
 22
318.091684
 32
0.0
 13
334.500187
 23
318.091684
 33
0.0
  0
MTEXT
  5
5AC
100
AcDbEntity
  8
0
  6
BYBLOCK
 62
     0
100
AcDbMText
 10
396.635345
 20
282.463456
 30
0.0
 40
4.572
 41
0.0
 71
     5
 72
     1
  1
\A1;{\U+22053.20mm[\U+22050.126"]}\P{4X}
  0
LINE
  5
5AD
100
AcDbEntity
  8
0
  6
BYBLOCK
 62
     0
100
AcDbLine
 10
331.26334
 20
319.378747
 30
0.0
 11
335.83534
 21
319.378747
 31
0.0
  0
LINE
  5
5AE
100
AcDbEntity
  8
0
  6
BYBLOCK
 62
     0
100
AcDbLine
 10
333.54934
 20
317.092747
 30
0.0
 11
333.54934
 21
321.664747
 31
0.0
  0
POINT
  5
5AF
100
AcDbEntity
  8
DEFPOINTS
  6
BYBLOCK
 62
     0
100
AcDbPoint
 10
334.500187
 20
318.091684
 30
0.0
  0
POINT
  5
5B0
100
AcDbEntity
  8
DEFPOINTS
  6
BYBLOCK
 62
     0
100
AcDbPoint
 10
332.598494
 20
320.665809
 30
0.0
  0
ENDBLK
  5
5B1
100
AcDbEntity
  8
0
100
AcDbBlockEnd
  0
BLOCK
  5
62A
100
AcDbEntity
  8
0
100
AcDbBlockBegin
  2
*D37
 70
    65
 10
0.0
 20
0.0
 30
0.0
  3
*D37
  1
*TB
  0
LINE
  5
62B
100
AcDbEntity
  8
0
  6
BYBLOCK
 62
     0
100
AcDbLine
 10
295.217463
 20
322.433449
 30
0.0
 11
269.076961
 21
285.229737
 31
0.0
  0
LINE
  5
62C
100
AcDbEntity
  8
0
  6
BYBLOCK
 62
     0
100
AcDbLine
 10
269.076961
 20
285.229737
 30
0.0
 11
264.504961
 21
285.229737
 31
0.0
  0
SOLID
  5
62D
100
AcDbEntity
  8
0
  6
BYBLOCK
 62
     0
100
AcDbTrace
 10
294.59398
 20
322.871527
 30
0.0
 11
295.840946
 21
321.99537
 31
0.0
 12
297.845936
 22
326.174346
 32
0.0
 13
297.845936
 23
326.174346
 33
0.0
  0
MTEXT
  5
62E
100
AcDbEntity
  8
0
  6
BYBLOCK
 62
     0
100
AcDbMText
 10
233.643961
 20
285.229737
 30
0.0
 40
4.572
 41
0.0
 71
     5
 72
     1
  1
\A1;\U+22052.95mm[\U+22050.116"]
  0
LINE
  5
62F
100
AcDbEntity
  8
0
  6
BYBLOCK
 62
     0
100
AcDbLine
 10
296.406888
 20
327.379747
 30
0.0
 11
300.978888
 21
327.379747
 31
0.0
  0
LINE
  5
630
100
AcDbEntity
  8
0
  6
BYBLOCK
 62
     0
100
AcDbLine
 10
298.692888
 20
325.093747
 30
0.0
 11
298.692888
 21
329.665747
 31
0.0
  0
POINT
  5
631
100
AcDbEntity
  8
DEFPOINTS
  6
BYBLOCK
 62
     0
100
AcDbPoint
 10
297.845936
 20
326.174346
 30
0.0
  0
POINT
  5
632
100
AcDbEntity
  8
DEFPOINTS
  6
BYBLOCK
 62
     0
100
AcDbPoint
 10
299.53984
 20
328.585147
 30
0.0
  0
ENDBLK
  5
633
100
AcDbEntity
  8
0
100
AcDbBlockEnd
  0
BLOCK
  5
620
100
AcDbEntity
  8
0
100
AcDbBlockBegin
  2
*D38
 70
    65
 10
0.0
 20
0.0
 30
0.0
  3
*D38
  1
*TB
  0
LINE
  5
621
100
AcDbEntity
  8
0
  6
BYBLOCK
 62
     0
100
AcDbLine
 10
320.831961
 20
314.319283
 30
0.0
 11
280.976658
 21
261.149793
 31
0.0
  0
LINE
  5
622
100
AcDbEntity
  8
0
  6
BYBLOCK
 62
     0
100
AcDbLine
 10
280.976658
 20
261.149793
 30
0.0
 11
276.404658
 21
261.149793
 31
0.0
  0
SOLID
  5
623
100
AcDbEntity
  8
0
  6
BYBLOCK
 62
     0
100
AcDbTrace
 10
320.222241
 20
314.776323
 30
0.0
 11
321.441681
 21
313.862243
 31
0.0
 12
323.5742
 22
317.977604
 32
0.0
 13
323.5742
 23
317.977604
 33
0.0
  0
MTEXT
  5
624
100
AcDbEntity
  8
0
  6
BYBLOCK
 62
     0
100
AcDbMText
 10
245.924658
 20
261.149793
 30
0.0
 40
4.572
 41
0.0
 71
     5
 72
     1
  1
\A1;{\U+22051.00mm[\U+22050.039"]}\P{8X}
  0
LINE
  5
625
100
AcDbEntity
  8
0
  6
BYBLOCK
 62
     0
100
AcDbLine
 10
321.588323
 20
318.377987
 30
0.0
 11
326.160323
 21
318.377987
 31
0.0
  0
LINE
  5
626
100
AcDbEntity
  8
0
  6
BYBLOCK
 62
     0
100
AcDbLine
 10
323.874323
 20
316.091987
 30
0.0
 11
323.874323
 21
320.663987
 31
0.0
  0
POINT
  5
627
100
AcDbEntity
  8
DEFPOINTS
  6
BYBLOCK
 62
     0
100
AcDbPoint
 10
323.5742
 20
317.977604
 30
0.0
  0
POINT
  5
628
100
AcDbEntity
  8
DEFPOINTS
  6
BYBLOCK
 62
     0
100
AcDbPoint
 10
324.174446
 20
318.778369
 30
0.0
  0
ENDBLK
  5
629
100
AcDbEntity
  8
0
100
AcDbBlockEnd
  0
BLOCK
  5
6FF
100
AcDbEntity
  8
0
100
AcDbBlockBegin
  2
*D41
 70
    65
 10
0.0
 20
0.0
 30
0.0
  3
*D41
  1
*TB
  0
LINE
  5
700
100
AcDbEntity
  8
0
  6
BYBLOCK
 62
     0
100
AcDbLine
 10
390.917458
 20
470.218782
 30
0.0
 11
402.52817
 21
458.808036
 31
0.0
  0
LINE
  5
701
100
AcDbEntity
  8
0
  6
BYBLOCK
 62
     0
100
AcDbLine
 10
402.52817
 20
458.808036
 30
0.0
 11
407.10017
 21
458.808036
 31
0.0
  0
SOLID
  5
702
100
AcDbEntity
  8
0
  6
BYBLOCK
 62
     0
100
AcDbTrace
 10
391.451573
 20
470.762257
 30
0.0
 11
390.383343
 21
469.675307
 31
0.0
 12
387.656608
 22
473.423472
 32
0.0
 13
387.656608
 23
473.423472
 33
0.0
  0
MTEXT
  5
703
100
AcDbEntity
  8
0
  6
BYBLOCK
 62
     0
100
AcDbMText
 10
438.34217
 20
458.808036
 30
0.0
 40
4.572
 41
0.0
 71
     5
 72
     1
  1
\A1;{R1.59mm[R0.062"]}\P{2X}
  0
LINE
  5
704
100
AcDbEntity
  8
0
  6
BYBLOCK
 62
     0
100
AcDbLine
 10
384.238368
 20
474.536212
 30
0.0
 11
388.810368
 21
474.536212
 31
0.0
  0
LINE
  5
705
100
AcDbEntity
  8
0
  6
BYBLOCK
 62
     0
100
AcDbLine
 10
386.524368
 20
472.250212
 30
0.0
 11
386.524368
 21
476.822212
 31
0.0
  0
POINT
  5
706
100
AcDbEntity
  8
DEFPOINTS
  6
BYBLOCK
 62
     0
100
AcDbPoint
 10
387.656608
 20
473.423472
 30
0.0
  0
POINT
  5
707
100
AcDbEntity
  8
DEFPOINTS
  6
BYBLOCK
 62
     0
100
AcDbPoint
 10
386.524368
 20
474.536212
 30
0.0
  0
ENDBLK
  5
708
100
AcDbEntity
  8
0
100
AcDbBlockEnd
  0
BLOCK
  5
719
100
AcDbEntity
  8
0
100
AcDbBlockBegin
  2
*D43
 70
    65
 10
0.0
 20
0.0
 30
0.0
  3
*D43
  1
*TB
  0
ARC
  5
71A
100
AcDbEntity
  8
0
  6
BYBLOCK
 62
     0
100
AcDbCircle
 10
338.153898
 20
132.995669
 30
0.0
 40
104.918477
100
AcDbArc
 50
92.496958
 51
105.477632
  0
ARC
  5
71B
100
AcDbEntity
  8
0
  6
BYBLOCK
 62
     0
100
AcDbCircle
 10
338.153898
 20
132.995669
 30
0.0
 40
104.918477
100
AcDbArc
 50
118.705679
 51
133.453042
  0
SOLID
  5
71C
100
AcDbEntity
  8
0
  6
BYBLOCK
 62
     0
100
AcDbTrace
 10
333.566381
 20
238.576348
 30
0.0
 11
333.599586
 21
237.05271
 31
0.0
 12
338.153898
 22
237.914146
 32
0.0
 13
338.153898
 23
237.914146
 33
0.0
  0
SOLID
  5
71D
100
AcDbEntity
  8
0
  6
BYBLOCK
 62
     0
100
AcDbTrace
 10
266.531184
 20
208.618393
 30
0.0
 11
265.459182
 21
209.701623
 31
0.0
 12
262.745493
 22
205.944001
 32
0.0
 13
262.745493
 23
205.944001
 33
0.0
  0
MTEXT
  5
71E
100
AcDbEntity
  8
0
  6
BYBLOCK
 62
     0
100
AcDbMText
 10
297.201128
 20
229.591514
 30
0.0
 40
4.572
 41
0.0
 71
     5
 72
     1
  1
\A1;45.95°
  0
POINT
  5
71F
100
AcDbEntity
  8
DEFPOINTS
  6
BYBLOCK
 62
     0
100
AcDbPoint
 10
310.439303
 20
234.187506
 30
0.0
  0
POINT
  5
720
100
AcDbEntity
  8
DEFPOINTS
  6
BYBLOCK
 62
     0
100
AcDbPoint
 10
366.223967
 20
105.841339
 30
0.0
  0
POINT
  5
721
100
AcDbEntity
  8
DEFPOINTS
  6
BYBLOCK
 62
     0
100
AcDbPoint
 10
338.153898
 20
76.082664
 30
0.0
  0
POINT
  5
722
100
AcDbEntity
  8
DEFPOINTS
  6
BYBLOCK
 62
     0
100
AcDbPoint
 10
338.153898
 20
493.127923
 30
0.0
  0
POINT
  5
723
100
AcDbEntity
  8
DEFPOINTS
  6
BYBLOCK
 62
     0
100
AcDbPoint
 10
224.4444
 20
242.995585
 30
0.0
  0
ENDBLK
  5
724
100
AcDbEntity
  8
0
100
AcDbBlockEnd
  0
ENDSEC
  0
SECTION
  2
ENTITIES
  0
ACAD_ZOMBIE_ENTITY
  5
3D
100
AcDbEntity
  8
0
100
AcDbZombieEntity
 90
      498
 91
      515
 92
        8
310
0800000000000000
 93
       97
310
D28000000020290400007802C3
330
3E
330
3F
330
40
330
41
330
3E
 94
        0
  0
INSERT
  5
E3
100
AcDbEntity
  8
0
100
AcDbBlockReference
  2
D-BORDER
 10
0.0
 20
0.0
 30
0.0
 41
25.4
 42
25.4
 43
25.4
  0
LINE
  5
152
100
AcDbEntity
  8
CENTER
100
AcDbLine
 10
338.153898
 20
76.082664
 30
0.0
 11
338.153898
 21
493.127923
 31
0.0
  0
LINE
  5
153
100
AcDbEntity
  8
CENTER
100
AcDbLine
 10
256.308965
 20
132.995669
 30
0.0
 11
780.614461
 21
132.995669
 31
0.0
  0
INSERT
  5
154
100
AcDbEntity
  8
FOOT-2
100
AcDbBlockReference
  2
*U3
 10
350.054756
 20
327.379747
 30
0.0
 41
25.4
 42
25.4
 43
25.4
1001
TB_S_MPD
1070
   100
1000
HOLE
1070
   101
1000
TOOLBOX 13.0 HOLE 2.0
1070
   112
1000
#32 (.116) DIAMETER HOLE
1070
   102
1000
Near side
1070
   103
1000
ANSI-Number
1070
   104
1000
hole
1070
   105
1000
_usn
1070
   304
1040
0.0
1070
   305
1040
0.0
1070
   306
1040
0.116
1070
   302
1040
0.0
1070
   303
1040
0.0
1070
   307
1040
0.03
1070
   300
1040
0.125
1070
   110
1000
1
1070
   111
1000
#32
1070
   116
1000
T
1070
   308
1040
0.03
  0
LINE
  5
155
100
AcDbEntity
  8
FOOT-A
100
AcDbLine
 10
326.765963
 20
311.928947
 30
0.0
 11
388.111868
 21
311.928947
 31
0.0
  0
LINE
  5
156
100
AcDbEntity
  8
FOOT-A
100
AcDbLine
 10
326.765963
 20
342.830547
 30
0.0
 11
388.111868
 21
342.830547
 31
0.0
  0
POLYLINE
  5
157
100
AcDbEntity
  8
FOOT-A
100
AcDb2dPolyline
 66
     1
 10
0.0
 20
0.0
 30
0.0
 70
     1
  0
VERTEX
  5
158
100
AcDbEntity
  8
FOOT-A
100
AcDbVertex
100
AcDb2dVertex
 10
388.111868
 20
311.166947
 30
0.0
  0
VERTEX
  5
159
100
AcDbEntity
  8
FOOT-A
100
AcDbVertex
100
AcDb2dVertex
 10
388.111868
 20
343.592547
 30
0.0
  0
VERTEX
  5
15A
100
AcDbEntity
  8
FOOT-A
100
AcDbVertex
100
AcDb2dVertex
 10
326.765963
 20
343.592547
 30
0.0
  0
VERTEX
  5
15B
100
AcDbEntity
  8
FOOT-A
100
AcDbVertex
100
AcDb2dVertex
 10
326.765963
 20
311.166947
 30
0.0
  0
SEQEND
  5
15C
100
AcDbEntity
  8
FOOT-A
  0
LINE
  5
15D
100
AcDbEntity
  8
CENTER
100
AcDbLine
 10
333.664396
 20
322.860486
 30
0.0
 11
333.664396
 21
331.819901
 31
0.0
  0
LINE
  5
15E
100
AcDbEntity
  8
FOOT-A
100
AcDbLine
 10
327.295771
 20
311.928947
 30
0.0
 11
327.295771
 21
342.830547
 31
0.0
  0
LINE
  5
15F
100
AcDbEntity
  8
FOOT-A
100
AcDbLine
 10
346.879756
 20
311.928947
 30
0.0
 11
346.879756
 21
342.830547
 31
0.0
  0
LINE
  5
160
100
AcDbEntity
  8
FOOT-A
100
AcDbLine
 10
328.851821
 20
311.166947
 30
0.0
 11
328.851821
 21
311.928947
 31
0.0
  0
LINE
  5
163
100
AcDbEntity
  8
CENTER
100
AcDbLine
 10
329.812687
 20
327.379747
 30
0.0
 11
337.079585
 21
327.379747
 31
0.0
  0
LINE
  5
164
100
AcDbEntity
  8
FOOT-A
100
AcDbLine
 10
352.912247
 20
311.166947
 30
0.0
 11
352.912247
 21
311.928947
 31
0.0
  0
LINE
  5
165
100
AcDbEntity
  8
FOOT-A
100
AcDbLine
 10
328.851821
 20
343.592547
 30
0.0
 11
328.851821
 21
342.830547
 31
0.0
  0
LINE
  5
166
100
AcDbEntity
  8
FOOT-A
100
AcDbLine
 10
352.912247
 20
343.592547
 30
0.0
 11
352.912247
 21
342.830547
 31
0.0
  0
INSERT
  5
167
100
AcDbEntity
  8
FOOT-2
100
AcDbBlockReference
  2
*U4
 10
382.213949
 20
327.379747
 30
0.0
 41
25.4
 42
25.4
 43
25.4
1001
TB_S_MPD
1070
   100
1000
HOLE
1070
   101
1000
TOOLBOX 13.0 HOLE 2.0
1070
   112
1000
3/32 (.0938) DIAMETER HOLE
1070
   102
1000
Near side
1070
   103
1000
ANSI-Fraction
1070
   104
1000
hole
1070
   105
1000
_usf
1070
   304
1040
0.0
1070
   305
1040
0.0
1070
   306
1040
0.09375
1070
   302
1040
0.0
1070
   303
1040
0.0
1070
   307
1040
0.03
1070
   300
1040
0.125
1070
   110
1000
1
1070
   111
1000
3/32
1070
   116
1000
T
1070
   308
1040
0.03
  0
INSERT
  5
168
100
AcDbEntity
  8
FOOT-2
100
AcDbBlockReference
  2
*U5
 10
384.911208
 20
335.380747
 30
0.0
 41
25.4
 42
25.4
 43
25.4
1001
TB_S_MPD
1070
   100
1000
SLOT
1070
   101
1000
TOOLBOX 13.0 SLOT 2.0
1070
   103
1000
STD
1070
   306
1040
0.126
1070
   307
1040
0.03
1070
   112
1000
SLOT
1070
   102
1000
Near side
1070
   116
1000
T
1070
   308
1040
0.03
1070
   309
1040
0.063
1070
   310
1040
0.176
1070
   311
1040
0.0
  0
INSERT
  5
169
100
AcDbEntity
  8
FOOT-2
100
AcDbBlockReference
  2
*U5
 10
384.911208
 20
319.378747
 30
0.0
 41
25.4
 42
25.4
 43
25.4
1001
TB_S_MPD
1070
   100
1000
SLOT
1070
   101
1000
TOOLBOX 13.0 SLOT 2.0
1070
   103
1000
STD
1070
   306
1040
0.126
1070
   307
1040
0.03
1070
   112
1000
SLOT
1070
   102
1000
Near side
1070
   116
1000
T
1070
   308
1040
0.03
1070
   309
1040
0.063
1070
   310
1040
0.176
1070
   311
1040
0.0
  0
POLYLINE
  5
16A
100
AcDbEntity
  8
FOOT-2
100
AcDb2dPolyline
 66
     1
 10
0.0
 20
0.0
 30
0.0
 70
     1
  0
VERTEX
  5
16B
100
AcDbEntity
  8
FOOT-2
100
AcDbVertex
100
AcDb2dVertex
 10
374.735811
 20
318.377987
 30
0.0
  0
VERTEX
  5
16C
100
AcDbEntity
  8
FOOT-2
100
AcDbVertex
100
AcDb2dVertex
 10
374.735811
 20
320.379507
 30
0.0
 42
-0.414214
  0
VERTEX
  5
16D
100
AcDbEntity
  8
FOOT-2
100
AcDbVertex
100
AcDb2dVertex
 10
375.236191
 20
320.879887
 30
0.0
  0
VERTEX
  5
16E
100
AcDbEntity
  8
FOOT-2
100
AcDbVertex
100
AcDb2dVertex
 10
377.735551
 20
320.879887
 30
0.0
 42
-0.414214
  0
VERTEX
  5
16F
100
AcDbEntity
  8
FOOT-2
100
AcDbVertex
100
AcDb2dVertex
 10
378.235931
 20
320.379507
 30
0.0
  0
VERTEX
  5
170
100
AcDbEntity
  8
FOOT-2
100
AcDbVertex
100
AcDb2dVertex
 10
378.235931
 20
318.377987
 30
0.0
 42
-0.414214
  0
VERTEX
  5
171
100
AcDbEntity
  8
FOOT-2
100
AcDbVertex
100
AcDb2dVertex
 10
377.735551
 20
317.877607
 30
0.0
  0
VERTEX
  5
172
100
AcDbEntity
  8
FOOT-2
100
AcDbVertex
100
AcDb2dVertex
 10
375.236191
 20
317.877607
 30
0.0
 42
-0.414214
  0
SEQEND
  5
173
100
AcDbEntity
  8
FOOT-2
  0
POLYLINE
  5
174
100
AcDbEntity
  8
FOOT-2
100
AcDb2dPolyline
 66
     1
 10
0.0
 20
0.0
 30
0.0
 70
     1
  0
VERTEX
  5
175
100
AcDbEntity
  8
FOOT-2
100
AcDbVertex
100
AcDb2dVertex
 10
374.735811
 20
334.379987
 30
0.0
  0
VERTEX
  5
176
100
AcDbEntity
  8
FOOT-2
100
AcDbVertex
100
AcDb2dVertex
 10
374.735811
 20
336.381507
 30
0.0
 42
-0.414214
  0
VERTEX
  5
177
100
AcDbEntity
  8
FOOT-2
100
AcDbVertex
100
AcDb2dVertex
 10
375.236191
 20
336.881887
 30
0.0
  0
VERTEX
  5
178
100
AcDbEntity
  8
FOOT-2
100
AcDbVertex
100
AcDb2dVertex
 10
377.735551
 20
336.881887
 30
0.0
 42
-0.414214
  0
VERTEX
  5
179
100
AcDbEntity
  8
FOOT-2
100
AcDbVertex
100
AcDb2dVertex
 10
378.235931
 20
336.381507
 30
0.0
  0
VERTEX
  5
17A
100
AcDbEntity
  8
FOOT-2
100
AcDbVertex
100
AcDb2dVertex
 10
378.235931
 20
334.379987
 30
0.0
 42
-0.414214
  0
VERTEX
  5
17B
100
AcDbEntity
  8
FOOT-2
100
AcDbVertex
100
AcDb2dVertex
 10
377.735551
 20
333.879607
 30
0.0
  0
VERTEX
  5
17C
100
AcDbEntity
  8
FOOT-2
100
AcDbVertex
100
AcDb2dVertex
 10
375.236191
 20
333.879607
 30
0.0
 42
-0.414214
  0
SEQEND
  5
17D
100
AcDbEntity
  8
FOOT-2
  0
LINE
  5
17E
100
AcDbEntity
  8
FOOT-B
100
AcDbLine
 10
346.879756
 20
120.137
 30
0.0
 11
327.295771
 21
139.08209
 31
0.0
1001
ACAD
1000
ASC_BOUNDS
1002
{
1070
    19
1005
1D8
1002
}
  0
LINE
  5
180
100
AcDbEntity
  8
FOOT-B
100
AcDbLine
 10
352.912247
 20
129.375
 30
0.0
 11
328.851821
 21
140.690616
 31
0.0
  0
LINE
  5
181
100
AcDbEntity
  8
FOOT-B
100
AcDbLine
 10
346.571501
 20
119.375
 30
0.0
 11
326.765963
 21
138.534416
 31
0.0
1001
ACAD
1000
ASC_BOUNDS
1002
{
1070
    19
1005
1D8
1002
}
  0
LINE
  5
182
100
AcDbEntity
  8
FOOT-B
100
AcDbLine
 10
326.765963
 20
138.534416
 30
0.0
 11
328.851821
 21
140.690616
 31
0.0
1001
ACAD
1000
ASC_BOUNDS
1002
{
1070
    19
1005
1D8
1002
}
  0
LINE
  5
183
100
AcDbEntity
  8
FOOT-B
100
AcDbLine
 10
386.524368
 20
129.375
 30
0.0
 11
352.912247
 21
129.375
 31
0.0
  0
LINE
  5
185
100
AcDbEntity
  8
FOOT-B
100
AcDbLine
 10
388.111868
 20
119.375
 30
0.0
 11
388.111868
 21
127.7875
 31
0.0
1001
ACAD
1000
ASC_BOUNDS
1002
{
1070
    19
1005
1D8
1002
}
  0
LINE
  5
187
100
AcDbEntity
  8
FOOT-B
100
AcDbLine
 10
388.111868
 20
120.137
 30
0.0
 11
346.879756
 21
120.137
 31
0.0
1001
ACAD
1000
ASC_BOUNDS
1002
{
1070
    19
1005
1D8
1002
}
  0
LINE
  5
188
100
AcDbEntity
  8
FOOT-B
100
AcDbLine
 10
388.111868
 20
119.375
 30
0.0
 11
346.571501
 21
119.375
 31
0.0
1001
ACAD
1000
ASC_BOUNDS
1002
{
1070
    19
1005
1D8
1002
}
  0
LINE
  5
189
100
AcDbEntity
  8
CENTER
100
AcDbLine
 10
335.236868
 20
132.995669
 30
0.0
 11
341.111868
 21
132.995669
 31
0.0
  0
LINE
  5
18A
100
AcDbEntity
  8
CENTER
100
AcDbLine
 10
338.153898
 20
130.125
 30
0.0
 11
338.153898
 21
136.25
 31
0.0
  0
LINE
  5
18B
100
AcDbEntity
  8
CENTER
100
AcDbLine
 10
366.144849
 20
124.045501
 30
0.0
 11
372.019849
 21
124.045501
 31
0.0
  0
LINE
  5
18C
100
AcDbEntity
  8
CENTER
100
AcDbLine
 10
369.061879
 20
121.174832
 30
0.0
 11
369.061879
 21
127.299832
 31
0.0
  0
CIRCLE
  5
18D
100
AcDbEntity
  8
FOOT-B
100
AcDbCircle
 10
338.153898
 20
132.995669
 30
0.0
 40
1.19065
  0
CIRCLE
  5
18E
100
AcDbEntity
  8
FOOT-B
100
AcDbCircle
 10
369.061879
 20
124.045501
 30
0.0
 40
1.19065
  0
LINE
  5
18F
100
AcDbEntity
  8
CENTER
100
AcDbLine
 10
288.562123
 20
81.731485
 30
0.0
 11
450.9959
 21
249.643098
 31
0.0
  0
LINE
  5
190
100
AcDbEntity
  8
CENTER
100
AcDbLine
 10
366.223967
 20
105.841339
 30
0.0
 11
224.4444
 21
242.995585
 31
0.0
  0
LINE
  5
197
100
AcDbEntity
  8
FOOT-B
100
AcDbLine
 10
402.193602
 20
216.505738
 30
0.0
 11
424.738662
 21
239.811098
 31
0.0
  0
LINE
  5
198
100
AcDbEntity
  8
FOOT-B
100
AcDbLine
 10
424.738662
 20
239.811098
 30
0.0
 11
447.612059
 21
217.683908
 31
0.0
  0
LINE
  5
19A
100
AcDbEntity
  8
FOOT-B
100
AcDbLine
 10
426.49037
 20
193.001612
 30
0.0
 11
402.193602
 21
216.505738
 31
0.0
  0
LINE
  5
19B
100
AcDbEntity
  8
FOOT-B
100
AcDbLine
 10
426.67217
 20
193.88594
 30
0.0
 11
402.723409
 21
217.053413
 31
0.0
  0
LINE
  5
19C
100
AcDbEntity
  8
FOOT-B
100
AcDbLine
 10
424.208855
 20
239.263423
 30
0.0
 11
446.875218
 21
217.336512
 31
0.0
  0
LINE
  5
19D
100
AcDbEntity
  8
FOOT-B
100
AcDbLine
 10
420.277376
 20
199.011917
 30
0.0
 11
420.807183
 21
199.559592
 31
0.0
  0
LINE
  5
19E
100
AcDbEntity
  8
FOOT-B
100
AcDbLine
 10
442.822436
 20
222.317277
 30
0.0
 11
442.292629
 21
221.769602
 31
0.0
  0
LINE
  5
19F
100
AcDbEntity
  8
FOOT-B
100
AcDbLine
 10
422.307395
 20
198.108323
 30
0.0
 11
443.79284
 21
220.318332
 31
0.0
  0
LINE
  5
1A0
100
AcDbEntity
  8
FOOT-B
100
AcDbLine
 10
426.49037
 20
193.001612
 30
0.0
 11
427.463849
 21
197.736886
 31
0.0
  0
LINE
  5
1A1
100
AcDbEntity
  8
FOOT-B
100
AcDbLine
 10
427.463849
 20
197.736886
 30
0.0
 11
430.965401
 21
199.791135
 31
0.0
  0
LINE
  5
1A2
100
AcDbEntity
  8
FOOT-B
100
AcDbLine
 10
430.965401
 20
199.791135
 30
0.0
 11
432.335573
 21
204.28005
 31
0.0
  0
LINE
  5
1A3
100
AcDbEntity
  8
FOOT-B
100
AcDbLine
 10
432.335573
 20
204.28005
 30
0.0
 11
438.501352
 21
207.7038
 31
0.0
  0
LINE
  5
1A4
100
AcDbEntity
  8
FOOT-B
100
AcDbLine
 10
438.501352
 20
207.7038
 30
0.0
 11
439.643162
 21
210.671049
 31
0.0
  0
LINE
  5
1A5
100
AcDbEntity
  8
FOOT-B
100
AcDbLine
 10
439.643162
 20
210.671049
 30
0.0
 11
444.591008
 21
213.486131
 31
0.0
  0
LINE
  5
1A6
100
AcDbEntity
  8
FOOT-B
100
AcDbLine
 10
444.591008
 20
213.486131
 30
0.0
 11
445.808938
 21
216.833797
 31
0.0
  0
LINE
  5
1A7
100
AcDbEntity
  8
FOOT-B
100
AcDbLine
 10
445.808938
 20
216.833797
 30
0.0
 11
447.612059
 21
217.683908
 31
0.0
  0
CIRCLE
  5
1A8
100
AcDbEntity
  8
FOOT-B
100
AcDbCircle
 10
419.834757
 20
221.997559
 30
0.0
 40
1.19065
  0
LINE
  5
1A9
100
AcDbEntity
  8
CENTER
100
AcDbLine
 10
418.340589
 20
220.453002
 30
0.0
 11
421.517886
 21
223.737449
 31
0.0
  0
LINE
  5
1AA
100
AcDbEntity
  8
CENTER
100
AcDbLine
 10
421.465839
 20
220.419688
 30
0.0
 11
418.237571
 21
223.54264
 31
0.0
  0
ELLIPSE
  5
1B0
100
AcDbEntity
  8
FOOT-B
100
AcDbEllipse
 10
333.664396
 20
327.379747
 30
0.0
 11
0.0
 21
1.190625000000011
 31
0.0
210
0.0
220
0.0
230
1.0
 40
0.718748
 41
0.0
 42
6.2831853071796
  0
ELLIPSE
  5
1B2
100
AcDbEntity
  8
FOOT-B
100
AcDbEllipse
 10
333.134588
 20
327.379747
 30
0.0
 11
-0.0000000000000619
 21
1.190625000000024
 31
0.0
210
0.0
220
0.0
230
1.0
 40
0.718748
 41
-2.826868658942524
 42
-0.3147239946473436
  0
LINE
  5
1B7
100
AcDbEntity
  8
CENTER
100
AcDbLine
 10
335.236868
 20
469.328043
 30
0.0
 11
341.111868
 21
469.328043
 31
0.0
  0
LINE
  5
1B8
100
AcDbEntity
  8
FOOT-B
100
AcDbLine
 10
346.571501
 20
482.948712
 30
0.0
 11
326.765963
 21
463.789296
 31
0.0
  0
LINE
  5
1B9
100
AcDbEntity
  8
FOOT-B
100
AcDbLine
 10
352.912247
 20
472.948712
 30
0.0
 11
328.851821
 21
461.633096
 31
0.0
  0
LINE
  5
1BB
100
AcDbEntity
  8
CENTER
100
AcDbLine
 10
338.153898
 20
472.198712
 30
0.0
 11
338.153898
 21
466.073712
 31
0.0
  0
LINE
  5
1BC
100
AcDbEntity
  8
FOOT-B
100
AcDbLine
 10
326.765963
 20
463.789296
 30
0.0
 11
328.851821
 21
461.633096
 31
0.0
  0
CIRCLE
  5
1BD
100
AcDbEntity
  8
FOOT-B
100
AcDbCircle
 10
338.153898
 20
469.328043
 30
0.0
 40
1.19065
  0
LINE
  5
1BE
100
AcDbEntity
  8
FOOT-B
100
AcDbLine
 10
388.111868
 20
482.948712
 30
0.0
 11
346.571501
 21
482.948712
 31
0.0
  0
LINE
  5
1C0
100
AcDbEntity
  8
FOOT-B
100
AcDbLine
 10
386.524368
 20
472.948712
 30
0.0
 11
352.912247
 21
472.948712
 31
0.0
  0
CIRCLE
  5
1C1
100
AcDbEntity
  8
FOOT-B
100
AcDbCircle
 10
369.061879
 20
478.278211
 30
0.0
 40
1.19065
  0
LINE
  5
1C2
100
AcDbEntity
  8
CENTER
100
AcDbLine
 10
369.061879
 20
481.14888
 30
0.0
 11
369.061879
 21
475.02388
 31
0.0
  0
LINE
  5
1C3
100
AcDbEntity
  8
CENTER
100
AcDbLine
 10
366.144849
 20
478.278211
 30
0.0
 11
372.019849
 21
478.278211
 31
0.0
  0
LINE
  5
1C4
100
AcDbEntity
  8
FOOT-B
100
AcDbLine
 10
388.111868
 20
482.948712
 30
0.0
 11
388.111868
 21
474.536212
 31
0.0
  0
LINE
  5
1C6
100
AcDbEntity
  8
CENTER
100
AcDbLine
 10
244.456227
 20
469.328043
 30
0.0
 11
491.398981
 21
469.328043
 31
0.0
  0
INSERT
  5
1D8
100
AcDbEntity
  8
HATCH
100
AcDbBlockReference
  2
*X7
 10
51.361868
 20
0.0
 30
0.0
1001
ACAD
1000
HATCH
1002
{
1070
    19
1000
ANSI31
1040
10.0
1040
0.0
1000
ASC_BOUNDS
1070
     1
1070
     1
1070
     6
1005
187
1005
17E
1005
182
1005
181
1005
188
1005
185
1000
ASC_SEEDPOINT
1011
362.617091
1021
119.85366
1031
0.0
1002
}
  0
DIMENSION
  5
214
100
AcDbEntity
  8
DIM
100
AcDbDimension
  2
*D8
 10
352.912247
 20
166.549228
 30
0.0
 11
390.631247
 21
166.549228
 31
0.0
 12
51.361868
 22
0.0
 32
0.0
 70
    32
  3
SU1
100
AcDbAlignedDimension
 13
338.153898
 23
76.082664
 33
0.0
 14
352.912247
 24
129.375
 34
0.0
100
AcDbRotatedDimension
1001
ACAD
1000
DSTYLE
1002
{
1070
   272
1070
     2
1070
    75
1070
     1
1070
    40
1040
25.4
1070
     3
1000
mm
1070
   271
1070
     2
1070
     4
1000
"
1070
   274
1070
     3
1070
   143
1040
0.03937
1070
   171
1070
     3
1070
   170
1070
     1
1002
}
  0
DIMENSION
  5
221
100
AcDbEntity
  8
DIM
100
AcDbDimension
  2
*D9
 10
388.111868
 20
96.121624
 30
0.0
 11
426.973868
 21
96.121624
 31
0.0
 12
51.361868
 22
0.0
 32
0.0
 70
    32
  3
SU1
100
AcDbAlignedDimension
 13
338.153898
 23
76.082664
 33
0.0
 14
388.111868
 24
119.375
 34
0.0
100
AcDbRotatedDimension
1001
ACAD
1000
DSTYLE
1002
{
1070
   272
1070
     2
1070
    75
1070
     1
1070
    40
1040
25.4
1070
     3
1000
mm
1070
   271
1070
     2
1070
     4
1000
"
1070
   274
1070
     3
1070
   143
1040
0.03937
1070
   171
1070
     3
1070
   170
1070
     1
1002
}
  0
DIMENSION
  5
22E
100
AcDbEntity
  8
DIM
100
AcDbDimension
  2
*D10
 10
369.061879
 20
85.011371
 30
0.0
 11
431.545879
 21
85.011371
 31
0.0
 12
51.361868
 22
0.0
 32
0.0
 70
    32
  3
SU1
100
AcDbAlignedDimension
 13
338.153898
 23
76.082664
 33
0.0
 14
369.061879
 24
121.174832
 34
0.0
100
AcDbRotatedDimension
1001
ACAD
1000
DSTYLE
1002
{
1070
    47
1040
0.03
1070
    71
1070
     1
1070
    48
1040
0.03
1070
   272
1070
     2
1070
    75
1070
     1
1070
    40
1040
25.4
1070
     3
1000
mm
1070
   271
1070
     2
1070
     4
1000
"
1070
   274
1070
     3
1070
   143
1040
0.03937
1070
   171
1070
     3
1070
   170
1070
     1
1002
}
  0
DIMENSION
  5
23C
100
AcDbEntity
  8
DIM
100
AcDbDimension
  2
*D11
 10
426.102897
 20
132.995669
 30
0.0
 11
457.725897
 21
142.139669
 31
0.0
 12
51.361868
 22
0.0
 32
0.0
 70
    32
  3
SU1
100
AcDbAlignedDimension
 13
386.111868
 23
129.375
 33
0.0
 14
780.614461
 24
132.995669
 34
0.0
 50
90.0
100
AcDbRotatedDimension
1001
ACAD
1000
DSTYLE
1002
{
1070
    47
1040
0.03
1070
    48
1040
0.03
1070
   272
1070
     2
1070
    76
1070
     1
1070
    40
1040
25.4
1070
     3
1000
mm
1070
   271
1070
     2
1070
     4
1000
"
1070
   274
1070
     3
1070
   143
1040
0.03937
1070
   171
1070
     3
1070
   170
1070
     1
1002
}
  0
DIMENSION
  5
24A
100
AcDbEntity
  8
DIM
100
AcDbDimension
  2
*D12
 10
491.870015
 20
132.995669
 30
0.0
 11
549.782015
 21
142.139669
 31
0.0
 12
51.361868
 22
0.0
 32
0.0
 70
    32
  3
SU1
100
AcDbAlignedDimension
 13
372.019849
 23
124.045501
 33
0.0
 14
780.614461
 24
132.995669
 34
0.0
 50
90.0
100
AcDbRotatedDimension
1001
ACAD
1000
DSTYLE
1002
{
1070
    47
1040
0.03
1070
    71
1070
     1
1070
    48
1040
0.03
1070
   272
1070
     2
1070
    76
1070
     1
1070
    40
1040
25.4
1070
     3
1000
mm
1070
   271
1070
     2
1070
     4
1000
"
1070
   274
1070
     3
1070
   143
1040
0.03937
1070
   171
1070
     3
1070
   170
1070
     1
1002
}
  0
DIMENSION
  5
258
100
AcDbEntity
  8
DIM
100
AcDbDimension
  2
*D13
 10
611.613074
 20
132.995669
 30
0.0
 11
676.535474
 21
142.139669
 31
0.0
 12
51.361868
 22
0.0
 32
0.0
 70
    32
  3
SU1
100
AcDbAlignedDimension
 13
388.111868
 23
119.375
 33
0.0
 14
780.614461
 24
132.995669
 34
0.0
 50
90.0
100
AcDbRotatedDimension
1001
ACAD
1000
DSTYLE
1002
{
1070
    47
1040
0.0
1070
    71
1070
     1
1070
    48
1040
0.05
1070
   272
1070
     2
1070
    76
1070
     1
1070
    40
1040
25.4
1070
     3
1000
mm
1070
   271
1070
     2
1070
     4
1000
"
1070
   274
1070
     3
1070
   143
1040
0.03937
1070
   171
1070
     3
1070
   170
1070
     1
1002
}
  0
DIMENSION
  5
289
100
AcDbEntity
  8
DIM
100
AcDbDimension
  2
*D14
 10
293.823464
 20
87.170257
 30
0.0
 11
321.207204
 21
60.679867
 31
0.0
 12
51.361868
 22
0.0
 32
0.0
 70
    32
 51
44.05
  3
SU1
100
AcDbAlignedDimension
 13
326.765963
 23
138.534416
 33
0.0
 14
288.562123
 24
81.731485
 34
0.0
 50
315.95
100
AcDbRotatedDimension
1001
ACAD
1000
DSTYLE
1002
{
1070
    47
1040
0.0
1070
    48
1040
0.05
1070
   272
1070
     2
1070
    76
1070
     1
1070
    40
1040
25.4
1070
     3
1000
mm
1070
   271
1070
     2
1070
     4
1000
"
1070
   274
1070
     3
1070
   143
1040
0.03937
1070
   171
1070
     3
1070
   170
1070
     1
1002
}
  0
DIMENSION
  5
296
100
AcDbEntity
  8
DIM
100
AcDbDimension
  2
*D15
 10
313.950045
 20
85.653434
 30
0.0
 11
340.512273
 21
59.957755
 31
0.0
 12
51.361868
 22
0.0
 32
0.0
 70
    32
 51
44.05
  3
SU1
100
AcDbAlignedDimension
 13
288.562123
 23
81.731485
 33
0.0
 14
346.571501
 24
119.375
 34
0.0
 50
315.95
100
AcDbRotatedDimension
1001
ACAD
1000
DSTYLE
1002
{
1070
    47
1040
0.0
1070
    48
1040
0.05
1070
   272
1070
     2
1070
    75
1070
     1
1070
    40
1040
25.4
1070
     3
1000
mm
1070
   271
1070
     2
1070
     4
1000
"
1070
   274
1070
     3
1070
   143
1040
0.03937
1070
   171
1070
     3
1070
   170
1070
     1
1002
}
  0
DIMENSION
  5
2A4
100
AcDbEntity
  8
DIM
100
AcDbDimension
  2
*D16
 10
318.956187
 20
146.089411
 30
0.0
 11
289.869989
 21
161.504338
 31
0.0
 12
51.361868
 22
0.0
 32
0.0
 70
    32
 51
44.05
  3
SU1
100
AcDbAlignedDimension
 13
224.4444
 23
242.995585
 33
0.0
 14
326.765963
 24
138.534416
 34
0.0
 50
45.95
100
AcDbRotatedDimension
1001
ACAD
1000
DSTYLE
1002
{
1070
    47
1040
0.0
1070
    48
1040
0.05
1070
   272
1070
     2
1070
    75
1070
     1
1070
    40
1040
25.4
1070
     3
1000
mm
1070
   271
1070
     2
1070
     4
1000
"
1070
   274
1070
     3
1070
   143
1040
0.03937
1070
   171
1070
     3
1070
   170
1070
     1
1002
}
  0
DIMENSION
  5
2B2
100
AcDbEntity
  8
DIM
100
AcDbDimension
  2
*D17
 10
274.751129
 20
193.026362
 30
0.0
 11
245.664932
 21
208.441289
 31
0.0
 12
51.361868
 22
0.0
 32
0.0
 70
    32
 51
44.05
  3
SU1
100
AcDbAlignedDimension
 13
224.4444
 23
242.995585
 33
0.0
 14
328.851821
 24
140.690616
 34
0.0
 50
45.95
100
AcDbRotatedDimension
1001
ACAD
1000
DSTYLE
1002
{
1070
    47
1040
0.0
1070
    48
1040
0.05
1070
   272
1070
     2
1070
    75
1070
     1
1070
    40
1040
25.4
1070
     3
1000
mm
1070
   271
1070
     2
1070
     4
1000
"
1070
   274
1070
     3
1070
   143
1040
0.03937
1070
   171
1070
     3
1070
   170
1070
     1
1002
}
  0
DIMENSION
  5
2D7
100
AcDbEntity
  8
DIM
100
AcDbDimension
  2
*D18
 10
441.535386
 20
239.863542
 30
0.0
 11
485.349369
 21
197.478917
 31
0.0
 12
51.361868
 22
0.0
 32
0.0
 70
    32
 51
44.05
  3
SU1
100
AcDbAlignedDimension
 13
421.517886
 23
223.737449
 33
0.0
 14
450.9959
 24
249.643098
 34
0.0
 50
315.95
100
AcDbRotatedDimension
1001
ACAD
1000
DSTYLE
1002
{
1070
    47
1040
0.03
1070
    71
1070
     1
1070
    48
1040
0.03
1070
   272
1070
     2
1070
    76
1070
     1
1070
    40
1040
25.4
1070
     3
1000
mm
1070
   271
1070
     2
1070
     4
1000
"
1070
   274
1070
     3
1070
   143
1040
0.03937
1070
   171
1070
     3
1070
   170
1070
     1
1002
}
  0
DIMENSION
  5
326
100
AcDbEntity
  8
DIM
100
AcDbDimension
  2
*D19
 10
384.911208
 20
366.87694
 30
0.0
 11
423.011208
 21
366.87694
 31
0.0
 70
    32
  3
SU1
100
AcDbAlignedDimension
 13
338.153898
 23
493.127923
 33
0.0
 14
384.911208
 24
340.155947
 34
0.0
100
AcDbRotatedDimension
1001
ACAD
1000
DSTYLE
1002
{
1070
    47
1040
0.03
1070
    48
1040
0.03
1070
   272
1070
     2
1070
    75
1070
     1
1070
    40
1040
25.4
1070
     3
1000
mm
1070
   271
1070
     2
1070
     4
1000
"
1070
   274
1070
     3
1070
   143
1040
0.03937
1070
   171
1070
     3
1070
   170
1070
     1
1002
}
  0
DIMENSION
  5
333
100
AcDbEntity
  8
DIM
100
AcDbDimension
  2
*D20
 10
382.213949
 20
379.67903
 30
0.0
 11
446.221949
 21
379.67903
 31
0.0
 70
    32
  3
SU1
100
AcDbAlignedDimension
 13
338.153898
 23
493.127923
 33
0.0
 14
382.213949
 24
331.745372
 34
0.0
100
AcDbRotatedDimension
1001
ACAD
1000
DSTYLE
1002
{
1070
    47
1040
0.03
1070
    71
1070
     1
1070
    48
1040
0.03
1070
   272
1070
     2
1070
    75
1070
     1
1070
    40
1040
25.4
1070
     3
1000
mm
1070
   271
1070
     2
1070
     4
1000
"
1070
   274
1070
     3
1070
   143
1040
0.03937
1070
   171
1070
     3
1070
   170
1070
     1
1002
}
  0
DIMENSION
  5
340
100
AcDbEntity
  8
DIM
100
AcDbDimension
  2
*D21
 10
380.440808
 20
391.740495
 30
0.0
 11
419.302808
 21
391.740495
 31
0.0
 70
    32
  3
SU1
100
AcDbAlignedDimension
 13
338.153898
 23
493.127923
 33
0.0
 14
380.440808
 24
340.155947
 34
0.0
100
AcDbRotatedDimension
1001
ACAD
1000
DSTYLE
1002
{
1070
    47
1040
0.03
1070
    48
1040
0.03
1070
   272
1070
     2
1070
    75
1070
     1
1070
    40
1040
25.4
1070
     3
1000
mm
1070
   271
1070
     2
1070
     4
1000
"
1070
   274
1070
     3
1070
   143
1040
0.03937
1070
   171
1070
     3
1070
   170
1070
     1
1002
}
  0
DIMENSION
  5
34D
100
AcDbEntity
  8
DIM
100
AcDbDimension
  2
*D22
 10
378.235931
 20
403.053342
 30
0.0
 11
416.335931
 21
403.053342
 31
0.0
 70
    32
  3
SU1
100
AcDbAlignedDimension
 13
338.153898
 23
493.127923
 33
0.0
 14
378.235931
 24
336.381507
 34
0.0
100
AcDbRotatedDimension
1001
ACAD
1000
DSTYLE
1002
{
1070
    47
1040
0.03
1070
    48
1040
0.03
1070
   272
1070
     2
1070
    75
1070
     1
1070
    40
1040
25.4
1070
     3
1000
mm
1070
   271
1070
     2
1070
     4
1000
"
1070
   274
1070
     3
1070
   143
1040
0.03937
1070
   171
1070
     3
1070
   170
1070
     1
1002
}
  0
DIMENSION
  5
35A
100
AcDbEntity
  8
DIM
100
AcDbDimension
  2
*D23
 10
374.735811
 20
412.785365
 30
0.0
 11
413.216811
 21
412.785365
 31
0.0
 70
    32
  3
SU1
100
AcDbAlignedDimension
 13
338.153898
 23
493.127923
 33
0.0
 14
374.735811
 24
336.381507
 34
0.0
100
AcDbRotatedDimension
1001
ACAD
1000
DSTYLE
1002
{
1070
    47
1040
0.03
1070
    48
1040
0.03
1070
   272
1070
     2
1070
    75
1070
     1
1070
    40
1040
25.4
1070
     3
1000
mm
1070
   271
1070
     2
1070
     4
1000
"
1070
   274
1070
     3
1070
   143
1040
0.03937
1070
   171
1070
     3
1070
   170
1070
     1
1002
}
  0
DIMENSION
  5
367
100
AcDbEntity
  8
DIM
100
AcDbDimension
  2
*D24
 10
350.054756
 20
425.408293
 30
0.0
 11
387.392756
 21
425.408293
 31
0.0
 70
    32
  3
SU1
100
AcDbAlignedDimension
 13
338.153898
 23
493.127923
 33
0.0
 14
350.054756
 24
332.027947
 34
0.0
100
AcDbRotatedDimension
1001
ACAD
1000
DSTYLE
1002
{
1070
    47
1040
0.03
1070
    48
1040
0.03
1070
   272
1070
     2
1070
    75
1070
     1
1070
    40
1040
25.4
1070
     3
1000
mm
1070
   271
1070
     2
1070
     4
1000
"
1070
   274
1070
     3
1070
   143
1040
0.03937
1070
   171
1070
     3
1070
   170
1070
     1
1002
}
  0
DIMENSION
  5
386
100
AcDbEntity
  8
DIM
100
AcDbDimension
  2
*D25
 10
247.590175
 20
343.592547
 30
0.0
 11
279.213175
 21
352.736547
 31
0.0
 70
    32
  3
SU1
100
AcDbAlignedDimension
 13
375.236191
 23
336.881887
 33
0.0
 14
326.765963
 24
343.592547
 34
0.0
 50
90.0
100
AcDbRotatedDimension
1001
ACAD
1000
DSTYLE
1002
{
1070
    47
1040
0.03
1070
    48
1040
0.03
1070
   272
1070
     2
1070
    40
1040
25.4
1070
     3
1000
mm
1070
   271
1070
     2
1070
     4
1000
"
1070
   274
1070
     3
1070
   143
1040
0.03937
1070
   171
1070
     3
1070
   170
1070
     1
1002
}
  0
DIMENSION
  5
395
100
AcDbEntity
  8
DIM
100
AcDbDimension
  2
*D26
 10
183.346036
 20
343.592547
 30
0.0
 11
214.969036
 21
352.736547
 31
0.0
 70
    32
  3
SU1
100
AcDbAlignedDimension
 13
375.236191
 23
333.879607
 33
0.0
 14
326.765963
 24
343.592547
 34
0.0
 50
90.0
100
AcDbRotatedDimension
1001
ACAD
1000
DSTYLE
1002
{
1070
    47
1040
0.03
1070
    48
1040
0.03
1070
   272
1070
     2
1070
    40
1040
25.4
1070
     3
1000
mm
1070
   271
1070
     2
1070
     4
1000
"
1070
   274
1070
     3
1070
   143
1040
0.03937
1070
   171
1070
     3
1070
   170
1070
     1
1002
}
  0
DIMENSION
  5
3A4
100
AcDbEntity
  8
DIM
100
AcDbDimension
  2
*D27
 10
117.585263
 20
343.592547
 30
0.0
 11
151.494263
 21
352.736547
 31
0.0
 70
    32
  3
SU1
100
AcDbAlignedDimension
 13
375.236191
 23
320.879887
 33
0.0
 14
326.765963
 24
343.592547
 34
0.0
 50
90.0
100
AcDbRotatedDimension
1001
ACAD
1000
DSTYLE
1002
{
1070
    47
1040
0.03
1070
    48
1040
0.03
1070
   272
1070
     2
1070
    40
1040
25.4
1070
     3
1000
mm
1070
   271
1070
     2
1070
     4
1000
"
1070
   274
1070
     3
1070
   143
1040
0.03937
1070
   171
1070
     3
1070
   170
1070
     1
1002
}
  0
DIMENSION
  5
3B2
100
AcDbEntity
  8
DIM
100
AcDbDimension
  2
*D28
 10
80.60397
 20
343.592547
 30
0.0
 11
80.60397
 21
330.735077
 31
0.0
 70
    32
  3
SU1
100
AcDbAlignedDimension
 13
375.236191
 23
317.877607
 33
0.0
 14
326.765963
 24
343.592547
 34
0.0
 50
90.0
100
AcDbRotatedDimension
1001
ACAD
1000
DSTYLE
1002
{
1070
    47
1040
0.03
1070
    48
1040
0.03
1070
   272
1070
     2
1070
    40
1040
25.4
1070
     3
1000
mm
1070
   271
1070
     2
1070
     4
1000
"
1070
   274
1070
     3
1070
   143
1040
0.03937
1070
   171
1070
     3
1070
   170
1070
     1
1002
}
  0
DIMENSION
  5
3C1
100
AcDbEntity
  8
DIM
100
AcDbDimension
  2
*D29
 10
503.431784
 20
343.592547
 30
0.0
 11
535.054784
 21
305.648341
 31
0.0
 12
51.361868
 22
47.088205
 32
0.0
 70
    32
  3
SU1
100
AcDbAlignedDimension
 13
389.686408
 23
335.380747
 33
0.0
 14
388.111868
 24
343.592547
 34
0.0
 50
90.0
100
AcDbRotatedDimension
1001
ACAD
1000
DSTYLE
1002
{
1070
    47
1040
0.03
1070
    48
1040
0.03
1070
   272
1070
     2
1070
    40
1040
25.4
1070
     3
1000
mm
1070
   271
1070
     2
1070
     4
1000
"
1070
   274
1070
     3
1070
   143
1040
0.03937
1070
   171
1070
     3
1070
   170
1070
     1
1002
}
  0
DIMENSION
  5
3D0
100
AcDbEntity
  8
DIM
100
AcDbDimension
  2
*D30
 10
566.496302
 20
343.592547
 30
0.0
 11
625.170302
 21
305.648341
 31
0.0
 12
51.361868
 22
47.088205
 32
0.0
 70
    32
  3
SU1
100
AcDbAlignedDimension
 13
386.579574
 23
327.379747
 33
0.0
 14
388.111868
 24
343.592547
 34
0.0
 50
90.0
100
AcDbRotatedDimension
1001
ACAD
1000
DSTYLE
1002
{
1070
    47
1040
0.03
1070
    71
1070
     1
1070
    48
1040
0.03
1070
   272
1070
     2
1070
    40
1040
25.4
1070
     3
1000
mm
1070
   271
1070
     2
1070
     4
1000
"
1070
   274
1070
     3
1070
   143
1040
0.03937
1070
   171
1070
     3
1070
   170
1070
     1
1002
}
  0
DIMENSION
  5
3EC
100
AcDbEntity
  8
DIM
100
AcDbDimension
  2
*D31
 10
687.082917
 20
343.592547
 30
0.0
 11
687.082917
 21
284.397441
 31
0.0
 12
51.361868
 22
47.088205
 32
0.0
 70
    32
  3
SU1
100
AcDbAlignedDimension
 13
389.686408
 23
319.378747
 33
0.0
 14
388.111868
 24
343.592547
 34
0.0
 50
90.0
100
AcDbRotatedDimension
1001
ACAD
1000
DSTYLE
1002
{
1070
    47
1040
0.03
1070
    48
1040
0.03
1070
   272
1070
     2
1070
    40
1040
25.4
1070
     3
1000
mm
1070
   271
1070
     2
1070
     4
1000
"
1070
   274
1070
     3
1070
   143
1040
0.03937
1070
   171
1070
     3
1070
   170
1070
     1
1002
}
  0
DIMENSION
  5
3FA
100
AcDbEntity
  8
DIM
100
AcDbDimension
  2
*D32
 10
750.746449
 20
343.592547
 30
0.0
 11
750.746449
 21
280.291541
 31
0.0
 12
51.361868
 22
47.088205
 32
0.0
 70
    32
  3
SU1
100
AcDbAlignedDimension
 13
388.111868
 23
311.166947
 33
0.0
 14
388.111868
 24
343.592547
 34
0.0
 50
90.0
100
AcDbRotatedDimension
1001
ACAD
1000
DSTYLE
1002
{
1070
    47
1040
0.03
1070
    48
1040
0.03
1070
   272
1070
     2
1070
    40
1040
25.4
1070
     3
1000
mm
1070
   271
1070
     2
1070
     4
1000
"
1070
   274
1070
     3
1070
   143
1040
0.03937
1070
   171
1070
     3
1070
   170
1070
     1
1002
}
  0
DIMENSION
  5
4ED
100
AcDbEntity
  8
DIM
100
AcDbDimension
  2
*D33
 10
368.297501
 20
479.191105
 30
0.0
 11
464.172502
 21
438.857315
 31
0.0
 70
   163
  1
{<>}\P{4X}
  3
SU1$3
100
AcDbDiametricDimension
 15
369.826256
 25
477.365318
 35
0.0
 40
0.0
1001
ACAD
1000
DSTYLE
1002
{
1070
    47
1040
0.03
1070
    71
1070
     1
1070
    48
1040
0.03
1070
   272
1070
     2
1070
    40
1040
25.4
1070
     3
1000
mm
1070
   271
1070
     2
1070
     4
1000
"
1070
   274
1070
     3
1070
   143
1040
0.03937
1070
   171
1070
     3
1070
   170
1070
     1
1002
}
  0
DIMENSION
  5
503
100
AcDbEntity
  8
DIM
100
AcDbDimension
  2
*D34
 10
381.49356
 20
328.327706
 30
0.0
 11
463.248504
 21
302.467702
 31
0.0
 12
51.361868
 22
0.0
 32
0.0
 70
   163
  1
{<>}\P{2X}
  3
SU1$3
100
AcDbDiametricDimension
 15
382.934338
 25
326.431787
 35
0.0
 40
0.0
1001
ACAD
1000
DSTYLE
1002
{
1070
    47
1040
0.03
1070
    71
1070
     1
1070
    48
1040
0.03
1070
   272
1070
     2
1070
    40
1040
25.4
1070
     3
1000
mm
1070
   271
1070
     2
1070
     4
1000
"
1070
   274
1070
     3
1070
   143
1040
0.03937
1070
   171
1070
     3
1070
   170
1070
     1
1002
}
  0
DIMENSION
  5
5A7
100
AcDbEntity
  8
DIM
100
AcDbDimension
  2
*D35
 10
383.960362
 20
320.665809
 30
0.0
 11
447.997213
 21
282.463456
 31
0.0
 12
51.361868
 22
0.0
 32
0.0
 70
   163
  1
{<>}\P{4X}
  3
SU1$3
100
AcDbDiametricDimension
 15
385.862055
 25
318.091684
 35
0.0
 40
0.0
1001
ACAD
1000
DSTYLE
1002
{
1070
    47
1040
0.03
1070
    48
1040
0.03
1070
   272
1070
     2
1070
    40
1040
25.4
1070
     3
1000
mm
1070
   271
1070
     2
1070
     4
1000
"
1070
   274
1070
     3
1070
   143
1040
0.03937
1070
   171
1070
     3
1070
   170
1070
     1
1002
}
  0
DIMENSION
  5
5FF
100
AcDbEntity
  8
DIM
100
AcDbDimension
  2
*D37
 10
350.901708
 20
328.585147
 30
0.0
 11
285.005829
 21
285.229737
 31
0.0
 12
51.361868
 22
0.0
 32
0.0
 70
   163
  3
SU1$3
100
AcDbDiametricDimension
 15
349.207804
 25
326.174346
 35
0.0
 40
0.0
1001
ACAD
1000
DSTYLE
1002
{
1070
    47
1040
0.03
1070
    48
1040
0.03
1070
   272
1070
     2
1070
    40
1040
25.4
1070
     3
1000
mm
1070
   271
1070
     2
1070
     4
1000
"
1070
   274
1070
     3
1070
   143
1040
0.03937
1070
   171
1070
     3
1070
   170
1070
     1
1002
}
  0
DIMENSION
  5
60B
100
AcDbEntity
  8
DIM
100
AcDbDimension
  2
*D38
 10
375.536314
 20
318.778369
 30
0.0
 11
297.286526
 21
261.149793
 31
0.0
 12
51.361868
 22
0.0
 32
0.0
 70
   163
  1
{<>}\P{8X}
  3
SU1$3
100
AcDbDiametricDimension
 15
374.936068
 25
317.977604
 35
0.0
 40
0.0
1001
ACAD
1000
DSTYLE
1002
{
1070
    47
1040
0.03
1070
    48
1040
0.03
1070
   272
1070
     2
1070
    40
1040
25.4
1070
     3
1000
mm
1070
   271
1070
     2
1070
     4
1000
"
1070
   274
1070
     3
1070
   143
1040
0.03937
1070
   171
1070
     3
1070
   170
1070
     1
1002
}
  0
MTEXT
  5
634
100
AcDbEntity
  8
TEXT
100
AcDbMText
 10
18.649409
 20
189.763926
 30
0.0
 40
4.0
 41
202.8135
 71
     1
 72
     1
  3
{MATERIAL: }\P{0.76mm [0.030"] thick carbon-fiber-epoxy-composite}\P\P{LAMINATE SCHEDULE:}\P{cloth:  - 1 layer Carbon-fiber (0.006" thick ea.)}\P{ xx oz/sq. yd. plain weave @ 90°}\P{ - 1 layer Carbon-fiber (0.001" thick ea.)}\P{ 0.4 oz/sq. yd. mat}\P
  3
{ - 1 layer Carbon-fiber (0.006" thick ea.)}\P{ xx oz/sq. yd. plain weave @ 45°}\P{ 1 layer Carbon-fiber (0.001" thick ea.)}\P{ 0.4 oz/sq. yd. mat}\P{ - 1 layer Carbon-fiber (0.006" thick ea.)}\P{ xx oz/sq. yd. plain weave @ 90°}\P{epoxy: heat resist
  1
ant laminating epoxy}\P{ Ciba-Geigy RP4005R/RP1500H}\P{cure: 24 hrs at room temp. @ 20psi}\P{ 2 hrs postcure at 66°C}\P\P{MACHINING:}\P{use fixture L5-END13}\P
  0
TEXT
  5
640
100
AcDbEntity
  8
TEXT
100
AcDbText
 10
671.165182
 20
21.134902
 30
0.0
 40
1.5
  1
01-30-97
100
AcDbText
  0
TEXT
  5
641
100
AcDbEntity
  8
TEXT
100
AcDbText
 10
646.415182
 20
21.134902
 30
0.0
 40
3.0
  1
S. KYRE
100
AcDbText
  0
TEXT
  5
642
100
AcDbEntity
  8
TEXT
100
AcDbText
 10
746.165182
 20
12.759902
 30
0.0
 40
3.0
  1
L5-END03
100
AcDbText
  0
TEXT
  5
643
100
AcDbEntity
  8
TEXT
100
AcDbText
 10
697.790182
 20
11.634902
 30
0.0
 40
3.0
  1
B-PARTS
100
AcDbText
  0
TEXT
  5
644
100
AcDbEntity
  8
TEXT
100
AcDbText
 10
694.915182
 20
4.634902
 30
0.0
 40
3.0
  1
1=1
100
AcDbText
  0
TEXT
  5
645
100
AcDbEntity
  8
TEXT
100
AcDbText
 10
783.905817
 20
11.633807
 30
0.0
 40
3.0
  1
02
100
AcDbText
  0
MTEXT
  5
646
100
AcDbEntity
  8
TEXT
100
AcDbMText
 10
736.975955
 20
27.734026
 30
0.0
 40
3.0
 41
100.0
 71
     5
 72
     1
  1
{LAYER 5B FORWARD ENDPIECE}
  0
TEXT
  5
659
100
AcDbEntity
  8
TEXT
100
AcDbText
 10
678.0
 20
464.178452
 30
0.0
 40
2.5
  1
FIBER
100
AcDbText
  0
TEXT
  5
65A
100
AcDbEntity
  8
TEXT
100
AcDbText
 10
678.0
 20
468.463972
 30
0.0
 40
2.5
  1
CHANGE MATERIAL TO CARBON-
100
AcDbText
  0
TEXT
  5
65B
100
AcDbEntity
  8
TEXT
100
AcDbText
 10
678.0
 20
472.498146
 30
0.0
 40
2.5
  1
ABOVE SILICON
100
AcDbText
  0
TEXT
  5
65C
100
AcDbEntity
  8
TEXT
100
AcDbText
 10
678.0
 20
476.664812
 30
0.0
 40
2.5
  1
MOVE FRONT END UP TO 3mm
100
AcDbText
  0
TEXT
  5
65D
100
AcDbEntity
  8
TEXT
100
AcDbText
 10
678.0
 20
482.833333
 30
0.0
 40
2.5
  1
ADDED HOLES AND SLOTS
100
AcDbText
  0
TEXT
  5
65E
100
AcDbEntity
  8
TEXT
100
AcDbText
 10
678.0
 20
487.0
 30
0.0
 40
2.5
  1
UPDATED DESIGN,
100
AcDbText
  0
LINE
  5
65F
100
AcDbEntity
  8
TEXT
100
AcDbLine
 10
673.056868
 20
492.122347
 30
0.0
 11
673.056868
 21
460.0
 31
0.0
  0
LINE
  5
660
100
AcDbEntity
  8
TEXT
100
AcDbLine
 10
663.144457
 20
492.122347
 30
0.0
 11
663.144457
 21
460.0
 31
0.0
  0
TEXT
  5
661
100
AcDbEntity
  8
TEXT
100
AcDbText
 10
665.0
 20
476.664812
 30
0.0
 40
2.5
  1
02
100
AcDbText
  0
TEXT
  5
662
100
AcDbEntity
  8
TEXT
100
AcDbText
 10
665.0
 20
487.0
 30
0.0
 40
2.5
  1
01
100
AcDbText
  0
TEXT
  5
663
100
AcDbEntity
  8
TEXT
100
AcDbText
 10
744.0
 20
476.664812
 30
0.0
 40
2.5
  1
01-30-97
100
AcDbText
  0
TEXT
  5
664
100
AcDbEntity
  8
TEXT
100
AcDbText
 10
744.0
 20
487.0
 30
0.0
 40
2.5
  1
05-06-96
100
AcDbText
  0
LINE
  5
665
100
AcDbEntity
  8
TEXT
100
AcDbLine
 10
742.652868
 20
492.122347
 30
0.0
 11
742.652868
 21
460.0
 31
0.0
  0
LINE
  5
666
100
AcDbEntity
  8
TEXT
100
AcDbLine
 10
765.004868
 20
492.122347
 30
0.0
 11
765.004868
 21
460.0
 31
0.0
  0
TEXT
  5
66C
100
AcDbEntity
  8
TEXT
100
AcDbText
 10
331.0
 20
20.0
 30
0.0
 40
4.5
  1
SECTION
100
AcDbText
  0
TEXT
  5
66D
100
AcDbEntity
  8
TEXT
100
AcDbText
 10
364.0
 20
20.0
 30
0.0
 40
6.0
  1
A-A
100
AcDbText
  0
LEADER
  5
6A1
100
AcDbEntity
  8
TEXT
100
AcDbLeader
  3
SU1$7
 76
     3
 10
314.829229
 20
352.125546
 30
0.0
 10
314.829229
 20
331.298107
 30
0.0
 10
324.38536
 20
331.298107
 30
0.0
 77
   256
1001
ACAD
1000
DSTYLE
1002
{
1070
    47
1040
0.03
1070
    48
1040
0.03
1070
   272
1070
     2
1070
    40
1040
25.4
1070
     3
1000
mm
1070
   271
1070
     2
1070
     4
1000
"
1070
   274
1070
     3
1070
   143
1040
0.03937
1070
   171
1070
     3
1070
   170
1070
     1
1002
}
  0
TEXT
  5
6A2
100
AcDbEntity
  8
TEXT
100
AcDbText
 10
312.838368
 20
354.380746
 30
0.0
 40
6.0
  1
A
100
AcDbText
  0
LEADER
  5
6A3
100
AcDbEntity
  8
TEXT
100
AcDbLeader
  3
SU1$7
 76
     3
 10
400.048602
 20
352.125546
 30
0.0
 10
400.048602
 20
331.298107
 30
0.0
 10
390.492471
 20
331.298107
 30
0.0
 77
   256
211
-1.0
221
0.0
231
0.0
1001
ACAD
1000
DSTYLE
1002
{
1070
    47
1040
0.03
1070
    48
1040
0.03
1070
   272
1070
     2
1070
    40
1040
25.4
1070
     3
1000
mm
1070
   271
1070
     2
1070
     4
1000
"
1070
   274
1070
     3
1070
   143
1040
0.03937
1070
   171
1070
     3
1070
   170
1070
     1
1002
}
  0
TEXT
  5
6A4
100
AcDbEntity
  8
TEXT
100
AcDbText
 10
402.039463
 20
354.380746
 30
0.0
 40
6.0
  1
A
 71
     2
100
AcDbText
  0
ARC
  5
6E7
100
AcDbEntity
  8
FOOT-B
100
AcDbCircle
 10
386.524368
 20
127.7875
 30
0.0
 40
1.5875
100
AcDbArc
 50
0.0
 51
90.0
1001
ACAD
1000
ASC_BOUNDS
1002
{
1070
    19
1005
1D8
1002
}
  0
ARC
  5
6E8
100
AcDbEntity
  8
FOOT-B
100
AcDbCircle
 10
386.524368
 20
474.536212
 30
0.0
 40
1.5875
100
AcDbArc
 50
270.0
 51
360.0
  0
DIMENSION
  5
6FE
100
AcDbEntity
  8
DIM
100
AcDbDimension
  2
*D41
 10
386.524368
 20
474.536212
 30
0.0
 11
438.34217
 21
458.808036
 31
0.0
 70
   164
  1
{<>}\P{2X}
  3
SU1$4
100
AcDbRadialDimension
 15
387.656608
 25
473.423472
 35
0.0
 40
0.0
1001
ACAD
1000
DSTYLE
1002
{
1070
    47
1040
0.03
1070
    48
1040
0.03
1070
   272
1070
     2
1070
    40
1040
25.4
1070
     3
1000
mm
1070
   271
1070
     2
1070
     4
1000
"
1070
   274
1070
     3
1070
   143
1040
0.03937
1070
   171
1070
     3
1070
   170
1070
     1
1002
}
  0
DIMENSION
  5
725
100
AcDbEntity
  8
DIM
100
AcDbDimension
  2
*D43
 10
224.4444
 20
242.995585
 30
0.0
 11
297.201128
 21
229.591514
 31
0.0
 70
    34
  3
SU1$2
100
AcDb2LineAngularDimension
 13
338.153898
 23
76.082664
 33
0.0
 14
338.153898
 24
493.127923
 34
0.0
 15
366.223967
 25
105.841339
 35
0.0
 16
307.066052
 26
233.202617
 36
0.0
1001
ACAD
1000
DSTYLE
1002
{
1070
    47
1040
0.03
1070
    48
1040
0.03
1070
   272
1070
     2
1070
    40
1040
25.4
1070
   271
1070
     2
1070
     4
1000
"
1070
   274
1070
     3
1070
   143
1040
0.03937
1070
   171
1070
     3
1070
   170
1070
     1
1002
}
  0
ENDSEC
  0
SECTION
  2
OBJECTS
  0
DICTIONARY
  5
C
100
AcDbDictionary
  3
ACAD_GROUP
350
D
  3
ACAD_MLINESTYLE
350
E
  3
ACASAPPOBJECT
350
7B
  3
ACASGREF_MASTER
350
2D
  3
ACCELVIEW
350
86
  3
ACDMSYSVARMGR
350
49
  3
ACGREF_MASTER
350
2B
  3
ACME_COMMAND_HISTORY
350
29
  3
ACME_SCOPE_NAME
350
28
  3
AD_APPL
350
3C
  3
AD_DRAWMGR_NAME
350
5E
  3
AD_GREF_MODULE
350
44
  3
AD_HOLENOTE_REPOSITORY
350
43
  3
ADSYSVARMGR
350
32
  3
AMI_MASTER
350
2C
  3
AUTOCAD_ASSEMBLIES_PROJECT
350
6A
  3
DESIGNER_ASSEMBLIES_SYSVARS
350
65
  0
DICTIONARY
  5
D
102
{ACAD_REACTORS
330
C
102
}
100
AcDbDictionary
  0
DICTIONARY
  5
E
102
{ACAD_REACTORS
330
C
102
}
100
AcDbDictionary
  3
STANDARD
350
13
  0
ACAD_ZOMBIE_OBJECT
  5
7B
102
{ACAD_REACTORS
330
C
102
}
100
AcDbZombieObject
 90
      499
 91
      536
 93
        2
310
80
360
79
 94
        0
  0
ACAD_ZOMBIE_OBJECT
  5
2D
102
{ACAD_REACTORS
330
C
102
}
100
AcDbZombieObject
 90
      499
 91
      505
 93
       34
310
010000407E
 94
        0
  0
ACAD_ZOMBIE_OBJECT
  5
86
102
{ACAD_REACTORS
330
C
102
}
100
AcDbZombieObject
 90
      499
 91
      537
 93
       12
310
901F
330
3D
 94
        0
  0
ACAD_ZOMBIE_OBJECT
  5
49
102
{ACAD_REACTORS
330
C
102
}
100
AcDbZombieObject
 90
      499
 91
      510
 93
      176
310
4C5114810100000000000000000000000000000000004F
330
4A
330
4B
330
4C
330
4D
330
4E
330
50
330
52
330
53
330
54
330
55
330
56
330
57
330
58
330
59
330
5A
330
5B
330
5D
 94
        0
  0
ACAD_ZOMBIE_OBJECT
  5
2B
102
{ACAD_REACTORS
330
C
102
}
100
AcDbZombieObject
 90
      499
 91
      503
 93
      114
310
01000040C00000000000000000003F
 94
        0
  0
ACAD_ZOMBIE_OBJECT
  5
29
102
{ACAD_REACTORS
330
C
102
}
100
AcDbZombieObject
 90
      499
 91
      501
 93
     3940
310
478050444494D3140405084E202D205341564501411112534C501014293880B4814D1551590548050444494D31404050A4E202D2053455456415201411112534C501014293880B4814D1551590548050444494D31404050A4E202D2053455456415201411112534C501014293880B4814D1551590548050444494D31404050
310
A4E202D2053455456415201411112534C501014213880B4814D055914050444494D31404050A4E202D2053455456415201411112534C501014293880B4814D1551590548050444494D31404050A4E202D2053455456415201411112534C501014293880B4814D1551590548050444494D31404050A4E202D20534554564152
310
01411112534C501014293880B4814D1551590548050444494D3140405084E202D205341564501411112534C5010142D3880B48149154D513D49140504554E444F80504554E444F805034E455780508554E444546494E4580508554E444546494E458050A4D454E55554E4C4F4144805084D454E554C4F41448050C41445F43
310
4F4E56455254523140805084E202D20554E444F014213880B4815539113C050C414D4C54595045434845434B40C05084E202D20554E444F014253880B481310565154805084E202D20554E444F01415310565154A01415310565154A014115539113E014115539113E014113D41153A0
 94
        0
  0
ACAD_ZOMBIE_OBJECT
  5
28
102
{ACAD_REACTORS
330
C
102
}
100
AcDbZombieObject
 90
      499
 91
      500
 93
      456
310
01010040931000000000000000000000000000000000000000000000000000000000000000000000000000000000000000000000000009010016
360
2E
360
2F
360
30
360
31
360
33
360
34
360
35
360
36
360
37
360
38
360
39
360
3A
360
3B
360
3E
360
3F
360
40
360
41
360
42
360
45
360
46
360
47
360
48
360
4A
360
4B
360
4C
360
4D
360
4E
360
50
360
52
360
53
360
54
360
55
360
56
360
57
360
58
360
59
360
5A
360
5B
360
5D
360
66
360
67
360
68
360
69
360
6E
360
6F
360
70
360
71
360
72
360
76
330
3D
 94
        0
  0
ACAD_ZOMBIE_OBJECT
  5
3C
102
{ACAD_REACTORS
330
C
102
}
100
AcDbZombieObject
 90
      499
 91
      514
 93
       42
310
000100004365
330
2E
 94
        0
  0
ACAD_ZOMBIE_OBJECT
  5
5E
102
{ACAD_REACTORS
330
C
102
}
100
AcDbZombieObject
 90
      499
 91
      526
 93
       42
310
000100004413
330
45
 94
        0
  0
ACAD_ZOMBIE_OBJECT
  5
44
102
{ACAD_REACTORS
330
C
102
}
100
AcDbZombieObject
 90
      499
 91
      521
 93
      114
310
00000042800000000000000000001B
 94
        0
  0
ACAD_ZOMBIE_OBJECT
  5
43
102
{ACAD_REACTORS
330
C
102
}
100
AcDbZombieObject
 90
      499
 91
      520
 93
        8
310
002D
330
42
 94
        0
  0
ACAD_ZOMBIE_OBJECT
  5
32
102
{ACAD_REACTORS
330
C
102
}
100
AcDbZombieObject
 90
      499
 91
      510
 93
      104
310
9094410100000000000000000068
330
33
330
34
330
35
330
36
330
37
330
38
330
39
330
3A
330
3B
 94
        0
  0
ACAD_ZOMBIE_OBJECT
  5
2C
102
{ACAD_REACTORS
330
C
102
}
100
AcDbZombieObject
 90
      499
 91
      504
 93
       34
310
0100004070
 94
        0
  0
ACAD_ZOMBIE_OBJECT
  5
6A
102
{ACAD_REACTORS
330
C
102
}
100
AcDbZombieObject
 90
      499
 91
      527
 93
       58
310
0100004180000013
330
70
330
76
330
71
 94
        0
  0
ACAD_ZOMBIE_OBJECT
  5
65
102
{ACAD_REACTORS
330
C
102
}
100
AcDbZombieObject
 90
      499
 91
      510
 93
       64
310
904441010000000033
330
66
330
67
330
68
330
69
 94
        0
  0
MLINESTYLE
  5
13
102
{ACAD_REACTORS
330
E
102
}
100
AcDbMlineStyle
  2
STANDARD
 70
     0
  3

 62
     0
 51
90.0
 52
90.0
 71
     2
 49
0.5
 62
   256
  6
BYLAYER
 49
-0.5
 62
   256
  6
BYLAYER
  0
ACAD_ZOMBIE_OBJECT
  5
79
100
AcDbZombieObject
 90
      499
 91
      534
 93
      720
310
9064D2E312E313607014B7269BC41100000000000000E03F1EC52B91F85EA10FE1EC52B91F85EA10FD034153471EC52B91F85EA10FC000000FC83D797414650540C000000000000E03F3F2A7C749358940FC000000FC83D797414F
 94
        0
  0
ACAD_ZOMBIE_OBJECT
  5
2E
100
AcDbZombieObject
 90
      499
 91
      506
 93
      280
310
000000000000014119185D1940506462E312E3136014119185D1940506462E312E313600
330
28
330
2F
330
30
330
32
330
3D
 94
        0
  0
ACAD_ZOMBIE_OBJECT
  5
2F
100
AcDbZombieObject
 90
      499
 91
      507
 93
      120
310
00009024410100000092080002A6A600
330
28
330
3F
330
3E
330
0
 94
        0
  0
ACAD_ZOMBIE_OBJECT
  5
30
100
AcDbZombieObject
 90
      499
 91
      508
 93
       46
310
000000009208
330
28
330
0
330
31
 94
        0
  0
ACAD_ZOMBIE_OBJECT
  5
31
100
AcDbZombieObject
 90
      499
 91
      509
 93
       22
310
0000A9
330
28
 94
        0
  0
ACAD_ZOMBIE_OBJECT
  5
33
100
AcDbZombieObject
 90
      499
 91
      511
 93
      124
310
00000142905350D3D39114D414D69053
330
28
 94
        0
  0
ACAD_ZOMBIE_OBJECT
  5
34
100
AcDbZombieObject
 90
      499
 91
      511
 93
      124
310
000001429053549553115353D1115013
330
28
 94
        0
  0
ACAD_ZOMBIE_OBJECT
  5
35
100
AcDbZombieObject
 90
      499
 91
      511
 93
      108
310
00000142105354D2D353D1115010
330
28
 94
        0
  0
ACAD_ZOMBIE_OBJECT
  5
36
100
AcDbZombieObject
 90
      499
 91
      511
 93
      140
310
000001435053511253511254D41353D1116C
330
28
 94
        0
  0
ACAD_ZOMBIE_OBJECT
  5
37
100
AcDbZombieObject
 90
      499
 91
      512
 93
      180
310
00000142905354D2D05391D513D300000000000001040B
330
28
 94
        0
  0
ACAD_ZOMBIE_OBJECT
  5
38
100
AcDbZombieObject
 90
      499
 91
      513
 93
      164
310
00000142505354D2D4D516531140505434F4E542A8
330
28
 94
        0
  0
ACAD_ZOMBIE_OBJECT
  5
39
100
AcDbZombieObject
 90
      499
 91
      511
 93
      108
310
00000142105350D3511112535010
330
28
 94
        0
  0
ACAD_ZOMBIE_OBJECT
  5
3A
100
AcDbZombieObject
 90
      499
 91
      513
 93
      116
310
000001425053541054919253114060
330
28
 94
        0
  0
ACAD_ZOMBIE_OBJECT
  5
3B
100
AcDbZombieObject
 90
      499
 91
      511
 93
      100
310
00000142105350D3D35414D5A0
330
28
 94
        0
  0
ACAD_ZOMBIE_OBJECT
  5
3E
100
AcDbZombieObject
 90
      499
 91
      516
 93
      164
310
000092090148200A00000440000FFFFFFFF0000000
330
28
330
3F
330
2F
330
3D
 94
        0
  0
ACAD_ZOMBIE_OBJECT
  5
3F
100
AcDbZombieObject
 90
      499
 91
      517
 93
       82
310
000040520802482A800000
330
28
330
3E
330
2F
330
3D
 94
        0
  0
ACAD_ZOMBIE_OBJECT
  5
40
100
AcDbZombieObject
 90
      499
 91
      509
 93
       22
310
0000A8
330
28
 94
        0
  0
ACAD_ZOMBIE_OBJECT
  5
41
100
AcDbZombieObject
 90
      499
 91
      518
 93
       38
310
0000009208
330
28
330
0
 94
        0
  0
ACAD_ZOMBIE_OBJECT
  5
42
100
AcDbZombieObject
 90
      499
 91
      519
 93
     3196
310
0000419208050A544852555F4452494C4C0142D09312539117D1149253130050A544852555F43424F52450142D09312539117D0D093D4914050A544852555F4353494E4B0142D09312539117D0D4D25392D0648201459EC94958C8094950535112504815121493D551D20B9F4051C7B252563202525414D444941205820252
310
5414D44455020444545507D014F5EC94958C8094950535112504815121493D551D20B9F57141ED0D093D49148094958C80949505350D112504816080949505350D091115408111151541F405437B252563202525414D4449412058202525414D44455020444545507D5C507B43424F524520252563202525414D4344494120
310
58202525414D434244455020444545507D014EDEC94958C8094950535112504815121493D551D20B9F57141ED0D4D25392C8094958C80949505350D112504816080949505350D4D05391C949591F405417B252563202525414D4449412058202525414D44455020444545507D5C507B4353494E4B20252563202525414D434
310
449412058202525414D4353414E472525647D0
330
28
 94
        0
  0
ACAD_ZOMBIE_OBJECT
  5
45
100
AcDbZombieObject
 90
      499
 91
      522
 93
      308
310
0000014119185D1940507442E312E313663014119185D1940507442E312E313663405010000000
330
28
330
46
330
48
330
49
 94
        0
  0
ACAD_ZOMBIE_OBJECT
  5
46
100
AcDbZombieObject
 90
      499
 91
      523
 93
       56
310
0000901441010000
330
28
330
47
 94
        0
  0
ACAD_ZOMBIE_OBJECT
  5
47
100
AcDbZombieObject
 90
      499
 91
      524
 93
       40
310
0000A4410178
330
28
 94
        0
  0
ACAD_ZOMBIE_OBJECT
  5
48
100
AcDbZombieObject
 90
      499
 91
      525
 93
       68
310
0000A44101920A482F
330
28
 94
        0
  0
ACAD_ZOMBIE_OBJECT
  5
4A
100
AcDbZombieObject
 90
      499
 91
      511
 93
      108
310
000001421053521310D05310D014
330
28
 94
        0
  0
ACAD_ZOMBIE_OBJECT
  5
4B
100
AcDbZombieObject
 90
      499
 91
      511
 93
      124
310
000001429053541493D2951654115010
330
28
 94
        0
  0
ACAD_ZOMBIE_OBJECT
  5
4C
100
AcDbZombieObject
 90
      499
 91
      511
 93
      124
310
00000142905354915554D15112535013
330
28
 94
        0
  0
ACAD_ZOMBIE_OBJECT
  5
4D
100
AcDbZombieObject
 90
      499
 91
      511
 93
      132
310
00000143105354D150D51253D391125368
330
28
 94
        0
  0
ACAD_ZOMBIE_OBJECT
  5
4E
100
AcDbZombieObject
 90
      499
 91
      511
 93
      124
310
00000142905355941093D4911154901F
330
28
 94
        0
  0
ACAD_ZOMBIE_OBJECT
  5
50
100
AcDbZombieObject
 90
      499
 91
      513
 93
      180
310
00000142905352125113151654114050648494444454EF
330
28
 94
        0
  0
ACAD_ZOMBIE_OBJECT
  5
52
100
AcDbZombieObject
 90
      499
 91
      513
 93
      196
310
00000142905354D150D315165411405085048414E544F4D325
330
28
 94
        0
  0
ACAD_ZOMBIE_OBJECT
  5
53
100
AcDbZombieObject
 90
      499
 91
      511
 93
      108
310
00000142105354D51114D0D51024
330
28
 94
        0
  0
ACAD_ZOMBIE_OBJECT
  5
54
100
AcDbZombieObject
 90
      499
 91
      511
 93
      108
310
00000142105354D5111510541021
330
28
 94
        0
  0
ACAD_ZOMBIE_OBJECT
  5
55
100
AcDbZombieObject
 90
      499
 91
      511
 93
      108
310
00000142105354D5111115131023
330
28
 94
        0
  0
ACAD_ZOMBIE_OBJECT
  5
56
100
AcDbZombieObject
 90
      499
 91
      512
 93
      148
310
00000141905350D310D34295C8FC2F528BC3F4
330
28
 94
        0
  0
ACAD_ZOMBIE_OBJECT
  5
57
100
AcDbZombieObject
 90
      499
 91
      512
 93
      156
310
00000141D05350D311D05402B8716D9CEF7C33FF
330
28
 94
        0
  0
ACAD_ZOMBIE_OBJECT
  5
58
100
AcDbZombieObject
 90
      499
 91
      512
 93
      164
310
00000142105350D313D4D2150295C8FC2F528BC3FE
330
28
 94
        0
  0
ACAD_ZOMBIE_OBJECT
  5
59
100
AcDbZombieObject
 90
      499
 91
      511
 93
      100
310
00000141D05350D31410549014
330
28
 94
        0
  0
ACAD_ZOMBIE_OBJECT
  5
5A
100
AcDbZombieObject
 90
      499
 91
      511
 93
      100
310
0000014210535590539254D220
330
28
 94
        0
  0
ACAD_ZOMBIE_OBJECT
  5
5B
100
AcDbZombieObject
 90
      499
 91
      512
 93
      188
310
00000142D0535312539155121250D2C295C8FC2F5289C3F8
330
28
 94
        0
  0
ACAD_ZOMBIE_OBJECT
  5
5D
100
AcDbZombieObject
 90
      499
 91
      513
 93
      164
310
00000142105350D3151654114050643454E5445521
330
28
 94
        0
  0
ACAD_ZOMBIE_OBJECT
  5
66
100
AcDbZombieObject
 90
      499
 91
      511
 93
      132
310
00000142D05050555513D4D3D315915018
330
28
 94
        0
  0
ACAD_ZOMBIE_OBJECT
  5
67
100
AcDbZombieObject
 90
      499
 91
      511
 93
      156
310
00000143905050555513D054D4D1535093115014
330
28
 94
        0
  0
ACAD_ZOMBIE_OBJECT
  5
68
100
AcDbZombieObject
 90
      499
 91
      511
 93
      148
310
00000143505055925155D49154D513D4915014
330
28
 94
        0
  0
ACAD_ZOMBIE_OBJECT
  5
69
100
AcDbZombieObject
 90
      499
 91
      511
 93
      124
310
00000142D050525394D15495105094E2
330
28
 94
        0
  0
ACAD_ZOMBIE_OBJECT
  5
6E
100
AcDbZombieObject
 90
      499
 91
      528
 93
       32
310
0000000073
330
28
340
6B
330
6F
330
6B
 94
        0
  0
ACAD_ZOMBIE_OBJECT
  5
6F
100
AcDbZombieObject
 90
      499
 91
      529
 93
      111
310
000001411050D05110400522080C
330
28
330
6E
 94
        0
  0
ACAD_ZOMBIE_OBJECT
  5
70
100
AcDbZombieObject
 90
      499
 91
      530
 93
       72
310
000000A44101A441017A
330
28
330
6F
 94
        0
  0
ACAD_ZOMBIE_OBJECT
  5
71
100
AcDbZombieObject
 90
      499
 91
      531
 93
       80
310
0000901441010000000000
330
28
330
72
330
72
330
72
330
72
 94
        0
  0
ACAD_ZOMBIE_OBJECT
  5
72
100
AcDbZombieObject
 90
      499
 91
      532
 93
      173
310
00000000406AAAAAAAAAAAAAAAAA806A44101A441010
330
28
330
71
330
6F
 94
        0
  0
ACAD_ZOMBIE_OBJECT
  5
76
100
AcDbZombieObject
 90
      499
 91
      533
 93
       26
310
00008014
330
28
330
0
 94
        0
  0
ENDSEC
  0
EOF
