  0
SECTION
  2
HEADER
  9
$ACADVER
  1
AC1012
  9
$DWGCODEPAGE
  3
ansi_1252
  9
$INSBASE
 10
0.0
 20
0.0
 30
0.0
  9
$EXTMIN
 10
3.175
 20
3.175
 30
0.0
  9
$EXTMAX
 10
791.75407
 20
506.668925
 30
0.0
  9
$LIMMIN
 10
0.0
 20
0.0
  9
$LIMMAX
 10
838.0
 20
533.0
  9
$ORTHOMODE
 70
     1
  9
$REGENMODE
 70
     1
  9
$FILLMODE
 70
     1
  9
$QTEXTMODE
 70
     0
  9
$MIRRTEXT
 70
     1
  9
$DRAGMODE
 70
     2
  9
$LTSCALE
 40
10.0
  9
$OSMODE
 70
     0
  9
$ATTMODE
 70
     1
  9
$TEXTSIZE
 40
6.0
  9
$TRACEWID
 40
0.05
  9
$TEXTSTYLE
  7
STANDARD
  9
$CLAYER
  8
DIM
  9
$CELTYPE
  6
BYLAYER
  9
$CECOLOR
 62
   256
  9
$CELTSCALE
 40
1.0
  9
$DELOBJ
 70
     1
  9
$DISPSILH
 70
     0
  9
$DIMSCALE
 40
25.4
  9
$DIMASZ
 40
0.18
  9
$DIMEXO
 40
0.0625
  9
$DIMDLI
 40
0.38
  9
$DIMRND
 40
0.0
  9
$DIMDLE
 40
0.0
  9
$DIMEXE
 40
0.18
  9
$DIMTP
 40
0.03
  9
$DIMTM
 40
0.03
  9
$DIMTXT
 40
0.18
  9
$DIMCEN
 40
0.09
  9
$DIMTSZ
 40
0.0
  9
$DIMTOL
 70
     0
  9
$DIMLIM
 70
     0
  9
$DIMTIH
 70
     1
  9
$DIMTOH
 70
     1
  9
$DIMSE1
 70
     1
  9
$DIMSE2
 70
     0
  9
$DIMTAD
 70
     0
  9
$DIMZIN
 70
     0
  9
$DIMBLK
  1

  9
$DIMASO
 70
     1
  9
$DIMSHO
 70
     1
  9
$DIMPOST
  1

  9
$DIMAPOST
  1
"
  9
$DIMALT
 70
     1
  9
$DIMALTD
 70
     3
  9
$DIMALTF
 40
0.03937
  9
$DIMLFAC
 40
1.0
  9
$DIMTOFL
 70
     0
  9
$DIMTVP
 40
0.0
  9
$DIMTIX
 70
     0
  9
$DIMSOXD
 70
     0
  9
$DIMSAH
 70
     0
  9
$DIMBLK1
  1

  9
$DIMBLK2
  1

  9
$DIMSTYLE
  2
SU1
  9
$DIMCLRD
 70
     0
  9
$DIMCLRE
 70
     0
  9
$DIMCLRT
 70
     0
  9
$DIMTFAC
 40
1.0
  9
$DIMGAP
 40
0.09
  9
$DIMJUST
 70
     0
  9
$DIMSD1
 70
     0
  9
$DIMSD2
 70
     0
  9
$DIMTOLJ
 70
     1
  9
$DIMTZIN
 70
     0
  9
$DIMALTZ
 70
     0
  9
$DIMALTTZ
 70
     0
  9
$DIMFIT
 70
     0
  9
$DIMUPT
 70
     0
  9
$DIMUNIT
 70
     2
  9
$DIMDEC
 70
     2
  9
$DIMTDEC
 70
     2
  9
$DIMALTU
 70
     2
  9
$DIMALTTD
 70
     3
  9
$DIMTXSTY
  7
STANDARD
  9
$DIMAUNIT
 70
     0
  9
$LUNITS
 70
     2
  9
$LUPREC
 70
     4
  9
$SKETCHINC
 40
0.1
  9
$FILLETRAD
 40
1.5875
  9
$AUNITS
 70
     0
  9
$AUPREC
 70
     0
  9
$MENU
  1
acad
  9
$ELEVATION
 40
0.0
  9
$PELEVATION
 40
0.0
  9
$THICKNESS
 40
0.0
  9
$LIMCHECK
 70
     0
  9
$BLIPMODE
 70
     1
  9
$CHAMFERA
 40
0.0
  9
$CHAMFERB
 40
0.0
  9
$CHAMFERC
 40
0.0
  9
$CHAMFERD
 40
0.0
  9
$SKPOLY
 70
     0
  9
$TDCREATE
 40
2450473.610847222
  9
$TDUPDATE
 40
2450487.627226944
  9
$TDINDWG
 40
0.4994001273
  9
$TDUSRTIMER
 40
0.4994001273
  9
$USRTIMER
 70
     1
  9
$ANGBASE
 50
0.0
  9
$ANGDIR
 70
     0
  9
$PDMODE
 70
     0
  9
$PDSIZE
 40
0.0
  9
$PLINEWID
 40
0.0
  9
$COORDS
 70
     1
  9
$SPLFRAME
 70
     0
  9
$SPLINETYPE
 70
     6
  9
$SPLINESEGS
 70
     8
  9
$ATTDIA
 70
     0
  9
$ATTREQ
 70
     1
  9
$HANDLING
 70
     1
  9
$HANDSEED
  5
DEA
  9
$SURFTAB1
 70
     6
  9
$SURFTAB2
 70
     6
  9
$SURFTYPE
 70
     6
  9
$SURFU
 70
     6
  9
$SURFV
 70
     6
  9
$UCSNAME
  2

  9
$UCSORG
 10
0.0
 20
0.0
 30
0.0
  9
$UCSXDIR
 10
1.0
 20
0.0
 30
0.0
  9
$UCSYDIR
 10
0.0
 20
1.0
 30
0.0
  9
$PUCSNAME
  2

  9
$PUCSORG
 10
0.0
 20
0.0
 30
0.0
  9
$PUCSXDIR
 10
1.0
 20
0.0
 30
0.0
  9
$PUCSYDIR
 10
0.0
 20
1.0
 30
0.0
  9
$USERI1
 70
     0
  9
$USERI2
 70
     0
  9
$USERI3
 70
     0
  9
$USERI4
 70
     0
  9
$USERI5
 70
     0
  9
$USERR1
 40
0.0
  9
$USERR2
 40
0.0
  9
$USERR3
 40
0.0
  9
$USERR4
 40
0.0
  9
$USERR5
 40
0.0
  9
$WORLDVIEW
 70
     1
  9
$SHADEDGE
 70
     3
  9
$SHADEDIF
 70
    70
  9
$TILEMODE
 70
     1
  9
$MAXACTVP
 70
    16
  9
$PINSBASE
 10
0.0
 20
0.0
 30
0.0
  9
$PLIMCHECK
 70
     0
  9
$PEXTMIN
 10
1.000000E+20
 20
1.000000E+20
 30
1.000000E+20
  9
$PEXTMAX
 10
-1.000000E+20
 20
-1.000000E+20
 30
-1.000000E+20
  9
$PLIMMIN
 10
0.0
 20
0.0
  9
$PLIMMAX
 10
12.0
 20
9.0
  9
$UNITMODE
 70
     0
  9
$VISRETAIN
 70
     0
  9
$PLINEGEN
 70
     0
  9
$PSLTSCALE
 70
     1
  9
$TREEDEPTH
 70
  3020
  9
$PICKSTYLE
 70
     1
  9
$CMLSTYLE
  2
STANDARD
  9
$CMLJUST
 70
     0
  9
$CMLSCALE
 40
1.0
  9
$SAVEIMAGES
 70
     0
  0
ENDSEC
  0
SECTION
  2
CLASSES
  0
CLASS
  1
ACMESCOPE
  2
AcMeScope
  3
ACME_MODULE_NAME
 90
        0
280
     0
281
     0
  0
CLASS
  1
ACMECOMMANDHISTORY
  2
AcMeCommandHistory
  3
ACME_MODULE_NAME
 90
        0
280
     0
281
     0
  0
CLASS
  1
AcRfInsAdjusterMgr
  2
AcRfInsAdjusterMgr
  3
ACME_MODULE_NAME
 90
        0
280
     0
281
     0
  0
CLASS
  1
ACGREFMASTER
  2
AcGrefMaster
  3
"AcadRfServer"
 90
        0
280
     0
281
     0
  0
CLASS
  1
AmiMaster
  2
AmiMaster
  3
"AmiServices"
 90
        0
280
     0
281
     0
  0
CLASS
  1
ACASGREFMASTER
  2
AcAsGrefMaster
  3
"AutoSurfResolver"
 90
        0
280
     0
281
     0
  0
CLASS
  1
ADAPPL
  2
AcAdAppl
  3
"DesignerServices"
 90
        0
280
     0
281
     0
  0
CLASS
  1
DEPMGR
  2
AcAdDepMgr
  3
"DesignerServices"
 90
        0
280
     0
281
     0
  0
CLASS
  1
PARAMMGR
  2
AcAdParamMgr
  3
"DesignerServices"
 90
        0
280
     0
281
     0
  0
CLASS
  1
PARAMSCOPE
  2
AcAdParamScope
  3
"DesignerServices"
 90
        0
280
     0
281
     0
  0
CLASS
  1
"IM_SYSVAR_MAN"
  2
AcImSysVarManager
  3
"ADAM"
 90
        0
280
     0
281
     0
  0
CLASS
  1
SYSTEM_VAR_INT
  2
AcImIntSysVar
  3
"ADAM"
 90
        0
280
     0
281
     0
  0
CLASS
  1
SYSTEM_VAR_REAL
  2
AcImRealSysVar
  3
"ADAM"
 90
        0
280
     0
281
     0
  0
CLASS
  1
SYSTEM_VAR_STR
  2
AcImStrSysVar
  3
"ADAM"
 90
        0
280
     0
281
     0
  0
CLASS
  1
NAMEDAPPL
  2
AcAdNamedAppl
  3
"DesignerServices"
 90
        0
280
     0
281
     0
  0
CLASS
  1
ADPART
  2
AcAdPart
  3
"DesignerServices"
 90
        0
280
     0
281
     1
  0
CLASS
  1
ADBASE
  2
AcAdBase
  3
"DesignerServices"
 90
        0
280
     0
281
     0
  0
CLASS
  1
BODYID
  2
AcAdBodyId
  3
"DesignerServices"
 90
        0
280
     0
281
     0
  0
CLASS
  1
WORKPLANEDISPLAYMGR
  2
AcAdDisplayMgr
  3
"DesignerServices"
 90
        0
280
     0
281
     0
  0
CLASS
  1
ADHNTMPLT
  2
AdHoleNoteTemplateMgr
  3
"DesignerServices"
 90
        0
280
     0
281
     0
  0
CLASS
  1
AM_HNTEMPLATE_MGR_NAME
  2
AdHoleNoteTemplateMgrName
  3
"DesignerServices"
 90
        0
280
     0
281
     0
  0
CLASS
  1
AcAdGrefModule
  2
AcAdGrefModule
  3
AD_GREF_SERVICES_NSTR
 90
        0
280
     0
281
     0
  0
CLASS
  1
AM_DRAWING_MGR
  2
AcDmDwgMgr
  3
"Designer_Drawing_Mgmt"
 90
        0
280
     0
281
     0
  0
CLASS
  1
AM_DWG_DOCUMENT
  2
AcDmDwgDocument
  3
"Designer_Drawing_Mgmt"
 90
        0
280
     0
281
     0
  0
CLASS
  1
AM_DWG_SHEET
  2
AcDmSheet
  3
"Designer_Drawing_Mgmt"
 90
        0
280
     0
281
     0
  0
CLASS
  1
AM_VIEWDIMPARMAP
  2
AcDmViewDimParMap
  3
"Designer_Drawing_Mgmt"
 90
        0
280
     0
281
     0
  0
CLASS
  1
AM_DWGMGR_NAME
  2
AcDmDwgMgrName
  3
"Designer_Drawing_Mgmt"
 90
        0
280
     0
281
     0
  0
CLASS
  1
ACAMPROJECT
  2
AcAmProject
  3
"DesignerAssemblies"
 90
        0
280
     0
281
     0
  0
CLASS
  1
ACAMGRCOMPDEF
  2
AcAmGrCompDef
  3
"DesignerAssemblies"
 90
        0
280
     0
281
     0
  0
CLASS
  1
ACAMCOMPDEF
  2
AcAmCompDef
  3
"DesignerAssemblies"
 90
        0
280
     0
281
     0
  0
CLASS
  1
ACAMCOMPDEFMGR
  2
AcAmCompDefMgr
  3
"DesignerAssemblies"
 90
        0
280
     0
281
     0
  0
CLASS
  1
AMCONTEXTMGR
  2
AcAmContextMgr
  3
"DesignerAssemblies"
 90
        0
280
     0
281
     0
  0
CLASS
  1
AcAmContextModeler
  2
AcAmContextModeler
  3
"DesignerAssemblies"
 90
        0
280
     0
281
     0
  0
CLASS
  1
ACAMDRAWINGMAN
  2
AcAmDrawingMan
  3
"DesignerAssemblies"
 90
        0
280
     0
281
     0
  0
CLASS
  1
ASSYSVARS
  2
AcAsSysVars
  3
"AutoSurf"
 90
        0
280
     0
281
     0
  0
CLASS
  1
ASSTATICVARS
  2
AcAsStaticVars
  3
"AutoSurf"
 90
        0
280
     0
281
     0
  0
CLASS
  1
ASAPP
  2
AcAsAppObject
  3
"AutoSurf"
 90
        0
280
     0
281
     0
  0
CLASS
  1
AGDICTIONARY
  2
AgDictionary
  3
"AccelView"
 90
        1
280
     0
281
     0
  0
ENDSEC
  0
SECTION
  2
TABLES
  0
TABLE
  2
VPORT
  5
8
100
AcDbSymbolTable
 70
     3
  0
VPORT
  5
DE9
100
AcDbSymbolTableRecord
100
AcDbViewportTableRecord
  2
*ACTIVE
 70
     0
 10
0.0
 20
0.0
 11
1.0
 21
1.0
 12
406.497359
 22
254.921963
 13
0.0
 23
0.0
 14
1.0
 24
1.0
 15
10.0
 25
10.0
 16
0.0
 26
0.0
 36
1.0
 17
0.0
 27
0.0
 37
0.0
 40
503.493925
 41
1.602094
 42
50.0
 43
0.0
 44
0.0
 50
0.0
 51
0.0
 71
     0
 72
   100
 73
     1
 74
     0
 75
     0
 76
     1
 77
     0
 78
     0
  0
ENDTAB
  0
TABLE
  2
LTYPE
  5
5
100
AcDbSymbolTable
 70
     6
  0
LTYPE
  5
14
100
AcDbSymbolTableRecord
100
AcDbLinetypeTableRecord
  2
BYBLOCK
 70
     0
  3

 72
    65
 73
     0
 40
0.0
  0
LTYPE
  5
15
100
AcDbSymbolTableRecord
100
AcDbLinetypeTableRecord
  2
BYLAYER
 70
     0
  3

 72
    65
 73
     0
 40
0.0
  0
LTYPE
  5
16
100
AcDbSymbolTableRecord
100
AcDbLinetypeTableRecord
  2
CONTINUOUS
 70
    64
  3
Solid line
 72
    65
 73
     0
 40
0.0
  0
LTYPE
  5
4F
100
AcDbSymbolTableRecord
100
AcDbLinetypeTableRecord
  2
HIDDEN
 70
    64
  3
__ __ __ __ __ __ __ __ __ __ __ __ __ __ __ __
 72
    65
 73
     2
 40
0.375
 49
0.25
 74
     0
 49
-0.125
 74
     0
  0
LTYPE
  5
51
100
AcDbSymbolTableRecord
100
AcDbLinetypeTableRecord
  2
PHANTOM2
 70
     0
  3
___ _ _ ___ _ _ ___ _ _ ___ _ _ ___ _ _ ___ _ _
 72
    65
 73
     6
 40
1.25
 49
0.625
 74
     0
 49
-0.125
 74
     0
 49
0.125
 74
     0
 49
-0.125
 74
     0
 49
0.125
 74
     0
 49
-0.125
 74
     0
  0
LTYPE
  5
5C
100
AcDbSymbolTableRecord
100
AcDbLinetypeTableRecord
  2
CENTER
 70
    64
  3
____ _ ____ _ ____ _ ____ _ ____ _ ____ _ ____ 
 72
    65
 73
     4
 40
2.0
 49
1.25
 74
     0
 49
-0.25
 74
     0
 49
0.25
 74
     0
 49
-0.25
 74
     0
  0
LTYPE
  5
7C
100
AcDbSymbolTableRecord
100
AcDbLinetypeTableRecord
  2
ASULTYPE
 70
     0
  3
Solid line
 72
    65
 73
     2
 40
3.0
 49
2.5
 74
     0
 49
0.5
 74
     0
  0
LTYPE
  5
7D
100
AcDbSymbolTableRecord
100
AcDbLinetypeTableRecord
  2
ASVLTYPE
 70
     0
  3
__ __ __ __ __ __ __ __ __ __ __ __ __ __ __ __ __ __ __ __ __
 72
    65
 73
     2
 40
0.75
 49
0.5
 74
     0
 49
-0.25
 74
     0
  0
ENDTAB
  0
TABLE
  2
LAYER
  5
2
100
AcDbSymbolTable
 70
    19
  0
LAYER
  5
F
100
AcDbSymbolTableRecord
100
AcDbLayerTableRecord
  2
0
 70
     0
 62
     7
  6
CONTINUOUS
  0
LAYER
  5
7F
100
AcDbSymbolTableRecord
100
AcDbLayerTableRecord
  2
CENTER
 70
    64
 62
     1
  6
CENTER
  0
LAYER
  5
80
100
AcDbSymbolTableRecord
100
AcDbLayerTableRecord
  2
DIM
 70
    64
 62
     3
  6
CONTINUOUS
  0
LAYER
  5
81
100
AcDbSymbolTableRecord
100
AcDbLayerTableRecord
  2
TEXT
 70
    64
 62
     7
  6
CONTINUOUS
  0
LAYER
  5
9C
100
AcDbSymbolTableRecord
100
AcDbLayerTableRecord
  2
BORDER
 70
    64
 62
     6
  6
CONTINUOUS
  0
LAYER
  5
E5
100
AcDbSymbolTableRecord
100
AcDbLayerTableRecord
  2
FOOT-A
 70
    64
 62
     7
  6
CONTINUOUS
  0
LAYER
  5
149
100
AcDbSymbolTableRecord
100
AcDbLayerTableRecord
  2
FOOT-2
 70
    64
 62
     7
  6
CONTINUOUS
  0
LAYER
  5
1D9
100
AcDbSymbolTableRecord
100
AcDbLayerTableRecord
  2
HATCH
 70
    64
 62
     7
  6
CONTINUOUS
  0
LAYER
  5
441
100
AcDbSymbolTableRecord
100
AcDbLayerTableRecord
  2
DEFPOINTS
 70
    64
 62
     7
  6
CONTINUOUS
  0
ENDTAB
  0
TABLE
  2
STYLE
  5
3
100
AcDbSymbolTable
 70
     3
  0
STYLE
  5
10
100
AcDbSymbolTableRecord
100
AcDbTextStyleTableRecord
  2
STANDARD
 70
    64
 40
0.0
 41
1.0
 50
0.0
 71
     0
 42
6.0
  3
txt
  4

  0
STYLE
  5
85
100
AcDbSymbolTableRecord
100
AcDbTextStyleTableRecord
  2
CIM_TB
 70
    64
 40
0.0
 41
1.0
 50
0.0
 71
     0
 42
0.2
  3
romans
  4

  0
STYLE
  5
9D
100
AcDbSymbolTableRecord
100
AcDbTextStyleTableRecord
  2
ADESK2
 70
    64
 40
0.0
 41
1.0
 50
0.0
 71
     0
 42
0.065
  3
romans
  4

  0
ENDTAB
  0
TABLE
  2
VIEW
  5
6
100
AcDbSymbolTable
 70
     0
  0
ENDTAB
  0
TABLE
  2
UCS
  5
7
100
AcDbSymbolTable
 70
     0
  0
ENDTAB
  0
TABLE
  2
APPID
  5
9
100
AcDbSymbolTable
 70
     6
  0
APPID
  5
11
100
AcDbSymbolTableRecord
100
AcDbRegAppTableRecord
  2
ACAD
 70
     0
  0
APPID
  5
5F
100
AcDbSymbolTableRecord
100
AcDbRegAppTableRecord
  2
AD_DRAW
 70
     0
  0
APPID
  5
77
100
AcDbSymbolTableRecord
100
AcDbRegAppTableRecord
  2
DESIGNERASSEMBLIES
 70
     0
  0
APPID
  5
78
100
AcDbSymbolTableRecord
100
AcDbRegAppTableRecord
  2
MCAD_NO_VIS
 70
     0
  0
APPID
  5
7E
100
AcDbSymbolTableRecord
100
AcDbRegAppTableRecord
  2
ASURF_PCURVE_APPNAME
 70
     0
  0
APPID
  5
82
100
AcDbSymbolTableRecord
100
AcDbRegAppTableRecord
  2
TB_S_MPD
 70
     0
  0
ENDTAB
  0
TABLE
  2
DIMSTYLE
  5
A
100
AcDbSymbolTable
 70
     6
  0
DIMSTYLE
105
1D
100
AcDbSymbolTableRecord
100
AcDbDimStyleTableRecord
  2
STANDARD
 70
     0
  3

  4

  5

  6

  7

 40
1.0
 41
0.18
 42
0.0625
 43
0.38
 44
0.18
 45
0.0
 46
0.0
 47
0.0
 48
0.0
140
0.18
141
0.09
142
0.0
143
25.4
144
1.0
145
0.0
146
1.0
147
0.09
 71
     0
 72
     0
 73
     1
 74
     1
 75
     0
 76
     0
 77
     0
 78
     0
170
     0
171
     2
172
     0
173
     0
174
     0
175
     0
176
     0
177
     0
178
     0
270
     2
271
     4
272
     4
273
     2
274
     2
340
10
275
     0
280
     0
281
     0
282
     0
283
     1
284
     0
285
     0
286
     0
287
     3
288
     0
  0
DIMSTYLE
105
8D
100
AcDbSymbolTableRecord
100
AcDbDimStyleTableRecord
  2
SU1
 70
     0
  3

  4

  5

  6

  7

 40
1.0
 41
0.18
 42
0.0625
 43
0.38
 44
0.18
 45
0.0
 46
0.0
 47
0.001
 48
0.0
140
0.18
141
0.09
142
0.0
143
25.4
144
1.0
145
0.0
146
1.0
147
0.09
 71
     0
 72
     0
 73
     1
 74
     1
 75
     0
 76
     0
 77
     0
 78
     0
170
     0
171
     2
172
     0
173
     0
174
     0
175
     0
176
     0
177
     0
178
     0
270
     2
271
     3
272
     3
273
     2
274
     2
340
10
275
     0
280
     0
281
     0
282
     0
283
     1
284
     0
285
     0
286
     0
287
     0
288
     0
  0
DIMSTYLE
105
8E
100
AcDbSymbolTableRecord
100
AcDbDimStyleTableRecord
  2
SU1$4
 70
     0
  3

  4

  5

  6

  7

 40
1.0
 41
0.18
 42
0.0625
 43
0.38
 44
0.18
 45
0.0
 46
0.0
 47
0.001
 48
0.0
140
0.18
141
0.09
142
0.0
143
25.4
144
1.0
145
0.0
146
1.0
147
0.09
 71
     0
 72
     0
 73
     1
 74
     1
 75
     0
 76
     0
 77
     0
 78
     0
170
     0
171
     2
172
     0
173
     0
174
     0
175
     0
176
     0
177
     0
178
     0
270
     2
271
     3
272
     3
273
     2
274
     2
340
10
275
     0
280
     0
281
     0
282
     0
283
     1
284
     0
285
     0
286
     0
287
     0
288
     1
  0
DIMSTYLE
105
8F
100
AcDbSymbolTableRecord
100
AcDbDimStyleTableRecord
  2
SU1$2
 70
     0
  3

  4

  5

  6

  7

 40
1.0
 41
0.18
 42
0.0625
 43
0.38
 44
0.18
 45
0.0
 46
0.0
 47
0.001
 48
0.0
140
0.18
141
0.09
142
0.0
143
25.4
144
1.0
145
0.0
146
1.0
147
0.09
 71
     0
 72
     0
 73
     1
 74
     1
 75
     0
 76
     0
 77
     0
 78
     0
170
     0
171
     2
172
     0
173
     0
174
     0
175
     0
176
     0
177
     0
178
     0
270
     2
271
     1
272
     3
273
     2
274
     2
340
10
275
     0
280
     0
281
     0
282
     0
283
     1
284
     0
285
     0
286
     0
287
     0
288
     0
  0
DIMSTYLE
105
90
100
AcDbSymbolTableRecord
100
AcDbDimStyleTableRecord
  2
SU1$3
 70
     0
  3

  4

  5

  6

  7

 40
1.0
 41
0.18
 42
0.0625
 43
0.38
 44
0.18
 45
0.0
 46
0.0
 47
0.001
 48
0.0
140
0.18
141
0.09
142
0.0
143
25.4
144
1.0
145
0.0
146
1.0
147
0.09
 71
     0
 72
     0
 73
     1
 74
     1
 75
     0
 76
     0
 77
     0
 78
     0
170
     0
171
     2
172
     0
173
     0
174
     0
175
     0
176
     0
177
     0
178
     0
270
     2
271
     3
272
     3
273
     2
274
     2
340
10
275
     0
280
     0
281
     0
282
     0
283
     1
284
     0
285
     0
286
     0
287
     0
288
     1
  0
DIMSTYLE
105
91
100
AcDbSymbolTableRecord
100
AcDbDimStyleTableRecord
  2
SU1$7
 70
     0
  3

  4

  5

  6

  7

 40
1.0
 41
0.18
 42
0.0625
 43
0.38
 44
0.18
 45
0.0
 46
0.0
 47
0.001
 48
0.0
140
0.18
141
0.09
142
0.0
143
25.4
144
1.0
145
0.0
146
1.0
147
0.09
 71
     0
 72
     0
 73
     1
 74
     1
 75
     0
 76
     0
 77
     0
 78
     0
170
     0
171
     2
172
     0
173
     0
174
     0
175
     0
176
     0
177
     0
178
     0
270
     2
271
     3
272
     3
273
     2
274
     2
340
10
275
     0
280
     0
281
     0
282
     0
283
     1
284
     0
285
     0
286
     0
287
     0
288
     1
  0
ENDTAB
  0
TABLE
  2
BLOCK_RECORD
  5
1
100
AcDbSymbolTable
 70
    38
  0
BLOCK_RECORD
  5
1A
100
AcDbSymbolTableRecord
100
AcDbBlockTableRecord
  2
*MODEL_SPACE
  0
BLOCK_RECORD
  5
17
100
AcDbSymbolTableRecord
100
AcDbBlockTableRecord
  2
*PAPER_SPACE
  0
BLOCK_RECORD
  5
6B
100
AcDbSymbolTableRecord
100
AcDbBlockTableRecord
  2
*U0
  0
BLOCK_RECORD
  5
9E
100
AcDbSymbolTableRecord
100
AcDbBlockTableRecord
  2
D-BORDER
  0
BLOCK_RECORD
  5
84D
100
AcDbSymbolTableRecord
100
AcDbBlockTableRecord
  2
*U3
  0
BLOCK_RECORD
  5
857
100
AcDbSymbolTableRecord
100
AcDbBlockTableRecord
  2
*U4
  0
BLOCK_RECORD
  5
861
100
AcDbSymbolTableRecord
100
AcDbBlockTableRecord
  2
*U5
  0
BLOCK_RECORD
  5
916
100
AcDbSymbolTableRecord
100
AcDbBlockTableRecord
  2
*X7
  0
BLOCK_RECORD
  5
980
100
AcDbSymbolTableRecord
100
AcDbBlockTableRecord
  2
*D8
  0
BLOCK_RECORD
  5
99A
100
AcDbSymbolTableRecord
100
AcDbBlockTableRecord
  2
*D9
  0
BLOCK_RECORD
  5
9B4
100
AcDbSymbolTableRecord
100
AcDbBlockTableRecord
  2
*D10
  0
BLOCK_RECORD
  5
9F2
100
AcDbSymbolTableRecord
100
AcDbBlockTableRecord
  2
*D11
  0
BLOCK_RECORD
  5
A22
100
AcDbSymbolTableRecord
100
AcDbBlockTableRecord
  2
*D12
  0
BLOCK_RECORD
  5
A2F
100
AcDbSymbolTableRecord
100
AcDbBlockTableRecord
  2
*D13
  0
BLOCK_RECORD
  5
A3C
100
AcDbSymbolTableRecord
100
AcDbBlockTableRecord
  2
*D14
  0
BLOCK_RECORD
  5
A6E
100
AcDbSymbolTableRecord
100
AcDbBlockTableRecord
  2
*D15
  0
BLOCK_RECORD
  5
A7B
100
AcDbSymbolTableRecord
100
AcDbBlockTableRecord
  2
*D16
  0
BLOCK_RECORD
  5
A8A
100
AcDbSymbolTableRecord
100
AcDbBlockTableRecord
  2
*D17
  0
BLOCK_RECORD
  5
A99
100
AcDbSymbolTableRecord
100
AcDbBlockTableRecord
  2
*D18
  0
BLOCK_RECORD
  5
AA7
100
AcDbSymbolTableRecord
100
AcDbBlockTableRecord
  2
*D19
  0
BLOCK_RECORD
  5
AB5
100
AcDbSymbolTableRecord
100
AcDbBlockTableRecord
  2
*D20
  0
BLOCK_RECORD
  5
AC4
100
AcDbSymbolTableRecord
100
AcDbBlockTableRecord
  2
*D21
  0
BLOCK_RECORD
  5
AD3
100
AcDbSymbolTableRecord
100
AcDbBlockTableRecord
  2
*D22
  0
BLOCK_RECORD
  5
AE2
100
AcDbSymbolTableRecord
100
AcDbBlockTableRecord
  2
*D23
  0
BLOCK_RECORD
  5
B65
100
AcDbSymbolTableRecord
100
AcDbBlockTableRecord
  2
*D24
  0
BLOCK_RECORD
  5
BB4
100
AcDbSymbolTableRecord
100
AcDbBlockTableRecord
  2
*D25
  0
BLOCK_RECORD
  5
BC1
100
AcDbSymbolTableRecord
100
AcDbBlockTableRecord
  2
*D26
  0
BLOCK_RECORD
  5
BCE
100
AcDbSymbolTableRecord
100
AcDbBlockTableRecord
  2
*D27
  0
BLOCK_RECORD
  5
BDB
100
AcDbSymbolTableRecord
100
AcDbBlockTableRecord
  2
*D28
  0
BLOCK_RECORD
  5
BE8
100
AcDbSymbolTableRecord
100
AcDbBlockTableRecord
  2
*D29
  0
BLOCK_RECORD
  5
BF5
100
AcDbSymbolTableRecord
100
AcDbBlockTableRecord
  2
*D30
  0
BLOCK_RECORD
  5
C5B
100
AcDbSymbolTableRecord
100
AcDbBlockTableRecord
  2
*D31
  0
BLOCK_RECORD
  5
C7B
100
AcDbSymbolTableRecord
100
AcDbBlockTableRecord
  2
*D32
  0
BLOCK_RECORD
  5
C91
100
AcDbSymbolTableRecord
100
AcDbBlockTableRecord
  2
*D33
  0
BLOCK_RECORD
  5
D66
100
AcDbSymbolTableRecord
100
AcDbBlockTableRecord
  2
*D34
  0
BLOCK_RECORD
  5
D9B
100
AcDbSymbolTableRecord
100
AcDbBlockTableRecord
  2
*D35
  0
BLOCK_RECORD
  5
DAD
100
AcDbSymbolTableRecord
100
AcDbBlockTableRecord
  2
*D36
  0
BLOCK_RECORD
  5
DD6
100
AcDbSymbolTableRecord
100
AcDbBlockTableRecord
  2
*D37
  0
ENDTAB
  0
ENDSEC
  0
SECTION
  2
BLOCKS
  0
BLOCK
  5
1B
100
AcDbEntity
  8
0
100
AcDbBlockBegin
  2
*MODEL_SPACE
 70
     0
 10
0.0
 20
0.0
 30
0.0
  3
*MODEL_SPACE
  1

  0
ENDBLK
  5
1C
100
AcDbEntity
  8
0
100
AcDbBlockEnd
  0
BLOCK
  5
18
100
AcDbEntity
 67
     1
  8
0
100
AcDbBlockBegin
  2
*PAPER_SPACE
 70
     0
 10
0.0
 20
0.0
 30
0.0
  3
*PAPER_SPACE
  1

  0
ENDBLK
  5
19
100
AcDbEntity
 67
     1
  8
0
100
AcDbBlockEnd
  0
BLOCK
  5
6C
100
AcDbEntity
  8
0
100
AcDbBlockBegin
  2
*U0
 70
     1
 10
0.0
 20
0.0
 30
0.0
  3
*U0
  1

  0
ENDBLK
  5
6D
100
AcDbEntity
  8
0
100
AcDbBlockEnd
  0
BLOCK
  5
E1
100
AcDbEntity
  8
0
100
AcDbBlockBegin
  2
D-BORDER
 70
     0
 10
0.0
 20
0.0
 30
0.0
  3
D-BORDER
  1

  0
LINE
  5
9F
100
AcDbEntity
  8
TEXT
100
AcDbLine
 10
0.125
 20
19.447595
 30
0.0
 11
2.6875
 21
19.447595
 31
0.0
  0
LINE
  5
A0
100
AcDbEntity
  8
TEXT
100
AcDbLine
 10
2.6875
 20
19.447595
 30
0.0
 11
2.6875
 21
19.947595
 31
0.0
  0
CIRCLE
  5
A1
100
AcDbEntity
  8
TEXT
100
AcDbCircle
 10
0.802871
 20
19.684056
 30
0.0
 40
0.1875
  0
CIRCLE
  5
A2
100
AcDbEntity
  8
TEXT
100
AcDbCircle
 10
0.802871
 20
19.684056
 30
0.0
 40
0.09375
  0
LINE
  5
A3
100
AcDbEntity
  8
TEXT
  6
CENTER
100
AcDbLine
 10
0.568951
 20
19.684056
 30
0.0
 11
2.021621
 21
19.684056
 31
0.0
  0
LINE
  5
A4
100
AcDbEntity
  8
TEXT
  6
CENTER
100
AcDbLine
 10
0.802871
 20
19.455375
 30
0.0
 11
0.802871
 21
19.923251
 31
0.0
  0
LINE
  5
A5
100
AcDbEntity
  8
TEXT
100
AcDbLine
 10
1.271621
 20
19.777806
 30
0.0
 11
1.756263
 21
19.871556
 31
0.0
  0
LINE
  5
A6
100
AcDbEntity
  8
TEXT
100
AcDbLine
 10
1.271621
 20
19.590306
 30
0.0
 11
1.756263
 21
19.496556
 31
0.0
  0
LINE
  5
A7
100
AcDbEntity
  8
TEXT
100
AcDbLine
 10
1.271621
 20
19.590306
 30
0.0
 11
1.271621
 21
19.777806
 31
0.0
  0
LINE
  5
A8
100
AcDbEntity
  8
TEXT
100
AcDbLine
 10
1.756263
 20
19.871556
 30
0.0
 11
1.756263
 21
19.496556
 31
0.0
  0
TEXT
  5
A9
100
AcDbEntity
  8
TEXT
100
AcDbText
 10
0.3125
 20
19.262423
 30
0.0
 40
0.1
  1
THIRD ANGLE PROJECTION
100
AcDbText
  0
LINE
  5
AA
100
AcDbEntity
  8
TEXT
100
AcDbLine
 10
2.6875
 20
19.447595
 30
0.0
 11
2.6875
 21
19.197595
 31
0.0
  0
LINE
  5
AB
100
AcDbEntity
  8
TEXT
100
AcDbLine
 10
2.6875
 20
19.197595
 30
0.0
 11
0.125
 21
19.197595
 31
0.0
  0
TEXT
  5
AC
100
AcDbEntity
  8
TEXT
100
AcDbText
 10
30.260292
 20
0.244377
 30
0.0
 40
0.065
  1
OF
  7
ADESK2
100
AcDbText
  0
TEXT
  5
AD
100
AcDbEntity
  8
TEXT
100
AcDbText
 10
26.500724
 20
0.974951
 30
0.0
 40
0.065
  1
DATE
  7
ADESK2
100
AcDbText
  0
LINE
  5
AE
100
AcDbEntity
  8
TEXT
100
AcDbLine
 10
26.377305
 20
1.091501
 30
0.0
 11
26.377305
 21
0.125
 31
0.0
  0
TEXT
  5
AF
100
AcDbEntity
  8
TEXT
100
AcDbText
 10
24.957321
 20
0.356501
 30
0.0
 40
0.065
  1
DESIGN
  7
ADESK2
100
AcDbText
  0
TEXT
  5
B0
100
AcDbEntity
  8
TEXT
100
AcDbText
 10
24.957321
 20
0.671501
 30
0.0
 40
0.065
  1
CHECKED
  7
ADESK2
100
AcDbText
  0
LINE
  5
B1
100
AcDbEntity
  8
TEXT
100
AcDbLine
 10
24.877321
 20
1.091501
 30
0.0
 11
26.877321
 21
1.091501
 31
0.0
  0
TEXT
  5
B2
100
AcDbEntity
  8
TEXT
100
AcDbText
 10
30.359702
 20
19.465196
 30
0.0
 40
0.065
  1
APPROVED
  7
ADESK2
100
AcDbText
  0
TEXT
  5
B3
100
AcDbEntity
  8
TEXT
100
AcDbText
 10
29.566002
 20
19.465196
 30
0.0
 40
0.065
  1
DATE
  7
ADESK2
100
AcDbText
  0
TEXT
  5
B4
100
AcDbEntity
  8
TEXT
100
AcDbText
 10
27.500302
 20
19.465196
 30
0.0
 40
0.065
  1
DESCRIPTION
  7
ADESK2
100
AcDbText
  0
TEXT
  5
B5
100
AcDbEntity
  8
TEXT
100
AcDbText
 10
26.198402
 20
19.465196
 30
0.0
 40
0.065
  1
REV
  7
ADESK2
100
AcDbText
  0
TEXT
  5
B6
100
AcDbEntity
  8
TEXT
100
AcDbText
 10
28.328502
 20
19.707396
 30
0.0
 40
0.065
  1
REVISIONS
  7
ADESK2
100
AcDbText
  0
LINE
  5
B7
100
AcDbEntity
  8
TEXT
100
AcDbLine
 10
30.118302
 20
19.374896
 30
0.0
 11
30.118302
 21
19.624896
 31
0.0
  0
LINE
  5
B8
100
AcDbEntity
  8
TEXT
100
AcDbLine
 10
29.238302
 20
19.374896
 30
0.0
 11
29.238302
 21
19.624896
 31
0.0
  0
LINE
  5
B9
100
AcDbEntity
  8
TEXT
100
AcDbLine
 10
26.498302
 20
19.374896
 30
0.0
 11
26.498302
 21
19.624896
 31
0.0
  0
LINE
  5
BA
100
AcDbEntity
  8
TEXT
100
AcDbLine
 10
26.108049
 20
19.934959
 30
0.0
 11
26.108049
 21
19.374896
 31
0.0
  0
LINE
  5
BB
100
AcDbEntity
  8
TEXT
100
AcDbLine
 10
26.108049
 20
19.374896
 30
0.0
 11
31.162356
 21
19.374896
 31
0.0
  0
LINE
  5
BC
100
AcDbEntity
  8
TEXT
100
AcDbLine
 10
26.108049
 20
19.624896
 30
0.0
 11
31.162356
 21
19.624896
 31
0.0
  0
TEXT
  5
BD
100
AcDbEntity
  8
TEXT
100
AcDbText
 10
30.827821
 20
0.667401
 30
0.0
 40
0.065
  1
REV
  7
ADESK2
100
AcDbText
  0
TEXT
  5
BE
100
AcDbEntity
  8
TEXT
100
AcDbText
 10
28.448321
 20
0.667401
 30
0.0
 40
0.065
  1
DWG NO.
  7
ADESK2
100
AcDbText
  0
TEXT
  5
BF
100
AcDbEntity
  8
TEXT
100
AcDbText
 10
26.965221
 20
0.667401
 30
0.0
 40
0.065
  1
SIZE
  7
ADESK2
100
AcDbText
  0
TEXT
  5
C0
100
AcDbEntity
  8
TEXT
100
AcDbText
 10
29.430121
 20
0.244001
 30
0.0
 40
0.065
  1
SHEET
  7
ADESK2
100
AcDbText
  0
TEXT
  5
C1
100
AcDbEntity
  8
TEXT
100
AcDbText
 10
26.929621
 20
0.244001
 30
0.0
 40
0.065
  1
SCALE
  7
ADESK2
100
AcDbText
  0
LINE
  5
C2
100
AcDbEntity
  8
TEXT
100
AcDbLine
 10
30.747321
 20
0.401501
 30
0.0
 11
30.747321
 21
0.781501
 31
0.0
  0
LINE
  5
C3
100
AcDbEntity
  8
TEXT
100
AcDbLine
 10
28.377321
 20
0.401501
 30
0.0
 11
28.377321
 21
0.781501
 31
0.0
  0
LINE
  5
C4
100
AcDbEntity
  8
TEXT
100
AcDbLine
 10
27.257321
 20
0.401501
 30
0.0
 11
27.257321
 21
0.781501
 31
0.0
  0
LINE
  5
C5
100
AcDbEntity
  8
TEXT
100
AcDbLine
 10
29.377321
 20
0.125
 30
0.0
 11
29.377321
 21
0.401501
 31
0.0
  0
LINE
  5
C6
100
AcDbEntity
  8
TEXT
100
AcDbLine
 10
27.877321
 20
0.125
 30
0.0
 11
27.877321
 21
0.401501
 31
0.0
  0
LINE
  5
C7
100
AcDbEntity
  8
BORDER
100
AcDbLine
 10
26.877321
 20
0.125
 30
0.0
 11
26.877321
 21
1.901501
 31
0.0
  0
LINE
  5
C8
100
AcDbEntity
  8
BORDER
100
AcDbLine
 10
26.877321
 20
1.401501
 30
0.0
 11
31.149118
 21
1.401501
 31
0.0
  0
LINE
  5
C9
100
AcDbEntity
  8
TEXT
100
AcDbLine
 10
26.877321
 20
0.401501
 30
0.0
 11
31.149118
 21
0.401501
 31
0.0
  0
LINE
  5
CA
100
AcDbEntity
  8
TEXT
100
AcDbLine
 10
24.877321
 20
0.781501
 30
0.0
 11
31.149118
 21
0.781501
 31
0.0
  0
LINE
  5
CB
100
AcDbEntity
  8
TEXT
100
AcDbLine
 10
24.877321
 20
0.466501
 30
0.0
 11
26.877321
 21
0.466501
 31
0.0
  0
LINE
  5
CC
100
AcDbEntity
  8
BORDER
100
AcDbLine
 10
24.877321
 20
1.901501
 30
0.0
 11
31.149118
 21
1.901501
 31
0.0
  0
LINE
  5
CD
100
AcDbEntity
  8
BORDER
100
AcDbLine
 10
24.877321
 20
0.125
 30
0.0
 11
24.877321
 21
2.324147
 31
0.0
  0
TEXT
  5
CE
100
AcDbEntity
  8
TEXT
100
AcDbText
 10
24.945631
 20
0.979964
 30
0.0
 40
0.065
  1
DRAWN
  7
ADESK2
100
AcDbText
  0
TEXT
  5
CF
100
AcDbEntity
  8
BORDER
100
AcDbText
 10
25.055285
 20
2.049228
 30
0.0
 40
0.15
  1
UNIVERSITY OF CALIFORNIA @ SANTA BARBARA
100
AcDbText
  0
LINE
  5
D0
100
AcDbEntity
  8
BORDER
100
AcDbLine
 10
24.87628
 20
2.324147
 30
0.0
 11
31.149118
 21
2.324147
 31
0.0
  0
LINE
  5
D1
100
AcDbEntity
  8
BORDER
100
AcDbLine
 10
31.17142
 20
0.125
 30
0.0
 11
31.17142
 21
19.947595
 31
0.0
  0
LINE
  5
D2
100
AcDbEntity
  8
BORDER
100
AcDbLine
 10
0.125
 20
19.947595
 30
0.0
 11
0.125
 21
0.125
 31
0.0
  0
LINE
  5
D3
100
AcDbEntity
  8
BORDER
100
AcDbLine
 10
0.125
 20
0.125
 30
0.0
 11
31.17142
 21
0.125
 31
0.0
  0
TEXT
  5
D4
100
AcDbEntity
  8
TEXT
100
AcDbText
 10
27.328393
 20
0.665354
 30
0.0
 40
0.075
  1
DIRECTORY
100
AcDbText
  0
LINE
  5
D5
100
AcDbEntity
  8
BORDER
100
AcDbLine
 10
0.125
 20
19.947595
 30
0.0
 11
31.17142
 21
19.947595
 31
0.0
  0
TEXT
  5
D6
100
AcDbEntity
  8
BORDER
100
AcDbText
 10
27.564864
 20
1.575566
 30
0.0
 40
0.15
  1
HIGH ENERGY PHYSICS
100
AcDbText
  0
TEXT
  5
D7
100
AcDbEntity
  8
BORDER
100
AcDbText
 10
27.001167
 20
0.434778
 30
0.0
 40
0.2
  1
D
100
AcDbText
  0
TEXT
  5
D8
100
AcDbEntity
  8
TEXT
100
AcDbText
 10
25.106606
 20
1.785089
 30
0.0
 40
0.065
  1
UNLESS OTHERWISE SPECIFIED:
  7
ADESK2
 72
     1
 11
25.877321
 21
1.785089
 31
0.0
100
AcDbText
  0
TEXT
  5
D9
100
AcDbEntity
  8
TEXT
100
AcDbText
 10
25.180892
 20
1.679851
 30
0.0
 40
0.065
  1
DIMENSIONS ARE IN INCHES
  7
ADESK2
 72
     1
 11
25.877321
 21
1.679851
 31
0.0
100
AcDbText
  0
TEXT
  5
DA
100
AcDbEntity
  8
TEXT
100
AcDbText
 10
25.57863
 20
1.574613
 30
0.0
 40
0.065
  1
TOLERANCES
  7
ADESK2
 72
     1
 11
25.877321
 21
1.574613
 31
0.0
100
AcDbText
  0
TEXT
  5
DB
100
AcDbEntity
  8
TEXT
100
AcDbText
 10
25.192279
 20
1.466743
 30
0.0
 40
0.065
  1
DECIMALS
  7
ADESK2
100
AcDbText
  0
TEXT
  5
DC
100
AcDbEntity
  8
TEXT
100
AcDbText
 10
25.192279
 20
1.361505
 30
0.0
 40
0.065
  1
.XX  %%P .05
  7
ADESK2
100
AcDbText
  0
TEXT
  5
DD
100
AcDbEntity
  8
TEXT
100
AcDbText
 10
25.192279
 20
1.256267
 30
0.0
 40
0.065
  1
.XXX %%P .005
  7
ADESK2
100
AcDbText
  0
TEXT
  5
DE
100
AcDbEntity
  8
TEXT
100
AcDbText
 10
25.262916
 20
1.153744
 30
0.0
 40
0.065
  1
DO NOT SCALE DRAWING
  7
ADESK2
 72
     1
 11
25.877321
 21
1.153744
 31
0.0
100
AcDbText
  0
TEXT
  5
DF
100
AcDbEntity
  8
TEXT
100
AcDbText
 10
26.056176
 20
1.466743
 30
0.0
 40
0.065
  1
ANGULAR
  7
ADESK2
100
AcDbText
  0
TEXT
  5
E0
100
AcDbEntity
  8
TEXT
100
AcDbText
 10
26.056176
 20
1.361505
 30
0.0
 40
0.065
  1
  %%P 0.5%%D
  7
ADESK2
100
AcDbText
  0
ENDBLK
  5
E2
100
AcDbEntity
  8
0
100
AcDbBlockEnd
  0
BLOCK
  5
855
100
AcDbEntity
  8
0
100
AcDbBlockBegin
  2
*U3
 70
    65
 10
0.0
 20
0.0
 30
0.0
  3
*U3
  1
*TB
  0
CIRCLE
  5
84E
100
AcDbEntity
  8
FOOT-2
100
AcDbCircle
 10
0.0
 20
0.0
 30
0.0
 40
0.046875
  0
LINE
  5
84F
100
AcDbEntity
  8
CENTER
100
AcDbLine
 10
-0.015625
 20
0.0
 30
0.0
 11
0.015625
 21
0.0
 31
0.0
  0
LINE
  5
850
100
AcDbEntity
  8
CENTER
100
AcDbLine
 10
0.0
 20
-0.015625
 30
0.0
 11
0.0
 21
0.015625
 31
0.0
  0
LINE
  5
851
100
AcDbEntity
  8
CENTER
100
AcDbLine
 10
0.03125
 20
0.0
 30
0.0
 11
0.171875
 21
0.0
 31
0.0
  0
LINE
  5
852
100
AcDbEntity
  8
CENTER
100
AcDbLine
 10
0.0
 20
0.03125
 30
0.0
 11
0.0
 21
0.171875
 31
0.0
  0
LINE
  5
853
100
AcDbEntity
  8
CENTER
100
AcDbLine
 10
-0.03125
 20
0.0
 30
0.0
 11
-0.171875
 21
0.0
 31
0.0
  0
LINE
  5
854
100
AcDbEntity
  8
CENTER
100
AcDbLine
 10
0.0
 20
-0.03125
 30
0.0
 11
0.0
 21
-0.171875
 31
0.0
  0
ENDBLK
  5
856
100
AcDbEntity
  8
0
100
AcDbBlockEnd
  0
BLOCK
  5
85F
100
AcDbEntity
  8
0
100
AcDbBlockBegin
  2
*U4
 70
    65
 10
0.0
 20
0.0
 30
0.0
  3
*U4
  1
*TB
  0
CIRCLE
  5
858
100
AcDbEntity
  8
FOOT-2
100
AcDbCircle
 10
0.0
 20
0.0
 30
0.0
 40
0.058
  0
LINE
  5
859
100
AcDbEntity
  8
CENTER
100
AcDbLine
 10
-0.019333
 20
0.0
 30
0.0
 11
0.019333
 21
0.0
 31
0.0
  0
LINE
  5
85A
100
AcDbEntity
  8
CENTER
100
AcDbLine
 10
0.0
 20
-0.019333
 30
0.0
 11
0.0
 21
0.019333
 31
0.0
  0
LINE
  5
85B
100
AcDbEntity
  8
CENTER
100
AcDbLine
 10
0.038667
 20
0.0
 30
0.0
 11
0.183
 21
0.0
 31
0.0
  0
LINE
  5
85C
100
AcDbEntity
  8
CENTER
100
AcDbLine
 10
0.0
 20
0.038667
 30
0.0
 11
0.0
 21
0.183
 31
0.0
  0
LINE
  5
85D
100
AcDbEntity
  8
CENTER
100
AcDbLine
 10
-0.038667
 20
0.0
 30
0.0
 11
-0.183
 21
0.0
 31
0.0
  0
LINE
  5
85E
100
AcDbEntity
  8
CENTER
100
AcDbLine
 10
0.0
 20
-0.038667
 30
0.0
 11
0.0
 21
-0.183
 31
0.0
  0
ENDBLK
  5
860
100
AcDbEntity
  8
0
100
AcDbBlockEnd
  0
BLOCK
  5
874
100
AcDbEntity
  8
0
100
AcDbBlockBegin
  2
*U5
 70
    65
 10
0.0
 20
0.0
 30
0.0
  3
*U5
  1
*TB
  0
POLYLINE
  5
862
100
AcDbEntity
  8
FOOT-2
100
AcDb2dPolyline
 66
     1
 10
0.0
 20
0.0
 30
0.0
 70
     1
  0
VERTEX
  5
863
100
AcDbEntity
  8
FOOT-2
100
AcDbVertex
100
AcDb2dVertex
 10
0.0
 20
0.063
 30
0.0
 42
1.0
  0
VERTEX
  5
864
100
AcDbEntity
  8
FOOT-2
100
AcDbVertex
100
AcDb2dVertex
 10
0.0
 20
-0.063
 30
0.0
  0
VERTEX
  5
865
100
AcDbEntity
  8
FOOT-2
100
AcDbVertex
100
AcDb2dVertex
 10
0.176
 20
-0.063
 30
0.0
 42
1.0
  0
VERTEX
  5
866
100
AcDbEntity
  8
FOOT-2
100
AcDbVertex
100
AcDb2dVertex
 10
0.176
 20
0.063
 30
0.0
  0
SEQEND
  5
867
100
AcDbEntity
  8
FOOT-2
  0
LINE
  5
868
100
AcDbEntity
  8
CENTER
100
AcDbLine
 10
-0.021
 20
0.0
 30
0.0
 11
0.021
 21
0.0
 31
0.0
  0
LINE
  5
869
100
AcDbEntity
  8
CENTER
100
AcDbLine
 10
0.0
 20
-0.021
 30
0.0
 11
0.0
 21
0.021
 31
0.0
  0
LINE
  5
86A
100
AcDbEntity
  8
CENTER
100
AcDbLine
 10
0.042
 20
0.0
 30
0.0
 11
0.188
 21
0.0
 31
0.0
  0
LINE
  5
86B
100
AcDbEntity
  8
CENTER
100
AcDbLine
 10
0.0
 20
0.042
 30
0.0
 11
0.0
 21
0.188
 31
0.0
  0
LINE
  5
86C
100
AcDbEntity
  8
CENTER
100
AcDbLine
 10
-0.042
 20
0.0
 30
0.0
 11
-0.188
 21
0.0
 31
0.0
  0
LINE
  5
86D
100
AcDbEntity
  8
CENTER
100
AcDbLine
 10
0.0
 20
-0.042
 30
0.0
 11
0.0
 21
-0.188
 31
0.0
  0
LINE
  5
86E
100
AcDbEntity
  8
CENTER
100
AcDbLine
 10
0.155
 20
0.0
 30
0.0
 11
0.197
 21
0.0
 31
0.0
  0
LINE
  5
86F
100
AcDbEntity
  8
CENTER
100
AcDbLine
 10
0.176
 20
-0.021
 30
0.0
 11
0.176
 21
0.021
 31
0.0
  0
LINE
  5
870
100
AcDbEntity
  8
CENTER
100
AcDbLine
 10
0.218
 20
0.0
 30
0.0
 11
0.364
 21
0.0
 31
0.0
  0
LINE
  5
871
100
AcDbEntity
  8
CENTER
100
AcDbLine
 10
0.176
 20
0.042
 30
0.0
 11
0.176
 21
0.188
 31
0.0
  0
LINE
  5
872
100
AcDbEntity
  8
CENTER
100
AcDbLine
 10
0.134
 20
0.0
 30
0.0
 11
-0.012
 21
0.0
 31
0.0
  0
LINE
  5
873
100
AcDbEntity
  8
CENTER
100
AcDbLine
 10
0.176
 20
-0.042
 30
0.0
 11
0.176
 21
-0.188
 31
0.0
  0
ENDBLK
  5
875
100
AcDbEntity
  8
0
100
AcDbBlockEnd
  0
BLOCK
  5
917
100
AcDbEntity
  8
0
100
AcDbBlockBegin
  2
*X7
 70
    65
 10
0.0
 20
0.0
 30
0.0
  3
*X7
  1
*TB
  0
LINE
  5
919
100
AcDbEntity
  8
0
 62
     0
100
AcDbLine
 10
343.239006
 20
113.429302
 30
0.0
 11
344.001006
 21
114.191302
 31
0.0
  0
LINE
  5
91A
100
AcDbEntity
  8
0
 62
     0
100
AcDbLine
 10
341.471239
 20
113.429302
 30
0.0
 11
342.233239
 21
114.191302
 31
0.0
  0
LINE
  5
91B
100
AcDbEntity
  8
0
 62
     0
100
AcDbLine
 10
339.703472
 20
113.429302
 30
0.0
 11
340.465472
 21
114.191302
 31
0.0
  0
LINE
  5
91C
100
AcDbEntity
  8
0
 62
     0
100
AcDbLine
 10
337.935705
 20
113.429302
 30
0.0
 11
338.697705
 21
114.191302
 31
0.0
  0
LINE
  5
91D
100
AcDbEntity
  8
0
 62
     0
100
AcDbLine
 10
336.167938
 20
113.429302
 30
0.0
 11
336.929938
 21
114.191302
 31
0.0
  0
LINE
  5
91E
100
AcDbEntity
  8
0
 62
     0
100
AcDbLine
 10
334.400171
 20
113.429302
 30
0.0
 11
335.162171
 21
114.191302
 31
0.0
  0
LINE
  5
91F
100
AcDbEntity
  8
0
 62
     0
100
AcDbLine
 10
332.632404
 20
113.429302
 30
0.0
 11
333.394404
 21
114.191302
 31
0.0
  0
LINE
  5
920
100
AcDbEntity
  8
0
 62
     0
100
AcDbLine
 10
330.864637
 20
113.429302
 30
0.0
 11
331.626637
 21
114.191302
 31
0.0
  0
LINE
  5
921
100
AcDbEntity
  8
0
 62
     0
100
AcDbLine
 10
329.09687
 20
113.429302
 30
0.0
 11
329.85887
 21
114.191302
 31
0.0
  0
LINE
  5
922
100
AcDbEntity
  8
0
 62
     0
100
AcDbLine
 10
327.329104
 20
113.429302
 30
0.0
 11
328.091104
 21
114.191302
 31
0.0
  0
LINE
  5
923
100
AcDbEntity
  8
0
 62
     0
100
AcDbLine
 10
325.561337
 20
113.429302
 30
0.0
 11
326.323337
 21
114.191302
 31
0.0
  0
LINE
  5
924
100
AcDbEntity
  8
0
 62
     0
100
AcDbLine
 10
323.79357
 20
113.429302
 30
0.0
 11
324.55557
 21
114.191302
 31
0.0
  0
LINE
  5
925
100
AcDbEntity
  8
0
 62
     0
100
AcDbLine
 10
322.025803
 20
113.429302
 30
0.0
 11
322.787803
 21
114.191302
 31
0.0
  0
LINE
  5
926
100
AcDbEntity
  8
0
 62
     0
100
AcDbLine
 10
320.258036
 20
113.429302
 30
0.0
 11
321.020036
 21
114.191302
 31
0.0
  0
LINE
  5
927
100
AcDbEntity
  8
0
 62
     0
100
AcDbLine
 10
318.490269
 20
113.429302
 30
0.0
 11
319.252269
 21
114.191302
 31
0.0
  0
LINE
  5
928
100
AcDbEntity
  8
0
 62
     0
100
AcDbLine
 10
316.722502
 20
113.429302
 30
0.0
 11
317.484502
 21
114.191302
 31
0.0
  0
LINE
  5
929
100
AcDbEntity
  8
0
 62
     0
100
AcDbLine
 10
314.954735
 20
113.429302
 30
0.0
 11
315.716735
 21
114.191302
 31
0.0
  0
LINE
  5
92A
100
AcDbEntity
  8
0
 62
     0
100
AcDbLine
 10
313.186968
 20
113.429302
 30
0.0
 11
313.948968
 21
114.191302
 31
0.0
  0
LINE
  5
92B
100
AcDbEntity
  8
0
 62
     0
100
AcDbLine
 10
312.004691
 20
114.014792
 30
0.0
 11
312.181201
 21
114.191302
 31
0.0
  0
LINE
  5
92C
100
AcDbEntity
  8
0
 62
     0
100
AcDbLine
 10
345.006773
 20
113.429302
 30
0.0
 11
345.768773
 21
114.191302
 31
0.0
  0
LINE
  5
92D
100
AcDbEntity
  8
0
 62
     0
100
AcDbLine
 10
346.77454
 20
113.429302
 30
0.0
 11
347.53654
 21
114.191302
 31
0.0
  0
LINE
  5
92E
100
AcDbEntity
  8
0
 62
     0
100
AcDbLine
 10
348.542307
 20
113.429302
 30
0.0
 11
349.304307
 21
114.191302
 31
0.0
  0
LINE
  5
92F
100
AcDbEntity
  8
0
 62
     0
100
AcDbLine
 10
350.310074
 20
113.429302
 30
0.0
 11
351.072074
 21
114.191302
 31
0.0
  0
LINE
  5
930
100
AcDbEntity
  8
0
 62
     0
100
AcDbLine
 10
352.077841
 20
113.429302
 30
0.0
 11
352.839841
 21
114.191302
 31
0.0
  0
LINE
  5
931
100
AcDbEntity
  8
0
 62
     0
100
AcDbLine
 10
353.845608
 20
113.429302
 30
0.0
 11
354.607608
 21
114.191302
 31
0.0
  0
LINE
  5
932
100
AcDbEntity
  8
0
 62
     0
100
AcDbLine
 10
355.613375
 20
113.429302
 30
0.0
 11
356.375375
 21
114.191302
 31
0.0
  0
LINE
  5
933
100
AcDbEntity
  8
0
 62
     0
100
AcDbLine
 10
357.381142
 20
113.429302
 30
0.0
 11
358.143142
 21
114.191302
 31
0.0
  0
LINE
  5
934
100
AcDbEntity
  8
0
 62
     0
100
AcDbLine
 10
359.148909
 20
113.429302
 30
0.0
 11
359.910909
 21
114.191302
 31
0.0
  0
LINE
  5
935
100
AcDbEntity
  8
0
 62
     0
100
AcDbLine
 10
360.916676
 20
113.429302
 30
0.0
 11
361.678676
 21
114.191302
 31
0.0
  0
LINE
  5
936
100
AcDbEntity
  8
0
 62
     0
100
AcDbLine
 10
362.684443
 20
113.429302
 30
0.0
 11
363.446443
 21
114.191302
 31
0.0
  0
LINE
  5
937
100
AcDbEntity
  8
0
 62
     0
100
AcDbLine
 10
364.74877
 20
113.725863
 30
0.0
 11
366.073498
 21
115.050591
 31
0.0
  0
LINE
  5
938
100
AcDbEntity
  8
0
 62
     0
100
AcDbLine
 10
367.617888
 20
114.827214
 30
0.0
 11
368.942616
 21
116.151942
 31
0.0
  0
LINE
  5
939
100
AcDbEntity
  8
0
 62
     0
100
AcDbLine
 10
370.487007
 20
115.928565
 30
0.0
 11
371.811734
 21
117.253293
 31
0.0
  0
LINE
  5
93A
100
AcDbEntity
  8
0
 62
     0
100
AcDbLine
 10
373.356125
 20
117.029917
 30
0.0
 11
374.680853
 21
118.354645
 31
0.0
  0
LINE
  5
93B
100
AcDbEntity
  8
0
 62
     0
100
AcDbLine
 10
376.225243
 20
118.131268
 30
0.0
 11
377.549971
 21
119.455996
 31
0.0
  0
LINE
  5
93C
100
AcDbEntity
  8
0
 62
     0
100
AcDbLine
 10
379.094361
 20
119.232619
 30
0.0
 11
380.419089
 21
120.557347
 31
0.0
  0
LINE
  5
93D
100
AcDbEntity
  8
0
 62
     0
100
AcDbLine
 10
381.96348
 20
120.333971
 30
0.0
 11
382.627663
 21
120.998154
 31
0.0
  0
ENDBLK
  5
93E
100
AcDbEntity
  8
0
100
AcDbBlockEnd
  0
BLOCK
  5
9CE
100
AcDbEntity
  8
0
100
AcDbBlockBegin
  2
*D8
 70
    65
 10
0.0
 20
0.0
 30
0.0
  3
*D8
  1
*TB
  0
LINE
  5
9CF
100
AcDbEntity
  8
0
  6
BYBLOCK
 62
     0
100
AcDbLine
 10
384.850594
 20
123.429302
 30
0.0
 11
314.751807
 21
123.429302
 31
0.0
  0
LINE
  5
9D0
100
AcDbEntity
  8
0
  6
BYBLOCK
 62
     0
100
AcDbLine
 10
319.323807
 20
115.682302
 30
0.0
 11
319.323807
 21
111.110302
 31
0.0
  0
LINE
  5
9D1
100
AcDbEntity
  8
0
  6
BYBLOCK
 62
     0
100
AcDbLine
 10
319.323807
 20
128.001302
 30
0.0
 11
319.323807
 21
132.573302
 31
0.0
  0
LINE
  5
9D2
100
AcDbEntity
  8
0
  6
BYBLOCK
 62
     0
100
AcDbLine
 10
319.323807
 20
132.573302
 30
0.0
 11
323.895807
 21
132.573302
 31
0.0
  0
SOLID
  5
9D3
100
AcDbEntity
  8
0
  6
BYBLOCK
 62
     0
100
AcDbTrace
 10
318.561807
 20
115.682302
 30
0.0
 11
320.085807
 21
115.682302
 31
0.0
 12
319.323807
 22
120.254302
 32
0.0
 13
319.323807
 23
120.254302
 33
0.0
  0
SOLID
  5
9D4
100
AcDbEntity
  8
0
  6
BYBLOCK
 62
     0
100
AcDbTrace
 10
318.561807
 20
128.001302
 30
0.0
 11
320.085807
 21
128.001302
 31
0.0
 12
319.323807
 22
123.429302
 32
0.0
 13
319.323807
 23
123.429302
 33
0.0
  0
MTEXT
  5
9D5
100
AcDbEntity
  8
0
  6
BYBLOCK
 62
     0
100
AcDbMText
 10
350.184807
 20
132.573302
 30
0.0
 40
4.572
 41
0.0
 71
     5
 72
     1
  1
\A1;3.18mm[0.125"]
  0
POINT
  5
9D6
100
AcDbEntity
  8
DEFPOINTS
  6
BYBLOCK
 62
     0
100
AcDbPoint
 10
31.404849
 20
120.254302
 30
0.0
  0
POINT
  5
9D7
100
AcDbEntity
  8
DEFPOINTS
  6
BYBLOCK
 62
     0
100
AcDbPoint
 10
386.438094
 20
123.429302
 30
0.0
  0
POINT
  5
9D8
100
AcDbEntity
  8
DEFPOINTS
  6
BYBLOCK
 62
     0
100
AcDbPoint
 10
319.323807
 20
123.429302
 30
0.0
  0
ENDBLK
  5
9D9
100
AcDbEntity
  8
0
100
AcDbBlockEnd
  0
BLOCK
  5
9C2
100
AcDbEntity
  8
0
100
AcDbBlockBegin
  2
*D9
 70
    65
 10
0.0
 20
0.0
 30
0.0
  3
*D9
  1
*TB
  0
LINE
  5
9C3
100
AcDbEntity
  8
0
  6
BYBLOCK
 62
     0
100
AcDbLine
 10
399.760391
 20
118.493487
 30
0.0
 11
192.923679
 21
118.493487
 31
0.0
  0
LINE
  5
9C4
100
AcDbEntity
  8
0
  6
BYBLOCK
 62
     0
100
AcDbLine
 10
197.495679
 20
113.921487
 30
0.0
 11
197.495679
 21
109.349487
 31
0.0
  0
LINE
  5
9C5
100
AcDbEntity
  8
0
  6
BYBLOCK
 62
     0
100
AcDbLine
 10
197.495679
 20
124.826302
 30
0.0
 11
197.495679
 21
129.398302
 31
0.0
  0
LINE
  5
9C6
100
AcDbEntity
  8
0
  6
BYBLOCK
 62
     0
100
AcDbLine
 10
197.495679
 20
129.398302
 30
0.0
 11
202.067679
 21
129.398302
 31
0.0
  0
SOLID
  5
9C7
100
AcDbEntity
  8
0
  6
BYBLOCK
 62
     0
100
AcDbTrace
 10
196.733679
 20
113.921487
 30
0.0
 11
198.257679
 21
113.921487
 31
0.0
 12
197.495679
 22
118.493487
 32
0.0
 13
197.495679
 23
118.493487
 33
0.0
  0
SOLID
  5
9C8
100
AcDbEntity
  8
0
  6
BYBLOCK
 62
     0
100
AcDbTrace
 10
196.733679
 20
124.826302
 30
0.0
 11
198.257679
 21
124.826302
 31
0.0
 12
197.495679
 22
120.254302
 32
0.0
 13
197.495679
 23
120.254302
 33
0.0
  0
MTEXT
  5
9C9
100
AcDbEntity
  8
0
  6
BYBLOCK
 62
     0
100
AcDbMText
 10
254.264679
 20
129.398302
 30
0.0
 40
4.572
 41
0.0
 71
     5
 72
     1
  1
\A1;1.76mm±0.03mm[0.069"±0.001"]
  0
POINT
  5
9CA
100
AcDbEntity
  8
DEFPOINTS
  6
BYBLOCK
 62
     0
100
AcDbPoint
 10
401.347891
 20
118.493487
 30
0.0
  0
POINT
  5
9CB
100
AcDbEntity
  8
DEFPOINTS
  6
BYBLOCK
 62
     0
100
AcDbPoint
 10
31.404849
 20
120.254302
 30
0.0
  0
POINT
  5
9CC
100
AcDbEntity
  8
DEFPOINTS
  6
BYBLOCK
 62
     0
100
AcDbPoint
 10
197.495679
 20
120.254302
 30
0.0
  0
ENDBLK
  5
9CD
100
AcDbEntity
  8
0
100
AcDbBlockEnd
  0
BLOCK
  5
9E6
100
AcDbEntity
  8
0
100
AcDbBlockBegin
  2
*D10
 70
    65
 10
0.0
 20
0.0
 30
0.0
  3
*D10
  1
*TB
  0
LINE
  5
9E7
100
AcDbEntity
  8
0
  6
BYBLOCK
 62
     0
100
AcDbLine
 10
382.850594
 20
113.429302
 30
0.0
 11
61.81311
 21
113.429302
 31
0.0
  0
LINE
  5
9E8
100
AcDbEntity
  8
0
  6
BYBLOCK
 62
     0
100
AcDbLine
 10
66.38511
 20
108.857302
 30
0.0
 11
66.38511
 21
104.285302
 31
0.0
  0
LINE
  5
9E9
100
AcDbEntity
  8
0
  6
BYBLOCK
 62
     0
100
AcDbLine
 10
66.38511
 20
124.826302
 30
0.0
 11
66.38511
 21
129.398302
 31
0.0
  0
LINE
  5
9EA
100
AcDbEntity
  8
0
  6
BYBLOCK
 62
     0
100
AcDbLine
 10
66.38511
 20
129.398302
 30
0.0
 11
70.95711
 21
129.398302
 31
0.0
  0
SOLID
  5
9EB
100
AcDbEntity
  8
0
  6
BYBLOCK
 62
     0
100
AcDbTrace
 10
65.62311
 20
108.857302
 30
0.0
 11
67.14711
 21
108.857302
 31
0.0
 12
66.38511
 22
113.429302
 32
0.0
 13
66.38511
 23
113.429302
 33
0.0
  0
SOLID
  5
9EC
100
AcDbEntity
  8
0
  6
BYBLOCK
 62
     0
100
AcDbTrace
 10
65.62311
 20
124.826302
 30
0.0
 11
67.14711
 21
124.826302
 31
0.0
 12
66.38511
 22
120.254302
 32
0.0
 13
66.38511
 23
120.254302
 33
0.0
  0
MTEXT
  5
9ED
100
AcDbEntity
  8
0
  6
BYBLOCK
 62
     0
100
AcDbMText
 10
129.78351
 20
129.398302
 30
0.0
 40
4.572
 41
0.0
 71
     5
 72
     1
  1
\A1;6.82mm\S 0.00mm^ -0.05mm;{\o\l\H10.972800;[}0.269"\S 0.000"^ -0.002";{\o\l\H10.972800;]}
  0
POINT
  5
9EE
100
AcDbEntity
  8
DEFPOINTS
  6
BYBLOCK
 62
     0
100
AcDbPoint
 10
384.438094
 20
113.429302
 30
0.0
  0
POINT
  5
9EF
100
AcDbEntity
  8
DEFPOINTS
  6
BYBLOCK
 62
     0
100
AcDbPoint
 10
31.404849
 20
120.254302
 30
0.0
  0
POINT
  5
9F0
100
AcDbEntity
  8
DEFPOINTS
  6
BYBLOCK
 62
     0
100
AcDbPoint
 10
66.38511
 20
120.254302
 30
0.0
  0
ENDBLK
  5
9F1
100
AcDbEntity
  8
0
100
AcDbBlockEnd
  0
BLOCK
  5
A17
100
AcDbEntity
  8
0
100
AcDbBlockBegin
  2
*D11
 70
    65
 10
0.0
 20
0.0
 30
0.0
  3
*D11
  1
*TB
  0
LINE
  5
A18
100
AcDbEntity
  8
0
  6
BYBLOCK
 62
     0
100
AcDbLine
 10
403.488084
 20
114.747098
 30
0.0
 11
403.488084
 21
56.345835
 31
0.0
  0
LINE
  5
A19
100
AcDbEntity
  8
0
  6
BYBLOCK
 62
     0
100
AcDbLine
 10
447.775424
 20
60.917835
 30
0.0
 11
452.347424
 21
60.917835
 31
0.0
  0
LINE
  5
A1A
100
AcDbEntity
  8
0
  6
BYBLOCK
 62
     0
100
AcDbLine
 10
398.916084
 20
60.917835
 30
0.0
 11
394.344084
 21
60.917835
 31
0.0
  0
SOLID
  5
A1B
100
AcDbEntity
  8
0
  6
BYBLOCK
 62
     0
100
AcDbTrace
 10
447.775424
 20
61.679835
 30
0.0
 11
447.775424
 21
60.155835
 31
0.0
 12
443.203424
 22
60.917835
 32
0.0
 13
443.203424
 23
60.917835
 33
0.0
  0
SOLID
  5
A1C
100
AcDbEntity
  8
0
  6
BYBLOCK
 62
     0
100
AcDbTrace
 10
398.916084
 20
61.679835
 30
0.0
 11
398.916084
 21
60.155835
 31
0.0
 12
403.488084
 22
60.917835
 32
0.0
 13
403.488084
 23
60.917835
 33
0.0
  0
MTEXT
  5
A1D
100
AcDbEntity
  8
0
  6
BYBLOCK
 62
     0
100
AcDbMText
 10
339.099084
 20
60.917835
 30
0.0
 40
4.572
 41
0.0
 71
     5
 72
     1
  1
\A1;39.72mm±0.03mm[1.564"±0.001"]
  0
POINT
  5
A1E
100
AcDbEntity
  8
DEFPOINTS
  6
BYBLOCK
 62
     0
100
AcDbPoint
 10
443.203424
 20
29.889741
 30
0.0
  0
POINT
  5
A1F
100
AcDbEntity
  8
DEFPOINTS
  6
BYBLOCK
 62
     0
100
AcDbPoint
 10
403.488084
 20
116.334598
 30
0.0
  0
POINT
  5
A20
100
AcDbEntity
  8
DEFPOINTS
  6
BYBLOCK
 62
     0
100
AcDbPoint
 10
403.488084
 20
60.917835
 30
0.0
  0
ENDBLK
  5
A21
100
AcDbEntity
  8
0
100
AcDbBlockEnd
  0
BLOCK
  5
A23
100
AcDbEntity
  8
0
100
AcDbBlockBegin
  2
*D12
 70
    65
 10
0.0
 20
0.0
 30
0.0
  3
*D12
  1
*TB
  0
LINE
  5
A24
100
AcDbEntity
  8
0
  6
BYBLOCK
 62
     0
100
AcDbLine
 10
384.438094
 20
111.841802
 30
0.0
 11
384.438094
 21
68.224987
 31
0.0
  0
LINE
  5
A25
100
AcDbEntity
  8
0
  6
BYBLOCK
 62
     0
100
AcDbLine
 10
447.775424
 20
72.796987
 30
0.0
 11
452.347424
 21
72.796987
 31
0.0
  0
LINE
  5
A26
100
AcDbEntity
  8
0
  6
BYBLOCK
 62
     0
100
AcDbLine
 10
379.866094
 20
72.796987
 30
0.0
 11
375.294094
 21
72.796987
 31
0.0
  0
SOLID
  5
A27
100
AcDbEntity
  8
0
  6
BYBLOCK
 62
     0
100
AcDbTrace
 10
447.775424
 20
73.558987
 30
0.0
 11
447.775424
 21
72.034987
 31
0.0
 12
443.203424
 22
72.796987
 32
0.0
 13
443.203424
 23
72.796987
 33
0.0
  0
SOLID
  5
A28
100
AcDbEntity
  8
0
  6
BYBLOCK
 62
     0
100
AcDbTrace
 10
379.866094
 20
73.558987
 30
0.0
 11
379.866094
 21
72.034987
 31
0.0
 12
384.438094
 22
72.796987
 32
0.0
 13
384.438094
 23
72.796987
 33
0.0
  0
MTEXT
  5
A29
100
AcDbEntity
  8
0
  6
BYBLOCK
 62
     0
100
AcDbMText
 10
345.576094
 20
72.796987
 30
0.0
 40
4.572
 41
0.0
 71
     5
 72
     1
  1
\A1;58.77mm[2.314"]
  0
POINT
  5
A2A
100
AcDbEntity
  8
DEFPOINTS
  6
BYBLOCK
 62
     0
100
AcDbPoint
 10
443.203424
 20
29.889741
 30
0.0
  0
POINT
  5
A2B
100
AcDbEntity
  8
DEFPOINTS
  6
BYBLOCK
 62
     0
100
AcDbPoint
 10
384.438094
 20
113.429302
 30
0.0
  0
POINT
  5
A2C
100
AcDbEntity
  8
DEFPOINTS
  6
BYBLOCK
 62
     0
100
AcDbPoint
 10
384.438094
 20
72.796987
 30
0.0
  0
ENDBLK
  5
A2D
100
AcDbEntity
  8
0
100
AcDbBlockEnd
  0
BLOCK
  5
A54
100
AcDbEntity
  8
0
100
AcDbBlockBegin
  2
*D13
 70
    65
 10
0.0
 20
0.0
 30
0.0
  3
*D13
  1
*TB
  0
LINE
  5
A55
100
AcDbEntity
  8
0
  6
BYBLOCK
 62
     0
100
AcDbLine
 10
455.766888
 20
119.159424
 30
0.0
 11
476.807992
 21
64.345476
 31
0.0
  0
LINE
  5
A56
100
AcDbEntity
  8
0
  6
BYBLOCK
 62
     0
100
AcDbLine
 10
460.317543
 20
62.91266
 30
0.0
 11
456.049213
 21
61.274202
 31
0.0
  0
LINE
  5
A57
100
AcDbEntity
  8
0
  6
BYBLOCK
 62
     0
100
AcDbLine
 10
479.437863
 20
70.252264
 30
0.0
 11
483.706193
 21
71.890722
 31
0.0
  0
SOLID
  5
A58
100
AcDbEntity
  8
0
  6
BYBLOCK
 62
     0
100
AcDbTrace
 10
460.044466
 20
63.624049
 30
0.0
 11
460.590619
 21
62.201272
 31
0.0
 12
464.585872
 22
64.551119
 32
0.0
 13
464.585872
 23
64.551119
 33
0.0
  0
SOLID
  5
A59
100
AcDbEntity
  8
0
  6
BYBLOCK
 62
     0
100
AcDbTrace
 10
479.164787
 20
70.963652
 30
0.0
 11
479.710939
 21
69.540876
 31
0.0
 12
475.169533
 22
68.613806
 32
0.0
 13
475.169533
 23
68.613806
 33
0.0
  0
MTEXT
  5
A5A
100
AcDbEntity
  8
0
  6
BYBLOCK
 62
     0
100
AcDbMText
 10
510.383253
 20
82.131086
 30
0.0
 40
4.572
 41
0.0
 71
     5
 72
     1
  1
\A1;11.34mm[0.446"]
 11
0.93358
 21
0.358368
 31
0.0
  0
POINT
  5
A5B
100
AcDbEntity
  8
DEFPOINTS
  6
BYBLOCK
 62
     0
100
AcDbPoint
 10
476.005797
 20
34.801199
 30
0.0
 50
339.0
  0
POINT
  5
A5C
100
AcDbEntity
  8
DEFPOINTS
  6
BYBLOCK
 62
     0
100
AcDbPoint
 10
455.197979
 20
120.641483
 30
0.0
 50
339.0
  0
POINT
  5
A5D
100
AcDbEntity
  8
DEFPOINTS
  6
BYBLOCK
 62
     0
100
AcDbPoint
 10
475.169533
 20
68.613806
 30
0.0
 50
339.0
  0
ENDBLK
  5
A5E
100
AcDbEntity
  8
0
100
AcDbBlockEnd
  0
BLOCK
  5
A49
100
AcDbEntity
  8
0
100
AcDbBlockBegin
  2
*D14
 70
    65
 10
0.0
 20
0.0
 30
0.0
  3
*D14
  1
*TB
  0
LINE
  5
A4A
100
AcDbEntity
  8
0
  6
BYBLOCK
 62
     0
100
AcDbLine
 10
436.978515
 20
111.947243
 30
0.0
 11
462.189509
 21
46.270358
 31
0.0
  0
LINE
  5
A4B
100
AcDbEntity
  8
0
  6
BYBLOCK
 62
     0
100
AcDbLine
 10
456.282721
 20
48.90023
 30
0.0
 11
452.014392
 21
47.261772
 31
0.0
  0
LINE
  5
A4C
100
AcDbEntity
  8
0
  6
BYBLOCK
 62
     0
100
AcDbLine
 10
473.024093
 20
55.32664
 30
0.0
 11
477.292423
 21
56.965099
 31
0.0
  0
SOLID
  5
A4D
100
AcDbEntity
  8
0
  6
BYBLOCK
 62
     0
100
AcDbTrace
 10
456.009645
 20
49.611618
 30
0.0
 11
456.555798
 21
48.188842
 31
0.0
 12
460.551051
 22
50.538688
 32
0.0
 13
460.551051
 23
50.538688
 33
0.0
  0
SOLID
  5
A4E
100
AcDbEntity
  8
0
  6
BYBLOCK
 62
     0
100
AcDbTrace
 10
472.751017
 20
56.038029
 30
0.0
 11
473.297169
 21
54.615252
 31
0.0
 12
468.755763
 22
53.688182
 32
0.0
 13
468.755763
 23
53.688182
 33
0.0
  0
MTEXT
  5
A4F
100
AcDbEntity
  8
0
  6
BYBLOCK
 62
     0
100
AcDbMText
 10
503.258095
 20
66.932386
 30
0.0
 40
4.572
 41
0.0
 71
     5
 72
     1
  1
\A1;8.79mm[0.346"]
 11
0.93358
 21
0.358368
 31
0.0
  0
POINT
  5
A50
100
AcDbEntity
  8
DEFPOINTS
  6
BYBLOCK
 62
     0
100
AcDbPoint
 10
436.409606
 20
113.429302
 30
0.0
 50
339.0
  0
POINT
  5
A51
100
AcDbEntity
  8
DEFPOINTS
  6
BYBLOCK
 62
     0
100
AcDbPoint
 10
476.005797
 20
34.801199
 30
0.0
 50
339.0
  0
POINT
  5
A52
100
AcDbEntity
  8
DEFPOINTS
  6
BYBLOCK
 62
     0
100
AcDbPoint
 10
468.755763
 20
53.688182
 30
0.0
 50
339.0
  0
ENDBLK
  5
A53
100
AcDbEntity
  8
0
100
AcDbBlockEnd
  0
BLOCK
  5
DCB
100
AcDbEntity
  8
0
100
AcDbBlockBegin
  2
*D15
 70
    65
 10
0.0
 20
0.0
 30
0.0
  3
*D15
  1

  0
LINE
  5
DCC
100
AcDbEntity
  8
0
  6
BYBLOCK
 62
     0
100
AcDbLine
 10
419.561506
 20
190.703212
 30
0.0
 11
409.76622
 21
216.220804
 31
0.0
  0
LINE
  5
DCD
100
AcDbEntity
  8
0
  6
BYBLOCK
 62
     0
100
AcDbLine
 10
415.673008
 20
213.590933
 30
0.0
 11
419.941338
 21
215.229391
 31
0.0
  0
LINE
  5
DCE
100
AcDbEntity
  8
0
  6
BYBLOCK
 62
     0
100
AcDbLine
 10
404.172231
 20
209.176198
 30
0.0
 11
399.903901
 21
207.53774
 31
0.0
  0
SOLID
  5
DCF
100
AcDbEntity
  8
0
  6
BYBLOCK
 62
     0
100
AcDbTrace
 10
415.399932
 20
214.302321
 30
0.0
 11
415.946085
 21
212.879544
 31
0.0
 12
411.404679
 22
211.952474
 32
0.0
 13
411.404679
 23
211.952474
 33
0.0
  0
SOLID
  5
DD0
100
AcDbEntity
  8
0
  6
BYBLOCK
 62
     0
100
AcDbTrace
 10
403.899155
 20
209.887586
 30
0.0
 11
404.445308
 21
208.46481
 31
0.0
 12
408.440561
 22
210.814656
 32
0.0
 13
408.440561
 23
210.814656
 33
0.0
  0
MTEXT
  5
DD1
100
AcDbEntity
  8
0
  6
BYBLOCK
 62
     0
100
AcDbMText
 10
351.529498
 20
188.968546
 30
0.0
 40
4.572
 41
0.0
 71
     5
 72
     1
  1
\A1;3.18mm±0.03mm[0.125"±0.001"]
 11
0.93358
 21
0.358368
 31
0.0
  0
POINT
  5
DD2
100
AcDbEntity
  8
DEFPOINTS
  6
BYBLOCK
 62
     0
100
AcDbPoint
 10
420.130415
 20
189.221153
 30
0.0
 50
339.0
  0
POINT
  5
DD3
100
AcDbEntity
  8
DEFPOINTS
  6
BYBLOCK
 62
     0
100
AcDbPoint
 10
400.152251
 20
232.406442
 30
0.0
 50
339.0
  0
POINT
  5
DD4
100
AcDbEntity
  8
DEFPOINTS
  6
BYBLOCK
 62
     0
100
AcDbPoint
 10
408.440561
 20
210.814656
 30
0.0
 50
339.0
  0
ENDBLK
  5
DD5
100
AcDbEntity
  8
0
100
AcDbBlockEnd
  0
BLOCK
  5
CEE
100
AcDbEntity
  8
0
100
AcDbBlockBegin
  2
*D16
 70
    65
 10
0.0
 20
0.0
 30
0.0
  3
*D16
  1
*TB
  0
LINE
  5
CEF
100
AcDbEntity
  8
0
  6
BYBLOCK
 62
     0
100
AcDbLine
 10
381.275758
 20
291.577246
 30
0.0
 11
306.215435
 21
291.577246
 31
0.0
  0
LINE
  5
CF0
100
AcDbEntity
  8
0
  6
BYBLOCK
 62
     0
100
AcDbLine
 10
382.850594
 20
299.788943
 30
0.0
 11
306.215435
 21
299.788943
 31
0.0
  0
LINE
  5
CF1
100
AcDbEntity
  8
0
  6
BYBLOCK
 62
     0
100
AcDbLine
 10
310.787435
 20
287.005246
 30
0.0
 11
310.787435
 21
282.433246
 31
0.0
  0
LINE
  5
CF2
100
AcDbEntity
  8
0
  6
BYBLOCK
 62
     0
100
AcDbLine
 10
310.787435
 20
304.360943
 30
0.0
 11
310.787435
 21
308.932943
 31
0.0
  0
LINE
  5
CF3
100
AcDbEntity
  8
0
  6
BYBLOCK
 62
     0
100
AcDbLine
 10
310.787435
 20
308.932943
 30
0.0
 11
315.359435
 21
308.932943
 31
0.0
  0
SOLID
  5
CF4
100
AcDbEntity
  8
0
  6
BYBLOCK
 62
     0
100
AcDbTrace
 10
310.025435
 20
287.005246
 30
0.0
 11
311.549435
 21
287.005246
 31
0.0
 12
310.787435
 22
291.577246
 32
0.0
 13
310.787435
 23
291.577246
 33
0.0
  0
SOLID
  5
CF5
100
AcDbEntity
  8
0
  6
BYBLOCK
 62
     0
100
AcDbTrace
 10
310.025435
 20
304.360943
 30
0.0
 11
311.549435
 21
304.360943
 31
0.0
 12
310.787435
 22
299.788943
 32
0.0
 13
310.787435
 23
299.788943
 33
0.0
  0
MTEXT
  5
CF6
100
AcDbEntity
  8
0
  6
BYBLOCK
 62
     0
100
AcDbMText
 10
342.410435
 20
308.932943
 30
0.0
 40
4.572
 41
0.0
 71
     5
 72
     1
  1
\A1;8.21mm[0.323"]
  0
POINT
  5
CF7
100
AcDbEntity
  8
DEFPOINTS
  6
BYBLOCK
 62
     0
100
AcDbPoint
 10
382.863258
 20
291.577246
 30
0.0
  0
POINT
  5
CF8
100
AcDbEntity
  8
DEFPOINTS
  6
BYBLOCK
 62
     0
100
AcDbPoint
 10
384.438094
 20
299.788943
 30
0.0
  0
POINT
  5
CF9
100
AcDbEntity
  8
DEFPOINTS
  6
BYBLOCK
 62
     0
100
AcDbPoint
 10
310.787435
 20
299.788943
 30
0.0
  0
ENDBLK
  5
CFA
100
AcDbEntity
  8
0
100
AcDbBlockEnd
  0
BLOCK
  5
CE1
100
AcDbEntity
  8
0
100
AcDbBlockBegin
  2
*D17
 70
    65
 10
0.0
 20
0.0
 30
0.0
  3
*D17
  1
*TB
  0
LINE
  5
CE2
100
AcDbEntity
  8
0
  6
BYBLOCK
 62
     0
100
AcDbLine
 10
383.34541
 20
283.575572
 30
0.0
 11
187.488486
 21
283.575572
 31
0.0
  0
LINE
  5
CE3
100
AcDbEntity
  8
0
  6
BYBLOCK
 62
     0
100
AcDbLine
 10
382.850594
 20
299.788943
 30
0.0
 11
187.488486
 21
299.788943
 31
0.0
  0
LINE
  5
CE4
100
AcDbEntity
  8
0
  6
BYBLOCK
 62
     0
100
AcDbLine
 10
192.060486
 20
279.003572
 30
0.0
 11
192.060486
 21
274.431572
 31
0.0
  0
LINE
  5
CE5
100
AcDbEntity
  8
0
  6
BYBLOCK
 62
     0
100
AcDbLine
 10
192.060486
 20
304.360943
 30
0.0
 11
192.060486
 21
308.932943
 31
0.0
  0
LINE
  5
CE6
100
AcDbEntity
  8
0
  6
BYBLOCK
 62
     0
100
AcDbLine
 10
192.060486
 20
308.932943
 30
0.0
 11
196.632486
 21
308.932943
 31
0.0
  0
SOLID
  5
CE7
100
AcDbEntity
  8
0
  6
BYBLOCK
 62
     0
100
AcDbTrace
 10
191.298486
 20
279.003572
 30
0.0
 11
192.822486
 21
279.003572
 31
0.0
 12
192.060486
 22
283.575572
 32
0.0
 13
192.060486
 23
283.575572
 33
0.0
  0
SOLID
  5
CE8
100
AcDbEntity
  8
0
  6
BYBLOCK
 62
     0
100
AcDbTrace
 10
191.298486
 20
304.360943
 30
0.0
 11
192.822486
 21
304.360943
 31
0.0
 12
192.060486
 22
299.788943
 32
0.0
 13
192.060486
 23
299.788943
 33
0.0
  0
MTEXT
  5
CE9
100
AcDbEntity
  8
0
  6
BYBLOCK
 62
     0
100
AcDbMText
 10
250.734486
 20
308.932943
 30
0.0
 40
4.572
 41
0.0
 71
     5
 72
     1
  1
\A1;16.21mm±0.03mm[0.638"±0.001"]
  0
POINT
  5
CEA
100
AcDbEntity
  8
DEFPOINTS
  6
BYBLOCK
 62
     0
100
AcDbPoint
 10
384.93291
 20
283.575572
 30
0.0
  0
POINT
  5
CEB
100
AcDbEntity
  8
DEFPOINTS
  6
BYBLOCK
 62
     0
100
AcDbPoint
 10
384.438094
 20
299.788943
 30
0.0
  0
POINT
  5
CEC
100
AcDbEntity
  8
DEFPOINTS
  6
BYBLOCK
 62
     0
100
AcDbPoint
 10
192.060486
 20
299.788943
 30
0.0
  0
ENDBLK
  5
CED
100
AcDbEntity
  8
0
100
AcDbBlockEnd
  0
BLOCK
  5
CFB
100
AcDbEntity
  8
0
100
AcDbBlockBegin
  2
*D18
 70
    65
 10
0.0
 20
0.0
 30
0.0
  3
*D18
  1
*TB
  0
LINE
  5
CFC
100
AcDbEntity
  8
0
  6
BYBLOCK
 62
     0
100
AcDbLine
 10
382.850594
 20
267.362201
 30
0.0
 11
55.740186
 21
267.362201
 31
0.0
  0
LINE
  5
CFD
100
AcDbEntity
  8
0
  6
BYBLOCK
 62
     0
100
AcDbLine
 10
382.850594
 20
299.788943
 30
0.0
 11
55.740186
 21
299.788943
 31
0.0
  0
LINE
  5
CFE
100
AcDbEntity
  8
0
  6
BYBLOCK
 62
     0
100
AcDbLine
 10
60.312186
 20
271.934201
 30
0.0
 11
60.312186
 21
279.003572
 31
0.0
  0
LINE
  5
CFF
100
AcDbEntity
  8
0
  6
BYBLOCK
 62
     0
100
AcDbLine
 10
60.312186
 20
295.216943
 30
0.0
 11
60.312186
 21
288.147572
 31
0.0
  0
SOLID
  5
D00
100
AcDbEntity
  8
0
  6
BYBLOCK
 62
     0
100
AcDbTrace
 10
59.550186
 20
271.934201
 30
0.0
 11
61.074186
 21
271.934201
 31
0.0
 12
60.312186
 22
267.362201
 32
0.0
 13
60.312186
 23
267.362201
 33
0.0
  0
SOLID
  5
D01
100
AcDbEntity
  8
0
  6
BYBLOCK
 62
     0
100
AcDbTrace
 10
59.550186
 20
295.216943
 30
0.0
 11
61.074186
 21
295.216943
 31
0.0
 12
60.312186
 22
299.788943
 32
0.0
 13
60.312186
 23
299.788943
 33
0.0
  0
MTEXT
  5
D02
100
AcDbEntity
  8
0
  6
BYBLOCK
 62
     0
100
AcDbMText
 10
60.312186
 20
283.575572
 30
0.0
 40
4.572
 41
0.0
 71
     5
 72
     1
  1
\A1;32.43mm±0.03mm[1.277"±0.001"]
  0
POINT
  5
D03
100
AcDbEntity
  8
DEFPOINTS
  6
BYBLOCK
 62
     0
100
AcDbPoint
 10
384.438094
 20
267.362201
 30
0.0
  0
POINT
  5
D04
100
AcDbEntity
  8
DEFPOINTS
  6
BYBLOCK
 62
     0
100
AcDbPoint
 10
384.438094
 20
299.788943
 30
0.0
  0
POINT
  5
D05
100
AcDbEntity
  8
DEFPOINTS
  6
BYBLOCK
 62
     0
100
AcDbPoint
 10
60.312186
 20
299.788943
 30
0.0
  0
ENDBLK
  5
D06
100
AcDbEntity
  8
0
100
AcDbBlockEnd
  0
BLOCK
  5
CC9
100
AcDbEntity
  8
0
100
AcDbBlockBegin
  2
*D19
 70
    65
 10
0.0
 20
0.0
 30
0.0
  3
*D19
  1
*TB
  0
LINE
  5
CCA
100
AcDbEntity
  8
0
  6
BYBLOCK
 62
     0
100
AcDbLine
 10
381.275758
 20
275.573898
 30
0.0
 11
141.230807
 21
275.573898
 31
0.0
  0
LINE
  5
CCB
100
AcDbEntity
  8
0
  6
BYBLOCK
 62
     0
100
AcDbLine
 10
382.850594
 20
299.788943
 30
0.0
 11
141.230807
 21
299.788943
 31
0.0
  0
LINE
  5
CCC
100
AcDbEntity
  8
0
  6
BYBLOCK
 62
     0
100
AcDbLine
 10
145.802807
 20
280.145898
 30
0.0
 11
145.802807
 21
283.109421
 31
0.0
  0
LINE
  5
CCD
100
AcDbEntity
  8
0
  6
BYBLOCK
 62
     0
100
AcDbLine
 10
145.802807
 20
295.216943
 30
0.0
 11
145.802807
 21
292.253421
 31
0.0
  0
SOLID
  5
CCE
100
AcDbEntity
  8
0
  6
BYBLOCK
 62
     0
100
AcDbTrace
 10
145.040807
 20
280.145898
 30
0.0
 11
146.564807
 21
280.145898
 31
0.0
 12
145.802807
 22
275.573898
 32
0.0
 13
145.802807
 23
275.573898
 33
0.0
  0
SOLID
  5
CCF
100
AcDbEntity
  8
0
  6
BYBLOCK
 62
     0
100
AcDbTrace
 10
145.040807
 20
295.216943
 30
0.0
 11
146.564807
 21
295.216943
 31
0.0
 12
145.802807
 22
299.788943
 32
0.0
 13
145.802807
 23
299.788943
 33
0.0
  0
MTEXT
  5
CD0
100
AcDbEntity
  8
0
  6
BYBLOCK
 62
     0
100
AcDbMText
 10
145.802807
 20
287.681421
 30
0.0
 40
4.572
 41
0.0
 71
     5
 72
     1
  1
\A1;24.22mm[0.953"]
  0
POINT
  5
CD1
100
AcDbEntity
  8
DEFPOINTS
  6
BYBLOCK
 62
     0
100
AcDbPoint
 10
382.863258
 20
275.573898
 30
0.0
  0
POINT
  5
CD2
100
AcDbEntity
  8
DEFPOINTS
  6
BYBLOCK
 62
     0
100
AcDbPoint
 10
384.438094
 20
299.788943
 30
0.0
  0
POINT
  5
CD3
100
AcDbEntity
  8
DEFPOINTS
  6
BYBLOCK
 62
     0
100
AcDbPoint
 10
145.802807
 20
299.788943
 30
0.0
  0
ENDBLK
  5
CD4
100
AcDbEntity
  8
0
100
AcDbBlockEnd
  0
BLOCK
  5
D2D
100
AcDbEntity
  8
0
100
AcDbBlockBegin
  2
*D20
 70
    65
 10
0.0
 20
0.0
 30
0.0
  3
*D20
  1
*TB
  0
LINE
  5
D2E
100
AcDbEntity
  8
0
  6
BYBLOCK
 62
     0
100
AcDbLine
 10
398.901021
 20
293.078386
 30
0.0
 11
481.458835
 21
293.078386
 31
0.0
  0
LINE
  5
D2F
100
AcDbEntity
  8
0
  6
BYBLOCK
 62
     0
100
AcDbLine
 10
456.785479
 20
299.788943
 30
0.0
 11
481.458835
 21
299.788943
 31
0.0
  0
LINE
  5
D30
100
AcDbEntity
  8
0
  6
BYBLOCK
 62
     0
100
AcDbLine
 10
476.886835
 20
288.506386
 30
0.0
 11
476.886835
 21
283.934386
 31
0.0
  0
LINE
  5
D31
100
AcDbEntity
  8
0
  6
BYBLOCK
 62
     0
100
AcDbLine
 10
476.886835
 20
304.360943
 30
0.0
 11
476.886835
 21
308.932943
 31
0.0
  0
LINE
  5
D32
100
AcDbEntity
  8
0
  6
BYBLOCK
 62
     0
100
AcDbLine
 10
476.886835
 20
308.932943
 30
0.0
 11
481.458835
 21
308.932943
 31
0.0
  0
SOLID
  5
D33
100
AcDbEntity
  8
0
  6
BYBLOCK
 62
     0
100
AcDbTrace
 10
476.124835
 20
288.506386
 30
0.0
 11
477.648835
 21
288.506386
 31
0.0
 12
476.886835
 22
293.078386
 32
0.0
 13
476.886835
 23
293.078386
 33
0.0
  0
SOLID
  5
D34
100
AcDbEntity
  8
0
  6
BYBLOCK
 62
     0
100
AcDbTrace
 10
476.124835
 20
304.360943
 30
0.0
 11
477.648835
 21
304.360943
 31
0.0
 12
476.886835
 22
299.788943
 32
0.0
 13
476.886835
 23
299.788943
 33
0.0
  0
MTEXT
  5
D35
100
AcDbEntity
  8
0
  6
BYBLOCK
 62
     0
100
AcDbMText
 10
508.509835
 20
308.932943
 30
0.0
 40
4.572
 41
0.0
 71
     5
 72
     1
  1
\A1;6.71mm[0.264"]
  0
POINT
  5
D36
100
AcDbEntity
  8
DEFPOINTS
  6
BYBLOCK
 62
     0
100
AcDbPoint
 10
397.313521
 20
293.078386
 30
0.0
  0
POINT
  5
D37
100
AcDbEntity
  8
DEFPOINTS
  6
BYBLOCK
 62
     0
100
AcDbPoint
 10
455.197979
 20
299.788943
 30
0.0
  0
POINT
  5
D38
100
AcDbEntity
  8
DEFPOINTS
  6
BYBLOCK
 62
     0
100
AcDbPoint
 10
476.886835
 20
299.788943
 30
0.0
  0
ENDBLK
  5
D39
100
AcDbEntity
  8
0
100
AcDbBlockEnd
  0
BLOCK
  5
D07
100
AcDbEntity
  8
0
100
AcDbBlockBegin
  2
*D21
 70
    65
 10
0.0
 20
0.0
 30
0.0
  3
*D21
  1
*TB
  0
LINE
  5
D08
100
AcDbEntity
  8
0
  6
BYBLOCK
 62
     0
100
AcDbLine
 10
398.901021
 20
290.076106
 30
0.0
 11
548.602415
 21
290.076106
 31
0.0
  0
LINE
  5
D09
100
AcDbEntity
  8
0
  6
BYBLOCK
 62
     0
100
AcDbLine
 10
456.785479
 20
299.788943
 30
0.0
 11
548.602415
 21
299.788943
 31
0.0
  0
LINE
  5
D0A
100
AcDbEntity
  8
0
  6
BYBLOCK
 62
     0
100
AcDbLine
 10
544.030415
 20
285.504106
 30
0.0
 11
544.030415
 21
280.932106
 31
0.0
  0
LINE
  5
D0B
100
AcDbEntity
  8
0
  6
BYBLOCK
 62
     0
100
AcDbLine
 10
544.030415
 20
304.360943
 30
0.0
 11
544.030415
 21
308.932943
 31
0.0
  0
LINE
  5
D0C
100
AcDbEntity
  8
0
  6
BYBLOCK
 62
     0
100
AcDbLine
 10
544.030415
 20
308.932943
 30
0.0
 11
548.602415
 21
308.932943
 31
0.0
  0
SOLID
  5
D0D
100
AcDbEntity
  8
0
  6
BYBLOCK
 62
     0
100
AcDbTrace
 10
543.268415
 20
285.504106
 30
0.0
 11
544.792415
 21
285.504106
 31
0.0
 12
544.030415
 22
290.076106
 32
0.0
 13
544.030415
 23
290.076106
 33
0.0
  0
SOLID
  5
D0E
100
AcDbEntity
  8
0
  6
BYBLOCK
 62
     0
100
AcDbTrace
 10
543.268415
 20
304.360943
 30
0.0
 11
544.792415
 21
304.360943
 31
0.0
 12
544.030415
 22
299.788943
 32
0.0
 13
544.030415
 23
299.788943
 33
0.0
  0
MTEXT
  5
D0F
100
AcDbEntity
  8
0
  6
BYBLOCK
 62
     0
100
AcDbMText
 10
575.653415
 20
308.932943
 30
0.0
 40
4.572
 41
0.0
 71
     5
 72
     1
  1
\A1;9.71mm[0.382"]
  0
POINT
  5
D10
100
AcDbEntity
  8
DEFPOINTS
  6
BYBLOCK
 62
     0
100
AcDbPoint
 10
397.313521
 20
290.076106
 30
0.0
  0
POINT
  5
D11
100
AcDbEntity
  8
DEFPOINTS
  6
BYBLOCK
 62
     0
100
AcDbPoint
 10
455.197979
 20
299.788943
 30
0.0
  0
POINT
  5
D12
100
AcDbEntity
  8
DEFPOINTS
  6
BYBLOCK
 62
     0
100
AcDbPoint
 10
544.030415
 20
299.788943
 30
0.0
  0
ENDBLK
  5
D13
100
AcDbEntity
  8
0
100
AcDbBlockEnd
  0
BLOCK
  5
D14
100
AcDbEntity
  8
0
100
AcDbBlockBegin
  2
*D22
 70
    65
 10
0.0
 20
0.0
 30
0.0
  3
*D22
  1
*TB
  0
LINE
  5
D15
100
AcDbEntity
  8
0
  6
BYBLOCK
 62
     0
100
AcDbLine
 10
398.901021
 20
277.075038
 30
0.0
 11
612.440971
 21
277.075038
 31
0.0
  0
LINE
  5
D16
100
AcDbEntity
  8
0
  6
BYBLOCK
 62
     0
100
AcDbLine
 10
456.785479
 20
299.788943
 30
0.0
 11
612.440971
 21
299.788943
 31
0.0
  0
LINE
  5
D17
100
AcDbEntity
  8
0
  6
BYBLOCK
 62
     0
100
AcDbLine
 10
607.868971
 20
272.503038
 30
0.0
 11
607.868971
 21
267.931038
 31
0.0
  0
LINE
  5
D18
100
AcDbEntity
  8
0
  6
BYBLOCK
 62
     0
100
AcDbLine
 10
607.868971
 20
304.360943
 30
0.0
 11
607.868971
 21
308.932943
 31
0.0
  0
LINE
  5
D19
100
AcDbEntity
  8
0
  6
BYBLOCK
 62
     0
100
AcDbLine
 10
607.868971
 20
308.932943
 30
0.0
 11
612.440971
 21
308.932943
 31
0.0
  0
SOLID
  5
D1A
100
AcDbEntity
  8
0
  6
BYBLOCK
 62
     0
100
AcDbTrace
 10
607.106971
 20
272.503038
 30
0.0
 11
608.630971
 21
272.503038
 31
0.0
 12
607.868971
 22
277.075038
 32
0.0
 13
607.868971
 23
277.075038
 33
0.0
  0
SOLID
  5
D1B
100
AcDbEntity
  8
0
  6
BYBLOCK
 62
     0
100
AcDbTrace
 10
607.106971
 20
304.360943
 30
0.0
 11
608.630971
 21
304.360943
 31
0.0
 12
607.868971
 22
299.788943
 32
0.0
 13
607.868971
 23
299.788943
 33
0.0
  0
MTEXT
  5
D1C
100
AcDbEntity
  8
0
  6
BYBLOCK
 62
     0
100
AcDbMText
 10
641.777971
 20
308.932943
 30
0.0
 40
4.572
 41
0.0
 71
     5
 72
     1
  1
\A1;22.71mm[0.894"]
  0
POINT
  5
D1D
100
AcDbEntity
  8
DEFPOINTS
  6
BYBLOCK
 62
     0
100
AcDbPoint
 10
397.313521
 20
277.075038
 30
0.0
  0
POINT
  5
D1E
100
AcDbEntity
  8
DEFPOINTS
  6
BYBLOCK
 62
     0
100
AcDbPoint
 10
455.197979
 20
299.788943
 30
0.0
  0
POINT
  5
D1F
100
AcDbEntity
  8
DEFPOINTS
  6
BYBLOCK
 62
     0
100
AcDbPoint
 10
607.868971
 20
299.788943
 30
0.0
  0
ENDBLK
  5
D20
100
AcDbEntity
  8
0
100
AcDbBlockEnd
  0
BLOCK
  5
D21
100
AcDbEntity
  8
0
100
AcDbBlockBegin
  2
*D23
 70
    65
 10
0.0
 20
0.0
 30
0.0
  3
*D23
  1
*TB
  0
LINE
  5
D22
100
AcDbEntity
  8
0
  6
BYBLOCK
 62
     0
100
AcDbLine
 10
398.901021
 20
274.072758
 30
0.0
 11
681.602494
 21
274.072758
 31
0.0
  0
LINE
  5
D23
100
AcDbEntity
  8
0
  6
BYBLOCK
 62
     0
100
AcDbLine
 10
456.785479
 20
299.788943
 30
0.0
 11
681.602494
 21
299.788943
 31
0.0
  0
LINE
  5
D24
100
AcDbEntity
  8
0
  6
BYBLOCK
 62
     0
100
AcDbLine
 10
677.030494
 20
278.644758
 30
0.0
 11
677.030494
 21
282.358851
 31
0.0
  0
LINE
  5
D25
100
AcDbEntity
  8
0
  6
BYBLOCK
 62
     0
100
AcDbLine
 10
677.030494
 20
295.216943
 30
0.0
 11
677.030494
 21
291.502851
 31
0.0
  0
SOLID
  5
D26
100
AcDbEntity
  8
0
  6
BYBLOCK
 62
     0
100
AcDbTrace
 10
676.268494
 20
278.644758
 30
0.0
 11
677.792494
 21
278.644758
 31
0.0
 12
677.030494
 22
274.072758
 32
0.0
 13
677.030494
 23
274.072758
 33
0.0
  0
SOLID
  5
D27
100
AcDbEntity
  8
0
  6
BYBLOCK
 62
     0
100
AcDbTrace
 10
676.268494
 20
295.216943
 30
0.0
 11
677.792494
 21
295.216943
 31
0.0
 12
677.030494
 22
299.788943
 32
0.0
 13
677.030494
 23
299.788943
 33
0.0
  0
MTEXT
  5
D28
100
AcDbEntity
  8
0
  6
BYBLOCK
 62
     0
100
AcDbMText
 10
677.030494
 20
286.930851
 30
0.0
 40
4.572
 41
0.0
 71
     5
 72
     1
  1
\A1;25.72mm[1.012"]
  0
POINT
  5
D29
100
AcDbEntity
  8
DEFPOINTS
  6
BYBLOCK
 62
     0
100
AcDbPoint
 10
397.313521
 20
274.072758
 30
0.0
  0
POINT
  5
D2A
100
AcDbEntity
  8
DEFPOINTS
  6
BYBLOCK
 62
     0
100
AcDbPoint
 10
455.197979
 20
299.788943
 30
0.0
  0
POINT
  5
D2B
100
AcDbEntity
  8
DEFPOINTS
  6
BYBLOCK
 62
     0
100
AcDbPoint
 10
677.030494
 20
299.788943
 30
0.0
  0
ENDBLK
  5
D2C
100
AcDbEntity
  8
0
100
AcDbBlockEnd
  0
BLOCK
  5
B74
100
AcDbEntity
  8
0
100
AcDbBlockBegin
  2
*D24
 70
    65
 10
0.0
 20
0.0
 30
0.0
  3
*D24
  1
*TB
  0
LINE
  5
B75
100
AcDbEntity
  8
0
  6
BYBLOCK
 62
     0
100
AcDbLine
 10
456.785479
 20
268.124201
 30
0.0
 11
569.242933
 21
268.124201
 31
0.0
  0
LINE
  5
B76
100
AcDbEntity
  8
0
  6
BYBLOCK
 62
     0
100
AcDbLine
 10
456.785479
 20
267.362201
 30
0.0
 11
569.242933
 21
267.362201
 31
0.0
  0
LINE
  5
B77
100
AcDbEntity
  8
0
  6
BYBLOCK
 62
     0
100
AcDbLine
 10
564.670933
 20
272.696201
 30
0.0
 11
564.670933
 21
277.268201
 31
0.0
  0
LINE
  5
B78
100
AcDbEntity
  8
0
  6
BYBLOCK
 62
     0
100
AcDbLine
 10
564.670933
 20
262.790201
 30
0.0
 11
564.670933
 21
258.218201
 31
0.0
  0
LINE
  5
B79
100
AcDbEntity
  8
0
  6
BYBLOCK
 62
     0
100
AcDbLine
 10
564.670933
 20
258.218201
 30
0.0
 11
560.098933
 21
258.218201
 31
0.0
  0
SOLID
  5
B7A
100
AcDbEntity
  8
0
  6
BYBLOCK
 62
     0
100
AcDbTrace
 10
563.908933
 20
272.696201
 30
0.0
 11
565.432933
 21
272.696201
 31
0.0
 12
564.670933
 22
268.124201
 32
0.0
 13
564.670933
 23
268.124201
 33
0.0
  0
SOLID
  5
B7B
100
AcDbEntity
  8
0
  6
BYBLOCK
 62
     0
100
AcDbTrace
 10
563.908933
 20
262.790201
 30
0.0
 11
565.432933
 21
262.790201
 31
0.0
 12
564.670933
 22
267.362201
 32
0.0
 13
564.670933
 23
267.362201
 33
0.0
  0
MTEXT
  5
B7C
100
AcDbEntity
  8
0
  6
BYBLOCK
 62
     0
100
AcDbMText
 10
507.901933
 20
258.218201
 30
0.0
 40
4.572
 41
0.0
 71
     5
 72
     1
  1
\A1;{0.76mm±0.03mm[0.030"±0.001"]}\P{WALL THICKNESS}
  0
POINT
  5
B7D
100
AcDbEntity
  8
DEFPOINTS
  6
BYBLOCK
 62
     0
100
AcDbPoint
 10
455.197979
 20
268.124201
 30
0.0
  0
POINT
  5
B7E
100
AcDbEntity
  8
DEFPOINTS
  6
BYBLOCK
 62
     0
100
AcDbPoint
 10
455.197979
 20
267.362201
 30
0.0
  0
POINT
  5
B7F
100
AcDbEntity
  8
DEFPOINTS
  6
BYBLOCK
 62
     0
100
AcDbPoint
 10
564.670933
 20
267.362201
 30
0.0
  0
ENDBLK
  5
B80
100
AcDbEntity
  8
0
100
AcDbBlockEnd
  0
BLOCK
  5
C44
100
AcDbEntity
  8
0
100
AcDbBlockBegin
  2
*D25
 70
    65
 10
0.0
 20
0.0
 30
0.0
  3
*D25
  1
*TB
  0
LINE
  5
C45
100
AcDbEntity
  8
0
  6
BYBLOCK
 62
     0
100
AcDbLine
 10
387.638458
 20
297.939946
 30
0.0
 11
387.638458
 21
337.124802
 31
0.0
  0
LINE
  5
C46
100
AcDbEntity
  8
0
  6
BYBLOCK
 62
     0
100
AcDbLine
 10
447.775424
 20
332.552802
 30
0.0
 11
452.347424
 21
332.552802
 31
0.0
  0
LINE
  5
C47
100
AcDbEntity
  8
0
  6
BYBLOCK
 62
     0
100
AcDbLine
 10
383.066458
 20
332.552802
 30
0.0
 11
378.494458
 21
332.552802
 31
0.0
  0
SOLID
  5
C48
100
AcDbEntity
  8
0
  6
BYBLOCK
 62
     0
100
AcDbTrace
 10
447.775424
 20
333.314802
 30
0.0
 11
447.775424
 21
331.790802
 31
0.0
 12
443.203424
 22
332.552802
 32
0.0
 13
443.203424
 23
332.552802
 33
0.0
  0
SOLID
  5
C49
100
AcDbEntity
  8
0
  6
BYBLOCK
 62
     0
100
AcDbTrace
 10
383.066458
 20
333.314802
 30
0.0
 11
383.066458
 21
331.790802
 31
0.0
 12
387.638458
 22
332.552802
 32
0.0
 13
387.638458
 23
332.552802
 33
0.0
  0
MTEXT
  5
C4A
100
AcDbEntity
  8
0
  6
BYBLOCK
 62
     0
100
AcDbMText
 10
348.776458
 20
332.552802
 30
0.0
 40
4.572
 41
0.0
 71
     5
 72
     1
  1
\A1;55.56mm[2.188"]
  0
POINT
  5
C4B
100
AcDbEntity
  8
DEFPOINTS
  6
BYBLOCK
 62
     0
100
AcDbPoint
 10
443.203424
 20
471.850262
 30
0.0
  0
POINT
  5
C4C
100
AcDbEntity
  8
DEFPOINTS
  6
BYBLOCK
 62
     0
100
AcDbPoint
 10
387.638458
 20
296.352446
 30
0.0
  0
POINT
  5
C4D
100
AcDbEntity
  8
DEFPOINTS
  6
BYBLOCK
 62
     0
100
AcDbPoint
 10
387.638458
 20
332.552802
 30
0.0
  0
ENDBLK
  5
C4E
100
AcDbEntity
  8
0
100
AcDbBlockEnd
  0
BLOCK
  5
C0D
100
AcDbEntity
  8
0
100
AcDbBlockBegin
  2
*D26
 70
    65
 10
0.0
 20
0.0
 30
0.0
  3
*D26
  1
*TB
  0
LINE
  5
C0E
100
AcDbEntity
  8
0
  6
BYBLOCK
 62
     0
100
AcDbLine
 10
389.298535
 20
289.528697
 30
0.0
 11
389.298535
 21
348.318873
 31
0.0
  0
LINE
  5
C0F
100
AcDbEntity
  8
0
  6
BYBLOCK
 62
     0
100
AcDbLine
 10
447.775424
 20
343.746873
 30
0.0
 11
452.347424
 21
343.746873
 31
0.0
  0
LINE
  5
C10
100
AcDbEntity
  8
0
  6
BYBLOCK
 62
     0
100
AcDbLine
 10
384.726535
 20
343.746873
 30
0.0
 11
380.154535
 21
343.746873
 31
0.0
  0
SOLID
  5
C11
100
AcDbEntity
  8
0
  6
BYBLOCK
 62
     0
100
AcDbTrace
 10
447.775424
 20
344.508873
 30
0.0
 11
447.775424
 21
342.984873
 31
0.0
 12
443.203424
 22
343.746873
 32
0.0
 13
443.203424
 23
343.746873
 33
0.0
  0
SOLID
  5
C12
100
AcDbEntity
  8
0
  6
BYBLOCK
 62
     0
100
AcDbTrace
 10
384.726535
 20
344.508873
 30
0.0
 11
384.726535
 21
342.984873
 31
0.0
 12
389.298535
 22
343.746873
 32
0.0
 13
389.298535
 23
343.746873
 33
0.0
  0
MTEXT
  5
C13
100
AcDbEntity
  8
0
  6
BYBLOCK
 62
     0
100
AcDbMText
 10
325.290535
 20
343.746873
 30
0.0
 40
4.572
 41
0.0
 71
     5
 72
     1
  1
\A1;53.90mm±0.03mm[2.122"±0.001"]
  0
POINT
  5
C14
100
AcDbEntity
  8
DEFPOINTS
  6
BYBLOCK
 62
     0
100
AcDbPoint
 10
443.203424
 20
471.850262
 30
0.0
  0
POINT
  5
C15
100
AcDbEntity
  8
DEFPOINTS
  6
BYBLOCK
 62
     0
100
AcDbPoint
 10
389.298535
 20
287.941197
 30
0.0
  0
POINT
  5
C16
100
AcDbEntity
  8
DEFPOINTS
  6
BYBLOCK
 62
     0
100
AcDbPoint
 10
389.298535
 20
343.746873
 30
0.0
  0
ENDBLK
  5
C17
100
AcDbEntity
  8
0
100
AcDbBlockEnd
  0
BLOCK
  5
C39
100
AcDbEntity
  8
0
100
AcDbBlockBegin
  2
*D27
 70
    65
 10
0.0
 20
0.0
 30
0.0
  3
*D27
  1
*TB
  0
LINE
  5
C3A
100
AcDbEntity
  8
0
  6
BYBLOCK
 62
     0
100
AcDbLine
 10
392.108858
 20
297.939946
 30
0.0
 11
392.108858
 21
359.046525
 31
0.0
  0
LINE
  5
C3B
100
AcDbEntity
  8
0
  6
BYBLOCK
 62
     0
100
AcDbLine
 10
447.775424
 20
354.474525
 30
0.0
 11
452.347424
 21
354.474525
 31
0.0
  0
LINE
  5
C3C
100
AcDbEntity
  8
0
  6
BYBLOCK
 62
     0
100
AcDbLine
 10
387.536858
 20
354.474525
 30
0.0
 11
382.964858
 21
354.474525
 31
0.0
  0
SOLID
  5
C3D
100
AcDbEntity
  8
0
  6
BYBLOCK
 62
     0
100
AcDbTrace
 10
447.775424
 20
355.236525
 30
0.0
 11
447.775424
 21
353.712525
 31
0.0
 12
443.203424
 22
354.474525
 32
0.0
 13
443.203424
 23
354.474525
 33
0.0
  0
SOLID
  5
C3E
100
AcDbEntity
  8
0
  6
BYBLOCK
 62
     0
100
AcDbTrace
 10
387.536858
 20
355.236525
 30
0.0
 11
387.536858
 21
353.712525
 31
0.0
 12
392.108858
 22
354.474525
 32
0.0
 13
392.108858
 23
354.474525
 33
0.0
  0
MTEXT
  5
C3F
100
AcDbEntity
  8
0
  6
BYBLOCK
 62
     0
100
AcDbMText
 10
354.770858
 20
354.474525
 30
0.0
 40
4.572
 41
0.0
 71
     5
 72
     1
  1
\A1;51.09mm[2.012"]
  0
POINT
  5
C40
100
AcDbEntity
  8
DEFPOINTS
  6
BYBLOCK
 62
     0
100
AcDbPoint
 10
443.203424
 20
471.850262
 30
0.0
  0
POINT
  5
C41
100
AcDbEntity
  8
DEFPOINTS
  6
BYBLOCK
 62
     0
100
AcDbPoint
 10
392.108858
 20
296.352446
 30
0.0
  0
POINT
  5
C42
100
AcDbEntity
  8
DEFPOINTS
  6
BYBLOCK
 62
     0
100
AcDbPoint
 10
392.108858
 20
354.474525
 30
0.0
  0
ENDBLK
  5
C43
100
AcDbEntity
  8
0
100
AcDbBlockEnd
  0
BLOCK
  5
C2E
100
AcDbEntity
  8
0
100
AcDbBlockBegin
  2
*D28
 70
    65
 10
0.0
 20
0.0
 30
0.0
  3
*D28
  1
*TB
  0
LINE
  5
C2F
100
AcDbEntity
  8
0
  6
BYBLOCK
 62
     0
100
AcDbLine
 10
394.313781
 20
294.165506
 30
0.0
 11
394.313781
 21
369.556667
 31
0.0
  0
LINE
  5
C30
100
AcDbEntity
  8
0
  6
BYBLOCK
 62
     0
100
AcDbLine
 10
447.775424
 20
364.984667
 30
0.0
 11
452.347424
 21
364.984667
 31
0.0
  0
LINE
  5
C31
100
AcDbEntity
  8
0
  6
BYBLOCK
 62
     0
100
AcDbLine
 10
389.741781
 20
364.984667
 30
0.0
 11
385.169781
 21
364.984667
 31
0.0
  0
SOLID
  5
C32
100
AcDbEntity
  8
0
  6
BYBLOCK
 62
     0
100
AcDbTrace
 10
447.775424
 20
365.746667
 30
0.0
 11
447.775424
 21
364.222667
 31
0.0
 12
443.203424
 22
364.984667
 32
0.0
 13
443.203424
 23
364.984667
 33
0.0
  0
SOLID
  5
C33
100
AcDbEntity
  8
0
  6
BYBLOCK
 62
     0
100
AcDbTrace
 10
389.741781
 20
365.746667
 30
0.0
 11
389.741781
 21
364.222667
 31
0.0
 12
394.313781
 22
364.984667
 32
0.0
 13
394.313781
 23
364.984667
 33
0.0
  0
MTEXT
  5
C34
100
AcDbEntity
  8
0
  6
BYBLOCK
 62
     0
100
AcDbMText
 10
355.451781
 20
364.984667
 30
0.0
 40
4.572
 41
0.0
 71
     5
 72
     1
  1
\A1;48.89mm[1.925"]
  0
POINT
  5
C35
100
AcDbEntity
  8
DEFPOINTS
  6
BYBLOCK
 62
     0
100
AcDbPoint
 10
443.203424
 20
471.850262
 30
0.0
  0
POINT
  5
C36
100
AcDbEntity
  8
DEFPOINTS
  6
BYBLOCK
 62
     0
100
AcDbPoint
 10
394.313781
 20
292.578006
 30
0.0
  0
POINT
  5
C37
100
AcDbEntity
  8
DEFPOINTS
  6
BYBLOCK
 62
     0
100
AcDbPoint
 10
394.313781
 20
364.984667
 30
0.0
  0
ENDBLK
  5
C38
100
AcDbEntity
  8
0
100
AcDbBlockEnd
  0
BLOCK
  5
C23
100
AcDbEntity
  8
0
100
AcDbBlockBegin
  2
*D29
 70
    65
 10
0.0
 20
0.0
 30
0.0
  3
*D29
  1
*TB
  0
LINE
  5
C24
100
AcDbEntity
  8
0
  6
BYBLOCK
 62
     0
100
AcDbLine
 10
397.813901
 20
294.165506
 30
0.0
 11
397.813901
 21
379.283721
 31
0.0
  0
LINE
  5
C25
100
AcDbEntity
  8
0
  6
BYBLOCK
 62
     0
100
AcDbLine
 10
447.775424
 20
374.711721
 30
0.0
 11
452.347424
 21
374.711721
 31
0.0
  0
LINE
  5
C26
100
AcDbEntity
  8
0
  6
BYBLOCK
 62
     0
100
AcDbLine
 10
393.241901
 20
374.711721
 30
0.0
 11
388.669901
 21
374.711721
 31
0.0
  0
SOLID
  5
C27
100
AcDbEntity
  8
0
  6
BYBLOCK
 62
     0
100
AcDbTrace
 10
447.775424
 20
375.473721
 30
0.0
 11
447.775424
 21
373.949721
 31
0.0
 12
443.203424
 22
374.711721
 32
0.0
 13
443.203424
 23
374.711721
 33
0.0
  0
SOLID
  5
C28
100
AcDbEntity
  8
0
  6
BYBLOCK
 62
     0
100
AcDbTrace
 10
393.241901
 20
375.473721
 30
0.0
 11
393.241901
 21
373.949721
 31
0.0
 12
397.813901
 22
374.711721
 32
0.0
 13
397.813901
 23
374.711721
 33
0.0
  0
MTEXT
  5
C29
100
AcDbEntity
  8
0
  6
BYBLOCK
 62
     0
100
AcDbMText
 10
358.951901
 20
374.711721
 30
0.0
 40
4.572
 41
0.0
 71
     5
 72
     1
  1
\A1;45.39mm[1.787"]
  0
POINT
  5
C2A
100
AcDbEntity
  8
DEFPOINTS
  6
BYBLOCK
 62
     0
100
AcDbPoint
 10
443.203424
 20
471.850262
 30
0.0
  0
POINT
  5
C2B
100
AcDbEntity
  8
DEFPOINTS
  6
BYBLOCK
 62
     0
100
AcDbPoint
 10
397.813901
 20
292.578006
 30
0.0
  0
POINT
  5
C2C
100
AcDbEntity
  8
DEFPOINTS
  6
BYBLOCK
 62
     0
100
AcDbPoint
 10
397.813901
 20
374.711721
 30
0.0
  0
ENDBLK
  5
C2D
100
AcDbEntity
  8
0
100
AcDbBlockEnd
  0
BLOCK
  5
C18
100
AcDbEntity
  8
0
100
AcDbBlockBegin
  2
*D30
 70
    65
 10
0.0
 20
0.0
 30
0.0
  3
*D30
  1
*TB
  0
LINE
  5
C19
100
AcDbEntity
  8
0
  6
BYBLOCK
 62
     0
100
AcDbLine
 10
430.503394
 20
289.811272
 30
0.0
 11
430.503394
 21
391.090247
 31
0.0
  0
LINE
  5
C1A
100
AcDbEntity
  8
0
  6
BYBLOCK
 62
     0
100
AcDbLine
 10
447.775424
 20
386.518247
 30
0.0
 11
452.347424
 21
386.518247
 31
0.0
  0
LINE
  5
C1B
100
AcDbEntity
  8
0
  6
BYBLOCK
 62
     0
100
AcDbLine
 10
425.931394
 20
386.518247
 30
0.0
 11
421.359394
 21
386.518247
 31
0.0
  0
SOLID
  5
C1C
100
AcDbEntity
  8
0
  6
BYBLOCK
 62
     0
100
AcDbTrace
 10
447.775424
 20
387.280247
 30
0.0
 11
447.775424
 21
385.756247
 31
0.0
 12
443.203424
 22
386.518247
 32
0.0
 13
443.203424
 23
386.518247
 33
0.0
  0
SOLID
  5
C1D
100
AcDbEntity
  8
0
  6
BYBLOCK
 62
     0
100
AcDbTrace
 10
425.931394
 20
387.280247
 30
0.0
 11
425.931394
 21
385.756247
 31
0.0
 12
430.503394
 22
386.518247
 32
0.0
 13
430.503394
 23
386.518247
 33
0.0
  0
MTEXT
  5
C1E
100
AcDbEntity
  8
0
  6
BYBLOCK
 62
     0
100
AcDbMText
 10
393.165394
 20
386.518247
 30
0.0
 40
4.572
 41
0.0
 71
     5
 72
     1
  1
\A1;12.70mm[0.500"]
  0
POINT
  5
C1F
100
AcDbEntity
  8
DEFPOINTS
  6
BYBLOCK
 62
     0
100
AcDbPoint
 10
443.203424
 20
471.850262
 30
0.0
  0
POINT
  5
C20
100
AcDbEntity
  8
DEFPOINTS
  6
BYBLOCK
 62
     0
100
AcDbPoint
 10
430.503394
 20
288.223772
 30
0.0
  0
POINT
  5
C21
100
AcDbEntity
  8
DEFPOINTS
  6
BYBLOCK
 62
     0
100
AcDbPoint
 10
430.503394
 20
386.518247
 30
0.0
  0
ENDBLK
  5
C22
100
AcDbEntity
  8
0
100
AcDbBlockEnd
  0
BLOCK
  5
C71
100
AcDbEntity
  8
0
100
AcDbBlockBegin
  2
*D31
 70
    65
 10
0.0
 20
0.0
 30
0.0
  3
*D31
  1
*TB
  0
LINE
  5
C72
100
AcDbEntity
  8
0
  6
BYBLOCK
 62
     0
100
AcDbLine
 10
399.527941
 20
443.197809
 30
0.0
 11
363.527581
 21
405.14122
 31
0.0
  0
LINE
  5
C73
100
AcDbEntity
  8
0
  6
BYBLOCK
 62
     0
100
AcDbLine
 10
363.527581
 20
405.14122
 30
0.0
 11
358.955581
 21
405.14122
 31
0.0
  0
SOLID
  5
C74
100
AcDbEntity
  8
0
  6
BYBLOCK
 62
     0
100
AcDbTrace
 10
398.974378
 20
443.721462
 30
0.0
 11
400.081503
 21
442.674156
 31
0.0
 12
402.669859
 22
446.519184
 32
0.0
 13
402.669859
 23
446.519184
 33
0.0
  0
MTEXT
  5
C75
100
AcDbEntity
  8
0
  6
BYBLOCK
 62
     0
100
AcDbMText
 10
301.424581
 20
405.14122
 30
0.0
 40
4.572
 41
0.0
 71
     5
 72
     1
  1
\A1;{\U+22052.38mm±0.03mm[\U+22050.094"±0.001"]}\P{4X}
  0
LINE
  5
C76
100
AcDbEntity
  8
0
  6
BYBLOCK
 62
     0
100
AcDbLine
 10
401.202084
 20
447.384144
 30
0.0
 11
405.774084
 21
447.384144
 31
0.0
  0
LINE
  5
C77
100
AcDbEntity
  8
0
  6
BYBLOCK
 62
     0
100
AcDbLine
 10
403.488084
 20
445.098144
 30
0.0
 11
403.488084
 21
449.670144
 31
0.0
  0
POINT
  5
C78
100
AcDbEntity
  8
DEFPOINTS
  6
BYBLOCK
 62
     0
100
AcDbPoint
 10
402.669859
 20
446.519184
 30
0.0
  0
POINT
  5
C79
100
AcDbEntity
  8
DEFPOINTS
  6
BYBLOCK
 62
     0
100
AcDbPoint
 10
404.306309
 20
448.249104
 30
0.0
  0
ENDBLK
  5
C7A
100
AcDbEntity
  8
0
100
AcDbBlockEnd
  0
BLOCK
  5
D91
100
AcDbEntity
  8
0
100
AcDbBlockBegin
  2
*D32
 70
    65
 10
0.0
 20
0.0
 30
0.0
  3
*D32
  1

  0
LINE
  5
D92
100
AcDbEntity
  8
0
  6
BYBLOCK
 62
     0
100
AcDbLine
 10
383.447274
 20
271.042891
 30
0.0
 11
349.039571
 21
233.845394
 31
0.0
  0
LINE
  5
D93
100
AcDbEntity
  8
0
  6
BYBLOCK
 62
     0
100
AcDbLine
 10
349.039571
 20
233.845394
 30
0.0
 11
344.467571
 21
233.845394
 31
0.0
  0
SOLID
  5
D94
100
AcDbEntity
  8
0
  6
BYBLOCK
 62
     0
100
AcDbTrace
 10
382.88789
 20
271.560321
 30
0.0
 11
384.006657
 21
270.525461
 31
0.0
 12
386.551854
 22
274.399193
 32
0.0
 13
386.551854
 23
274.399193
 33
0.0
  0
MTEXT
  5
D95
100
AcDbEntity
  8
0
  6
BYBLOCK
 62
     0
100
AcDbMText
 10
313.225571
 20
233.845394
 30
0.0
 40
4.572
 41
0.0
 71
     5
 72
     1
  1
\A1;{\U+22053.20mm[\U+22050.126"]}\P{4X}
  0
LINE
  5
D96
100
AcDbEntity
  8
0
  6
BYBLOCK
 62
     0
100
AcDbLine
 10
385.352458
 20
275.573898
 30
0.0
 11
389.924458
 21
275.573898
 31
0.0
  0
LINE
  5
D97
100
AcDbEntity
  8
0
  6
BYBLOCK
 62
     0
100
AcDbLine
 10
387.638458
 20
273.287898
 30
0.0
 11
387.638458
 21
277.859898
 31
0.0
  0
POINT
  5
D98
100
AcDbEntity
  8
DEFPOINTS
  6
BYBLOCK
 62
     0
100
AcDbPoint
 10
386.551854
 20
274.399193
 30
0.0
  0
POINT
  5
D99
100
AcDbEntity
  8
DEFPOINTS
  6
BYBLOCK
 62
     0
100
AcDbPoint
 10
388.725061
 20
276.748604
 30
0.0
  0
ENDBLK
  5
D9A
100
AcDbEntity
  8
0
100
AcDbBlockEnd
  0
BLOCK
  5
CA9
100
AcDbEntity
  8
0
100
AcDbBlockBegin
  2
*D33
 70
    65
 10
0.0
 20
0.0
 30
0.0
  3
*D33
  1
*TB
  0
LINE
  5
CAA
100
AcDbEntity
  8
0
  6
BYBLOCK
 62
     0
100
AcDbLine
 10
385.371114
 20
279.358557
 30
0.0
 11
362.636007
 21
254.947044
 31
0.0
  0
LINE
  5
CAB
100
AcDbEntity
  8
0
  6
BYBLOCK
 62
     0
100
AcDbLine
 10
362.636007
 20
254.947044
 30
0.0
 11
358.064007
 21
254.947044
 31
0.0
  0
SOLID
  5
CAC
100
AcDbEntity
  8
0
  6
BYBLOCK
 62
     0
100
AcDbTrace
 10
384.813492
 20
279.877886
 30
0.0
 11
385.928736
 21
278.839229
 31
0.0
 12
388.487084
 22
282.704288
 32
0.0
 13
388.487084
 23
282.704288
 33
0.0
  0
MTEXT
  5
CAD
100
AcDbEntity
  8
0
  6
BYBLOCK
 62
     0
100
AcDbMText
 10
300.533007
 20
254.947044
 30
0.0
 40
4.572
 41
0.0
 71
     5
 72
     1
  1
\A1;{\U+22052.38mm±0.03mm[\U+22050.094"±0.001"]}\P{2X}
  0
LINE
  5
CAE
100
AcDbEntity
  8
0
  6
BYBLOCK
 62
     0
100
AcDbLine
 10
387.012535
 20
283.575572
 30
0.0
 11
391.584535
 21
283.575572
 31
0.0
  0
LINE
  5
CAF
100
AcDbEntity
  8
0
  6
BYBLOCK
 62
     0
100
AcDbLine
 10
389.298535
 20
281.289572
 30
0.0
 11
389.298535
 21
285.861572
 31
0.0
  0
POINT
  5
CB0
100
AcDbEntity
  8
DEFPOINTS
  6
BYBLOCK
 62
     0
100
AcDbPoint
 10
388.487084
 20
282.704288
 30
0.0
  0
POINT
  5
CB1
100
AcDbEntity
  8
DEFPOINTS
  6
BYBLOCK
 62
     0
100
AcDbPoint
 10
390.109985
 20
284.446856
 30
0.0
  0
ENDBLK
  5
CB2
100
AcDbEntity
  8
0
100
AcDbBlockEnd
  0
BLOCK
  5
D87
100
AcDbEntity
  8
0
100
AcDbBlockBegin
  2
*D34
 70
    65
 10
0.0
 20
0.0
 30
0.0
  3
*D34
  1

  0
LINE
  5
D88
100
AcDbEntity
  8
0
  6
BYBLOCK
 62
     0
100
AcDbLine
 10
391.549446
 20
270.691042
 30
0.0
 11
343.944626
 21
214.08381
 31
0.0
  0
LINE
  5
D89
100
AcDbEntity
  8
0
  6
BYBLOCK
 62
     0
100
AcDbLine
 10
343.944626
 20
214.08381
 30
0.0
 11
339.372626
 21
214.08381
 31
0.0
  0
SOLID
  5
D8A
100
AcDbEntity
  8
0
  6
BYBLOCK
 62
     0
100
AcDbTrace
 10
390.966256
 20
271.181485
 30
0.0
 11
392.132635
 21
270.200599
 31
0.0
 12
394.492103
 22
274.190177
 32
0.0
 13
394.492103
 23
274.190177
 33
0.0
  0
MTEXT
  5
D8B
100
AcDbEntity
  8
0
  6
BYBLOCK
 62
     0
100
AcDbMText
 10
308.892626
 20
214.08381
 30
0.0
 40
4.572
 41
0.0
 71
     5
 72
     1
  1
\A1;{\U+22051.00mm[\U+22050.039"]}\P{8X}
  0
LINE
  5
D8C
100
AcDbEntity
  8
0
  6
BYBLOCK
 62
     0
100
AcDbLine
 10
392.528161
 20
274.573138
 30
0.0
 11
397.100161
 21
274.573138
 31
0.0
  0
LINE
  5
D8D
100
AcDbEntity
  8
0
  6
BYBLOCK
 62
     0
100
AcDbLine
 10
394.814161
 20
272.287138
 30
0.0
 11
394.814161
 21
276.859138
 31
0.0
  0
POINT
  5
D8E
100
AcDbEntity
  8
DEFPOINTS
  6
BYBLOCK
 62
     0
100
AcDbPoint
 10
394.492103
 20
274.190177
 30
0.0
  0
POINT
  5
D8F
100
AcDbEntity
  8
DEFPOINTS
  6
BYBLOCK
 62
     0
100
AcDbPoint
 10
395.136219
 20
274.956099
 30
0.0
  0
ENDBLK
  5
D90
100
AcDbEntity
  8
0
100
AcDbBlockEnd
  0
BLOCK
  5
D9C
100
AcDbEntity
  8
0
100
AcDbBlockBegin
  2
*D35
 70
    65
 10
0.0
 20
0.0
 30
0.0
  3
*D35
  1
*TB
  0
LINE
  5
D9D
100
AcDbEntity
  8
0
  6
BYBLOCK
 62
     0
100
AcDbLine
 10
433.637852
 20
278.40647
 30
0.0
 11
459.186065
 21
236.274361
 31
0.0
  0
LINE
  5
D9E
100
AcDbEntity
  8
0
  6
BYBLOCK
 62
     0
100
AcDbLine
 10
459.186065
 20
236.274361
 30
0.0
 11
463.758065
 21
236.274361
 31
0.0
  0
SOLID
  5
D9F
100
AcDbEntity
  8
0
  6
BYBLOCK
 62
     0
100
AcDbTrace
 10
434.289419
 20
278.80157
 30
0.0
 11
432.986284
 21
278.01137
 31
0.0
 12
431.267253
 22
282.315875
 32
0.0
 13
431.267253
 23
282.315875
 33
0.0
  0
MTEXT
  5
DA0
100
AcDbEntity
  8
0
  6
BYBLOCK
 62
     0
100
AcDbMText
 10
494.619065
 20
236.274361
 30
0.0
 40
4.572
 41
0.0
 71
     5
 72
     1
  1
\A1;\U+22052.95mm[\U+22050.116"]
  0
LINE
  5
DA1
100
AcDbEntity
  8
0
  6
BYBLOCK
 62
     0
100
AcDbLine
 10
428.217394
 20
283.575572
 30
0.0
 11
432.789394
 21
283.575572
 31
0.0
  0
LINE
  5
DA2
100
AcDbEntity
  8
0
  6
BYBLOCK
 62
     0
100
AcDbLine
 10
430.503394
 20
281.289572
 30
0.0
 11
430.503394
 21
285.861572
 31
0.0
  0
POINT
  5
DA3
100
AcDbEntity
  8
DEFPOINTS
  6
BYBLOCK
 62
     0
100
AcDbPoint
 10
431.267253
 20
282.315875
 30
0.0
  0
POINT
  5
DA4
100
AcDbEntity
  8
DEFPOINTS
  6
BYBLOCK
 62
     0
100
AcDbPoint
 10
429.739534
 20
284.835269
 30
0.0
  0
ENDBLK
  5
DA5
100
AcDbEntity
  8
0
100
AcDbBlockEnd
  0
BLOCK
  5
DB9
100
AcDbEntity
  8
0
100
AcDbBlockBegin
  2
*D36
 70
    65
 10
0.0
 20
0.0
 30
0.0
  3
*D36
  1

  0
LINE
  5
DBA
100
AcDbEntity
  8
0
  6
BYBLOCK
 62
     0
100
AcDbLine
 10
381.676155
 20
439.674428
 30
0.0
 11
369.664356
 21
427.629595
 31
0.0
  0
LINE
  5
DBB
100
AcDbEntity
  8
0
  6
BYBLOCK
 62
     0
100
AcDbLine
 10
369.664356
 20
427.629595
 30
0.0
 11
365.092356
 21
427.629595
 31
0.0
  0
SOLID
  5
DBC
100
AcDbEntity
  8
0
  6
BYBLOCK
 62
     0
100
AcDbTrace
 10
381.1366
 20
440.212503
 30
0.0
 11
382.215709
 21
439.136353
 31
0.0
 12
384.904605
 22
442.911756
 32
0.0
 13
384.904605
 23
442.911756
 33
0.0
  0
MTEXT
  5
DBD
100
AcDbEntity
  8
0
  6
BYBLOCK
 62
     0
100
AcDbMText
 10
333.850356
 20
427.629595
 30
0.0
 40
4.572
 41
0.0
 71
     5
 72
     1
  1
\A1;{R1.59mm[R0.062"]}\P{2X}
  0
LINE
  5
DBE
100
AcDbEntity
  8
0
  6
BYBLOCK
 62
     0
100
AcDbLine
 10
383.739594
 20
444.035828
 30
0.0
 11
388.311594
 21
444.035828
 31
0.0
  0
LINE
  5
DBF
100
AcDbEntity
  8
0
  6
BYBLOCK
 62
     0
100
AcDbLine
 10
386.025594
 20
441.749828
 30
0.0
 11
386.025594
 21
446.321828
 31
0.0
  0
POINT
  5
DC0
100
AcDbEntity
  8
DEFPOINTS
  6
BYBLOCK
 62
     0
100
AcDbPoint
 10
384.904605
 20
442.911756
 30
0.0
  0
POINT
  5
DC1
100
AcDbEntity
  8
DEFPOINTS
  6
BYBLOCK
 62
     0
100
AcDbPoint
 10
386.025594
 20
444.035828
 30
0.0
  0
ENDBLK
  5
DC2
100
AcDbEntity
  8
0
100
AcDbBlockEnd
  0
BLOCK
  5
DD7
100
AcDbEntity
  8
0
100
AcDbBlockBegin
  2
*D37
 70
    65
 10
0.0
 20
0.0
 30
0.0
  3
*D37
  1

  0
ARC
  5
DD8
100
AcDbEntity
  8
0
  6
BYBLOCK
 62
     0
100
AcDbCircle
 10
443.203424
 20
120.254302
 30
0.0
 40
114.274927
100
AcDbArc
 50
92.292487
 51
94.715814
  0
ARC
  5
DD9
100
AcDbEntity
  8
0
  6
BYBLOCK
 62
     0
100
AcDbCircle
 10
443.203424
 20
120.254302
 30
0.0
 40
114.274927
100
AcDbArc
 50
106.394984
 51
108.707513
  0
SOLID
  5
DDA
100
AcDbEntity
  8
0
  6
BYBLOCK
 62
     0
100
AcDbTrace
 10
438.617095
 20
235.199617
 30
0.0
 11
438.647582
 21
233.675922
 31
0.0
 12
443.203424
 22
234.529229
 32
0.0
 13
443.203424
 23
234.529229
 33
0.0
  0
SOLID
  5
DDB
100
AcDbEntity
  8
0
  6
BYBLOCK
 62
     0
100
AcDbTrace
 10
406.809995
 20
227.775174
 30
0.0
 11
406.292414
 21
229.208591
 31
0.0
 12
402.250952
 22
226.939137
 32
0.0
 13
402.250952
 23
226.939137
 33
0.0
  0
MTEXT
  5
DDC
100
AcDbEntity
  8
0
  6
BYBLOCK
 62
     0
100
AcDbMText
 10
422.378472
 20
232.615685
 30
0.0
 40
4.572
 41
0.0
 71
     5
 72
     1
  1
\A1;21.00°
  0
POINT
  5
DDD
100
AcDbEntity
  8
DEFPOINTS
  6
BYBLOCK
 62
     0
100
AcDbPoint
 10
429.276813
 20
233.677441
 30
0.0
  0
POINT
  5
DDE
100
AcDbEntity
  8
DEFPOINTS
  6
BYBLOCK
 62
     0
100
AcDbPoint
 10
476.005797
 20
34.801199
 30
0.0
  0
POINT
  5
DDF
100
AcDbEntity
  8
DEFPOINTS
  6
BYBLOCK
 62
     0
100
AcDbPoint
 10
443.203424
 20
29.889741
 30
0.0
  0
POINT
  5
DE0
100
AcDbEntity
  8
DEFPOINTS
  6
BYBLOCK
 62
     0
100
AcDbPoint
 10
443.203424
 20
471.850262
 30
0.0
  0
POINT
  5
DE1
100
AcDbEntity
  8
DEFPOINTS
  6
BYBLOCK
 62
     0
100
AcDbPoint
 10
400.152251
 20
232.406442
 30
0.0
  0
ENDBLK
  5
DE2
100
AcDbEntity
  8
0
100
AcDbBlockEnd
  0
ENDSEC
  0
SECTION
  2
ENTITIES
  0
ACAD_ZOMBIE_ENTITY
  5
3D
100
AcDbEntity
  8
0
100
AcDbZombieEntity
 90
      498
 91
      515
 92
        8
310
0800000000000000
 93
       97
310
D2800000002029040000780280
330
3E
330
3F
330
40
330
41
330
3E
 94
        0
  0
INSERT
  5
E3
100
AcDbEntity
  8
0
100
AcDbBlockReference
  2
D-BORDER
 10
0.0
 20
0.0
 30
0.0
 41
25.4
 42
25.4
 43
25.4
  0
MTEXT
  5
F4
100
AcDbEntity
  8
TEXT
100
AcDbMText
 10
736.935774
 20
27.724124
 30
0.0
 40
3.0
 41
100.0
 71
     5
 72
     1
  1
{LAYER 5A BACKWARD ENDPIECE}
  0
TEXT
  5
F5
100
AcDbEntity
  8
TEXT
100
AcDbText
 10
697.75
 20
11.625
 30
0.0
 40
3.0
  1
B-PARTS
100
AcDbText
  0
TEXT
  5
F6
100
AcDbEntity
  8
TEXT
100
AcDbText
 10
746.125
 20
12.75
 30
0.0
 40
3.0
  1
L5-END02
100
AcDbText
  0
TEXT
  5
F7
100
AcDbEntity
  8
TEXT
100
AcDbText
 10
694.875
 20
4.625
 30
0.0
 40
3.0
  1
1=1
100
AcDbText
  0
TEXT
  5
F8
100
AcDbEntity
  8
TEXT
100
AcDbText
 10
646.375
 20
21.125
 30
0.0
 40
3.0
  1
S. KYRE
100
AcDbText
  0
TEXT
  5
F9
100
AcDbEntity
  8
TEXT
100
AcDbText
 10
671.125
 20
21.125
 30
0.0
 40
1.5
  1
01-27-97
100
AcDbText
  0
LINE
  5
FA
100
AcDbEntity
  8
TEXT
100
AcDbLine
 10
663.144457
 20
492.122347
 30
0.0
 11
663.144457
 21
460.0
 31
0.0
  0
LINE
  5
FB
100
AcDbEntity
  8
TEXT
100
AcDbLine
 10
673.056868
 20
492.122347
 30
0.0
 11
673.056868
 21
460.0
 31
0.0
  0
LINE
  5
FC
100
AcDbEntity
  8
TEXT
100
AcDbLine
 10
742.652868
 20
492.122347
 30
0.0
 11
742.652868
 21
460.0
 31
0.0
  0
LINE
  5
FD
100
AcDbEntity
  8
TEXT
100
AcDbLine
 10
765.004868
 20
492.122347
 30
0.0
 11
765.004868
 21
460.0
 31
0.0
  0
TEXT
  5
102
100
AcDbEntity
  8
TEXT
100
AcDbText
 10
744.0
 20
487.0
 30
0.0
 40
2.5
  1
05-06-96
100
AcDbText
  0
TEXT
  5
103
100
AcDbEntity
  8
TEXT
100
AcDbText
 10
678.0
 20
487.0
 30
0.0
 40
2.5
  1
UPDATED DESIGN,
100
AcDbText
  0
TEXT
  5
104
100
AcDbEntity
  8
TEXT
100
AcDbText
 10
678.0
 20
482.833333
 30
0.0
 40
2.5
  1
ADDED HOLES AND SLOTS
100
AcDbText
  0
TEXT
  5
105
100
AcDbEntity
  8
TEXT
100
AcDbText
 10
665.0
 20
487.0
 30
0.0
 40
2.5
  1
01
100
AcDbText
  0
LINE
  5
1A4
100
AcDbEntity
  8
CENTER
100
AcDbLine
 10
31.404849
 20
120.254302
 30
0.0
 11
535.629105
 21
120.254302
 31
0.0
  0
LINE
  5
1A5
100
AcDbEntity
  8
CENTER
100
AcDbLine
 10
443.203424
 20
29.889741
 30
0.0
 11
443.203424
 21
471.850262
 31
0.0
  0
LINE
  5
438
100
AcDbEntity
  8
CENTER
100
AcDbLine
 10
283.604791
 20
445.623328
 30
0.0
 11
549.457302
 21
445.623328
 31
0.0
  0
MTEXT
  5
76C
100
AcDbEntity
  8
TEXT
100
AcDbMText
 10
583.439372
 20
238.433191
 30
0.0
 40
4.5
 41
193.6884
 71
     1
 72
     1
  3
{MATERIAL: }\P{0.76mm [0.030"] thick carbon-fiber-epoxy-composite}\P\P{LAMINATE SCHEDULE:}\P{cloth:  - 1 layer Carbon-fiber (0.006" thick ea.)}\P{ xx oz/sq. yd. plain weave @ 90°}\P{ - 1 layer Carbon-fiber (0.001" thick ea.)}\P{ 0.4 oz/sq. yd. mat}\P
  3
{ - 1 layer Carbon-fiber (0.006" thick ea.)}\P{ xx oz/sq. yd. plain weave @ 45°}\P{ 1 layer Carbon-fiber (0.001" thick ea.)}\P{ 0.4 oz/sq. yd. mat}\P{ - 1 layer Carbon-fiber (0.006" thick ea.)}\P{ xx oz/sq. yd. plain weave @ 90°}\P{epoxy: heat resist
  1
ant laminating epoxy}\P{ Ciba-Geigy RP4005R/RP1500H}\P{cure: 24 hrs at room temp. @ 20psi}\P{ 2 hrs postcure at 66°C}\P\P{MACHINING:}\P{use fixture L5-END12}\P
  0
TEXT
  5
76D
100
AcDbEntity
  8
TEXT
100
AcDbText
 10
665.0
 20
476.664812
 30
0.0
 40
2.5
  1
02
100
AcDbText
  0
TEXT
  5
76E
100
AcDbEntity
  8
TEXT
100
AcDbText
 10
678.0
 20
476.664812
 30
0.0
 40
2.5
  1
MOVE FRONT END UP TO 3mm
100
AcDbText
  0
TEXT
  5
76F
100
AcDbEntity
  8
TEXT
100
AcDbText
 10
744.0
 20
476.664812
 30
0.0
 40
2.5
  1
01-27-97
100
AcDbText
  0
TEXT
  5
770
100
AcDbEntity
  8
TEXT
100
AcDbText
 10
678.0
 20
472.498146
 30
0.0
 40
2.5
  1
ABOVE SILICON
100
AcDbText
  0
TEXT
  5
771
100
AcDbEntity
  8
TEXT
100
AcDbText
 10
678.0
 20
468.463972
 30
0.0
 40
2.5
  1
CHANGE MATERIAL TO CARBON-
100
AcDbText
  0
TEXT
  5
772
100
AcDbEntity
  8
TEXT
100
AcDbText
 10
678.0
 20
464.178452
 30
0.0
 40
2.5
  1
FIBER
100
AcDbText
  0
TEXT
  5
773
100
AcDbEntity
  8
TEXT
100
AcDbText
 10
783.865636
 20
11.623905
 30
0.0
 40
3.0
  1
02
100
AcDbText
  0
TEXT
  5
774
100
AcDbEntity
  8
TEXT
100
AcDbText
 10
390.433403
 20
10.0
 30
0.0
 40
4.5
  1
SECTION
100
AcDbText
  0
TEXT
  5
775
100
AcDbEntity
  8
TEXT
100
AcDbText
 10
422.433403
 20
10.0
 30
0.0
 40
6.0
  1
A-A
100
AcDbText
  0
LINE
  5
8A5
100
AcDbEntity
  8
FOOT-A
100
AcDbLine
 10
386.025594
 20
123.429302
 30
0.0
 11
454.127836
 21
123.429302
 31
0.0
  0
LINE
  5
8A7
100
AcDbEntity
  8
FOOT-A
100
AcDbLine
 10
384.438094
 20
113.429302
 30
0.0
 11
384.438094
 21
121.841802
 31
0.0
1001
ACAD
1000
ASC_BOUNDS
1002
{
1070
    19
1002
}
  0
LINE
  5
8A8
100
AcDbEntity
  8
FOOT-A
100
AcDbLine
 10
384.438094
 20
114.191302
 30
0.0
 11
436.268378
 21
114.191302
 31
0.0
1001
ACAD
1000
ASC_BOUNDS
1002
{
1070
    19
1002
}
  0
LINE
  5
8A9
100
AcDbEntity
  8
FOOT-A
100
AcDbLine
 10
384.438094
 20
113.429302
 30
0.0
 11
436.409606
 21
113.429302
 31
0.0
1001
ACAD
1000
ASC_BOUNDS
1002
{
1070
    19
1002
}
  0
LINE
  5
8AB
100
AcDbEntity
  8
FOOT-A
100
AcDbLine
 10
436.409606
 20
113.429302
 30
0.0
 11
455.197979
 21
120.641483
 31
0.0
1001
ACAD
1000
ASC_BOUNDS
1002
{
1070
    19
1002
}
  0
LINE
  5
8AC
100
AcDbEntity
  8
FOOT-A
100
AcDbLine
 10
436.268378
 20
114.191302
 30
0.0
 11
454.924903
 21
121.352871
 31
0.0
1001
ACAD
1000
ASC_BOUNDS
1002
{
1070
    19
1002
}
  0
LINE
  5
8AE
100
AcDbEntity
  8
FOOT-A
100
AcDbLine
 10
455.197979
 20
120.641483
 30
0.0
 11
454.127836
 21
123.429302
 31
0.0
1001
ACAD
1000
ASC_BOUNDS
1002
{
1070
    19
1002
}
  0
CIRCLE
  5
8B2
100
AcDbEntity
  8
FOOT-A
100
AcDbCircle
 10
443.203424
 20
120.254302
 30
0.0
 40
1.19065
  0
CIRCLE
  5
8B3
100
AcDbEntity
  8
FOOT-A
100
AcDbCircle
 10
403.488084
 20
118.493487
 30
0.0
 40
1.19065
  0
LINE
  5
8B4
100
AcDbEntity
  8
CENTER
100
AcDbLine
 10
401.347891
 20
118.493487
 30
0.0
 11
405.791727
 21
118.493487
 31
0.0
  0
LINE
  5
8B5
100
AcDbEntity
  8
CENTER
100
AcDbLine
 10
403.488084
 20
120.676439
 30
0.0
 11
403.488084
 21
116.334598
 31
0.0
  0
LINE
  5
8B6
100
AcDbEntity
  8
CENTER
100
AcDbLine
 10
441.06323
 20
120.254302
 30
0.0
 11
445.507067
 21
120.254302
 31
0.0
  0
LINE
  5
8B7
100
AcDbEntity
  8
CENTER
100
AcDbLine
 10
443.203424
 20
122.437254
 30
0.0
 11
443.203424
 21
118.095413
 31
0.0
  0
POLYLINE
  5
8B8
100
AcDbEntity
  8
FOOT-2
100
AcDb2dPolyline
 66
     1
 10
0.0
 20
0.0
 30
0.0
 70
     1
  0
VERTEX
  5
8B9
100
AcDbEntity
  8
FOOT-2
100
AcDbVertex
100
AcDb2dVertex
 10
384.438094
 20
267.362201
 30
0.0
  0
VERTEX
  5
8BA
100
AcDbEntity
  8
FOOT-2
100
AcDbVertex
100
AcDb2dVertex
 10
384.438094
 20
299.788943
 30
0.0
  0
VERTEX
  5
8BB
100
AcDbEntity
  8
FOOT-2
100
AcDbVertex
100
AcDb2dVertex
 10
455.197979
 20
299.788943
 30
0.0
  0
VERTEX
  5
8BC
100
AcDbEntity
  8
FOOT-2
100
AcDbVertex
100
AcDb2dVertex
 10
455.197979
 20
267.362201
 30
0.0
  0
SEQEND
  5
8BD
100
AcDbEntity
  8
FOOT-2
  0
LINE
  5
8BE
100
AcDbEntity
  8
FOOT-2
100
AcDbLine
 10
455.197979
 20
268.124201
 30
0.0
 11
384.438094
 21
268.124201
 31
0.0
  0
LINE
  5
8BF
100
AcDbEntity
  8
FOOT-2
100
AcDbLine
 10
455.197979
 20
299.026943
 30
0.0
 11
384.438094
 21
299.026943
 31
0.0
  0
LINE
  5
8C0
100
AcDbEntity
  8
FOOT-2
100
AcDbLine
 10
454.127836
 20
299.788943
 30
0.0
 11
454.127836
 21
299.026943
 31
0.0
  0
LINE
  5
8C2
100
AcDbEntity
  8
FOOT-2
100
AcDbLine
 10
454.924903
 20
268.124201
 30
0.0
 11
454.924903
 21
299.026943
 31
0.0
  0
LINE
  5
8C3
100
AcDbEntity
  8
FOOT-2
100
AcDbLine
 10
454.127836
 20
267.362201
 30
0.0
 11
454.127836
 21
268.124201
 31
0.0
  0
INSERT
  5
8C6
100
AcDbEntity
  8
FOOT-2
100
AcDbBlockReference
  2
*U3
 10
389.298535
 20
283.575572
 30
0.0
 41
25.4
 42
25.4
 43
25.4
1001
TB_S_MPD
1070
   100
1000
HOLE
1070
   101
1000
TOOLBOX 13.0 HOLE 2.0
1070
   112
1000
3/32 (.0938) DIAMETER HOLE
1070
   102
1000
Near side
1070
   103
1000
ANSI-Fraction
1070
   104
1000
hole
1070
   105
1000
_usf
1070
   304
1040
0.0
1070
   305
1040
0.0
1070
   306
1040
0.09375
1070
   302
1040
0.0
1070
   303
1040
0.0
1070
   307
1040
0.03
1070
   300
1040
0.125
1070
   110
1000
1
1070
   111
1000
3/32
1070
   116
1000
T
1070
   308
1040
0.03
  0
INSERT
  5
8C7
100
AcDbEntity
  8
FOOT-2
100
AcDbBlockReference
  2
*U4
 10
430.503394
 20
283.575572
 30
0.0
 41
25.4
 42
25.4
 43
25.4
1001
TB_S_MPD
1070
   100
1000
HOLE
1070
   101
1000
TOOLBOX 13.0 HOLE 2.0
1070
   112
1000
#32 (.116) DIAMETER HOLE
1070
   102
1000
Near side
1070
   103
1000
ANSI-Number
1070
   104
1000
hole
1070
   105
1000
_usn
1070
   304
1040
0.0
1070
   305
1040
0.0
1070
   306
1040
0.116
1070
   302
1040
0.0
1070
   303
1040
0.0
1070
   307
1040
0.03
1070
   300
1040
0.125
1070
   110
1000
1
1070
   111
1000
#32
1070
   116
1000
T
1070
   308
1040
0.03
  0
LINE
  5
8C8
100
AcDbEntity
  8
CENTER
100
AcDbLine
 10
443.577352
 20
283.575572
 30
0.0
 11
452.262784
 21
283.575572
 31
0.0
  0
LINE
  5
8C9
100
AcDbEntity
  8
CENTER
100
AcDbLine
 10
447.30536
 20
278.912019
 30
0.0
 11
447.30536
 21
288.233372
 31
0.0
  0
INSERT
  5
8CC
100
AcDbEntity
  8
FOOT-2
100
AcDbBlockReference
  2
*U5
 10
387.638458
 20
291.577246
 30
0.0
 41
25.4
 42
25.4
 43
25.4
1001
TB_S_MPD
1070
   100
1000
SLOT
1070
   101
1000
TOOLBOX 13.0 SLOT 2.0
1070
   103
1000
STD
1070
   306
1040
0.126
1070
   307
1040
0.03
1070
   112
1000
SLOT
1070
   102
1000
Near side
1070
   116
1000
T
1070
   308
1040
0.03
1070
   309
1040
0.063
1070
   310
1040
0.176
1070
   311
1040
0.0
  0
INSERT
  5
8CD
100
AcDbEntity
  8
FOOT-2
100
AcDbBlockReference
  2
*U5
 10
387.638458
 20
275.573898
 30
0.0
 41
25.4
 42
25.4
 43
25.4
1001
TB_S_MPD
1070
   100
1000
SLOT
1070
   101
1000
TOOLBOX 13.0 SLOT 2.0
1070
   103
1000
STD
1070
   306
1040
0.126
1070
   307
1040
0.03
1070
   112
1000
SLOT
1070
   102
1000
Near side
1070
   116
1000
T
1070
   308
1040
0.03
1070
   309
1040
0.063
1070
   310
1040
0.176
1070
   311
1040
0.0
  0
POLYLINE
  5
8CE
100
AcDbEntity
  8
FOOT-2
100
AcDb2dPolyline
 66
     1
 10
0.0
 20
0.0
 30
0.0
 70
     1
  0
VERTEX
  5
8CF
100
AcDbEntity
  8
FOOT-2
100
AcDbVertex
100
AcDb2dVertex
 10
394.313781
 20
290.576486
 30
0.0
  0
VERTEX
  5
8D0
100
AcDbEntity
  8
FOOT-2
100
AcDbVertex
100
AcDb2dVertex
 10
394.313781
 20
292.578006
 30
0.0
 42
-0.414214
  0
VERTEX
  5
8D1
100
AcDbEntity
  8
FOOT-2
100
AcDbVertex
100
AcDb2dVertex
 10
394.814161
 20
293.078386
 30
0.0
  0
VERTEX
  5
8D2
100
AcDbEntity
  8
FOOT-2
100
AcDbVertex
100
AcDb2dVertex
 10
397.313521
 20
293.078386
 30
0.0
 42
-0.414214
  0
VERTEX
  5
8D3
100
AcDbEntity
  8
FOOT-2
100
AcDbVertex
100
AcDb2dVertex
 10
397.813901
 20
292.578006
 30
0.0
  0
VERTEX
  5
8D4
100
AcDbEntity
  8
FOOT-2
100
AcDbVertex
100
AcDb2dVertex
 10
397.813901
 20
290.576486
 30
0.0
 42
-0.414214
  0
VERTEX
  5
8D5
100
AcDbEntity
  8
FOOT-2
100
AcDbVertex
100
AcDb2dVertex
 10
397.313521
 20
290.076106
 30
0.0
  0
VERTEX
  5
8D6
100
AcDbEntity
  8
FOOT-2
100
AcDbVertex
100
AcDb2dVertex
 10
394.814161
 20
290.076106
 30
0.0
 42
-0.414214
  0
SEQEND
  5
8D7
100
AcDbEntity
  8
FOOT-2
  0
POLYLINE
  5
8D8
100
AcDbEntity
  8
FOOT-2
100
AcDb2dPolyline
 66
     1
 10
0.0
 20
0.0
 30
0.0
 70
     1
  0
VERTEX
  5
8D9
100
AcDbEntity
  8
FOOT-2
100
AcDbVertex
100
AcDb2dVertex
 10
394.313781
 20
274.573138
 30
0.0
  0
VERTEX
  5
8DA
100
AcDbEntity
  8
FOOT-2
100
AcDbVertex
100
AcDb2dVertex
 10
394.313781
 20
276.574658
 30
0.0
 42
-0.414214
  0
VERTEX
  5
8DB
100
AcDbEntity
  8
FOOT-2
100
AcDbVertex
100
AcDb2dVertex
 10
394.814161
 20
277.075038
 30
0.0
  0
VERTEX
  5
8DC
100
AcDbEntity
  8
FOOT-2
100
AcDbVertex
100
AcDb2dVertex
 10
397.313521
 20
277.075038
 30
0.0
 42
-0.414214
  0
VERTEX
  5
8DD
100
AcDbEntity
  8
FOOT-2
100
AcDbVertex
100
AcDb2dVertex
 10
397.813901
 20
276.574658
 30
0.0
  0
VERTEX
  5
8DE
100
AcDbEntity
  8
FOOT-2
100
AcDbVertex
100
AcDb2dVertex
 10
397.813901
 20
274.573138
 30
0.0
 42
-0.414214
  0
VERTEX
  5
8DF
100
AcDbEntity
  8
FOOT-2
100
AcDbVertex
100
AcDb2dVertex
 10
397.313521
 20
274.072758
 30
0.0
  0
VERTEX
  5
8E0
100
AcDbEntity
  8
FOOT-2
100
AcDbVertex
100
AcDb2dVertex
 10
394.814161
 20
274.072758
 30
0.0
 42
-0.414214
  0
SEQEND
  5
8E1
100
AcDbEntity
  8
FOOT-2
  0
LINE
  5
8E2
100
AcDbEntity
  8
FOOT-2
100
AcDbLine
 10
436.268378
 20
268.124201
 30
0.0
 11
436.268378
 21
299.026943
 31
0.0
  0
LINE
  5
8E9
100
AcDbEntity
  8
FOOT-A
100
AcDbLine
 10
434.393758
 20
174.838331
 30
0.0
 11
422.773068
 21
205.111263
 31
0.0
  0
LINE
  5
8EA
100
AcDbEntity
  8
FOOT-A
100
AcDbLine
 10
422.773068
 20
205.111263
 30
0.0
 11
396.674101
 21
195.092809
 31
0.0
  0
LINE
  5
8EC
100
AcDbEntity
  8
FOOT-A
100
AcDbLine
 10
408.812453
 20
165.018588
 30
0.0
 11
434.393758
 21
174.838331
 31
0.0
  0
LINE
  5
8ED
100
AcDbEntity
  8
FOOT-A
100
AcDbLine
 10
423.046145
 20
204.399875
 30
0.0
 11
397.192741
 21
194.475683
 31
0.0
  0
LINE
  5
8EE
100
AcDbEntity
  8
FOOT-A
100
AcDbLine
 10
408.163859
 20
165.585829
 30
0.0
 11
434.120682
 21
175.549719
 31
0.0
  0
LINE
  5
8EF
100
AcDbEntity
  8
FOOT-A
100
AcDbLine
 10
415.464157
 20
168.38815
 30
0.0
 11
404.38962
 21
197.238306
 31
0.0
  0
LINE
  5
8F0
100
AcDbEntity
  8
FOOT-A
100
AcDbLine
 10
396.674101
 20
195.092809
 30
0.0
 11
399.231921
 21
192.049282
 31
0.0
  0
LINE
  5
8F1
100
AcDbEntity
  8
FOOT-A
100
AcDbLine
 10
399.231921
 20
192.049282
 30
0.0
 11
399.231921
 21
187.291157
 31
0.0
  0
LINE
  5
8F3
100
AcDbEntity
  8
FOOT-A
100
AcDbLine
 10
399.231921
 20
187.291157
 30
0.0
 11
403.992384
 21
183.865308
 31
0.0
  0
LINE
  5
8F4
100
AcDbEntity
  8
FOOT-A
100
AcDbLine
 10
403.992384
 20
183.865308
 30
0.0
 11
403.611547
 21
176.632959
 31
0.0
  0
LINE
  5
8F5
100
AcDbEntity
  8
FOOT-A
100
AcDbLine
 10
403.611547
 20
176.632959
 30
0.0
 11
407.800754
 21
171.874834
 31
0.0
  0
LINE
  5
8F6
100
AcDbEntity
  8
FOOT-A
100
AcDbLine
 10
407.800754
 20
171.874834
 30
0.0
 11
406.848662
 21
166.736061
 31
0.0
  0
LINE
  5
8F7
100
AcDbEntity
  8
FOOT-A
100
AcDbLine
 10
406.848662
 20
166.736061
 30
0.0
 11
408.812453
 21
165.018588
 31
0.0
  0
LINE
  5
8F8
100
AcDbEntity
  8
CENTER
100
AcDbLine
 10
363.97604
 20
89.841759
 30
0.0
 11
506.057357
 21
144.381667
 31
0.0
  0
LINE
  5
8F9
100
AcDbEntity
  8
CENTER
100
AcDbLine
 10
476.005797
 20
34.801199
 30
0.0
 11
400.152251
 21
232.406442
 31
0.0
  0
LINE
  5
8FA
100
AcDbEntity
  8
FOOT-A
100
AcDbLine
 10
386.025594
 20
442.448328
 30
0.0
 11
454.127836
 21
442.448328
 31
0.0
  0
LINE
  5
8FC
100
AcDbEntity
  8
FOOT-A
100
AcDbLine
 10
384.438094
 20
452.448328
 30
0.0
 11
436.409606
 21
452.448328
 31
0.0
  0
LINE
  5
8FD
100
AcDbEntity
  8
FOOT-A
100
AcDbLine
 10
384.438094
 20
452.448328
 30
0.0
 11
384.438094
 21
444.035828
 31
0.0
  0
LINE
  5
8FF
100
AcDbEntity
  8
CENTER
100
AcDbLine
 10
401.347891
 20
447.384144
 30
0.0
 11
405.791727
 21
447.384144
 31
0.0
  0
LINE
  5
900
100
AcDbEntity
  8
CENTER
100
AcDbLine
 10
403.488084
 20
445.201192
 30
0.0
 11
403.488084
 21
449.543033
 31
0.0
  0
CIRCLE
  5
901
100
AcDbEntity
  8
FOOT-A
100
AcDbCircle
 10
403.488084
 20
447.384144
 30
0.0
 40
1.19065
  0
LINE
  5
902
100
AcDbEntity
  8
CENTER
100
AcDbLine
 10
443.203424
 20
443.440376
 30
0.0
 11
443.203424
 21
447.782217
 31
0.0
  0
CIRCLE
  5
903
100
AcDbEntity
  8
FOOT-A
100
AcDbCircle
 10
443.203424
 20
445.623328
 30
0.0
 40
1.19065
  0
LINE
  5
904
100
AcDbEntity
  8
FOOT-A
100
AcDbLine
 10
455.197979
 20
445.236148
 30
0.0
 11
454.127836
 21
442.448328
 31
0.0
  0
LINE
  5
906
100
AcDbEntity
  8
CENTER
100
AcDbLine
 10
441.06323
 20
445.623328
 30
0.0
 11
445.507067
 21
445.623328
 31
0.0
  0
LINE
  5
907
100
AcDbEntity
  8
FOOT-A
100
AcDbLine
 10
436.409606
 20
452.448328
 30
0.0
 11
455.197979
 21
445.236148
 31
0.0
  0
INSERT
  5
918
100
AcDbEntity
  8
HATCH
100
AcDbBlockReference
  2
*X7
 10
72.433403
 20
0.0
 30
0.0
1001
ACAD
1000
HATCH
1002
{
1070
    19
1000
ANSI31
1040
10.0
1040
0.0
1002
}
  0
DIMENSION
  5
98D
100
AcDbEntity
  8
DIM
100
AcDbDimension
  2
*D8
 10
319.323807
 20
123.429302
 30
0.0
 11
350.184807
 21
132.573302
 31
0.0
 70
    32
  3
SU1
100
AcDbAlignedDimension
 13
31.404849
 23
120.254302
 33
0.0
 14
386.438094
 24
123.429302
 34
0.0
 50
90.0
100
AcDbRotatedDimension
1001
ACAD
1000
DSTYLE
1002
{
1070
    47
1040
0.03
1070
    48
1040
0.03
1070
   272
1070
     2
1070
    75
1070
     1
1070
    40
1040
25.4
1070
     3
1000
mm
1070
   271
1070
     2
1070
     4
1000
"
1070
   274
1070
     3
1070
   143
1040
0.03937
1070
   171
1070
     3
1070
   170
1070
     1
1002
}
  0
DIMENSION
  5
9A7
100
AcDbEntity
  8
DIM
100
AcDbDimension
  2
*D9
 10
197.495679
 20
120.254302
 30
0.0
 11
254.264679
 21
129.398302
 31
0.0
 70
    32
  3
SU1
100
AcDbAlignedDimension
 13
401.347891
 23
118.493487
 33
0.0
 14
31.404849
 24
120.254302
 34
0.0
 50
90.0
100
AcDbRotatedDimension
1001
ACAD
1000
DSTYLE
1002
{
1070
    47
1040
0.03
1070
    71
1070
     1
1070
    48
1040
0.03
1070
   272
1070
     2
1070
    76
1070
     1
1070
    40
1040
25.4
1070
     3
1000
mm
1070
   271
1070
     2
1070
     4
1000
"
1070
   274
1070
     3
1070
   143
1040
0.03937
1070
   171
1070
     3
1070
   170
1070
     1
1002
}
  0
DIMENSION
  5
9C1
100
AcDbEntity
  8
DIM
100
AcDbDimension
  2
*D10
 10
66.38511
 20
120.254302
 30
0.0
 11
129.78351
 21
129.398302
 31
0.0
 70
    32
  3
SU1
100
AcDbAlignedDimension
 13
384.438094
 23
113.429302
 33
0.0
 14
31.404849
 24
120.254302
 34
0.0
 50
90.0
100
AcDbRotatedDimension
1001
ACAD
1000
DSTYLE
1002
{
1070
    47
1040
0.0
1070
    71
1070
     1
1070
    48
1040
0.05
1070
   272
1070
     2
1070
    76
1070
     1
1070
    40
1040
25.4
1070
     3
1000
mm
1070
   271
1070
     2
1070
     4
1000
"
1070
   274
1070
     3
1070
   143
1040
0.03937
1070
   171
1070
     3
1070
   170
1070
     1
1002
}
  0
DIMENSION
  5
9FE
100
AcDbEntity
  8
DIM
100
AcDbDimension
  2
*D11
 10
403.488084
 20
60.917835
 30
0.0
 11
339.099084
 21
60.917835
 31
0.0
 70
    32
  3
SU1
100
AcDbAlignedDimension
 13
443.203424
 23
29.889741
 33
0.0
 14
403.488084
 24
116.334598
 34
0.0
100
AcDbRotatedDimension
1001
ACAD
1000
DSTYLE
1002
{
1070
    47
1040
0.03
1070
    71
1070
     1
1070
    48
1040
0.03
1070
   272
1070
     2
1070
    75
1070
     1
1070
    40
1040
25.4
1070
     3
1000
mm
1070
   271
1070
     2
1070
     4
1000
"
1070
   274
1070
     3
1070
   143
1040
0.03937
1070
   171
1070
     3
1070
   170
1070
     1
1002
}
  0
DIMENSION
  5
A2E
100
AcDbEntity
  8
DIM
100
AcDbDimension
  2
*D12
 10
384.438094
 20
72.796987
 30
0.0
 11
345.576094
 21
72.796987
 31
0.0
 70
    32
  3
SU1
100
AcDbAlignedDimension
 13
443.203424
 23
29.889741
 33
0.0
 14
384.438094
 24
113.429302
 34
0.0
100
AcDbRotatedDimension
1001
ACAD
1000
DSTYLE
1002
{
1070
    47
1040
0.03
1070
    48
1040
0.03
1070
   272
1070
     2
1070
    75
1070
     1
1070
    40
1040
25.4
1070
     3
1000
mm
1070
   271
1070
     2
1070
     4
1000
"
1070
   274
1070
     3
1070
   143
1040
0.03937
1070
   171
1070
     3
1070
   170
1070
     1
1002
}
  0
DIMENSION
  5
A3B
100
AcDbEntity
  8
DIM
100
AcDbDimension
  2
*D13
 10
475.169533
 20
68.613806
 30
0.0
 11
510.383253
 21
82.131086
 31
0.0
 70
    32
 51
339.0
  3
SU1
100
AcDbAlignedDimension
 13
476.005797
 23
34.801199
 33
0.0
 14
455.197979
 24
120.641483
 34
0.0
 50
21.0
100
AcDbRotatedDimension
1001
ACAD
1000
DSTYLE
1002
{
1070
    47
1040
0.03
1070
    48
1040
0.03
1070
   272
1070
     2
1070
    75
1070
     1
1070
    40
1040
25.4
1070
     3
1000
mm
1070
   271
1070
     2
1070
     4
1000
"
1070
   274
1070
     3
1070
   143
1040
0.03937
1070
   171
1070
     3
1070
   170
1070
     1
1002
}
  0
DIMENSION
  5
A48
100
AcDbEntity
  8
DIM
100
AcDbDimension
  2
*D14
 10
468.755763
 20
53.688182
 30
0.0
 11
503.258095
 21
66.932386
 31
0.0
 70
    32
 51
339.0
  3
SU1
100
AcDbAlignedDimension
 13
436.409606
 23
113.429302
 33
0.0
 14
476.005797
 24
34.801199
 34
0.0
 50
21.0
100
AcDbRotatedDimension
1001
ACAD
1000
DSTYLE
1002
{
1070
    47
1040
0.03
1070
    48
1040
0.03
1070
   272
1070
     2
1070
    76
1070
     1
1070
    40
1040
25.4
1070
     3
1000
mm
1070
   271
1070
     2
1070
     4
1000
"
1070
   274
1070
     3
1070
   143
1040
0.03937
1070
   171
1070
     3
1070
   170
1070
     1
1002
}
  0
CIRCLE
  5
A5F
100
AcDbEntity
  8
FOOT-A
100
AcDbCircle
 10
420.96387
 20
187.049929
 30
0.0
 40
1.19065
  0
LINE
  5
A60
100
AcDbEntity
  8
CENTER
100
AcDbLine
 10
422.858389
 20
187.777166
 30
0.0
 11
418.864415
 21
186.244023
 31
0.0
  0
LINE
  5
A61
100
AcDbEntity
  8
CENTER
100
AcDbLine
 10
421.783596
 20
184.91447
 30
0.0
 11
420.130415
 21
189.221153
 31
0.0
  0
ELLIPSE
  5
A6B
100
AcDbEntity
  8
FOOT-A
100
AcDbEllipse
 10
447.30536
 20
283.575572
 30
0.0
 11
0.0
 21
1.190625000000011
 31
0.0
210
0.0
220
0.0
230
1.0
 40
0.9336
 41
0.0
 42
6.2831853071796
  0
ELLIPSE
  5
A6D
100
AcDbEntity
  8
FOOT-A
100
AcDbEllipse
 10
447.578436
 20
283.575572
 30
0.0
 11
0.0
 21
1.190625000000011
 31
0.0
210
0.0
220
0.0
230
1.0
 40
0.9336
 41
0.1231449181376903
 42
3.018447735451482
  0
DIMENSION
  5
A7A
100
AcDbEntity
  8
DIM
100
AcDbDimension
  2
*D15
 10
408.440561
 20
210.814656
 30
0.0
 11
351.529498
 21
188.968546
 31
0.0
 70
    32
 51
339.0
  3
SU1
100
AcDbAlignedDimension
 13
420.130415
 23
189.221153
 33
0.0
 14
400.152251
 24
232.406442
 34
0.0
 50
21.0
100
AcDbRotatedDimension
1001
ACAD
1000
DSTYLE
1002
{
1070
    47
1040
0.03
1070
    71
1070
     1
1070
    48
1040
0.03
1070
   272
1070
     2
1070
    76
1070
     1
1070
    40
1040
25.4
1070
     3
1000
mm
1070
   271
1070
     2
1070
     4
1000
"
1070
   274
1070
     3
1070
   143
1040
0.03937
1070
   171
1070
     3
1070
   170
1070
     1
1002
}
  0
DIMENSION
  5
A89
100
AcDbEntity
  8
DIM
100
AcDbDimension
  2
*D16
 10
310.787435
 20
299.788943
 30
0.0
 11
342.410435
 21
308.932943
 31
0.0
 70
    32
  3
SU1
100
AcDbAlignedDimension
 13
382.863258
 23
291.577246
 33
0.0
 14
384.438094
 24
299.788943
 34
0.0
 50
90.0
100
AcDbRotatedDimension
1001
ACAD
1000
DSTYLE
1002
{
1070
    47
1040
0.03
1070
    48
1040
0.03
1070
   272
1070
     2
1070
    40
1040
25.4
1070
     3
1000
mm
1070
   271
1070
     2
1070
     4
1000
"
1070
   274
1070
     3
1070
   143
1040
0.03937
1070
   171
1070
     3
1070
   170
1070
     1
1002
}
  0
DIMENSION
  5
A98
100
AcDbEntity
  8
DIM
100
AcDbDimension
  2
*D17
 10
192.060486
 20
299.788943
 30
0.0
 11
250.734486
 21
308.932943
 31
0.0
 70
    32
  3
SU1
100
AcDbAlignedDimension
 13
384.93291
 23
283.575572
 33
0.0
 14
384.438094
 24
299.788943
 34
0.0
 50
90.0
100
AcDbRotatedDimension
1001
ACAD
1000
DSTYLE
1002
{
1070
    47
1040
0.03
1070
    71
1070
     1
1070
    48
1040
0.03
1070
   272
1070
     2
1070
    40
1040
25.4
1070
     3
1000
mm
1070
   271
1070
     2
1070
     4
1000
"
1070
   274
1070
     3
1070
   143
1040
0.03937
1070
   171
1070
     3
1070
   170
1070
     1
1002
}
  0
DIMENSION
  5
AA6
100
AcDbEntity
  8
DIM
100
AcDbDimension
  2
*D18
 10
60.312186
 20
299.788943
 30
0.0
 11
60.312186
 21
283.575572
 31
0.0
 70
    32
  3
SU1
100
AcDbAlignedDimension
 13
384.438094
 23
267.362201
 33
0.0
 14
384.438094
 24
299.788943
 34
0.0
 50
90.0
100
AcDbRotatedDimension
1001
ACAD
1000
DSTYLE
1002
{
1070
    47
1040
0.03
1070
    71
1070
     1
1070
    48
1040
0.03
1070
   272
1070
     2
1070
    40
1040
25.4
1070
     3
1000
mm
1070
   271
1070
     2
1070
     4
1000
"
1070
   274
1070
     3
1070
   143
1040
0.03937
1070
   171
1070
     3
1070
   170
1070
     1
1002
}
  0
DIMENSION
  5
AB4
100
AcDbEntity
  8
DIM
100
AcDbDimension
  2
*D19
 10
145.802807
 20
299.788943
 30
0.0
 11
145.802807
 21
287.681421
 31
0.0
 70
    32
  3
SU1
100
AcDbAlignedDimension
 13
382.863258
 23
275.573898
 33
0.0
 14
384.438094
 24
299.788943
 34
0.0
 50
90.0
100
AcDbRotatedDimension
1001
ACAD
1000
DSTYLE
1002
{
1070
    47
1040
0.03
1070
    48
1040
0.03
1070
   272
1070
     2
1070
    40
1040
25.4
1070
     3
1000
mm
1070
   271
1070
     2
1070
     4
1000
"
1070
   274
1070
     3
1070
   143
1040
0.03937
1070
   171
1070
     3
1070
   170
1070
     1
1002
}
  0
DIMENSION
  5
AC3
100
AcDbEntity
  8
DIM
100
AcDbDimension
  2
*D20
 10
476.886835
 20
299.788943
 30
0.0
 11
508.509835
 21
308.932943
 31
0.0
 70
   160
  3
SU1
100
AcDbAlignedDimension
 13
397.313521
 23
293.078386
 33
0.0
 14
455.197979
 24
299.788943
 34
0.0
 50
90.0
100
AcDbRotatedDimension
1001
ACAD
1000
DSTYLE
1002
{
1070
    47
1040
0.03
1070
    48
1040
0.03
1070
   272
1070
     2
1070
    40
1040
25.4
1070
     3
1000
mm
1070
   271
1070
     2
1070
     4
1000
"
1070
   274
1070
     3
1070
   143
1040
0.03937
1070
   171
1070
     3
1070
   170
1070
     1
1002
}
  0
DIMENSION
  5
AD2
100
AcDbEntity
  8
DIM
100
AcDbDimension
  2
*D21
 10
544.030415
 20
299.788943
 30
0.0
 11
575.653415
 21
308.932943
 31
0.0
 70
    32
  3
SU1
100
AcDbAlignedDimension
 13
397.313521
 23
290.076106
 33
0.0
 14
455.197979
 24
299.788943
 34
0.0
 50
90.0
100
AcDbRotatedDimension
1001
ACAD
1000
DSTYLE
1002
{
1070
    47
1040
0.03
1070
    48
1040
0.03
1070
   272
1070
     2
1070
    40
1040
25.4
1070
     3
1000
mm
1070
   271
1070
     2
1070
     4
1000
"
1070
   274
1070
     3
1070
   143
1040
0.03937
1070
   171
1070
     3
1070
   170
1070
     1
1002
}
  0
DIMENSION
  5
AE1
100
AcDbEntity
  8
DIM
100
AcDbDimension
  2
*D22
 10
607.868971
 20
299.788943
 30
0.0
 11
641.777971
 21
308.932943
 31
0.0
 70
    32
  3
SU1
100
AcDbAlignedDimension
 13
397.313521
 23
277.075038
 33
0.0
 14
455.197979
 24
299.788943
 34
0.0
 50
90.0
100
AcDbRotatedDimension
1001
ACAD
1000
DSTYLE
1002
{
1070
    47
1040
0.03
1070
    48
1040
0.03
1070
   272
1070
     2
1070
    40
1040
25.4
1070
     3
1000
mm
1070
   271
1070
     2
1070
     4
1000
"
1070
   274
1070
     3
1070
   143
1040
0.03937
1070
   171
1070
     3
1070
   170
1070
     1
1002
}
  0
DIMENSION
  5
AEF
100
AcDbEntity
  8
DIM
100
AcDbDimension
  2
*D23
 10
677.030494
 20
299.788943
 30
0.0
 11
677.030494
 21
286.930851
 31
0.0
 70
    32
  3
SU1
100
AcDbAlignedDimension
 13
397.313521
 23
274.072758
 33
0.0
 14
455.197979
 24
299.788943
 34
0.0
 50
90.0
100
AcDbRotatedDimension
1001
ACAD
1000
DSTYLE
1002
{
1070
    47
1040
0.03
1070
    48
1040
0.03
1070
   272
1070
     2
1070
    40
1040
25.4
1070
     3
1000
mm
1070
   271
1070
     2
1070
     4
1000
"
1070
   274
1070
     3
1070
   143
1040
0.03937
1070
   171
1070
     3
1070
   170
1070
     1
1002
}
  0
DIMENSION
  5
B73
100
AcDbEntity
  8
DIM
100
AcDbDimension
  2
*D24
 10
564.670933
 20
267.362201
 30
0.0
 11
507.901933
 21
258.218201
 31
0.0
 70
    32
  1
{<>}\P{WALL THICKNESS}
  3
SU1
100
AcDbAlignedDimension
 13
455.197979
 23
268.124201
 33
0.0
 14
455.197979
 24
267.362201
 34
0.0
 50
90.0
100
AcDbRotatedDimension
1001
ACAD
1000
DSTYLE
1002
{
1070
    47
1040
0.03
1070
    71
1070
     1
1070
    48
1040
0.03
1070
   272
1070
     2
1070
    40
1040
25.4
1070
     3
1000
mm
1070
   271
1070
     2
1070
     4
1000
"
1070
   274
1070
     3
1070
   143
1040
0.03937
1070
   171
1070
     3
1070
   170
1070
     1
1002
}
  0
DIMENSION
  5
BC0
100
AcDbEntity
  8
DIM
100
AcDbDimension
  2
*D25
 10
387.638458
 20
332.552802
 30
0.0
 11
348.776458
 21
332.552802
 31
0.0
 70
    32
  3
SU1
100
AcDbAlignedDimension
 13
443.203424
 23
471.850262
 33
0.0
 14
387.638458
 24
296.352446
 34
0.0
100
AcDbRotatedDimension
1001
ACAD
1000
DSTYLE
1002
{
1070
    47
1040
0.03
1070
    48
1040
0.03
1070
   272
1070
     2
1070
    75
1070
     1
1070
    40
1040
25.4
1070
     3
1000
mm
1070
   271
1070
     2
1070
     4
1000
"
1070
   274
1070
     3
1070
   143
1040
0.03937
1070
   171
1070
     3
1070
   170
1070
     1
1002
}
  0
DIMENSION
  5
BCD
100
AcDbEntity
  8
DIM
100
AcDbDimension
  2
*D26
 10
389.298535
 20
343.746873
 30
0.0
 11
325.290535
 21
343.746873
 31
0.0
 70
    32
  3
SU1
100
AcDbAlignedDimension
 13
443.203424
 23
471.850262
 33
0.0
 14
389.298535
 24
287.941197
 34
0.0
100
AcDbRotatedDimension
1001
ACAD
1000
DSTYLE
1002
{
1070
    47
1040
0.03
1070
    71
1070
     1
1070
    48
1040
0.03
1070
   272
1070
     2
1070
    75
1070
     1
1070
    40
1040
25.4
1070
     3
1000
mm
1070
   271
1070
     2
1070
     4
1000
"
1070
   274
1070
     3
1070
   143
1040
0.03937
1070
   171
1070
     3
1070
   170
1070
     1
1002
}
  0
DIMENSION
  5
BDA
100
AcDbEntity
  8
DIM
100
AcDbDimension
  2
*D27
 10
392.108858
 20
354.474525
 30
0.0
 11
354.770858
 21
354.474525
 31
0.0
 70
    32
  3
SU1
100
AcDbAlignedDimension
 13
443.203424
 23
471.850262
 33
0.0
 14
392.108858
 24
296.352446
 34
0.0
100
AcDbRotatedDimension
1001
ACAD
1000
DSTYLE
1002
{
1070
    47
1040
0.03
1070
    48
1040
0.03
1070
   272
1070
     2
1070
    75
1070
     1
1070
    40
1040
25.4
1070
     3
1000
mm
1070
   271
1070
     2
1070
     4
1000
"
1070
   274
1070
     3
1070
   143
1040
0.03937
1070
   171
1070
     3
1070
   170
1070
     1
1002
}
  0
DIMENSION
  5
BE7
100
AcDbEntity
  8
DIM
100
AcDbDimension
  2
*D28
 10
394.313781
 20
364.984667
 30
0.0
 11
355.451781
 21
364.984667
 31
0.0
 70
    32
  3
SU1
100
AcDbAlignedDimension
 13
443.203424
 23
471.850262
 33
0.0
 14
394.313781
 24
292.578006
 34
0.0
100
AcDbRotatedDimension
1001
ACAD
1000
DSTYLE
1002
{
1070
    47
1040
0.03
1070
    48
1040
0.03
1070
   272
1070
     2
1070
    75
1070
     1
1070
    40
1040
25.4
1070
     3
1000
mm
1070
   271
1070
     2
1070
     4
1000
"
1070
   274
1070
     3
1070
   143
1040
0.03937
1070
   171
1070
     3
1070
   170
1070
     1
1002
}
  0
DIMENSION
  5
BF4
100
AcDbEntity
  8
DIM
100
AcDbDimension
  2
*D29
 10
397.813901
 20
374.711721
 30
0.0
 11
358.951901
 21
374.711721
 31
0.0
 70
    32
  3
SU1
100
AcDbAlignedDimension
 13
443.203424
 23
471.850262
 33
0.0
 14
397.813901
 24
292.578006
 34
0.0
100
AcDbRotatedDimension
1001
ACAD
1000
DSTYLE
1002
{
1070
    47
1040
0.03
1070
    48
1040
0.03
1070
   272
1070
     2
1070
    75
1070
     1
1070
    40
1040
25.4
1070
     3
1000
mm
1070
   271
1070
     2
1070
     4
1000
"
1070
   274
1070
     3
1070
   143
1040
0.03937
1070
   171
1070
     3
1070
   170
1070
     1
1002
}
  0
DIMENSION
  5
C01
100
AcDbEntity
  8
DIM
100
AcDbDimension
  2
*D30
 10
430.503394
 20
386.518247
 30
0.0
 11
393.165394
 21
386.518247
 31
0.0
 70
    32
  3
SU1
100
AcDbAlignedDimension
 13
443.203424
 23
471.850262
 33
0.0
 14
430.503394
 24
288.223772
 34
0.0
100
AcDbRotatedDimension
1001
ACAD
1000
DSTYLE
1002
{
1070
    47
1040
0.03
1070
    48
1040
0.03
1070
   272
1070
     2
1070
    75
1070
     1
1070
    40
1040
25.4
1070
     3
1000
mm
1070
   271
1070
     2
1070
     4
1000
"
1070
   274
1070
     3
1070
   143
1040
0.03937
1070
   171
1070
     3
1070
   170
1070
     1
1002
}
  0
DIMENSION
  5
C66
100
AcDbEntity
  8
DIM
100
AcDbDimension
  2
*D31
 10
404.306309
 20
448.249104
 30
0.0
 11
301.424581
 21
405.14122
 31
0.0
 70
   163
  1
{<>}\P{4X}
  3
SU1$3
100
AcDbDiametricDimension
 15
402.669859
 25
446.519184
 35
0.0
 40
0.0
1001
ACAD
1000
DSTYLE
1002
{
1070
    47
1040
0.03
1070
    71
1070
     1
1070
    48
1040
0.03
1070
   272
1070
     2
1070
    75
1070
     1
1070
    40
1040
25.4
1070
     3
1000
mm
1070
   271
1070
     2
1070
     4
1000
"
1070
   274
1070
     3
1070
   143
1040
0.03937
1070
   171
1070
     3
1070
   170
1070
     1
1002
}
  0
DIMENSION
  5
C86
100
AcDbEntity
  8
DIM
100
AcDbDimension
  2
*D32
 10
388.725061
 20
276.748604
 30
0.0
 11
313.225571
 21
233.845394
 31
0.0
 70
   163
  1
{<>}\P{4X}
  3
SU1$3
100
AcDbDiametricDimension
 15
386.551854
 25
274.399193
 35
0.0
 40
0.0
1001
ACAD
1000
DSTYLE
1002
{
1070
    47
1040
0.03
1070
    48
1040
0.03
1070
   272
1070
     2
1070
    75
1070
     1
1070
    40
1040
25.4
1070
     3
1000
mm
1070
   271
1070
     2
1070
     4
1000
"
1070
   274
1070
     3
1070
   143
1040
0.03937
1070
   171
1070
     3
1070
   170
1070
     1
1002
}
  0
DIMENSION
  5
C9C
100
AcDbEntity
  8
DIM
100
AcDbDimension
  2
*D33
 10
390.109985
 20
284.446856
 30
0.0
 11
300.533007
 21
254.947044
 31
0.0
 70
   163
  1
{<>}\P{2X}
  3
SU1$3
100
AcDbDiametricDimension
 15
388.487084
 25
282.704288
 35
0.0
 40
0.0
1001
ACAD
1000
DSTYLE
1002
{
1070
    47
1040
0.03
1070
    71
1070
     1
1070
    48
1040
0.03
1070
   272
1070
     2
1070
    75
1070
     1
1070
    40
1040
25.4
1070
     3
1000
mm
1070
   271
1070
     2
1070
     4
1000
"
1070
   274
1070
     3
1070
   143
1040
0.03937
1070
   171
1070
     3
1070
   170
1070
     1
1002
}
  0
LEADER
  5
CC7
100
AcDbEntity
  8
TEXT
100
AcDbLeader
  3
SU1$7
 76
     3
 10
374.0
 20
307.0
 30
0.0
 10
374.0
 20
287.0
 30
0.0
 10
383.0
 20
287.0
 30
0.0
 77
   256
1001
ACAD
1000
DSTYLE
1002
{
1070
    47
1040
0.03
1070
    71
1070
     1
1070
    48
1040
0.03
1070
   272
1070
     2
1070
    75
1070
     1
1070
    40
1040
25.4
1070
     3
1000
mm
1070
   271
1070
     2
1070
     4
1000
"
1070
   274
1070
     3
1070
   143
1040
0.03937
1070
   171
1070
     3
1070
   170
1070
     1
1002
}
  0
LEADER
  5
CC8
100
AcDbEntity
  8
TEXT
100
AcDbLeader
  3
SU1$7
 76
     3
 10
466.0
 20
307.0
 30
0.0
 10
466.0
 20
287.0
 30
0.0
 10
457.0
 20
287.0
 30
0.0
 77
   256
211
-1.0
221
0.0
231
0.0
1001
ACAD
1000
DSTYLE
1002
{
1070
    47
1040
0.03
1070
    71
1070
     1
1070
    48
1040
0.03
1070
   272
1070
     2
1070
    75
1070
     1
1070
    40
1040
25.4
1070
     3
1000
mm
1070
   271
1070
     2
1070
     4
1000
"
1070
   274
1070
     3
1070
   143
1040
0.03937
1070
   171
1070
     3
1070
   170
1070
     1
1002
}
  0
TEXT
  5
D3A
100
AcDbEntity
  8
TEXT
100
AcDbText
 10
463.890157
 20
308.577648
 30
0.0
 40
6.0
  1
A
100
AcDbText
  0
TEXT
  5
D3B
100
AcDbEntity
  8
TEXT
100
AcDbText
 10
372.347952
 20
308.935827
 30
0.0
 40
6.0
  1
A
100
AcDbText
  0
DIMENSION
  5
D71
100
AcDbEntity
  8
DIM
100
AcDbDimension
  2
*D34
 10
395.136219
 20
274.956099
 30
0.0
 11
308.892626
 21
214.08381
 31
0.0
 70
   163
  1
{<>}\P{8X}
  3
SU1$3
100
AcDbDiametricDimension
 15
394.492103
 25
274.190177
 35
0.0
 40
0.0
1001
ACAD
1000
DSTYLE
1002
{
1070
    47
1040
0.03
1070
    48
1040
0.03
1070
   272
1070
     2
1070
    75
1070
     1
1070
    40
1040
25.4
1070
     3
1000
mm
1070
   271
1070
     2
1070
     4
1000
"
1070
   274
1070
     3
1070
   143
1040
0.03937
1070
   171
1070
     3
1070
   170
1070
     1
1002
}
  0
DIMENSION
  5
DA6
100
AcDbEntity
  8
DIM
100
AcDbDimension
  2
*D35
 10
429.739534
 20
284.835269
 30
0.0
 11
494.619065
 21
236.274361
 31
0.0
 70
   163
  3
SU1$3
100
AcDbDiametricDimension
 15
431.267253
 25
282.315875
 35
0.0
 40
0.0
1001
ACAD
1000
DSTYLE
1002
{
1070
    47
1040
0.03
1070
    48
1040
0.03
1070
   272
1070
     2
1070
    75
1070
     1
1070
    40
1040
25.4
1070
     3
1000
mm
1070
   271
1070
     2
1070
     4
1000
"
1070
   274
1070
     3
1070
   143
1040
0.03937
1070
   171
1070
     3
1070
   170
1070
     1
1002
}
  0
ARC
  5
DAB
100
AcDbEntity
  8
FOOT-A
100
AcDbCircle
 10
386.025594
 20
444.035828
 30
0.0
 40
1.5875
100
AcDbArc
 50
180.0
 51
270.0
  0
ARC
  5
DAC
100
AcDbEntity
  8
FOOT-A
100
AcDbCircle
 10
386.025594
 20
121.841802
 30
0.0
 40
1.5875
100
AcDbArc
 50
90.0
 51
180.0
  0
DIMENSION
  5
DB8
100
AcDbEntity
  8
DIM
100
AcDbDimension
  2
*D36
 10
386.025594
 20
444.035828
 30
0.0
 11
333.850356
 21
427.629595
 31
0.0
 70
   164
  1
{<>}\P{2X}
  3
SU1$4
100
AcDbRadialDimension
 15
384.904605
 25
442.911756
 35
0.0
 40
0.0
1001
ACAD
1000
DSTYLE
1002
{
1070
    47
1040
0.03
1070
    48
1040
0.03
1070
   272
1070
     2
1070
    75
1070
     1
1070
    40
1040
25.4
1070
     3
1000
mm
1070
   271
1070
     2
1070
     4
1000
"
1070
   274
1070
     3
1070
   143
1040
0.03937
1070
   171
1070
     3
1070
   170
1070
     1
1002
}
  0
DIMENSION
  5
DE3
100
AcDbEntity
  8
DIM
100
AcDbDimension
  2
*D37
 10
400.152251
 20
232.406442
 30
0.0
 11
422.378472
 21
232.615685
 31
0.0
 70
    34
  3
SU1$2
100
AcDb2LineAngularDimension
 13
443.203424
 23
29.889741
 33
0.0
 14
443.203424
 24
471.850262
 34
0.0
 15
476.005797
 25
34.801199
 35
0.0
 16
430.861323
 26
233.860779
 36
0.0
1001
ACAD
1000
DSTYLE
1002
{
1070
    47
1040
0.03
1070
    48
1040
0.03
1070
   272
1070
     2
1070
    75
1070
     1
1070
    40
1040
25.4
1070
   271
1070
     2
1070
     4
1000
"
1070
   274
1070
     3
1070
   143
1040
0.03937
1070
   171
1070
     3
1070
   170
1070
     1
1002
}
  0
ENDSEC
  0
SECTION
  2
OBJECTS
  0
DICTIONARY
  5
C
100
AcDbDictionary
  3
ACAD_GROUP
350
D
  3
ACAD_MLINESTYLE
350
E
  3
ACASAPPOBJECT
350
7B
  3
ACASGREF_MASTER
350
2D
  3
ACCELVIEW
350
86
  3
ACDMSYSVARMGR
350
49
  3
ACGREF_MASTER
350
2B
  3
ACME_COMMAND_HISTORY
350
29
  3
ACME_SCOPE_NAME
350
28
  3
AD_APPL
350
3C
  3
AD_DRAWMGR_NAME
350
5E
  3
AD_GREF_MODULE
350
44
  3
AD_HOLENOTE_REPOSITORY
350
43
  3
ADSYSVARMGR
350
32
  3
AMI_MASTER
350
2C
  3
AUTOCAD_ASSEMBLIES_PROJECT
350
6A
  3
DESIGNER_ASSEMBLIES_SYSVARS
350
65
  0
DICTIONARY
  5
D
102
{ACAD_REACTORS
330
C
102
}
100
AcDbDictionary
  0
DICTIONARY
  5
E
102
{ACAD_REACTORS
330
C
102
}
100
AcDbDictionary
  3
STANDARD
350
13
  0
ACAD_ZOMBIE_OBJECT
  5
7B
102
{ACAD_REACTORS
330
C
102
}
100
AcDbZombieObject
 90
      499
 91
      536
 93
        2
310
90
360
79
 94
        0
  0
ACAD_ZOMBIE_OBJECT
  5
2D
102
{ACAD_REACTORS
330
C
102
}
100
AcDbZombieObject
 90
      499
 91
      505
 93
       34
310
0100004044
 94
        0
  0
ACAD_ZOMBIE_OBJECT
  5
86
102
{ACAD_REACTORS
330
C
102
}
100
AcDbZombieObject
 90
      499
 91
      537
 93
       12
310
9014
330
3D
 94
        0
  0
ACAD_ZOMBIE_OBJECT
  5
49
102
{ACAD_REACTORS
330
C
102
}
100
AcDbZombieObject
 90
      499
 91
      510
 93
      176
310
4C5114810100000000000000000000000000000000004F
330
4A
330
4B
330
4C
330
4D
330
4E
330
50
330
52
330
53
330
54
330
55
330
56
330
57
330
58
330
59
330
5A
330
5B
330
5D
 94
        0
  0
ACAD_ZOMBIE_OBJECT
  5
2B
102
{ACAD_REACTORS
330
C
102
}
100
AcDbZombieObject
 90
      499
 91
      503
 93
      114
310
01000040C000000000000000000000
 94
        0
  0
ACAD_ZOMBIE_OBJECT
  5
29
102
{ACAD_REACTORS
330
C
102
}
100
AcDbZombieObject
 90
      499
 91
      501
 93
     3940
310
478050444494D3140405084E202D205341564501411112534C501014293880B4814D1551590548050444494D31404050A4E202D2053455456415201411112534C501014293880B4814D1551590548050444494D31404050A4E202D2053455456415201411112534C501014293880B4814D1551590548050444494D31404050
310
A4E202D2053455456415201411112534C501014213880B4814D055914050444494D31404050A4E202D2053455456415201411112534C501014293880B4814D1551590548050444494D31404050A4E202D2053455456415201411112534C501014293880B4814D1551590548050444494D31404050A4E202D20534554564152
310
01411112534C501014293880B4814D1551590548050444494D3140405084E202D205341564501411112534C5010142D3880B48149154D513D49140504554E444F80504554E444F805034E455780508554E444546494E4580508554E444546494E458050A4D454E55554E4C4F4144805084D454E554C4F41448050C41445F43
310
4F4E56455254523140805084E202D20554E444F014213880B4815539113C050C414D4C54595045434845434B40C05084E202D20554E444F014253880B481310565154805084E202D20554E444F01415310565154A01415310565154A014115539113E014115539113E014113D41153AE
 94
        0
  0
ACAD_ZOMBIE_OBJECT
  5
28
102
{ACAD_REACTORS
330
C
102
}
100
AcDbZombieObject
 90
      499
 91
      500
 93
      456
310
0101004093100000000000000000000000000000000000000000000000000000000000000000000000000000000000000000000000000901000E
360
2E
360
2F
360
30
360
31
360
33
360
34
360
35
360
36
360
37
360
38
360
39
360
3A
360
3B
360
3E
360
3F
360
40
360
41
360
42
360
45
360
46
360
47
360
48
360
4A
360
4B
360
4C
360
4D
360
4E
360
50
360
52
360
53
360
54
360
55
360
56
360
57
360
58
360
59
360
5A
360
5B
360
5D
360
66
360
67
360
68
360
69
360
6E
360
6F
360
70
360
71
360
72
360
76
330
3D
 94
        0
  0
ACAD_ZOMBIE_OBJECT
  5
3C
102
{ACAD_REACTORS
330
C
102
}
100
AcDbZombieObject
 90
      499
 91
      514
 93
       42
310
000100004353
330
2E
 94
        0
  0
ACAD_ZOMBIE_OBJECT
  5
5E
102
{ACAD_REACTORS
330
C
102
}
100
AcDbZombieObject
 90
      499
 91
      526
 93
       42
310
000100004413
330
45
 94
        0
  0
ACAD_ZOMBIE_OBJECT
  5
44
102
{ACAD_REACTORS
330
C
102
}
100
AcDbZombieObject
 90
      499
 91
      521
 93
      114
310
000000428000000000000000000009
 94
        0
  0
ACAD_ZOMBIE_OBJECT
  5
43
102
{ACAD_REACTORS
330
C
102
}
100
AcDbZombieObject
 90
      499
 91
      520
 93
        8
310
0025
330
42
 94
        0
  0
ACAD_ZOMBIE_OBJECT
  5
32
102
{ACAD_REACTORS
330
C
102
}
100
AcDbZombieObject
 90
      499
 91
      510
 93
      104
310
9094410100000000000000000069
330
33
330
34
330
35
330
36
330
37
330
38
330
39
330
3A
330
3B
 94
        0
  0
ACAD_ZOMBIE_OBJECT
  5
2C
102
{ACAD_REACTORS
330
C
102
}
100
AcDbZombieObject
 90
      499
 91
      504
 93
       34
310
0100004040
 94
        0
  0
ACAD_ZOMBIE_OBJECT
  5
6A
102
{ACAD_REACTORS
330
C
102
}
100
AcDbZombieObject
 90
      499
 91
      527
 93
       58
310
0100004180000012
330
70
330
76
330
71
 94
        0
  0
ACAD_ZOMBIE_OBJECT
  5
65
102
{ACAD_REACTORS
330
C
102
}
100
AcDbZombieObject
 90
      499
 91
      510
 93
       64
310
90444101000000000B
330
66
330
67
330
68
330
69
 94
        0
  0
MLINESTYLE
  5
13
102
{ACAD_REACTORS
330
E
102
}
100
AcDbMlineStyle
  2
STANDARD
 70
     0
  3

 62
     0
 51
90.0
 52
90.0
 71
     2
 49
0.5
 62
   256
  6
BYLAYER
 49
-0.5
 62
   256
  6
BYLAYER
  0
ACAD_ZOMBIE_OBJECT
  5
79
100
AcDbZombieObject
 90
      499
 91
      534
 93
      720
310
9064D2E312E313607014B7269BC41100000000000000E03F1EC52B91F85EA10FE1EC52B91F85EA10FD034153471EC52B91F85EA10FC000000FC83D797414650540C000000000000E03F3F2A7C749358940FC000000FC83D797414F
 94
        0
  0
ACAD_ZOMBIE_OBJECT
  5
2E
100
AcDbZombieObject
 90
      499
 91
      506
 93
      280
310
000000000000014119185D1940506462E312E3136014119185D1940506462E312E3136EB
330
28
330
2F
330
30
330
32
330
3D
 94
        0
  0
ACAD_ZOMBIE_OBJECT
  5
2F
100
AcDbZombieObject
 90
      499
 91
      507
 93
      120
310
00009024410100000092080002A6A600
330
28
330
3F
330
3E
330
0
 94
        0
  0
ACAD_ZOMBIE_OBJECT
  5
30
100
AcDbZombieObject
 90
      499
 91
      508
 93
       46
310
000000009208
330
28
330
0
330
31
 94
        0
  0
ACAD_ZOMBIE_OBJECT
  5
31
100
AcDbZombieObject
 90
      499
 91
      509
 93
       22
310
0000A9
330
28
 94
        0
  0
ACAD_ZOMBIE_OBJECT
  5
33
100
AcDbZombieObject
 90
      499
 91
      511
 93
      124
310
00000142905350D3D39114D414D69050
330
28
 94
        0
  0
ACAD_ZOMBIE_OBJECT
  5
34
100
AcDbZombieObject
 90
      499
 91
      511
 93
      124
310
000001429053549553115353D1115010
330
28
 94
        0
  0
ACAD_ZOMBIE_OBJECT
  5
35
100
AcDbZombieObject
 90
      499
 91
      511
 93
      108
310
00000142105354D2D353D1115016
330
28
 94
        0
  0
ACAD_ZOMBIE_OBJECT
  5
36
100
AcDbZombieObject
 90
      499
 91
      511
 93
      140
310
000001435053511253511254D41353D11160
330
28
 94
        0
  0
ACAD_ZOMBIE_OBJECT
  5
37
100
AcDbZombieObject
 90
      499
 91
      512
 93
      180
310
00000142905354D2D05391D513D3000000000000010405
330
28
 94
        0
  0
ACAD_ZOMBIE_OBJECT
  5
38
100
AcDbZombieObject
 90
      499
 91
      513
 93
      164
310
00000142505354D2D4D516531140505434F4E542A0
330
28
 94
        0
  0
ACAD_ZOMBIE_OBJECT
  5
39
100
AcDbZombieObject
 90
      499
 91
      511
 93
      108
310
00000142105350D3511112535013
330
28
 94
        0
  0
ACAD_ZOMBIE_OBJECT
  5
3A
100
AcDbZombieObject
 90
      499
 91
      513
 93
      116
310
000001425053541054919253114060
330
28
 94
        0
  0
ACAD_ZOMBIE_OBJECT
  5
3B
100
AcDbZombieObject
 90
      499
 91
      511
 93
      100
310
00000142105350D3D35414D5A0
330
28
 94
        0
  0
ACAD_ZOMBIE_OBJECT
  5
3E
100
AcDbZombieObject
 90
      499
 91
      516
 93
      164
310
000092090148200A00000440000FFFFFFFF0000001
330
28
330
3F
330
2F
330
3D
 94
        0
  0
ACAD_ZOMBIE_OBJECT
  5
3F
100
AcDbZombieObject
 90
      499
 91
      517
 93
       82
310
000040520802482A800000
330
28
330
3E
330
2F
330
3D
 94
        0
  0
ACAD_ZOMBIE_OBJECT
  5
40
100
AcDbZombieObject
 90
      499
 91
      509
 93
       22
310
0000A9
330
28
 94
        0
  0
ACAD_ZOMBIE_OBJECT
  5
41
100
AcDbZombieObject
 90
      499
 91
      518
 93
       38
310
0000009208
330
28
330
0
 94
        0
  0
ACAD_ZOMBIE_OBJECT
  5
42
100
AcDbZombieObject
 90
      499
 91
      519
 93
     3196
310
0000419208050A544852555F4452494C4C0142D09312539117D1149253130050A544852555F43424F52450142D09312539117D0D093D4914050A544852555F4353494E4B0142D09312539117D0D4D25392D0648201459EC94958C8094950535112504815121493D551D20B9F4051C7B252563202525414D444941205820252
310
5414D44455020444545507D014F5EC94958C8094950535112504815121493D551D20B9F57141ED0D093D49148094958C80949505350D112504816080949505350D091115408111151541F405437B252563202525414D4449412058202525414D44455020444545507D5C507B43424F524520252563202525414D4344494120
310
58202525414D434244455020444545507D014EDEC94958C8094950535112504815121493D551D20B9F57141ED0D4D25392C8094958C80949505350D112504816080949505350D4D05391C949591F405417B252563202525414D4449412058202525414D44455020444545507D5C507B4353494E4B20252563202525414D434
310
449412058202525414D4353414E472525647D4
330
28
 94
        0
  0
ACAD_ZOMBIE_OBJECT
  5
45
100
AcDbZombieObject
 90
      499
 91
      522
 93
      308
310
0000014119185D1940507442E312E313663014119185D1940507442E312E313663405010000004
330
28
330
46
330
48
330
49
 94
        0
  0
ACAD_ZOMBIE_OBJECT
  5
46
100
AcDbZombieObject
 90
      499
 91
      523
 93
       56
310
000090144101002A
330
28
330
47
 94
        0
  0
ACAD_ZOMBIE_OBJECT
  5
47
100
AcDbZombieObject
 90
      499
 91
      524
 93
       40
310
0000A4410120
330
28
 94
        0
  0
ACAD_ZOMBIE_OBJECT
  5
48
100
AcDbZombieObject
 90
      499
 91
      525
 93
       68
310
0000A44101920A4820
330
28
 94
        0
  0
ACAD_ZOMBIE_OBJECT
  5
4A
100
AcDbZombieObject
 90
      499
 91
      511
 93
      108
310
000001421053521310D05310D010
330
28
 94
        0
  0
ACAD_ZOMBIE_OBJECT
  5
4B
100
AcDbZombieObject
 90
      499
 91
      511
 93
      124
310
000001429053541493D2951654115013
330
28
 94
        0
  0
ACAD_ZOMBIE_OBJECT
  5
4C
100
AcDbZombieObject
 90
      499
 91
      511
 93
      124
310
00000142905354915554D15112535010
330
28
 94
        0
  0
ACAD_ZOMBIE_OBJECT
  5
4D
100
AcDbZombieObject
 90
      499
 91
      511
 93
      132
310
00000143105354D150D51253D391125366
330
28
 94
        0
  0
ACAD_ZOMBIE_OBJECT
  5
4E
100
AcDbZombieObject
 90
      499
 91
      511
 93
      124
310
00000142905355941093D49111549010
330
28
 94
        0
  0
ACAD_ZOMBIE_OBJECT
  5
50
100
AcDbZombieObject
 90
      499
 91
      513
 93
      180
310
00000142905352125113151654114050648494444454E1
330
28
 94
        0
  0
ACAD_ZOMBIE_OBJECT
  5
52
100
AcDbZombieObject
 90
      499
 91
      513
 93
      196
310
00000142905354D150D315165411405085048414E544F4D320
330
28
 94
        0
  0
ACAD_ZOMBIE_OBJECT
  5
53
100
AcDbZombieObject
 90
      499
 91
      511
 93
      108
310
00000142105354D51114D0D51021
330
28
 94
        0
  0
ACAD_ZOMBIE_OBJECT
  5
54
100
AcDbZombieObject
 90
      499
 91
      511
 93
      108
310
00000142105354D5111510541021
330
28
 94
        0
  0
ACAD_ZOMBIE_OBJECT
  5
55
100
AcDbZombieObject
 90
      499
 91
      511
 93
      108
310
00000142105354D5111115131021
330
28
 94
        0
  0
ACAD_ZOMBIE_OBJECT
  5
56
100
AcDbZombieObject
 90
      499
 91
      512
 93
      148
310
00000141905350D310D34295C8FC2F528BC3F4
330
28
 94
        0
  0
ACAD_ZOMBIE_OBJECT
  5
57
100
AcDbZombieObject
 90
      499
 91
      512
 93
      156
310
00000141D05350D311D05402B8716D9CEF7C33F4
330
28
 94
        0
  0
ACAD_ZOMBIE_OBJECT
  5
58
100
AcDbZombieObject
 90
      499
 91
      512
 93
      164
310
00000142105350D313D4D2150295C8FC2F528BC3F0
330
28
 94
        0
  0
ACAD_ZOMBIE_OBJECT
  5
59
100
AcDbZombieObject
 90
      499
 91
      511
 93
      100
310
00000141D05350D31410549018
330
28
 94
        0
  0
ACAD_ZOMBIE_OBJECT
  5
5A
100
AcDbZombieObject
 90
      499
 91
      511
 93
      100
310
0000014210535590539254D222
330
28
 94
        0
  0
ACAD_ZOMBIE_OBJECT
  5
5B
100
AcDbZombieObject
 90
      499
 91
      512
 93
      188
310
00000142D0535312539155121250D2C295C8FC2F5289C3F4
330
28
 94
        0
  0
ACAD_ZOMBIE_OBJECT
  5
5D
100
AcDbZombieObject
 90
      499
 91
      513
 93
      164
310
00000142105350D3151654114050643454E5445520
330
28
 94
        0
  0
ACAD_ZOMBIE_OBJECT
  5
66
100
AcDbZombieObject
 90
      499
 91
      511
 93
      132
310
00000142D05050555513D4D3D315915018
330
28
 94
        0
  0
ACAD_ZOMBIE_OBJECT
  5
67
100
AcDbZombieObject
 90
      499
 91
      511
 93
      156
310
00000143905050555513D054D4D1535093115010
330
28
 94
        0
  0
ACAD_ZOMBIE_OBJECT
  5
68
100
AcDbZombieObject
 90
      499
 91
      511
 93
      148
310
00000143505055925155D49154D513D4915016
330
28
 94
        0
  0
ACAD_ZOMBIE_OBJECT
  5
69
100
AcDbZombieObject
 90
      499
 91
      511
 93
      124
310
00000142D050525394D15495105094E0
330
28
 94
        0
  0
ACAD_ZOMBIE_OBJECT
  5
6E
100
AcDbZombieObject
 90
      499
 91
      528
 93
       32
310
000000006F
330
28
340
6B
330
6F
330
6B
 94
        0
  0
ACAD_ZOMBIE_OBJECT
  5
6F
100
AcDbZombieObject
 90
      499
 91
      529
 93
      111
310
000001411050D05110400522080C
330
28
330
6E
 94
        0
  0
ACAD_ZOMBIE_OBJECT
  5
70
100
AcDbZombieObject
 90
      499
 91
      530
 93
       72
310
000000A44101A4410100
330
28
330
6F
 94
        0
  0
ACAD_ZOMBIE_OBJECT
  5
71
100
AcDbZombieObject
 90
      499
 91
      531
 93
       80
310
0000901441010000000044
330
28
330
72
330
72
330
72
330
72
 94
        0
  0
ACAD_ZOMBIE_OBJECT
  5
72
100
AcDbZombieObject
 90
      499
 91
      532
 93
      173
310
00000000406AAAAAAAAAAAAAAAAA806A44101A441010
330
28
330
71
330
6F
 94
        0
  0
ACAD_ZOMBIE_OBJECT
  5
76
100
AcDbZombieObject
 90
      499
 91
      533
 93
       26
310
00008006
330
28
330
0
 94
        0
  0
ENDSEC
  0
EOF
