  0
SECTION
  2
HEADER
  9
$ACADVER
  1
AC1012
  9
$DWGCODEPAGE
  3
ansi_1252
  9
$INSBASE
 10
0.0
 20
0.0
 30
0.0
  9
$EXTMIN
 10
3.175
 20
3.175
 30
0.0
  9
$EXTMAX
 10
791.75407
 20
506.668925
 30
0.0
  9
$LIMMIN
 10
0.0
 20
0.0
  9
$LIMMAX
 10
838.0
 20
533.0
  9
$ORTHOMODE
 70
     0
  9
$REGENMODE
 70
     1
  9
$FILLMODE
 70
     1
  9
$QTEXTMODE
 70
     0
  9
$MIRRTEXT
 70
     1
  9
$DRAGMODE
 70
     2
  9
$LTSCALE
 40
10.0
  9
$OSMODE
 70
     0
  9
$ATTMODE
 70
     1
  9
$TEXTSIZE
 40
6.0
  9
$TRACEWID
 40
0.05
  9
$TEXTSTYLE
  7
STANDARD
  9
$CLAYER
  8
DIM
  9
$CELTYPE
  6
BYLAYER
  9
$CECOLOR
 62
   256
  9
$CELTSCALE
 40
1.0
  9
$DELOBJ
 70
     1
  9
$DISPSILH
 70
     0
  9
$DIMSCALE
 40
25.4
  9
$DIMASZ
 40
0.18
  9
$DIMEXO
 40
0.0625
  9
$DIMDLI
 40
0.38
  9
$DIMRND
 40
0.0
  9
$DIMDLE
 40
0.0
  9
$DIMEXE
 40
0.18
  9
$DIMTP
 40
0.03
  9
$DIMTM
 40
0.03
  9
$DIMTXT
 40
0.18
  9
$DIMCEN
 40
0.09
  9
$DIMTSZ
 40
0.0
  9
$DIMTOL
 70
     0
  9
$DIMLIM
 70
     0
  9
$DIMTIH
 70
     1
  9
$DIMTOH
 70
     1
  9
$DIMSE1
 70
     0
  9
$DIMSE2
 70
     0
  9
$DIMTAD
 70
     0
  9
$DIMZIN
 70
     0
  9
$DIMBLK
  1

  9
$DIMASO
 70
     1
  9
$DIMSHO
 70
     1
  9
$DIMPOST
  1
mm
  9
$DIMAPOST
  1
"
  9
$DIMALT
 70
     1
  9
$DIMALTD
 70
     3
  9
$DIMALTF
 40
0.03937
  9
$DIMLFAC
 40
1.0
  9
$DIMTOFL
 70
     0
  9
$DIMTVP
 40
0.0
  9
$DIMTIX
 70
     0
  9
$DIMSOXD
 70
     0
  9
$DIMSAH
 70
     0
  9
$DIMBLK1
  1

  9
$DIMBLK2
  1

  9
$DIMSTYLE
  2
SU1
  9
$DIMCLRD
 70
     0
  9
$DIMCLRE
 70
     0
  9
$DIMCLRT
 70
     0
  9
$DIMTFAC
 40
1.0
  9
$DIMGAP
 40
0.09
  9
$DIMJUST
 70
     0
  9
$DIMSD1
 70
     0
  9
$DIMSD2
 70
     0
  9
$DIMTOLJ
 70
     1
  9
$DIMTZIN
 70
     0
  9
$DIMALTZ
 70
     0
  9
$DIMALTTZ
 70
     0
  9
$DIMFIT
 70
     0
  9
$DIMUPT
 70
     0
  9
$DIMUNIT
 70
     2
  9
$DIMDEC
 70
     2
  9
$DIMTDEC
 70
     2
  9
$DIMALTU
 70
     2
  9
$DIMALTTD
 70
     3
  9
$DIMTXSTY
  7
STANDARD
  9
$DIMAUNIT
 70
     0
  9
$LUNITS
 70
     2
  9
$LUPREC
 70
     4
  9
$SKETCHINC
 40
0.1
  9
$FILLETRAD
 40
1.5875
  9
$AUNITS
 70
     0
  9
$AUPREC
 70
     0
  9
$MENU
  1
acad
  9
$ELEVATION
 40
0.0
  9
$PELEVATION
 40
0.0
  9
$THICKNESS
 40
0.0
  9
$LIMCHECK
 70
     0
  9
$BLIPMODE
 70
     1
  9
$CHAMFERA
 40
0.0
  9
$CHAMFERB
 40
0.0
  9
$CHAMFERC
 40
0.0
  9
$CHAMFERD
 40
0.0
  9
$SKPOLY
 70
     0
  9
$TDCREATE
 40
2450473.610847222
  9
$TDUPDATE
 40
2450487.624882720
  9
$TDINDWG
 40
0.2440475579
  9
$TDUSRTIMER
 40
0.2440475579
  9
$USRTIMER
 70
     1
  9
$ANGBASE
 50
0.0
  9
$ANGDIR
 70
     0
  9
$PDMODE
 70
     0
  9
$PDSIZE
 40
0.0
  9
$PLINEWID
 40
0.0
  9
$COORDS
 70
     1
  9
$SPLFRAME
 70
     0
  9
$SPLINETYPE
 70
     6
  9
$SPLINESEGS
 70
     8
  9
$ATTDIA
 70
     0
  9
$ATTREQ
 70
     1
  9
$HANDLING
 70
     1
  9
$HANDSEED
  5
889
  9
$SURFTAB1
 70
     6
  9
$SURFTAB2
 70
     6
  9
$SURFTYPE
 70
     6
  9
$SURFU
 70
     6
  9
$SURFV
 70
     6
  9
$UCSNAME
  2

  9
$UCSORG
 10
0.0
 20
0.0
 30
0.0
  9
$UCSXDIR
 10
1.0
 20
0.0
 30
0.0
  9
$UCSYDIR
 10
0.0
 20
1.0
 30
0.0
  9
$PUCSNAME
  2

  9
$PUCSORG
 10
0.0
 20
0.0
 30
0.0
  9
$PUCSXDIR
 10
1.0
 20
0.0
 30
0.0
  9
$PUCSYDIR
 10
0.0
 20
1.0
 30
0.0
  9
$USERI1
 70
     0
  9
$USERI2
 70
     0
  9
$USERI3
 70
     0
  9
$USERI4
 70
     0
  9
$USERI5
 70
     0
  9
$USERR1
 40
0.0
  9
$USERR2
 40
0.0
  9
$USERR3
 40
0.0
  9
$USERR4
 40
0.0
  9
$USERR5
 40
0.0
  9
$WORLDVIEW
 70
     1
  9
$SHADEDGE
 70
     3
  9
$SHADEDIF
 70
    70
  9
$TILEMODE
 70
     1
  9
$MAXACTVP
 70
    16
  9
$PINSBASE
 10
0.0
 20
0.0
 30
0.0
  9
$PLIMCHECK
 70
     0
  9
$PEXTMIN
 10
1.000000E+20
 20
1.000000E+20
 30
1.000000E+20
  9
$PEXTMAX
 10
-1.000000E+20
 20
-1.000000E+20
 30
-1.000000E+20
  9
$PLIMMIN
 10
0.0
 20
0.0
  9
$PLIMMAX
 10
12.0
 20
9.0
  9
$UNITMODE
 70
     0
  9
$VISRETAIN
 70
     0
  9
$PLINEGEN
 70
     0
  9
$PSLTSCALE
 70
     1
  9
$TREEDEPTH
 70
  3020
  9
$PICKSTYLE
 70
     1
  9
$CMLSTYLE
  2
STANDARD
  9
$CMLJUST
 70
     0
  9
$CMLSCALE
 40
1.0
  9
$SAVEIMAGES
 70
     0
  0
ENDSEC
  0
SECTION
  2
CLASSES
  0
CLASS
  1
ACMESCOPE
  2
AcMeScope
  3
ACME_MODULE_NAME
 90
        0
280
     0
281
     0
  0
CLASS
  1
ACMECOMMANDHISTORY
  2
AcMeCommandHistory
  3
ACME_MODULE_NAME
 90
        0
280
     0
281
     0
  0
CLASS
  1
AcRfInsAdjusterMgr
  2
AcRfInsAdjusterMgr
  3
ACME_MODULE_NAME
 90
        0
280
     0
281
     0
  0
CLASS
  1
ACGREFMASTER
  2
AcGrefMaster
  3
"AcadRfServer"
 90
        0
280
     0
281
     0
  0
CLASS
  1
AmiMaster
  2
AmiMaster
  3
"AmiServices"
 90
        0
280
     0
281
     0
  0
CLASS
  1
ACASGREFMASTER
  2
AcAsGrefMaster
  3
"AutoSurfResolver"
 90
        0
280
     0
281
     0
  0
CLASS
  1
ADAPPL
  2
AcAdAppl
  3
"DesignerServices"
 90
        0
280
     0
281
     0
  0
CLASS
  1
DEPMGR
  2
AcAdDepMgr
  3
"DesignerServices"
 90
        0
280
     0
281
     0
  0
CLASS
  1
PARAMMGR
  2
AcAdParamMgr
  3
"DesignerServices"
 90
        0
280
     0
281
     0
  0
CLASS
  1
PARAMSCOPE
  2
AcAdParamScope
  3
"DesignerServices"
 90
        0
280
     0
281
     0
  0
CLASS
  1
"IM_SYSVAR_MAN"
  2
AcImSysVarManager
  3
"ADAM"
 90
        0
280
     0
281
     0
  0
CLASS
  1
SYSTEM_VAR_INT
  2
AcImIntSysVar
  3
"ADAM"
 90
        0
280
     0
281
     0
  0
CLASS
  1
SYSTEM_VAR_REAL
  2
AcImRealSysVar
  3
"ADAM"
 90
        0
280
     0
281
     0
  0
CLASS
  1
SYSTEM_VAR_STR
  2
AcImStrSysVar
  3
"ADAM"
 90
        0
280
     0
281
     0
  0
CLASS
  1
NAMEDAPPL
  2
AcAdNamedAppl
  3
"DesignerServices"
 90
        0
280
     0
281
     0
  0
CLASS
  1
ADPART
  2
AcAdPart
  3
"DesignerServices"
 90
        0
280
     0
281
     1
  0
CLASS
  1
ADBASE
  2
AcAdBase
  3
"DesignerServices"
 90
        0
280
     0
281
     0
  0
CLASS
  1
BODYID
  2
AcAdBodyId
  3
"DesignerServices"
 90
        0
280
     0
281
     0
  0
CLASS
  1
WORKPLANEDISPLAYMGR
  2
AcAdDisplayMgr
  3
"DesignerServices"
 90
        0
280
     0
281
     0
  0
CLASS
  1
ADHNTMPLT
  2
AdHoleNoteTemplateMgr
  3
"DesignerServices"
 90
        0
280
     0
281
     0
  0
CLASS
  1
AM_HNTEMPLATE_MGR_NAME
  2
AdHoleNoteTemplateMgrName
  3
"DesignerServices"
 90
        0
280
     0
281
     0
  0
CLASS
  1
AcAdGrefModule
  2
AcAdGrefModule
  3
AD_GREF_SERVICES_NSTR
 90
        0
280
     0
281
     0
  0
CLASS
  1
AM_DRAWING_MGR
  2
AcDmDwgMgr
  3
"Designer_Drawing_Mgmt"
 90
        0
280
     0
281
     0
  0
CLASS
  1
AM_DWG_DOCUMENT
  2
AcDmDwgDocument
  3
"Designer_Drawing_Mgmt"
 90
        0
280
     0
281
     0
  0
CLASS
  1
AM_DWG_SHEET
  2
AcDmSheet
  3
"Designer_Drawing_Mgmt"
 90
        0
280
     0
281
     0
  0
CLASS
  1
AM_VIEWDIMPARMAP
  2
AcDmViewDimParMap
  3
"Designer_Drawing_Mgmt"
 90
        0
280
     0
281
     0
  0
CLASS
  1
AM_DWGMGR_NAME
  2
AcDmDwgMgrName
  3
"Designer_Drawing_Mgmt"
 90
        0
280
     0
281
     0
  0
CLASS
  1
ACAMPROJECT
  2
AcAmProject
  3
"DesignerAssemblies"
 90
        0
280
     0
281
     0
  0
CLASS
  1
ACAMGRCOMPDEF
  2
AcAmGrCompDef
  3
"DesignerAssemblies"
 90
        0
280
     0
281
     0
  0
CLASS
  1
ACAMCOMPDEF
  2
AcAmCompDef
  3
"DesignerAssemblies"
 90
        0
280
     0
281
     0
  0
CLASS
  1
ACAMCOMPDEFMGR
  2
AcAmCompDefMgr
  3
"DesignerAssemblies"
 90
        0
280
     0
281
     0
  0
CLASS
  1
AMCONTEXTMGR
  2
AcAmContextMgr
  3
"DesignerAssemblies"
 90
        0
280
     0
281
     0
  0
CLASS
  1
AcAmContextModeler
  2
AcAmContextModeler
  3
"DesignerAssemblies"
 90
        0
280
     0
281
     0
  0
CLASS
  1
ACAMDRAWINGMAN
  2
AcAmDrawingMan
  3
"DesignerAssemblies"
 90
        0
280
     0
281
     0
  0
CLASS
  1
ASSYSVARS
  2
AcAsSysVars
  3
"AutoSurf"
 90
        0
280
     0
281
     0
  0
CLASS
  1
ASSTATICVARS
  2
AcAsStaticVars
  3
"AutoSurf"
 90
        0
280
     0
281
     0
  0
CLASS
  1
ASAPP
  2
AcAsAppObject
  3
"AutoSurf"
 90
        0
280
     0
281
     0
  0
CLASS
  1
AGDICTIONARY
  2
AgDictionary
  3
"AccelView"
 90
        1
280
     0
281
     0
  0
ENDSEC
  0
SECTION
  2
TABLES
  0
TABLE
  2
VPORT
  5
8
100
AcDbSymbolTable
 70
     3
  0
VPORT
  5
888
100
AcDbSymbolTableRecord
100
AcDbViewportTableRecord
  2
*ACTIVE
 70
     0
 10
0.0
 20
0.0
 11
1.0
 21
1.0
 12
406.497359
 22
254.921963
 13
0.0
 23
0.0
 14
1.0
 24
1.0
 15
10.0
 25
10.0
 16
0.0
 26
0.0
 36
1.0
 17
0.0
 27
0.0
 37
0.0
 40
503.493925
 41
1.602094
 42
50.0
 43
0.0
 44
0.0
 50
0.0
 51
0.0
 71
     0
 72
   100
 73
     1
 74
     0
 75
     0
 76
     1
 77
     0
 78
     0
  0
ENDTAB
  0
TABLE
  2
LTYPE
  5
5
100
AcDbSymbolTable
 70
     6
  0
LTYPE
  5
14
100
AcDbSymbolTableRecord
100
AcDbLinetypeTableRecord
  2
BYBLOCK
 70
     0
  3

 72
    65
 73
     0
 40
0.0
  0
LTYPE
  5
15
100
AcDbSymbolTableRecord
100
AcDbLinetypeTableRecord
  2
BYLAYER
 70
     0
  3

 72
    65
 73
     0
 40
0.0
  0
LTYPE
  5
16
100
AcDbSymbolTableRecord
100
AcDbLinetypeTableRecord
  2
CONTINUOUS
 70
    64
  3
Solid line
 72
    65
 73
     0
 40
0.0
  0
LTYPE
  5
4F
100
AcDbSymbolTableRecord
100
AcDbLinetypeTableRecord
  2
HIDDEN
 70
    64
  3
__ __ __ __ __ __ __ __ __ __ __ __ __ __ __ __
 72
    65
 73
     2
 40
0.375
 49
0.25
 74
     0
 49
-0.125
 74
     0
  0
LTYPE
  5
51
100
AcDbSymbolTableRecord
100
AcDbLinetypeTableRecord
  2
PHANTOM2
 70
     0
  3
___ _ _ ___ _ _ ___ _ _ ___ _ _ ___ _ _ ___ _ _
 72
    65
 73
     6
 40
1.25
 49
0.625
 74
     0
 49
-0.125
 74
     0
 49
0.125
 74
     0
 49
-0.125
 74
     0
 49
0.125
 74
     0
 49
-0.125
 74
     0
  0
LTYPE
  5
5C
100
AcDbSymbolTableRecord
100
AcDbLinetypeTableRecord
  2
CENTER
 70
    64
  3
____ _ ____ _ ____ _ ____ _ ____ _ ____ _ ____ 
 72
    65
 73
     4
 40
2.0
 49
1.25
 74
     0
 49
-0.25
 74
     0
 49
0.25
 74
     0
 49
-0.25
 74
     0
  0
LTYPE
  5
7C
100
AcDbSymbolTableRecord
100
AcDbLinetypeTableRecord
  2
ASULTYPE
 70
     0
  3
Solid line
 72
    65
 73
     2
 40
3.0
 49
2.5
 74
     0
 49
0.5
 74
     0
  0
LTYPE
  5
7D
100
AcDbSymbolTableRecord
100
AcDbLinetypeTableRecord
  2
ASVLTYPE
 70
     0
  3
__ __ __ __ __ __ __ __ __ __ __ __ __ __ __ __ __ __ __ __ __
 72
    65
 73
     2
 40
0.75
 49
0.5
 74
     0
 49
-0.25
 74
     0
  0
ENDTAB
  0
TABLE
  2
LAYER
  5
2
100
AcDbSymbolTable
 70
    19
  0
LAYER
  5
F
100
AcDbSymbolTableRecord
100
AcDbLayerTableRecord
  2
0
 70
     0
 62
     7
  6
CONTINUOUS
  0
LAYER
  5
7F
100
AcDbSymbolTableRecord
100
AcDbLayerTableRecord
  2
CENTER
 70
    64
 62
     1
  6
CENTER
  0
LAYER
  5
80
100
AcDbSymbolTableRecord
100
AcDbLayerTableRecord
  2
DIM
 70
    64
 62
     3
  6
CONTINUOUS
  0
LAYER
  5
81
100
AcDbSymbolTableRecord
100
AcDbLayerTableRecord
  2
TEXT
 70
    64
 62
     7
  6
CONTINUOUS
  0
LAYER
  5
9C
100
AcDbSymbolTableRecord
100
AcDbLayerTableRecord
  2
BORDER
 70
    64
 62
     6
  6
CONTINUOUS
  0
LAYER
  5
E5
100
AcDbSymbolTableRecord
100
AcDbLayerTableRecord
  2
FOOT-A
 70
    64
 62
     7
  6
CONTINUOUS
  0
LAYER
  5
149
100
AcDbSymbolTableRecord
100
AcDbLayerTableRecord
  2
FOOT-2
 70
    64
 62
     7
  6
CONTINUOUS
  0
LAYER
  5
1D9
100
AcDbSymbolTableRecord
100
AcDbLayerTableRecord
  2
HATCH
 70
    64
 62
     7
  6
CONTINUOUS
  0
LAYER
  5
441
100
AcDbSymbolTableRecord
100
AcDbLayerTableRecord
  2
DEFPOINTS
 70
    64
 62
     7
  6
CONTINUOUS
  0
ENDTAB
  0
TABLE
  2
STYLE
  5
3
100
AcDbSymbolTable
 70
     3
  0
STYLE
  5
10
100
AcDbSymbolTableRecord
100
AcDbTextStyleTableRecord
  2
STANDARD
 70
    64
 40
0.0
 41
1.0
 50
0.0
 71
     0
 42
6.0
  3
txt
  4

  0
STYLE
  5
85
100
AcDbSymbolTableRecord
100
AcDbTextStyleTableRecord
  2
CIM_TB
 70
    64
 40
0.0
 41
1.0
 50
0.0
 71
     0
 42
0.2
  3
romans
  4

  0
STYLE
  5
9D
100
AcDbSymbolTableRecord
100
AcDbTextStyleTableRecord
  2
ADESK2
 70
    64
 40
0.0
 41
1.0
 50
0.0
 71
     0
 42
0.065
  3
romans
  4

  0
ENDTAB
  0
TABLE
  2
VIEW
  5
6
100
AcDbSymbolTable
 70
     0
  0
ENDTAB
  0
TABLE
  2
UCS
  5
7
100
AcDbSymbolTable
 70
     0
  0
ENDTAB
  0
TABLE
  2
APPID
  5
9
100
AcDbSymbolTable
 70
     6
  0
APPID
  5
11
100
AcDbSymbolTableRecord
100
AcDbRegAppTableRecord
  2
ACAD
 70
     0
  0
APPID
  5
5F
100
AcDbSymbolTableRecord
100
AcDbRegAppTableRecord
  2
AD_DRAW
 70
     0
  0
APPID
  5
77
100
AcDbSymbolTableRecord
100
AcDbRegAppTableRecord
  2
DESIGNERASSEMBLIES
 70
     0
  0
APPID
  5
78
100
AcDbSymbolTableRecord
100
AcDbRegAppTableRecord
  2
MCAD_NO_VIS
 70
     0
  0
APPID
  5
7E
100
AcDbSymbolTableRecord
100
AcDbRegAppTableRecord
  2
ASURF_PCURVE_APPNAME
 70
     0
  0
APPID
  5
82
100
AcDbSymbolTableRecord
100
AcDbRegAppTableRecord
  2
TB_S_MPD
 70
     0
  0
ENDTAB
  0
TABLE
  2
DIMSTYLE
  5
A
100
AcDbSymbolTable
 70
     6
  0
DIMSTYLE
105
1D
100
AcDbSymbolTableRecord
100
AcDbDimStyleTableRecord
  2
STANDARD
 70
     0
  3

  4

  5

  6

  7

 40
1.0
 41
0.18
 42
0.0625
 43
0.38
 44
0.18
 45
0.0
 46
0.0
 47
0.0
 48
0.0
140
0.18
141
0.09
142
0.0
143
25.4
144
1.0
145
0.0
146
1.0
147
0.09
 71
     0
 72
     0
 73
     1
 74
     1
 75
     0
 76
     0
 77
     0
 78
     0
170
     0
171
     2
172
     0
173
     0
174
     0
175
     0
176
     0
177
     0
178
     0
270
     2
271
     4
272
     4
273
     2
274
     2
340
10
275
     0
280
     0
281
     0
282
     0
283
     1
284
     0
285
     0
286
     0
287
     3
288
     0
  0
DIMSTYLE
105
8D
100
AcDbSymbolTableRecord
100
AcDbDimStyleTableRecord
  2
SU1
 70
     0
  3

  4

  5

  6

  7

 40
1.0
 41
0.18
 42
0.0625
 43
0.38
 44
0.18
 45
0.0
 46
0.0
 47
0.001
 48
0.0
140
0.18
141
0.09
142
0.0
143
25.4
144
1.0
145
0.0
146
1.0
147
0.09
 71
     0
 72
     0
 73
     1
 74
     1
 75
     0
 76
     0
 77
     0
 78
     0
170
     0
171
     2
172
     0
173
     0
174
     0
175
     0
176
     0
177
     0
178
     0
270
     2
271
     3
272
     3
273
     2
274
     2
340
10
275
     0
280
     0
281
     0
282
     0
283
     1
284
     0
285
     0
286
     0
287
     0
288
     0
  0
DIMSTYLE
105
8E
100
AcDbSymbolTableRecord
100
AcDbDimStyleTableRecord
  2
SU1$4
 70
     0
  3

  4

  5

  6

  7

 40
1.0
 41
0.18
 42
0.0625
 43
0.38
 44
0.18
 45
0.0
 46
0.0
 47
0.001
 48
0.0
140
0.18
141
0.09
142
0.0
143
25.4
144
1.0
145
0.0
146
1.0
147
0.09
 71
     0
 72
     0
 73
     1
 74
     1
 75
     0
 76
     0
 77
     0
 78
     0
170
     0
171
     2
172
     0
173
     0
174
     0
175
     0
176
     0
177
     0
178
     0
270
     2
271
     3
272
     3
273
     2
274
     2
340
10
275
     0
280
     0
281
     0
282
     0
283
     1
284
     0
285
     0
286
     0
287
     0
288
     1
  0
DIMSTYLE
105
8F
100
AcDbSymbolTableRecord
100
AcDbDimStyleTableRecord
  2
SU1$2
 70
     0
  3

  4

  5

  6

  7

 40
1.0
 41
0.18
 42
0.0625
 43
0.38
 44
0.18
 45
0.0
 46
0.0
 47
0.001
 48
0.0
140
0.18
141
0.09
142
0.0
143
25.4
144
1.0
145
0.0
146
1.0
147
0.09
 71
     0
 72
     0
 73
     1
 74
     1
 75
     0
 76
     0
 77
     0
 78
     0
170
     0
171
     2
172
     0
173
     0
174
     0
175
     0
176
     0
177
     0
178
     0
270
     2
271
     1
272
     3
273
     2
274
     2
340
10
275
     0
280
     0
281
     0
282
     0
283
     1
284
     0
285
     0
286
     0
287
     0
288
     0
  0
DIMSTYLE
105
90
100
AcDbSymbolTableRecord
100
AcDbDimStyleTableRecord
  2
SU1$3
 70
     0
  3

  4

  5

  6

  7

 40
1.0
 41
0.18
 42
0.0625
 43
0.38
 44
0.18
 45
0.0
 46
0.0
 47
0.001
 48
0.0
140
0.18
141
0.09
142
0.0
143
25.4
144
1.0
145
0.0
146
1.0
147
0.09
 71
     0
 72
     0
 73
     1
 74
     1
 75
     0
 76
     0
 77
     0
 78
     0
170
     0
171
     2
172
     0
173
     0
174
     0
175
     0
176
     0
177
     0
178
     0
270
     2
271
     3
272
     3
273
     2
274
     2
340
10
275
     0
280
     0
281
     0
282
     0
283
     1
284
     0
285
     0
286
     0
287
     0
288
     1
  0
DIMSTYLE
105
91
100
AcDbSymbolTableRecord
100
AcDbDimStyleTableRecord
  2
SU1$7
 70
     0
  3

  4

  5

  6

  7

 40
1.0
 41
0.18
 42
0.0625
 43
0.38
 44
0.18
 45
0.0
 46
0.0
 47
0.001
 48
0.0
140
0.18
141
0.09
142
0.0
143
25.4
144
1.0
145
0.0
146
1.0
147
0.09
 71
     0
 72
     0
 73
     1
 74
     1
 75
     0
 76
     0
 77
     0
 78
     0
170
     0
171
     2
172
     0
173
     0
174
     0
175
     0
176
     0
177
     0
178
     0
270
     2
271
     3
272
     3
273
     2
274
     2
340
10
275
     0
280
     0
281
     0
282
     0
283
     1
284
     0
285
     0
286
     0
287
     0
288
     1
  0
ENDTAB
  0
TABLE
  2
BLOCK_RECORD
  5
1
100
AcDbSymbolTable
 70
    43
  0
BLOCK_RECORD
  5
1A
100
AcDbSymbolTableRecord
100
AcDbBlockTableRecord
  2
*MODEL_SPACE
  0
BLOCK_RECORD
  5
17
100
AcDbSymbolTableRecord
100
AcDbBlockTableRecord
  2
*PAPER_SPACE
  0
BLOCK_RECORD
  5
6B
100
AcDbSymbolTableRecord
100
AcDbBlockTableRecord
  2
*U0
  0
BLOCK_RECORD
  5
9E
100
AcDbSymbolTableRecord
100
AcDbBlockTableRecord
  2
D-BORDER
  0
BLOCK_RECORD
  5
120
100
AcDbSymbolTableRecord
100
AcDbBlockTableRecord
  2
*U3
  0
BLOCK_RECORD
  5
12A
100
AcDbSymbolTableRecord
100
AcDbBlockTableRecord
  2
*U4
  0
BLOCK_RECORD
  5
134
100
AcDbSymbolTableRecord
100
AcDbBlockTableRecord
  2
*U5
  0
BLOCK_RECORD
  5
3F4
100
AcDbSymbolTableRecord
100
AcDbBlockTableRecord
  2
*X7
  0
BLOCK_RECORD
  5
454
100
AcDbSymbolTableRecord
100
AcDbBlockTableRecord
  2
*D8
  0
BLOCK_RECORD
  5
461
100
AcDbSymbolTableRecord
100
AcDbBlockTableRecord
  2
*D9
  0
BLOCK_RECORD
  5
46E
100
AcDbSymbolTableRecord
100
AcDbBlockTableRecord
  2
*D10
  0
BLOCK_RECORD
  5
486
100
AcDbSymbolTableRecord
100
AcDbBlockTableRecord
  2
*D11
  0
BLOCK_RECORD
  5
494
100
AcDbSymbolTableRecord
100
AcDbBlockTableRecord
  2
*D12
  0
BLOCK_RECORD
  5
4AE
100
AcDbSymbolTableRecord
100
AcDbBlockTableRecord
  2
*D13
  0
BLOCK_RECORD
  5
4BC
100
AcDbSymbolTableRecord
100
AcDbBlockTableRecord
  2
*D14
  0
BLOCK_RECORD
  5
4C9
100
AcDbSymbolTableRecord
100
AcDbBlockTableRecord
  2
*D15
  0
BLOCK_RECORD
  5
4EC
100
AcDbSymbolTableRecord
100
AcDbBlockTableRecord
  2
*D16
  0
BLOCK_RECORD
  5
4FA
100
AcDbSymbolTableRecord
100
AcDbBlockTableRecord
  2
*D17
  0
BLOCK_RECORD
  5
508
100
AcDbSymbolTableRecord
100
AcDbBlockTableRecord
  2
*D18
  0
BLOCK_RECORD
  5
515
100
AcDbSymbolTableRecord
100
AcDbBlockTableRecord
  2
*D19
  0
BLOCK_RECORD
  5
524
100
AcDbSymbolTableRecord
100
AcDbBlockTableRecord
  2
*D20
  0
BLOCK_RECORD
  5
533
100
AcDbSymbolTableRecord
100
AcDbBlockTableRecord
  2
*D21
  0
BLOCK_RECORD
  5
541
100
AcDbSymbolTableRecord
100
AcDbBlockTableRecord
  2
*D22
  0
BLOCK_RECORD
  5
54F
100
AcDbSymbolTableRecord
100
AcDbBlockTableRecord
  2
*D23
  0
BLOCK_RECORD
  5
55E
100
AcDbSymbolTableRecord
100
AcDbBlockTableRecord
  2
*D24
  0
BLOCK_RECORD
  5
56D
100
AcDbSymbolTableRecord
100
AcDbBlockTableRecord
  2
*D25
  0
BLOCK_RECORD
  5
57C
100
AcDbSymbolTableRecord
100
AcDbBlockTableRecord
  2
*D26
  0
BLOCK_RECORD
  5
58A
100
AcDbSymbolTableRecord
100
AcDbBlockTableRecord
  2
*D27
  0
BLOCK_RECORD
  5
5A6
100
AcDbSymbolTableRecord
100
AcDbBlockTableRecord
  2
*D28
  0
BLOCK_RECORD
  5
5B3
100
AcDbSymbolTableRecord
100
AcDbBlockTableRecord
  2
*D29
  0
BLOCK_RECORD
  5
5C0
100
AcDbSymbolTableRecord
100
AcDbBlockTableRecord
  2
*D30
  0
BLOCK_RECORD
  5
5CD
100
AcDbSymbolTableRecord
100
AcDbBlockTableRecord
  2
*D31
  0
BLOCK_RECORD
  5
5DA
100
AcDbSymbolTableRecord
100
AcDbBlockTableRecord
  2
*D32
  0
BLOCK_RECORD
  5
5E7
100
AcDbSymbolTableRecord
100
AcDbBlockTableRecord
  2
*D33
  0
BLOCK_RECORD
  5
6A5
100
AcDbSymbolTableRecord
100
AcDbBlockTableRecord
  2
*D34
  0
BLOCK_RECORD
  5
6B1
100
AcDbSymbolTableRecord
100
AcDbBlockTableRecord
  2
*D35
  0
BLOCK_RECORD
  5
6E5
100
AcDbSymbolTableRecord
100
AcDbBlockTableRecord
  2
*D36
  0
BLOCK_RECORD
  5
719
100
AcDbSymbolTableRecord
100
AcDbBlockTableRecord
  2
*D37
  0
BLOCK_RECORD
  5
725
100
AcDbSymbolTableRecord
100
AcDbBlockTableRecord
  2
*D38
  0
BLOCK_RECORD
  5
756
100
AcDbSymbolTableRecord
100
AcDbBlockTableRecord
  2
*D40
  0
BLOCK_RECORD
  5
859
100
AcDbSymbolTableRecord
100
AcDbBlockTableRecord
  2
*D42
  0
ENDTAB
  0
ENDSEC
  0
SECTION
  2
BLOCKS
  0
BLOCK
  5
1B
100
AcDbEntity
  8
0
100
AcDbBlockBegin
  2
*MODEL_SPACE
 70
     0
 10
0.0
 20
0.0
 30
0.0
  3
*MODEL_SPACE
  1

  0
ENDBLK
  5
1C
100
AcDbEntity
  8
0
100
AcDbBlockEnd
  0
BLOCK
  5
18
100
AcDbEntity
 67
     1
  8
0
100
AcDbBlockBegin
  2
*PAPER_SPACE
 70
     0
 10
0.0
 20
0.0
 30
0.0
  3
*PAPER_SPACE
  1

  0
ENDBLK
  5
19
100
AcDbEntity
 67
     1
  8
0
100
AcDbBlockEnd
  0
BLOCK
  5
6C
100
AcDbEntity
  8
0
100
AcDbBlockBegin
  2
*U0
 70
     1
 10
0.0
 20
0.0
 30
0.0
  3
*U0
  1

  0
ENDBLK
  5
6D
100
AcDbEntity
  8
0
100
AcDbBlockEnd
  0
BLOCK
  5
E1
100
AcDbEntity
  8
0
100
AcDbBlockBegin
  2
D-BORDER
 70
     0
 10
0.0
 20
0.0
 30
0.0
  3
D-BORDER
  1

  0
LINE
  5
9F
100
AcDbEntity
  8
TEXT
100
AcDbLine
 10
0.125
 20
19.447595
 30
0.0
 11
2.6875
 21
19.447595
 31
0.0
  0
LINE
  5
A0
100
AcDbEntity
  8
TEXT
100
AcDbLine
 10
2.6875
 20
19.447595
 30
0.0
 11
2.6875
 21
19.947595
 31
0.0
  0
CIRCLE
  5
A1
100
AcDbEntity
  8
TEXT
100
AcDbCircle
 10
0.802871
 20
19.684056
 30
0.0
 40
0.1875
  0
CIRCLE
  5
A2
100
AcDbEntity
  8
TEXT
100
AcDbCircle
 10
0.802871
 20
19.684056
 30
0.0
 40
0.09375
  0
LINE
  5
A3
100
AcDbEntity
  8
TEXT
  6
CENTER
100
AcDbLine
 10
0.568951
 20
19.684056
 30
0.0
 11
2.021621
 21
19.684056
 31
0.0
  0
LINE
  5
A4
100
AcDbEntity
  8
TEXT
  6
CENTER
100
AcDbLine
 10
0.802871
 20
19.455375
 30
0.0
 11
0.802871
 21
19.923251
 31
0.0
  0
LINE
  5
A5
100
AcDbEntity
  8
TEXT
100
AcDbLine
 10
1.271621
 20
19.777806
 30
0.0
 11
1.756263
 21
19.871556
 31
0.0
  0
LINE
  5
A6
100
AcDbEntity
  8
TEXT
100
AcDbLine
 10
1.271621
 20
19.590306
 30
0.0
 11
1.756263
 21
19.496556
 31
0.0
  0
LINE
  5
A7
100
AcDbEntity
  8
TEXT
100
AcDbLine
 10
1.271621
 20
19.590306
 30
0.0
 11
1.271621
 21
19.777806
 31
0.0
  0
LINE
  5
A8
100
AcDbEntity
  8
TEXT
100
AcDbLine
 10
1.756263
 20
19.871556
 30
0.0
 11
1.756263
 21
19.496556
 31
0.0
  0
TEXT
  5
A9
100
AcDbEntity
  8
TEXT
100
AcDbText
 10
0.3125
 20
19.262423
 30
0.0
 40
0.1
  1
THIRD ANGLE PROJECTION
100
AcDbText
  0
LINE
  5
AA
100
AcDbEntity
  8
TEXT
100
AcDbLine
 10
2.6875
 20
19.447595
 30
0.0
 11
2.6875
 21
19.197595
 31
0.0
  0
LINE
  5
AB
100
AcDbEntity
  8
TEXT
100
AcDbLine
 10
2.6875
 20
19.197595
 30
0.0
 11
0.125
 21
19.197595
 31
0.0
  0
TEXT
  5
AC
100
AcDbEntity
  8
TEXT
100
AcDbText
 10
30.260292
 20
0.244377
 30
0.0
 40
0.065
  1
OF
  7
ADESK2
100
AcDbText
  0
TEXT
  5
AD
100
AcDbEntity
  8
TEXT
100
AcDbText
 10
26.500724
 20
0.974951
 30
0.0
 40
0.065
  1
DATE
  7
ADESK2
100
AcDbText
  0
LINE
  5
AE
100
AcDbEntity
  8
TEXT
100
AcDbLine
 10
26.377305
 20
1.091501
 30
0.0
 11
26.377305
 21
0.125
 31
0.0
  0
TEXT
  5
AF
100
AcDbEntity
  8
TEXT
100
AcDbText
 10
24.957321
 20
0.356501
 30
0.0
 40
0.065
  1
DESIGN
  7
ADESK2
100
AcDbText
  0
TEXT
  5
B0
100
AcDbEntity
  8
TEXT
100
AcDbText
 10
24.957321
 20
0.671501
 30
0.0
 40
0.065
  1
CHECKED
  7
ADESK2
100
AcDbText
  0
LINE
  5
B1
100
AcDbEntity
  8
TEXT
100
AcDbLine
 10
24.877321
 20
1.091501
 30
0.0
 11
26.877321
 21
1.091501
 31
0.0
  0
TEXT
  5
B2
100
AcDbEntity
  8
TEXT
100
AcDbText
 10
30.359702
 20
19.465196
 30
0.0
 40
0.065
  1
APPROVED
  7
ADESK2
100
AcDbText
  0
TEXT
  5
B3
100
AcDbEntity
  8
TEXT
100
AcDbText
 10
29.566002
 20
19.465196
 30
0.0
 40
0.065
  1
DATE
  7
ADESK2
100
AcDbText
  0
TEXT
  5
B4
100
AcDbEntity
  8
TEXT
100
AcDbText
 10
27.500302
 20
19.465196
 30
0.0
 40
0.065
  1
DESCRIPTION
  7
ADESK2
100
AcDbText
  0
TEXT
  5
B5
100
AcDbEntity
  8
TEXT
100
AcDbText
 10
26.198402
 20
19.465196
 30
0.0
 40
0.065
  1
REV
  7
ADESK2
100
AcDbText
  0
TEXT
  5
B6
100
AcDbEntity
  8
TEXT
100
AcDbText
 10
28.328502
 20
19.707396
 30
0.0
 40
0.065
  1
REVISIONS
  7
ADESK2
100
AcDbText
  0
LINE
  5
B7
100
AcDbEntity
  8
TEXT
100
AcDbLine
 10
30.118302
 20
19.374896
 30
0.0
 11
30.118302
 21
19.624896
 31
0.0
  0
LINE
  5
B8
100
AcDbEntity
  8
TEXT
100
AcDbLine
 10
29.238302
 20
19.374896
 30
0.0
 11
29.238302
 21
19.624896
 31
0.0
  0
LINE
  5
B9
100
AcDbEntity
  8
TEXT
100
AcDbLine
 10
26.498302
 20
19.374896
 30
0.0
 11
26.498302
 21
19.624896
 31
0.0
  0
LINE
  5
BA
100
AcDbEntity
  8
TEXT
100
AcDbLine
 10
26.108049
 20
19.934959
 30
0.0
 11
26.108049
 21
19.374896
 31
0.0
  0
LINE
  5
BB
100
AcDbEntity
  8
TEXT
100
AcDbLine
 10
26.108049
 20
19.374896
 30
0.0
 11
31.162356
 21
19.374896
 31
0.0
  0
LINE
  5
BC
100
AcDbEntity
  8
TEXT
100
AcDbLine
 10
26.108049
 20
19.624896
 30
0.0
 11
31.162356
 21
19.624896
 31
0.0
  0
TEXT
  5
BD
100
AcDbEntity
  8
TEXT
100
AcDbText
 10
30.827821
 20
0.667401
 30
0.0
 40
0.065
  1
REV
  7
ADESK2
100
AcDbText
  0
TEXT
  5
BE
100
AcDbEntity
  8
TEXT
100
AcDbText
 10
28.448321
 20
0.667401
 30
0.0
 40
0.065
  1
DWG NO.
  7
ADESK2
100
AcDbText
  0
TEXT
  5
BF
100
AcDbEntity
  8
TEXT
100
AcDbText
 10
26.965221
 20
0.667401
 30
0.0
 40
0.065
  1
SIZE
  7
ADESK2
100
AcDbText
  0
TEXT
  5
C0
100
AcDbEntity
  8
TEXT
100
AcDbText
 10
29.430121
 20
0.244001
 30
0.0
 40
0.065
  1
SHEET
  7
ADESK2
100
AcDbText
  0
TEXT
  5
C1
100
AcDbEntity
  8
TEXT
100
AcDbText
 10
26.929621
 20
0.244001
 30
0.0
 40
0.065
  1
SCALE
  7
ADESK2
100
AcDbText
  0
LINE
  5
C2
100
AcDbEntity
  8
TEXT
100
AcDbLine
 10
30.747321
 20
0.401501
 30
0.0
 11
30.747321
 21
0.781501
 31
0.0
  0
LINE
  5
C3
100
AcDbEntity
  8
TEXT
100
AcDbLine
 10
28.377321
 20
0.401501
 30
0.0
 11
28.377321
 21
0.781501
 31
0.0
  0
LINE
  5
C4
100
AcDbEntity
  8
TEXT
100
AcDbLine
 10
27.257321
 20
0.401501
 30
0.0
 11
27.257321
 21
0.781501
 31
0.0
  0
LINE
  5
C5
100
AcDbEntity
  8
TEXT
100
AcDbLine
 10
29.377321
 20
0.125
 30
0.0
 11
29.377321
 21
0.401501
 31
0.0
  0
LINE
  5
C6
100
AcDbEntity
  8
TEXT
100
AcDbLine
 10
27.877321
 20
0.125
 30
0.0
 11
27.877321
 21
0.401501
 31
0.0
  0
LINE
  5
C7
100
AcDbEntity
  8
BORDER
100
AcDbLine
 10
26.877321
 20
0.125
 30
0.0
 11
26.877321
 21
1.901501
 31
0.0
  0
LINE
  5
C8
100
AcDbEntity
  8
BORDER
100
AcDbLine
 10
26.877321
 20
1.401501
 30
0.0
 11
31.149118
 21
1.401501
 31
0.0
  0
LINE
  5
C9
100
AcDbEntity
  8
TEXT
100
AcDbLine
 10
26.877321
 20
0.401501
 30
0.0
 11
31.149118
 21
0.401501
 31
0.0
  0
LINE
  5
CA
100
AcDbEntity
  8
TEXT
100
AcDbLine
 10
24.877321
 20
0.781501
 30
0.0
 11
31.149118
 21
0.781501
 31
0.0
  0
LINE
  5
CB
100
AcDbEntity
  8
TEXT
100
AcDbLine
 10
24.877321
 20
0.466501
 30
0.0
 11
26.877321
 21
0.466501
 31
0.0
  0
LINE
  5
CC
100
AcDbEntity
  8
BORDER
100
AcDbLine
 10
24.877321
 20
1.901501
 30
0.0
 11
31.149118
 21
1.901501
 31
0.0
  0
LINE
  5
CD
100
AcDbEntity
  8
BORDER
100
AcDbLine
 10
24.877321
 20
0.125
 30
0.0
 11
24.877321
 21
2.324147
 31
0.0
  0
TEXT
  5
CE
100
AcDbEntity
  8
TEXT
100
AcDbText
 10
24.945631
 20
0.979964
 30
0.0
 40
0.065
  1
DRAWN
  7
ADESK2
100
AcDbText
  0
TEXT
  5
CF
100
AcDbEntity
  8
BORDER
100
AcDbText
 10
25.055285
 20
2.049228
 30
0.0
 40
0.15
  1
UNIVERSITY OF CALIFORNIA @ SANTA BARBARA
100
AcDbText
  0
LINE
  5
D0
100
AcDbEntity
  8
BORDER
100
AcDbLine
 10
24.87628
 20
2.324147
 30
0.0
 11
31.149118
 21
2.324147
 31
0.0
  0
LINE
  5
D1
100
AcDbEntity
  8
BORDER
100
AcDbLine
 10
31.17142
 20
0.125
 30
0.0
 11
31.17142
 21
19.947595
 31
0.0
  0
LINE
  5
D2
100
AcDbEntity
  8
BORDER
100
AcDbLine
 10
0.125
 20
19.947595
 30
0.0
 11
0.125
 21
0.125
 31
0.0
  0
LINE
  5
D3
100
AcDbEntity
  8
BORDER
100
AcDbLine
 10
0.125
 20
0.125
 30
0.0
 11
31.17142
 21
0.125
 31
0.0
  0
TEXT
  5
D4
100
AcDbEntity
  8
TEXT
100
AcDbText
 10
27.328393
 20
0.665354
 30
0.0
 40
0.075
  1
DIRECTORY
100
AcDbText
  0
LINE
  5
D5
100
AcDbEntity
  8
BORDER
100
AcDbLine
 10
0.125
 20
19.947595
 30
0.0
 11
31.17142
 21
19.947595
 31
0.0
  0
TEXT
  5
D6
100
AcDbEntity
  8
BORDER
100
AcDbText
 10
27.564864
 20
1.575566
 30
0.0
 40
0.15
  1
HIGH ENERGY PHYSICS
100
AcDbText
  0
TEXT
  5
D7
100
AcDbEntity
  8
BORDER
100
AcDbText
 10
27.001167
 20
0.434778
 30
0.0
 40
0.2
  1
D
100
AcDbText
  0
TEXT
  5
D8
100
AcDbEntity
  8
TEXT
100
AcDbText
 10
25.106606
 20
1.785089
 30
0.0
 40
0.065
  1
UNLESS OTHERWISE SPECIFIED:
  7
ADESK2
 72
     1
 11
25.877321
 21
1.785089
 31
0.0
100
AcDbText
  0
TEXT
  5
D9
100
AcDbEntity
  8
TEXT
100
AcDbText
 10
25.180892
 20
1.679851
 30
0.0
 40
0.065
  1
DIMENSIONS ARE IN INCHES
  7
ADESK2
 72
     1
 11
25.877321
 21
1.679851
 31
0.0
100
AcDbText
  0
TEXT
  5
DA
100
AcDbEntity
  8
TEXT
100
AcDbText
 10
25.57863
 20
1.574613
 30
0.0
 40
0.065
  1
TOLERANCES
  7
ADESK2
 72
     1
 11
25.877321
 21
1.574613
 31
0.0
100
AcDbText
  0
TEXT
  5
DB
100
AcDbEntity
  8
TEXT
100
AcDbText
 10
25.192279
 20
1.466743
 30
0.0
 40
0.065
  1
DECIMALS
  7
ADESK2
100
AcDbText
  0
TEXT
  5
DC
100
AcDbEntity
  8
TEXT
100
AcDbText
 10
25.192279
 20
1.361505
 30
0.0
 40
0.065
  1
.XX  %%P .05
  7
ADESK2
100
AcDbText
  0
TEXT
  5
DD
100
AcDbEntity
  8
TEXT
100
AcDbText
 10
25.192279
 20
1.256267
 30
0.0
 40
0.065
  1
.XXX %%P .005
  7
ADESK2
100
AcDbText
  0
TEXT
  5
DE
100
AcDbEntity
  8
TEXT
100
AcDbText
 10
25.262916
 20
1.153744
 30
0.0
 40
0.065
  1
DO NOT SCALE DRAWING
  7
ADESK2
 72
     1
 11
25.877321
 21
1.153744
 31
0.0
100
AcDbText
  0
TEXT
  5
DF
100
AcDbEntity
  8
TEXT
100
AcDbText
 10
26.056176
 20
1.466743
 30
0.0
 40
0.065
  1
ANGULAR
  7
ADESK2
100
AcDbText
  0
TEXT
  5
E0
100
AcDbEntity
  8
TEXT
100
AcDbText
 10
26.056176
 20
1.361505
 30
0.0
 40
0.065
  1
  %%P 0.5%%D
  7
ADESK2
100
AcDbText
  0
ENDBLK
  5
E2
100
AcDbEntity
  8
0
100
AcDbBlockEnd
  0
BLOCK
  5
128
100
AcDbEntity
  8
0
100
AcDbBlockBegin
  2
*U3
 70
    65
 10
0.0
 20
0.0
 30
0.0
  3
*U3
  1
*TB
  0
CIRCLE
  5
121
100
AcDbEntity
  8
FOOT-2
100
AcDbCircle
 10
0.0
 20
0.0
 30
0.0
 40
0.058
  0
LINE
  5
122
100
AcDbEntity
  8
CENTER
100
AcDbLine
 10
-0.019333
 20
0.0
 30
0.0
 11
0.019333
 21
0.0
 31
0.0
  0
LINE
  5
123
100
AcDbEntity
  8
CENTER
100
AcDbLine
 10
0.0
 20
-0.019333
 30
0.0
 11
0.0
 21
0.019333
 31
0.0
  0
LINE
  5
124
100
AcDbEntity
  8
CENTER
100
AcDbLine
 10
0.038667
 20
0.0
 30
0.0
 11
0.183
 21
0.0
 31
0.0
  0
LINE
  5
125
100
AcDbEntity
  8
CENTER
100
AcDbLine
 10
0.0
 20
0.038667
 30
0.0
 11
0.0
 21
0.183
 31
0.0
  0
LINE
  5
126
100
AcDbEntity
  8
CENTER
100
AcDbLine
 10
-0.038667
 20
0.0
 30
0.0
 11
-0.183
 21
0.0
 31
0.0
  0
LINE
  5
127
100
AcDbEntity
  8
CENTER
100
AcDbLine
 10
0.0
 20
-0.038667
 30
0.0
 11
0.0
 21
-0.183
 31
0.0
  0
ENDBLK
  5
129
100
AcDbEntity
  8
0
100
AcDbBlockEnd
  0
BLOCK
  5
132
100
AcDbEntity
  8
0
100
AcDbBlockBegin
  2
*U4
 70
    65
 10
0.0
 20
0.0
 30
0.0
  3
*U4
  1
*TB
  0
CIRCLE
  5
12B
100
AcDbEntity
  8
FOOT-2
100
AcDbCircle
 10
0.0
 20
0.0
 30
0.0
 40
0.046875
  0
LINE
  5
12C
100
AcDbEntity
  8
CENTER
100
AcDbLine
 10
-0.015625
 20
0.0
 30
0.0
 11
0.015625
 21
0.0
 31
0.0
  0
LINE
  5
12D
100
AcDbEntity
  8
CENTER
100
AcDbLine
 10
0.0
 20
-0.015625
 30
0.0
 11
0.0
 21
0.015625
 31
0.0
  0
LINE
  5
12E
100
AcDbEntity
  8
CENTER
100
AcDbLine
 10
0.03125
 20
0.0
 30
0.0
 11
0.171875
 21
0.0
 31
0.0
  0
LINE
  5
12F
100
AcDbEntity
  8
CENTER
100
AcDbLine
 10
0.0
 20
0.03125
 30
0.0
 11
0.0
 21
0.171875
 31
0.0
  0
LINE
  5
130
100
AcDbEntity
  8
CENTER
100
AcDbLine
 10
-0.03125
 20
0.0
 30
0.0
 11
-0.171875
 21
0.0
 31
0.0
  0
LINE
  5
131
100
AcDbEntity
  8
CENTER
100
AcDbLine
 10
0.0
 20
-0.03125
 30
0.0
 11
0.0
 21
-0.171875
 31
0.0
  0
ENDBLK
  5
133
100
AcDbEntity
  8
0
100
AcDbBlockEnd
  0
BLOCK
  5
147
100
AcDbEntity
  8
0
100
AcDbBlockBegin
  2
*U5
 70
    65
 10
0.0
 20
0.0
 30
0.0
  3
*U5
  1
*TB
  0
POLYLINE
  5
135
100
AcDbEntity
  8
FOOT-2
100
AcDb2dPolyline
 66
     1
 10
0.0
 20
0.0
 30
0.0
 70
     1
  0
VERTEX
  5
136
100
AcDbEntity
  8
FOOT-2
100
AcDbVertex
100
AcDb2dVertex
 10
-0.176
 20
0.063
 30
0.0
 42
1.0
  0
VERTEX
  5
137
100
AcDbEntity
  8
FOOT-2
100
AcDbVertex
100
AcDb2dVertex
 10
-0.176
 20
-0.063
 30
0.0
  0
VERTEX
  5
138
100
AcDbEntity
  8
FOOT-2
100
AcDbVertex
100
AcDb2dVertex
 10
0.0
 20
-0.063
 30
0.0
 42
1.0
  0
VERTEX
  5
139
100
AcDbEntity
  8
FOOT-2
100
AcDbVertex
100
AcDb2dVertex
 10
0.0
 20
0.063
 30
0.0
  0
SEQEND
  5
13A
100
AcDbEntity
  8
FOOT-2
  0
LINE
  5
13B
100
AcDbEntity
  8
CENTER
100
AcDbLine
 10
-0.197
 20
0.0
 30
0.0
 11
-0.155
 21
0.0
 31
0.0
  0
LINE
  5
13C
100
AcDbEntity
  8
CENTER
100
AcDbLine
 10
-0.176
 20
-0.021
 30
0.0
 11
-0.176
 21
0.021
 31
0.0
  0
LINE
  5
13D
100
AcDbEntity
  8
CENTER
100
AcDbLine
 10
-0.134
 20
0.0
 30
0.0
 11
0.012
 21
0.0
 31
0.0
  0
LINE
  5
13E
100
AcDbEntity
  8
CENTER
100
AcDbLine
 10
-0.176
 20
0.042
 30
0.0
 11
-0.176
 21
0.188
 31
0.0
  0
LINE
  5
13F
100
AcDbEntity
  8
CENTER
100
AcDbLine
 10
-0.218
 20
0.0
 30
0.0
 11
-0.364
 21
0.0
 31
0.0
  0
LINE
  5
140
100
AcDbEntity
  8
CENTER
100
AcDbLine
 10
-0.176
 20
-0.042
 30
0.0
 11
-0.176
 21
-0.188
 31
0.0
  0
LINE
  5
141
100
AcDbEntity
  8
CENTER
100
AcDbLine
 10
-0.021
 20
0.0
 30
0.0
 11
0.021
 21
0.0
 31
0.0
  0
LINE
  5
142
100
AcDbEntity
  8
CENTER
100
AcDbLine
 10
0.0
 20
-0.021
 30
0.0
 11
0.0
 21
0.021
 31
0.0
  0
LINE
  5
143
100
AcDbEntity
  8
CENTER
100
AcDbLine
 10
0.042
 20
0.0
 30
0.0
 11
0.188
 21
0.0
 31
0.0
  0
LINE
  5
144
100
AcDbEntity
  8
CENTER
100
AcDbLine
 10
0.0
 20
0.042
 30
0.0
 11
0.0
 21
0.188
 31
0.0
  0
LINE
  5
145
100
AcDbEntity
  8
CENTER
100
AcDbLine
 10
-0.042
 20
0.0
 30
0.0
 11
-0.188
 21
0.0
 31
0.0
  0
LINE
  5
146
100
AcDbEntity
  8
CENTER
100
AcDbLine
 10
0.0
 20
-0.042
 30
0.0
 11
0.0
 21
-0.188
 31
0.0
  0
ENDBLK
  5
148
100
AcDbEntity
  8
0
100
AcDbBlockEnd
  0
BLOCK
  5
3F5
100
AcDbEntity
  8
0
100
AcDbBlockBegin
  2
*X7
 70
    65
 10
0.0
 20
0.0
 30
0.0
  3
*X7
  1

  0
LINE
  5
3F7
100
AcDbEntity
  8
0
 62
     0
100
AcDbLine
 10
262.328961
 20
145.656342
 30
0.0
 11
263.090961
 21
146.418342
 31
0.0
  0
LINE
  5
3F8
100
AcDbEntity
  8
0
 62
     0
100
AcDbLine
 10
260.561194
 20
145.656342
 30
0.0
 11
261.323194
 21
146.418342
 31
0.0
  0
LINE
  5
3F9
100
AcDbEntity
  8
0
 62
     0
100
AcDbLine
 10
258.793427
 20
145.656342
 30
0.0
 11
259.555427
 21
146.418342
 31
0.0
  0
LINE
  5
3FA
100
AcDbEntity
  8
0
 62
     0
100
AcDbLine
 10
257.02566
 20
145.656342
 30
0.0
 11
257.78766
 21
146.418342
 31
0.0
  0
LINE
  5
3FB
100
AcDbEntity
  8
0
 62
     0
100
AcDbLine
 10
255.406241
 20
145.80469
 30
0.0
 11
256.019894
 21
146.418342
 31
0.0
  0
LINE
  5
3FC
100
AcDbEntity
  8
0
 62
     0
100
AcDbLine
 10
254.507701
 20
146.673916
 30
0.0
 11
255.04659
 21
147.212806
 31
0.0
  0
LINE
  5
3FD
100
AcDbEntity
  8
0
 62
     0
100
AcDbLine
 10
253.60916
 20
147.543143
 30
0.0
 11
254.14805
 21
148.082033
 31
0.0
  0
LINE
  5
3FE
100
AcDbEntity
  8
0
 62
     0
100
AcDbLine
 10
252.71062
 20
148.41237
 30
0.0
 11
253.24951
 21
148.951259
 31
0.0
  0
LINE
  5
3FF
100
AcDbEntity
  8
0
 62
     0
100
AcDbLine
 10
251.81208
 20
149.281597
 30
0.0
 11
252.35097
 21
149.820486
 31
0.0
  0
LINE
  5
400
100
AcDbEntity
  8
0
 62
     0
100
AcDbLine
 10
250.91354
 20
150.150824
 30
0.0
 11
251.452429
 21
150.689713
 31
0.0
  0
LINE
  5
401
100
AcDbEntity
  8
0
 62
     0
100
AcDbLine
 10
250.015
 20
151.02005
 30
0.0
 11
250.553889
 21
151.55894
 31
0.0
  0
LINE
  5
402
100
AcDbEntity
  8
0
 62
     0
100
AcDbLine
 10
249.11646
 20
151.889277
 30
0.0
 11
249.655349
 21
152.428167
 31
0.0
  0
LINE
  5
403
100
AcDbEntity
  8
0
 62
     0
100
AcDbLine
 10
248.217919
 20
152.758504
 30
0.0
 11
248.756809
 21
153.297393
 31
0.0
  0
LINE
  5
404
100
AcDbEntity
  8
0
 62
     0
100
AcDbLine
 10
247.319379
 20
153.627731
 30
0.0
 11
247.858269
 21
154.16662
 31
0.0
  0
LINE
  5
405
100
AcDbEntity
  8
0
 62
     0
100
AcDbLine
 10
246.420839
 20
154.496958
 30
0.0
 11
246.959729
 21
155.035847
 31
0.0
  0
LINE
  5
406
100
AcDbEntity
  8
0
 62
     0
100
AcDbLine
 10
245.522299
 20
155.366184
 30
0.0
 11
246.061188
 21
155.905074
 31
0.0
  0
LINE
  5
407
100
AcDbEntity
  8
0
 62
     0
100
AcDbLine
 10
244.623759
 20
156.235411
 30
0.0
 11
245.162648
 21
156.774301
 31
0.0
  0
LINE
  5
408
100
AcDbEntity
  8
0
 62
     0
100
AcDbLine
 10
243.725219
 20
157.104638
 30
0.0
 11
244.264108
 21
157.643527
 31
0.0
  0
LINE
  5
409
100
AcDbEntity
  8
0
 62
     0
100
AcDbLine
 10
242.826678
 20
157.973865
 30
0.0
 11
243.365568
 21
158.512754
 31
0.0
  0
LINE
  5
40A
100
AcDbEntity
  8
0
 62
     0
100
AcDbLine
 10
241.928138
 20
158.843092
 30
0.0
 11
242.467028
 21
159.381981
 31
0.0
  0
LINE
  5
40B
100
AcDbEntity
  8
0
 62
     0
100
AcDbLine
 10
241.029598
 20
159.712318
 30
0.0
 11
241.568488
 21
160.251208
 31
0.0
  0
LINE
  5
40C
100
AcDbEntity
  8
0
 62
     0
100
AcDbLine
 10
240.131058
 20
160.581545
 30
0.0
 11
240.669947
 21
161.120435
 31
0.0
  0
LINE
  5
40D
100
AcDbEntity
  8
0
 62
     0
100
AcDbLine
 10
239.232518
 20
161.450772
 30
0.0
 11
239.771407
 21
161.989661
 31
0.0
  0
LINE
  5
40E
100
AcDbEntity
  8
0
 62
     0
100
AcDbLine
 10
238.333978
 20
162.319999
 30
0.0
 11
238.872867
 21
162.858888
 31
0.0
  0
LINE
  5
40F
100
AcDbEntity
  8
0
 62
     0
100
AcDbLine
 10
237.435437
 20
163.189225
 30
0.0
 11
237.974327
 21
163.728115
 31
0.0
  0
LINE
  5
410
100
AcDbEntity
  8
0
 62
     0
100
AcDbLine
 10
236.536897
 20
164.058452
 30
0.0
 11
237.075787
 21
164.597342
 31
0.0
  0
LINE
  5
411
100
AcDbEntity
  8
0
 62
     0
100
AcDbLine
 10
264.096728
 20
145.656342
 30
0.0
 11
264.858728
 21
146.418342
 31
0.0
  0
LINE
  5
412
100
AcDbEntity
  8
0
 62
     0
100
AcDbLine
 10
265.864495
 20
145.656342
 30
0.0
 11
266.626495
 21
146.418342
 31
0.0
  0
LINE
  5
413
100
AcDbEntity
  8
0
 62
     0
100
AcDbLine
 10
267.632262
 20
145.656342
 30
0.0
 11
268.394262
 21
146.418342
 31
0.0
  0
LINE
  5
414
100
AcDbEntity
  8
0
 62
     0
100
AcDbLine
 10
269.400029
 20
145.656342
 30
0.0
 11
270.162029
 21
146.418342
 31
0.0
  0
LINE
  5
415
100
AcDbEntity
  8
0
 62
     0
100
AcDbLine
 10
271.167796
 20
145.656342
 30
0.0
 11
271.929796
 21
146.418342
 31
0.0
  0
LINE
  5
416
100
AcDbEntity
  8
0
 62
     0
100
AcDbLine
 10
272.935563
 20
145.656342
 30
0.0
 11
273.697563
 21
146.418342
 31
0.0
  0
LINE
  5
417
100
AcDbEntity
  8
0
 62
     0
100
AcDbLine
 10
274.70333
 20
145.656342
 30
0.0
 11
275.46533
 21
146.418342
 31
0.0
  0
LINE
  5
418
100
AcDbEntity
  8
0
 62
     0
100
AcDbLine
 10
276.471097
 20
145.656342
 30
0.0
 11
277.233097
 21
146.418342
 31
0.0
  0
LINE
  5
419
100
AcDbEntity
  8
0
 62
     0
100
AcDbLine
 10
278.238864
 20
145.656342
 30
0.0
 11
279.000864
 21
146.418342
 31
0.0
  0
LINE
  5
41A
100
AcDbEntity
  8
0
 62
     0
100
AcDbLine
 10
280.006631
 20
145.656342
 30
0.0
 11
280.768631
 21
146.418342
 31
0.0
  0
LINE
  5
41B
100
AcDbEntity
  8
0
 62
     0
100
AcDbLine
 10
281.774398
 20
145.656342
 30
0.0
 11
282.536398
 21
146.418342
 31
0.0
  0
LINE
  5
41C
100
AcDbEntity
  8
0
 62
     0
100
AcDbLine
 10
283.542165
 20
145.656342
 30
0.0
 11
284.304165
 21
146.418342
 31
0.0
  0
LINE
  5
41D
100
AcDbEntity
  8
0
 62
     0
100
AcDbLine
 10
285.309932
 20
145.656342
 30
0.0
 11
286.071932
 21
146.418342
 31
0.0
  0
LINE
  5
41E
100
AcDbEntity
  8
0
 62
     0
100
AcDbLine
 10
287.077699
 20
145.656342
 30
0.0
 11
287.839699
 21
146.418342
 31
0.0
  0
LINE
  5
41F
100
AcDbEntity
  8
0
 62
     0
100
AcDbLine
 10
288.845466
 20
145.656342
 30
0.0
 11
289.607466
 21
146.418342
 31
0.0
  0
LINE
  5
420
100
AcDbEntity
  8
0
 62
     0
100
AcDbLine
 10
290.613233
 20
145.656342
 30
0.0
 11
291.375233
 21
146.418342
 31
0.0
  0
LINE
  5
421
100
AcDbEntity
  8
0
 62
     0
100
AcDbLine
 10
292.381
 20
145.656342
 30
0.0
 11
293.143
 21
146.418342
 31
0.0
  0
LINE
  5
422
100
AcDbEntity
  8
0
 62
     0
100
AcDbLine
 10
294.148766
 20
145.656342
 30
0.0
 11
294.910766
 21
146.418342
 31
0.0
  0
LINE
  5
423
100
AcDbEntity
  8
0
 62
     0
100
AcDbLine
 10
295.916533
 20
145.656342
 30
0.0
 11
296.678533
 21
146.418342
 31
0.0
  0
LINE
  5
424
100
AcDbEntity
  8
0
 62
     0
100
AcDbLine
 10
297.6843
 20
145.656342
 30
0.0
 11
298.4463
 21
146.418342
 31
0.0
  0
LINE
  5
425
100
AcDbEntity
  8
0
 62
     0
100
AcDbLine
 10
299.452067
 20
145.656342
 30
0.0
 11
300.214067
 21
146.418342
 31
0.0
  0
LINE
  5
426
100
AcDbEntity
  8
0
 62
     0
100
AcDbLine
 10
301.219834
 20
145.656342
 30
0.0
 11
301.981834
 21
146.418342
 31
0.0
  0
LINE
  5
427
100
AcDbEntity
  8
0
 62
     0
100
AcDbLine
 10
302.987601
 20
145.656342
 30
0.0
 11
303.749601
 21
146.418342
 31
0.0
  0
LINE
  5
428
100
AcDbEntity
  8
0
 62
     0
100
AcDbLine
 10
304.755368
 20
145.656342
 30
0.0
 11
305.517368
 21
146.418342
 31
0.0
  0
LINE
  5
429
100
AcDbEntity
  8
0
 62
     0
100
AcDbLine
 10
306.523135
 20
145.656342
 30
0.0
 11
307.285135
 21
146.418342
 31
0.0
  0
ENDBLK
  5
42A
100
AcDbEntity
  8
0
100
AcDbBlockEnd
  0
BLOCK
  5
74B
100
AcDbEntity
  8
0
100
AcDbBlockBegin
  2
*D8
 70
    65
 10
0.0
 20
0.0
 30
0.0
  3
*D8
  1
*TB
  0
LINE
  5
74C
100
AcDbEntity
  8
0
  6
BYBLOCK
 62
     0
100
AcDbLine
 10
348.000392
 20
118.412284
 30
0.0
 11
348.000392
 21
142.98376
 31
0.0
  0
LINE
  5
74D
100
AcDbEntity
  8
0
  6
BYBLOCK
 62
     0
100
AcDbLine
 10
328.754813
 20
138.41176
 30
0.0
 11
324.182813
 21
138.41176
 31
0.0
  0
LINE
  5
74E
100
AcDbEntity
  8
0
  6
BYBLOCK
 62
     0
100
AcDbLine
 10
352.572392
 20
138.41176
 30
0.0
 11
357.144392
 21
138.41176
 31
0.0
  0
SOLID
  5
74F
100
AcDbEntity
  8
0
  6
BYBLOCK
 62
     0
100
AcDbTrace
 10
328.754813
 20
139.17376
 30
0.0
 11
328.754813
 21
137.64976
 31
0.0
 12
333.326813
 22
138.41176
 32
0.0
 13
333.326813
 23
138.41176
 33
0.0
  0
SOLID
  5
750
100
AcDbEntity
  8
0
  6
BYBLOCK
 62
     0
100
AcDbTrace
 10
352.572392
 20
139.17376
 30
0.0
 11
352.572392
 21
137.64976
 31
0.0
 12
348.000392
 22
138.41176
 32
0.0
 13
348.000392
 23
138.41176
 33
0.0
  0
MTEXT
  5
751
100
AcDbEntity
  8
0
  6
BYBLOCK
 62
     0
100
AcDbMText
 10
386.481392
 20
138.41176
 30
0.0
 40
4.572
 41
0.0
 71
     5
 72
     1
  1
\A1;14.67mm[0.578"]
  0
POINT
  5
752
100
AcDbEntity
  8
DEFPOINTS
  6
BYBLOCK
 62
     0
100
AcDbPoint
 10
333.326813
 20
63.550756
 30
0.0
  0
POINT
  5
753
100
AcDbEntity
  8
DEFPOINTS
  6
BYBLOCK
 62
     0
100
AcDbPoint
 10
348.000392
 20
116.824784
 30
0.0
  0
POINT
  5
754
100
AcDbEntity
  8
DEFPOINTS
  6
BYBLOCK
 62
     0
100
AcDbPoint
 10
348.000392
 20
138.41176
 30
0.0
  0
ENDBLK
  5
755
100
AcDbEntity
  8
0
100
AcDbBlockEnd
  0
BLOCK
  5
642
100
AcDbEntity
  8
0
100
AcDbBlockBegin
  2
*D9
 70
    65
 10
0.0
 20
0.0
 30
0.0
  3
*D9
  1
*TB
  0
LINE
  5
643
100
AcDbEntity
  8
0
  6
BYBLOCK
 62
     0
100
AcDbLine
 10
393.995331
 20
144.068842
 30
0.0
 11
393.995331
 21
133.3313
 31
0.0
  0
LINE
  5
644
100
AcDbEntity
  8
0
  6
BYBLOCK
 62
     0
100
AcDbLine
 10
328.754813
 20
137.9033
 30
0.0
 11
324.182813
 21
137.9033
 31
0.0
  0
LINE
  5
645
100
AcDbEntity
  8
0
  6
BYBLOCK
 62
     0
100
AcDbLine
 10
398.567331
 20
137.9033
 30
0.0
 11
403.139331
 21
137.9033
 31
0.0
  0
SOLID
  5
646
100
AcDbEntity
  8
0
  6
BYBLOCK
 62
     0
100
AcDbTrace
 10
328.754813
 20
138.6653
 30
0.0
 11
328.754813
 21
137.1413
 31
0.0
 12
333.326813
 22
137.9033
 32
0.0
 13
333.326813
 23
137.9033
 33
0.0
  0
SOLID
  5
647
100
AcDbEntity
  8
0
  6
BYBLOCK
 62
     0
100
AcDbTrace
 10
398.567331
 20
138.6653
 30
0.0
 11
398.567331
 21
137.1413
 31
0.0
 12
393.995331
 22
137.9033
 32
0.0
 13
393.995331
 23
137.9033
 33
0.0
  0
MTEXT
  5
648
100
AcDbEntity
  8
0
  6
BYBLOCK
 62
     0
100
AcDbMText
 10
433.238331
 20
137.9033
 30
0.0
 40
4.572
 41
0.0
 71
     5
 72
     1
  1
\A1;60.67mm[2.389"]
  0
POINT
  5
649
100
AcDbEntity
  8
DEFPOINTS
  6
BYBLOCK
 62
     0
100
AcDbPoint
 10
333.326813
 20
102.382315
 30
0.0
  0
POINT
  5
64A
100
AcDbEntity
  8
DEFPOINTS
  6
BYBLOCK
 62
     0
100
AcDbPoint
 10
393.995331
 20
145.656342
 30
0.0
  0
POINT
  5
64B
100
AcDbEntity
  8
DEFPOINTS
  6
BYBLOCK
 62
     0
100
AcDbPoint
 10
393.995331
 20
137.9033
 30
0.0
  0
ENDBLK
  5
64C
100
AcDbEntity
  8
0
100
AcDbBlockEnd
  0
BLOCK
  5
64D
100
AcDbEntity
  8
0
100
AcDbBlockBegin
  2
*D10
 70
    65
 10
0.0
 20
0.0
 30
0.0
  3
*D10
  1
*TB
  0
LINE
  5
64E
100
AcDbEntity
  8
0
  6
BYBLOCK
 62
     0
100
AcDbLine
 10
374.945331
 20
146.938059
 30
0.0
 11
374.945331
 21
121.972342
 31
0.0
  0
LINE
  5
64F
100
AcDbEntity
  8
0
  6
BYBLOCK
 62
     0
100
AcDbLine
 10
328.754813
 20
126.544342
 30
0.0
 11
324.182813
 21
126.544342
 31
0.0
  0
LINE
  5
650
100
AcDbEntity
  8
0
  6
BYBLOCK
 62
     0
100
AcDbLine
 10
379.517331
 20
126.544342
 30
0.0
 11
384.089331
 21
126.544342
 31
0.0
  0
SOLID
  5
651
100
AcDbEntity
  8
0
  6
BYBLOCK
 62
     0
100
AcDbTrace
 10
328.754813
 20
127.306342
 30
0.0
 11
328.754813
 21
125.782342
 31
0.0
 12
333.326813
 22
126.544342
 32
0.0
 13
333.326813
 23
126.544342
 33
0.0
  0
SOLID
  5
652
100
AcDbEntity
  8
0
  6
BYBLOCK
 62
     0
100
AcDbTrace
 10
379.517331
 20
127.306342
 30
0.0
 11
379.517331
 21
125.782342
 31
0.0
 12
374.945331
 22
126.544342
 32
0.0
 13
374.945331
 23
126.544342
 33
0.0
  0
MTEXT
  5
653
100
AcDbEntity
  8
0
  6
BYBLOCK
 62
     0
100
AcDbMText
 10
438.572331
 20
126.544342
 30
0.0
 40
4.572
 41
0.0
 71
     5
 72
     1
  1
\A1;41.62mm±0.03mm[1.639"±0.001"]
  0
POINT
  5
654
100
AcDbEntity
  8
DEFPOINTS
  6
BYBLOCK
 62
     0
100
AcDbPoint
 10
333.326813
 20
102.382315
 30
0.0
  0
POINT
  5
655
100
AcDbEntity
  8
DEFPOINTS
  6
BYBLOCK
 62
     0
100
AcDbPoint
 10
374.945331
 20
148.525559
 30
0.0
  0
POINT
  5
656
100
AcDbEntity
  8
DEFPOINTS
  6
BYBLOCK
 62
     0
100
AcDbPoint
 10
374.945331
 20
126.544342
 30
0.0
  0
ENDBLK
  5
657
100
AcDbEntity
  8
0
100
AcDbBlockEnd
  0
BLOCK
  5
4A2
100
AcDbEntity
  8
0
100
AcDbBlockBegin
  2
*D11
 70
    65
 10
0.0
 20
0.0
 30
0.0
  3
*D11
  1
*TB
  0
LINE
  5
4A3
100
AcDbEntity
  8
0
  6
BYBLOCK
 62
     0
100
AcDbLine
 10
292.883443
 20
150.669657
 30
0.0
 11
411.207565
 21
150.669657
 31
0.0
  0
LINE
  5
4A4
100
AcDbEntity
  8
0
  6
BYBLOCK
 62
     0
100
AcDbLine
 10
406.635565
 20
146.097657
 30
0.0
 11
406.635565
 21
141.525657
 31
0.0
  0
LINE
  5
4A5
100
AcDbEntity
  8
0
  6
BYBLOCK
 62
     0
100
AcDbLine
 10
406.635565
 20
163.657861
 30
0.0
 11
406.635565
 21
168.229861
 31
0.0
  0
LINE
  5
4A6
100
AcDbEntity
  8
0
  6
BYBLOCK
 62
     0
100
AcDbLine
 10
406.635565
 20
168.229861
 30
0.0
 11
411.207565
 21
168.229861
 31
0.0
  0
SOLID
  5
4A7
100
AcDbEntity
  8
0
  6
BYBLOCK
 62
     0
100
AcDbTrace
 10
405.873565
 20
146.097657
 30
0.0
 11
407.397565
 21
146.097657
 31
0.0
 12
406.635565
 22
150.669657
 32
0.0
 13
406.635565
 23
150.669657
 33
0.0
  0
SOLID
  5
4A8
100
AcDbEntity
  8
0
  6
BYBLOCK
 62
     0
100
AcDbTrace
 10
405.873565
 20
163.657861
 30
0.0
 11
407.397565
 21
163.657861
 31
0.0
 12
406.635565
 22
159.085861
 32
0.0
 13
406.635565
 23
159.085861
 33
0.0
  0
MTEXT
  5
4A9
100
AcDbEntity
  8
0
  6
BYBLOCK
 62
     0
100
AcDbMText
 10
463.785565
 20
168.229861
 30
0.0
 40
4.572
 41
0.0
 71
     5
 72
     1
  1
\A1;8.42mm±0.03mm[0.331"±0.001"]
  0
POINT
  5
4AA
100
AcDbEntity
  8
DEFPOINTS
  6
BYBLOCK
 62
     0
100
AcDbPoint
 10
291.295943
 20
150.669657
 30
0.0
  0
POINT
  5
4AB
100
AcDbEntity
  8
DEFPOINTS
  6
BYBLOCK
 62
     0
100
AcDbPoint
 10
125.184151
 20
159.085861
 30
0.0
  0
POINT
  5
4AC
100
AcDbEntity
  8
DEFPOINTS
  6
BYBLOCK
 62
     0
100
AcDbPoint
 10
406.635565
 20
159.085861
 30
0.0
  0
ENDBLK
  5
4AD
100
AcDbEntity
  8
0
100
AcDbBlockEnd
  0
BLOCK
  5
495
100
AcDbEntity
  8
0
100
AcDbBlockBegin
  2
*D12
 70
    65
 10
0.0
 20
0.0
 30
0.0
  3
*D12
  1
*TB
  0
LINE
  5
496
100
AcDbEntity
  8
0
  6
BYBLOCK
 62
     0
100
AcDbLine
 10
307.595594
 20
155.656342
 30
0.0
 11
346.045396
 21
155.656342
 31
0.0
  0
LINE
  5
497
100
AcDbEntity
  8
0
  6
BYBLOCK
 62
     0
100
AcDbLine
 10
341.473396
 20
151.084342
 30
0.0
 11
341.473396
 21
146.512342
 31
0.0
  0
LINE
  5
498
100
AcDbEntity
  8
0
  6
BYBLOCK
 62
     0
100
AcDbLine
 10
341.473396
 20
163.657861
 30
0.0
 11
341.473396
 21
168.229861
 31
0.0
  0
LINE
  5
499
100
AcDbEntity
  8
0
  6
BYBLOCK
 62
     0
100
AcDbLine
 10
341.473396
 20
168.229861
 30
0.0
 11
346.045396
 21
168.229861
 31
0.0
  0
SOLID
  5
49A
100
AcDbEntity
  8
0
  6
BYBLOCK
 62
     0
100
AcDbTrace
 10
340.711396
 20
151.084342
 30
0.0
 11
342.235396
 21
151.084342
 31
0.0
 12
341.473396
 22
155.656342
 32
0.0
 13
341.473396
 23
155.656342
 33
0.0
  0
SOLID
  5
49B
100
AcDbEntity
  8
0
  6
BYBLOCK
 62
     0
100
AcDbTrace
 10
340.711396
 20
163.657861
 30
0.0
 11
342.235396
 21
163.657861
 31
0.0
 12
341.473396
 22
159.085861
 32
0.0
 13
341.473396
 23
159.085861
 33
0.0
  0
MTEXT
  5
49C
100
AcDbEntity
  8
0
  6
BYBLOCK
 62
     0
100
AcDbMText
 10
373.096396
 20
168.229861
 30
0.0
 40
4.572
 41
0.0
 71
     5
 72
     1
  1
\A1;3.43mm[0.135"]
  0
POINT
  5
49D
100
AcDbEntity
  8
DEFPOINTS
  6
BYBLOCK
 62
     0
100
AcDbPoint
 10
306.008094
 20
155.656342
 30
0.0
  0
POINT
  5
49E
100
AcDbEntity
  8
DEFPOINTS
  6
BYBLOCK
 62
     0
100
AcDbPoint
 10
125.184151
 20
159.085861
 30
0.0
  0
POINT
  5
49F
100
AcDbEntity
  8
DEFPOINTS
  6
BYBLOCK
 62
     0
100
AcDbPoint
 10
341.473396
 20
159.085861
 30
0.0
  0
ENDBLK
  5
4A0
100
AcDbEntity
  8
0
100
AcDbBlockEnd
  0
BLOCK
  5
4AF
100
AcDbEntity
  8
0
100
AcDbBlockBegin
  2
*D13
 70
    65
 10
0.0
 20
0.0
 30
0.0
  3
*D13
  1
*TB
  0
LINE
  5
4B0
100
AcDbEntity
  8
0
  6
BYBLOCK
 62
     0
100
AcDbLine
 10
309.595594
 20
145.656342
 30
0.0
 11
530.110022
 21
145.656342
 31
0.0
  0
LINE
  5
4B1
100
AcDbEntity
  8
0
  6
BYBLOCK
 62
     0
100
AcDbLine
 10
525.538022
 20
141.084342
 30
0.0
 11
525.538022
 21
136.512342
 31
0.0
  0
LINE
  5
4B2
100
AcDbEntity
  8
0
  6
BYBLOCK
 62
     0
100
AcDbLine
 10
525.538022
 20
163.657861
 30
0.0
 11
525.538022
 21
168.229861
 31
0.0
  0
LINE
  5
4B3
100
AcDbEntity
  8
0
  6
BYBLOCK
 62
     0
100
AcDbLine
 10
525.538022
 20
168.229861
 30
0.0
 11
530.110022
 21
168.229861
 31
0.0
  0
SOLID
  5
4B4
100
AcDbEntity
  8
0
  6
BYBLOCK
 62
     0
100
AcDbTrace
 10
524.776022
 20
141.084342
 30
0.0
 11
526.300022
 21
141.084342
 31
0.0
 12
525.538022
 22
145.656342
 32
0.0
 13
525.538022
 23
145.656342
 33
0.0
  0
SOLID
  5
4B5
100
AcDbEntity
  8
0
  6
BYBLOCK
 62
     0
100
AcDbTrace
 10
524.776022
 20
163.657861
 30
0.0
 11
526.300022
 21
163.657861
 31
0.0
 12
525.538022
 22
159.085861
 32
0.0
 13
525.538022
 23
159.085861
 33
0.0
  0
MTEXT
  5
4B6
100
AcDbEntity
  8
0
  6
BYBLOCK
 62
     0
100
AcDbMText
 10
590.460422
 20
168.229861
 30
0.0
 40
4.572
 41
0.0
 71
     5
 72
     1
  1
\A1;13.43mm\S 0.00mm^ -0.05mm;{\o\l\H10.972800;[}0.529"\S 0.000"^ -0.002";{\o\l\H10.972800;]}
  0
POINT
  5
4B7
100
AcDbEntity
  8
DEFPOINTS
  6
BYBLOCK
 62
     0
100
AcDbPoint
 10
308.008094
 20
145.656342
 30
0.0
  0
POINT
  5
4B8
100
AcDbEntity
  8
DEFPOINTS
  6
BYBLOCK
 62
     0
100
AcDbPoint
 10
618.214153
 20
159.085861
 30
0.0
  0
POINT
  5
4B9
100
AcDbEntity
  8
DEFPOINTS
  6
BYBLOCK
 62
     0
100
AcDbPoint
 10
525.538022
 20
159.085861
 30
0.0
  0
ENDBLK
  5
4BA
100
AcDbEntity
  8
0
100
AcDbBlockEnd
  0
BLOCK
  5
4E1
100
AcDbEntity
  8
0
100
AcDbBlockBegin
  2
*D14
 70
    65
 10
0.0
 20
0.0
 30
0.0
  3
*D14
  1
*TB
  0
LINE
  5
4E2
100
AcDbEntity
  8
0
  6
BYBLOCK
 62
     0
100
AcDbLine
 10
235.122191
 20
163.218259
 30
0.0
 11
192.64533
 21
119.30893
 31
0.0
  0
LINE
  5
4E3
100
AcDbEntity
  8
0
  6
BYBLOCK
 62
     0
100
AcDbLine
 10
192.538128
 20
125.773826
 30
0.0
 11
189.25208
 21
128.952673
 31
0.0
  0
LINE
  5
4E4
100
AcDbEntity
  8
0
  6
BYBLOCK
 62
     0
100
AcDbLine
 10
207.486517
 20
111.313104
 30
0.0
 11
210.772565
 21
108.134257
 31
0.0
  0
SOLID
  5
4E5
100
AcDbEntity
  8
0
  6
BYBLOCK
 62
     0
100
AcDbTrace
 10
193.067936
 20
126.321501
 30
0.0
 11
192.008321
 21
125.226151
 31
0.0
 12
195.824177
 22
122.594979
 32
0.0
 13
195.824177
 23
122.594979
 33
0.0
  0
SOLID
  5
4E6
100
AcDbEntity
  8
0
  6
BYBLOCK
 62
     0
100
AcDbTrace
 10
208.016324
 20
111.860779
 30
0.0
 11
206.956709
 21
110.765429
 31
0.0
 12
204.200468
 22
114.491951
 32
0.0
 13
204.200468
 23
114.491951
 33
0.0
  0
MTEXT
  5
4E7
100
AcDbEntity
  8
0
  6
BYBLOCK
 62
     0
100
AcDbMText
 10
231.31037
 20
88.266464
 30
0.0
 40
4.572
 41
0.0
 71
     5
 72
     1
  1
\A1;11.65mm[0.459"]
 11
0.718733
 21
-0.695286
 31
0.0
  0
POINT
  5
4E8
100
AcDbEntity
  8
DEFPOINTS
  6
BYBLOCK
 62
     0
100
AcDbPoint
 10
236.225957
 20
164.359249
 30
0.0
 50
44.05
  0
POINT
  5
4E9
100
AcDbEntity
  8
DEFPOINTS
  6
BYBLOCK
 62
     0
100
AcDbPoint
 10
181.180557
 20
90.695728
 30
0.0
 50
44.05
  0
POINT
  5
4EA
100
AcDbEntity
  8
DEFPOINTS
  6
BYBLOCK
 62
     0
100
AcDbPoint
 10
204.200468
 20
114.491951
 30
0.0
 50
44.05
  0
ENDBLK
  5
4EB
100
AcDbEntity
  8
0
100
AcDbBlockEnd
  0
BLOCK
  5
4D6
100
AcDbEntity
  8
0
100
AcDbBlockBegin
  2
*D15
 70
    65
 10
0.0
 20
0.0
 30
0.0
  3
*D15
  1
*TB
  0
LINE
  5
4D7
100
AcDbEntity
  8
0
  6
BYBLOCK
 62
     0
100
AcDbLine
 10
254.455824
 20
144.515353
 30
0.0
 11
221.897194
 21
110.858732
 31
0.0
  0
LINE
  5
4D8
100
AcDbEntity
  8
0
  6
BYBLOCK
 62
     0
100
AcDbLine
 10
210.832649
 20
127.923505
 30
0.0
 11
207.5466
 21
131.102352
 31
0.0
  0
LINE
  5
4D9
100
AcDbEntity
  8
0
  6
BYBLOCK
 62
     0
100
AcDbLine
 10
228.36209
 20
110.965933
 30
0.0
 11
231.648138
 21
107.787087
 31
0.0
  0
SOLID
  5
4DA
100
AcDbEntity
  8
0
  6
BYBLOCK
 62
     0
100
AcDbTrace
 10
211.362457
 20
128.47118
 30
0.0
 11
210.302841
 21
127.37583
 31
0.0
 12
214.118698
 22
124.744658
 32
0.0
 13
214.118698
 23
124.744658
 33
0.0
  0
SOLID
  5
4DB
100
AcDbEntity
  8
0
  6
BYBLOCK
 62
     0
100
AcDbTrace
 10
228.891897
 20
111.513608
 30
0.0
 11
227.832282
 21
110.418259
 31
0.0
 12
225.076041
 22
114.14478
 32
0.0
 13
225.076041
 23
114.14478
 33
0.0
  0
MTEXT
  5
4DC
100
AcDbEntity
  8
0
  6
BYBLOCK
 62
     0
100
AcDbMText
 10
252.185943
 20
87.919293
 30
0.0
 40
4.572
 41
0.0
 71
     5
 72
     1
  1
\A1;15.25mm[0.600"]
 11
0.718733
 21
-0.695286
 31
0.0
  0
POINT
  5
4DD
100
AcDbEntity
  8
DEFPOINTS
  6
BYBLOCK
 62
     0
100
AcDbPoint
 10
181.180557
 20
90.695728
 30
0.0
 50
44.05
  0
POINT
  5
4DE
100
AcDbEntity
  8
DEFPOINTS
  6
BYBLOCK
 62
     0
100
AcDbPoint
 10
255.559591
 20
145.656342
 30
0.0
 50
44.05
  0
POINT
  5
4DF
100
AcDbEntity
  8
DEFPOINTS
  6
BYBLOCK
 62
     0
100
AcDbPoint
 10
225.076041
 20
114.14478
 30
0.0
 50
44.05
  0
ENDBLK
  5
4E0
100
AcDbEntity
  8
0
100
AcDbBlockEnd
  0
BLOCK
  5
4ED
100
AcDbEntity
  8
0
100
AcDbBlockBegin
  2
*D16
 70
    65
 10
0.0
 20
0.0
 30
0.0
  3
*D16
  1
*TB
  0
LINE
  5
4EE
100
AcDbEntity
  8
0
  6
BYBLOCK
 62
     0
100
AcDbLine
 10
235.084968
 20
165.463015
 30
0.0
 11
222.697826
 21
177.446047
 31
0.0
  0
LINE
  5
4EF
100
AcDbEntity
  8
0
  6
BYBLOCK
 62
     0
100
AcDbLine
 10
231.900049
 20
180.38289
 30
0.0
 11
235.078896
 21
183.668938
 31
0.0
  0
LINE
  5
4F0
100
AcDbEntity
  8
0
  6
BYBLOCK
 62
     0
100
AcDbLine
 10
222.805027
 20
170.981152
 30
0.0
 11
219.62618
 21
167.695103
 31
0.0
  0
LINE
  5
4F1
100
AcDbEntity
  8
0
  6
BYBLOCK
 62
     0
100
AcDbLine
 10
219.62618
 20
167.695103
 30
0.0
 11
216.340132
 21
170.87395
 31
0.0
  0
SOLID
  5
4F2
100
AcDbEntity
  8
0
  6
BYBLOCK
 62
     0
100
AcDbTrace
 10
231.352374
 20
180.912697
 30
0.0
 11
232.447724
 21
179.853082
 31
0.0
 12
228.721202
 22
177.096841
 32
0.0
 13
228.721202
 23
177.096841
 33
0.0
  0
SOLID
  5
4F3
100
AcDbEntity
  8
0
  6
BYBLOCK
 62
     0
100
AcDbTrace
 10
222.257353
 20
171.51096
 30
0.0
 11
223.352702
 21
170.451344
 31
0.0
 12
225.983874
 22
174.267201
 32
0.0
 13
225.983874
 23
174.267201
 33
0.0
  0
MTEXT
  5
4F4
100
AcDbEntity
  8
0
  6
BYBLOCK
 62
     0
100
AcDbMText
 10
196.897677
 20
189.682127
 30
0.0
 40
4.572
 41
0.0
 71
     5
 72
     1
  1
\A1;3.94mm[0.155"]
 11
0.718733
 21
-0.695286
 31
0.0
  0
POINT
  5
4F5
100
AcDbEntity
  8
DEFPOINTS
  6
BYBLOCK
 62
     0
100
AcDbPoint
 10
144.510691
 20
258.560125
 30
0.0
 50
44.05
  0
POINT
  5
4F6
100
AcDbEntity
  8
DEFPOINTS
  6
BYBLOCK
 62
     0
100
AcDbPoint
 10
236.225957
 20
164.359249
 30
0.0
 50
44.05
  0
POINT
  5
4F7
100
AcDbEntity
  8
DEFPOINTS
  6
BYBLOCK
 62
     0
100
AcDbPoint
 10
225.983874
 20
174.267201
 30
0.0
 50
44.05
  0
ENDBLK
  5
4F8
100
AcDbEntity
  8
0
100
AcDbBlockEnd
  0
BLOCK
  5
4FB
100
AcDbEntity
  8
0
100
AcDbBlockBegin
  2
*D17
 70
    65
 10
0.0
 20
0.0
 30
0.0
  3
*D17
  1
*TB
  0
LINE
  5
4FC
100
AcDbEntity
  8
0
  6
BYBLOCK
 62
     0
100
AcDbLine
 10
237.170825
 20
167.619215
 30
0.0
 11
179.407581
 21
223.49803
 31
0.0
  0
LINE
  5
4FD
100
AcDbEntity
  8
0
  6
BYBLOCK
 62
     0
100
AcDbLine
 10
186.523947
 20
224.278672
 30
0.0
 11
189.702794
 21
227.56472
 31
0.0
  0
LINE
  5
4FE
100
AcDbEntity
  8
0
  6
BYBLOCK
 62
     0
100
AcDbLine
 10
179.514783
 20
217.033134
 30
0.0
 11
176.335936
 21
213.747085
 31
0.0
  0
LINE
  5
4FF
100
AcDbEntity
  8
0
  6
BYBLOCK
 62
     0
100
AcDbLine
 10
176.335936
 20
213.747085
 30
0.0
 11
173.049888
 21
216.925932
 31
0.0
  0
SOLID
  5
500
100
AcDbEntity
  8
0
  6
BYBLOCK
 62
     0
100
AcDbTrace
 10
185.976273
 20
224.808479
 30
0.0
 11
187.071622
 21
223.748864
 31
0.0
 12
183.345101
 22
220.992623
 32
0.0
 13
183.345101
 23
220.992623
 33
0.0
  0
SOLID
  5
501
100
AcDbEntity
  8
0
  6
BYBLOCK
 62
     0
100
AcDbTrace
 10
178.967108
 20
217.562942
 30
0.0
 11
180.062458
 21
216.503326
 31
0.0
 12
182.69363
 22
220.319183
 32
0.0
 13
182.69363
 23
220.319183
 33
0.0
  0
MTEXT
  5
502
100
AcDbEntity
  8
0
  6
BYBLOCK
 62
     0
100
AcDbMText
 10
153.607432
 20
235.73411
 30
0.0
 40
4.572
 41
0.0
 71
     5
 72
     1
  1
\A1;0.94mm[0.037"]
 11
0.718733
 21
-0.695286
 31
0.0
  0
POINT
  5
503
100
AcDbEntity
  8
DEFPOINTS
  6
BYBLOCK
 62
     0
100
AcDbPoint
 10
144.510691
 20
258.560125
 30
0.0
 50
44.05
  0
POINT
  5
504
100
AcDbEntity
  8
DEFPOINTS
  6
BYBLOCK
 62
     0
100
AcDbPoint
 10
238.311815
 20
166.515449
 30
0.0
 50
44.05
  0
POINT
  5
505
100
AcDbEntity
  8
DEFPOINTS
  6
BYBLOCK
 62
     0
100
AcDbPoint
 10
182.69363
 20
220.319183
 30
0.0
 50
44.05
  0
ENDBLK
  5
506
100
AcDbEntity
  8
0
100
AcDbBlockEnd
  0
BLOCK
  5
509
100
AcDbEntity
  8
0
100
AcDbBlockBegin
  2
*D18
 70
    65
 10
0.0
 20
0.0
 30
0.0
  3
*D18
  1
*TB
  0
LINE
  5
50A
100
AcDbEntity
  8
0
  6
BYBLOCK
 62
     0
100
AcDbLine
 10
321.312435
 20
240.119811
 30
0.0
 11
342.973359
 21
262.511218
 31
0.0
  0
LINE
  5
50B
100
AcDbEntity
  8
0
  6
BYBLOCK
 62
     0
100
AcDbLine
 10
336.508464
 20
262.404016
 30
0.0
 11
333.222415
 21
265.582863
 31
0.0
  0
LINE
  5
50C
100
AcDbEntity
  8
0
  6
BYBLOCK
 62
     0
100
AcDbLine
 10
345.362539
 20
253.838789
 30
0.0
 11
348.648588
 21
250.659943
 31
0.0
  0
SOLID
  5
50D
100
AcDbEntity
  8
0
  6
BYBLOCK
 62
     0
100
AcDbTrace
 10
337.038271
 20
262.951691
 30
0.0
 11
335.978656
 21
261.856341
 31
0.0
 12
339.794512
 22
259.225169
 32
0.0
 13
339.794512
 23
259.225169
 33
0.0
  0
SOLID
  5
50E
100
AcDbEntity
  8
0
  6
BYBLOCK
 62
     0
100
AcDbTrace
 10
345.892347
 20
254.386464
 30
0.0
 11
344.832732
 21
253.291115
 31
0.0
 12
342.076491
 22
257.017636
 32
0.0
 13
342.076491
 23
257.017636
 33
0.0
  0
MTEXT
  5
50F
100
AcDbEntity
  8
0
  6
BYBLOCK
 62
     0
100
AcDbMText
 10
385.890474
 20
214.633011
 30
0.0
 40
4.572
 41
0.0
 71
     5
 72
     1
  1
\A1;3.17mm±0.03mm[0.125"±0.001"]
 11
0.718733
 21
-0.695286
 31
0.0
  0
POINT
  5
510
100
AcDbEntity
  8
DEFPOINTS
  6
BYBLOCK
 62
     0
100
AcDbPoint
 10
320.208669
 20
238.978822
 30
0.0
 50
44.05
  0
POINT
  5
511
100
AcDbEntity
  8
DEFPOINTS
  6
BYBLOCK
 62
     0
100
AcDbPoint
 10
350.624127
 20
265.853529
 30
0.0
 50
44.05
  0
POINT
  5
512
100
AcDbEntity
  8
DEFPOINTS
  6
BYBLOCK
 62
     0
100
AcDbPoint
 10
342.076491
 20
257.017636
 30
0.0
 50
44.05
  0
ENDBLK
  5
513
100
AcDbEntity
  8
0
100
AcDbBlockEnd
  0
BLOCK
  5
7EC
100
AcDbEntity
  8
0
100
AcDbBlockBegin
  2
*D19
 70
    65
 10
0.0
 20
0.0
 30
0.0
  3
*D19
  1
*TB
  0
LINE
  5
7ED
100
AcDbEntity
  8
0
  6
BYBLOCK
 62
     0
100
AcDbLine
 10
397.157371
 20
312.522623
 30
0.0
 11
438.761507
 21
312.522623
 31
0.0
  0
LINE
  5
7EE
100
AcDbEntity
  8
0
  6
BYBLOCK
 62
     0
100
AcDbLine
 10
395.582831
 20
320.734423
 30
0.0
 11
438.761507
 21
320.734423
 31
0.0
  0
LINE
  5
7EF
100
AcDbEntity
  8
0
  6
BYBLOCK
 62
     0
100
AcDbLine
 10
434.189507
 20
307.950623
 30
0.0
 11
434.189507
 21
303.378623
 31
0.0
  0
LINE
  5
7F0
100
AcDbEntity
  8
0
  6
BYBLOCK
 62
     0
100
AcDbLine
 10
434.189507
 20
325.306423
 30
0.0
 11
434.189507
 21
329.878423
 31
0.0
  0
LINE
  5
7F1
100
AcDbEntity
  8
0
  6
BYBLOCK
 62
     0
100
AcDbLine
 10
434.189507
 20
329.878423
 30
0.0
 11
438.761507
 21
329.878423
 31
0.0
  0
SOLID
  5
7F2
100
AcDbEntity
  8
0
  6
BYBLOCK
 62
     0
100
AcDbTrace
 10
433.427507
 20
307.950623
 30
0.0
 11
434.951507
 21
307.950623
 31
0.0
 12
434.189507
 22
312.522623
 32
0.0
 13
434.189507
 23
312.522623
 33
0.0
  0
SOLID
  5
7F3
100
AcDbEntity
  8
0
  6
BYBLOCK
 62
     0
100
AcDbTrace
 10
433.427507
 20
325.306423
 30
0.0
 11
434.951507
 21
325.306423
 31
0.0
 12
434.189507
 22
320.734423
 32
0.0
 13
434.189507
 23
320.734423
 33
0.0
  0
MTEXT
  5
7F4
100
AcDbEntity
  8
0
  6
BYBLOCK
 62
     0
100
AcDbMText
 10
465.812507
 20
329.878423
 30
0.0
 40
4.572
 41
0.0
 71
     5
 72
     1
  1
\A1;8.21mm[0.323"]
  0
POINT
  5
7F5
100
AcDbEntity
  8
DEFPOINTS
  6
BYBLOCK
 62
     0
100
AcDbPoint
 10
395.569871
 20
312.522623
 30
0.0
  0
POINT
  5
7F6
100
AcDbEntity
  8
DEFPOINTS
  6
BYBLOCK
 62
     0
100
AcDbPoint
 10
393.995331
 20
320.734423
 30
0.0
  0
POINT
  5
7F7
100
AcDbEntity
  8
DEFPOINTS
  6
BYBLOCK
 62
     0
100
AcDbPoint
 10
434.189507
 20
320.734423
 30
0.0
  0
ENDBLK
  5
7F8
100
AcDbEntity
  8
0
100
AcDbBlockEnd
  0
BLOCK
  5
7F9
100
AcDbEntity
  8
0
100
AcDbBlockBegin
  2
*D20
 70
    65
 10
0.0
 20
0.0
 30
0.0
  3
*D20
  1
*TB
  0
LINE
  5
7FA
100
AcDbEntity
  8
0
  6
BYBLOCK
 62
     0
100
AcDbLine
 10
394.050537
 20
304.521623
 30
0.0
 11
500.37901
 21
304.521623
 31
0.0
  0
LINE
  5
7FB
100
AcDbEntity
  8
0
  6
BYBLOCK
 62
     0
100
AcDbLine
 10
395.582831
 20
320.734423
 30
0.0
 11
500.37901
 21
320.734423
 31
0.0
  0
LINE
  5
7FC
100
AcDbEntity
  8
0
  6
BYBLOCK
 62
     0
100
AcDbLine
 10
495.80701
 20
299.949623
 30
0.0
 11
495.80701
 21
295.377623
 31
0.0
  0
LINE
  5
7FD
100
AcDbEntity
  8
0
  6
BYBLOCK
 62
     0
100
AcDbLine
 10
495.80701
 20
325.306423
 30
0.0
 11
495.80701
 21
329.878423
 31
0.0
  0
LINE
  5
7FE
100
AcDbEntity
  8
0
  6
BYBLOCK
 62
     0
100
AcDbLine
 10
495.80701
 20
329.878423
 30
0.0
 11
500.37901
 21
329.878423
 31
0.0
  0
SOLID
  5
7FF
100
AcDbEntity
  8
0
  6
BYBLOCK
 62
     0
100
AcDbTrace
 10
495.04501
 20
299.949623
 30
0.0
 11
496.56901
 21
299.949623
 31
0.0
 12
495.80701
 22
304.521623
 32
0.0
 13
495.80701
 23
304.521623
 33
0.0
  0
SOLID
  5
800
100
AcDbEntity
  8
0
  6
BYBLOCK
 62
     0
100
AcDbTrace
 10
495.04501
 20
325.306423
 30
0.0
 11
496.56901
 21
325.306423
 31
0.0
 12
495.80701
 22
320.734423
 32
0.0
 13
495.80701
 23
320.734423
 33
0.0
  0
MTEXT
  5
801
100
AcDbEntity
  8
0
  6
BYBLOCK
 62
     0
100
AcDbMText
 10
554.48101
 20
329.878423
 30
0.0
 40
4.572
 41
0.0
 71
     5
 72
     1
  1
\A1;16.21mm±0.03mm[0.638"±0.001"]
  0
POINT
  5
802
100
AcDbEntity
  8
DEFPOINTS
  6
BYBLOCK
 62
     0
100
AcDbPoint
 10
392.463037
 20
304.521623
 30
0.0
  0
POINT
  5
803
100
AcDbEntity
  8
DEFPOINTS
  6
BYBLOCK
 62
     0
100
AcDbPoint
 10
393.995331
 20
320.734423
 30
0.0
  0
POINT
  5
804
100
AcDbEntity
  8
DEFPOINTS
  6
BYBLOCK
 62
     0
100
AcDbPoint
 10
495.80701
 20
320.734423
 30
0.0
  0
ENDBLK
  5
805
100
AcDbEntity
  8
0
100
AcDbBlockEnd
  0
BLOCK
  5
82A
100
AcDbEntity
  8
0
100
AcDbBlockBegin
  2
*D21
 70
    65
 10
0.0
 20
0.0
 30
0.0
  3
*D21
  1
*TB
  0
LINE
  5
82B
100
AcDbEntity
  8
0
  6
BYBLOCK
 62
     0
100
AcDbLine
 10
397.157371
 20
296.520623
 30
0.0
 11
584.095438
 21
296.520623
 31
0.0
  0
LINE
  5
82C
100
AcDbEntity
  8
0
  6
BYBLOCK
 62
     0
100
AcDbLine
 10
395.582831
 20
319.972423
 30
0.0
 11
584.095438
 21
319.972423
 31
0.0
  0
LINE
  5
82D
100
AcDbEntity
  8
0
  6
BYBLOCK
 62
     0
100
AcDbLine
 10
579.523438
 20
301.092623
 30
0.0
 11
579.523438
 21
303.674523
 31
0.0
  0
LINE
  5
82E
100
AcDbEntity
  8
0
  6
BYBLOCK
 62
     0
100
AcDbLine
 10
579.523438
 20
315.400423
 30
0.0
 11
579.523438
 21
312.818523
 31
0.0
  0
SOLID
  5
82F
100
AcDbEntity
  8
0
  6
BYBLOCK
 62
     0
100
AcDbTrace
 10
578.761438
 20
301.092623
 30
0.0
 11
580.285438
 21
301.092623
 31
0.0
 12
579.523438
 22
296.520623
 32
0.0
 13
579.523438
 23
296.520623
 33
0.0
  0
SOLID
  5
830
100
AcDbEntity
  8
0
  6
BYBLOCK
 62
     0
100
AcDbTrace
 10
578.761438
 20
315.400423
 30
0.0
 11
580.285438
 21
315.400423
 31
0.0
 12
579.523438
 22
319.972423
 32
0.0
 13
579.523438
 23
319.972423
 33
0.0
  0
MTEXT
  5
831
100
AcDbEntity
  8
0
  6
BYBLOCK
 62
     0
100
AcDbMText
 10
579.523438
 20
308.246523
 30
0.0
 40
4.572
 41
0.0
 71
     5
 72
     1
  1
\A1;23.45mm[0.923"]
  0
POINT
  5
832
100
AcDbEntity
  8
DEFPOINTS
  6
BYBLOCK
 62
     0
100
AcDbPoint
 10
395.569871
 20
296.520623
 30
0.0
  0
POINT
  5
833
100
AcDbEntity
  8
DEFPOINTS
  6
BYBLOCK
 62
     0
100
AcDbPoint
 10
393.995331
 20
319.972423
 30
0.0
  0
POINT
  5
834
100
AcDbEntity
  8
DEFPOINTS
  6
BYBLOCK
 62
     0
100
AcDbPoint
 10
579.523438
 20
319.972423
 30
0.0
  0
ENDBLK
  5
835
100
AcDbEntity
  8
0
100
AcDbBlockEnd
  0
BLOCK
  5
81E
100
AcDbEntity
  8
0
100
AcDbBlockBegin
  2
*D22
 70
    65
 10
0.0
 20
0.0
 30
0.0
  3
*D22
  1
*TB
  0
LINE
  5
81F
100
AcDbEntity
  8
0
  6
BYBLOCK
 62
     0
100
AcDbLine
 10
395.582831
 20
288.308823
 30
0.0
 11
680.414316
 21
288.308823
 31
0.0
  0
LINE
  5
820
100
AcDbEntity
  8
0
  6
BYBLOCK
 62
     0
100
AcDbLine
 10
395.582831
 20
320.734423
 30
0.0
 11
680.414316
 21
320.734423
 31
0.0
  0
LINE
  5
821
100
AcDbEntity
  8
0
  6
BYBLOCK
 62
     0
100
AcDbLine
 10
675.842316
 20
292.880823
 30
0.0
 11
675.842316
 21
299.949623
 31
0.0
  0
LINE
  5
822
100
AcDbEntity
  8
0
  6
BYBLOCK
 62
     0
100
AcDbLine
 10
675.842316
 20
316.162423
 30
0.0
 11
675.842316
 21
309.093623
 31
0.0
  0
SOLID
  5
823
100
AcDbEntity
  8
0
  6
BYBLOCK
 62
     0
100
AcDbTrace
 10
675.080316
 20
292.880823
 30
0.0
 11
676.604316
 21
292.880823
 31
0.0
 12
675.842316
 22
288.308823
 32
0.0
 13
675.842316
 23
288.308823
 33
0.0
  0
SOLID
  5
824
100
AcDbEntity
  8
0
  6
BYBLOCK
 62
     0
100
AcDbTrace
 10
675.080316
 20
316.162423
 30
0.0
 11
676.604316
 21
316.162423
 31
0.0
 12
675.842316
 22
320.734423
 32
0.0
 13
675.842316
 23
320.734423
 33
0.0
  0
MTEXT
  5
825
100
AcDbEntity
  8
0
  6
BYBLOCK
 62
     0
100
AcDbMText
 10
675.842316
 20
304.521623
 30
0.0
 40
4.572
 41
0.0
 71
     5
 72
     1
  1
\A1;32.43mm±0.03mm[1.277"±0.001"]
  0
POINT
  5
826
100
AcDbEntity
  8
DEFPOINTS
  6
BYBLOCK
 62
     0
100
AcDbPoint
 10
393.995331
 20
288.308823
 30
0.0
  0
POINT
  5
827
100
AcDbEntity
  8
DEFPOINTS
  6
BYBLOCK
 62
     0
100
AcDbPoint
 10
393.995331
 20
320.734423
 30
0.0
  0
POINT
  5
828
100
AcDbEntity
  8
DEFPOINTS
  6
BYBLOCK
 62
     0
100
AcDbPoint
 10
675.842316
 20
320.734423
 30
0.0
  0
ENDBLK
  5
829
100
AcDbEntity
  8
0
100
AcDbBlockEnd
  0
BLOCK
  5
78F
100
AcDbEntity
  8
0
100
AcDbBlockBegin
  2
*D23
 70
    65
 10
0.0
 20
0.0
 30
0.0
  3
*D23
  1
*TB
  0
LINE
  5
790
100
AcDbEntity
  8
0
  6
BYBLOCK
 62
     0
100
AcDbLine
 10
379.532154
 20
314.023763
 30
0.0
 11
219.00418
 21
314.023763
 31
0.0
  0
LINE
  5
791
100
AcDbEntity
  8
0
  6
BYBLOCK
 62
     0
100
AcDbLine
 10
320.625694
 20
320.734423
 30
0.0
 11
219.00418
 21
320.734423
 31
0.0
  0
LINE
  5
792
100
AcDbEntity
  8
0
  6
BYBLOCK
 62
     0
100
AcDbLine
 10
223.57618
 20
309.451763
 30
0.0
 11
223.57618
 21
304.879763
 31
0.0
  0
LINE
  5
793
100
AcDbEntity
  8
0
  6
BYBLOCK
 62
     0
100
AcDbLine
 10
223.57618
 20
325.306423
 30
0.0
 11
223.57618
 21
329.878423
 31
0.0
  0
LINE
  5
794
100
AcDbEntity
  8
0
  6
BYBLOCK
 62
     0
100
AcDbLine
 10
223.57618
 20
329.878423
 30
0.0
 11
228.14818
 21
329.878423
 31
0.0
  0
SOLID
  5
795
100
AcDbEntity
  8
0
  6
BYBLOCK
 62
     0
100
AcDbTrace
 10
222.81418
 20
309.451763
 30
0.0
 11
224.33818
 21
309.451763
 31
0.0
 12
223.57618
 22
314.023763
 32
0.0
 13
223.57618
 23
314.023763
 33
0.0
  0
SOLID
  5
796
100
AcDbEntity
  8
0
  6
BYBLOCK
 62
     0
100
AcDbTrace
 10
222.81418
 20
325.306423
 30
0.0
 11
224.33818
 21
325.306423
 31
0.0
 12
223.57618
 22
320.734423
 32
0.0
 13
223.57618
 23
320.734423
 33
0.0
  0
MTEXT
  5
797
100
AcDbEntity
  8
0
  6
BYBLOCK
 62
     0
100
AcDbMText
 10
255.19918
 20
329.878423
 30
0.0
 40
4.572
 41
0.0
 71
     5
 72
     1
  1
\A1;6.71mm[0.264"]
  0
POINT
  5
798
100
AcDbEntity
  8
DEFPOINTS
  6
BYBLOCK
 62
     0
100
AcDbPoint
 10
381.119654
 20
314.023763
 30
0.0
  0
POINT
  5
799
100
AcDbEntity
  8
DEFPOINTS
  6
BYBLOCK
 62
     0
100
AcDbPoint
 10
322.213194
 20
320.734423
 30
0.0
  0
POINT
  5
79A
100
AcDbEntity
  8
DEFPOINTS
  6
BYBLOCK
 62
     0
100
AcDbPoint
 10
223.57618
 20
320.734423
 30
0.0
  0
ENDBLK
  5
79B
100
AcDbEntity
  8
0
100
AcDbBlockEnd
  0
BLOCK
  5
79C
100
AcDbEntity
  8
0
100
AcDbBlockBegin
  2
*D24
 70
    65
 10
0.0
 20
0.0
 30
0.0
  3
*D24
  1
*TB
  0
LINE
  5
79D
100
AcDbEntity
  8
0
  6
BYBLOCK
 62
     0
100
AcDbLine
 10
379.532154
 20
311.021483
 30
0.0
 11
152.042336
 21
311.021483
 31
0.0
  0
LINE
  5
79E
100
AcDbEntity
  8
0
  6
BYBLOCK
 62
     0
100
AcDbLine
 10
320.625694
 20
320.734423
 30
0.0
 11
152.042336
 21
320.734423
 31
0.0
  0
LINE
  5
79F
100
AcDbEntity
  8
0
  6
BYBLOCK
 62
     0
100
AcDbLine
 10
156.614336
 20
306.449483
 30
0.0
 11
156.614336
 21
301.877483
 31
0.0
  0
LINE
  5
7A0
100
AcDbEntity
  8
0
  6
BYBLOCK
 62
     0
100
AcDbLine
 10
156.614336
 20
325.306423
 30
0.0
 11
156.614336
 21
329.878423
 31
0.0
  0
LINE
  5
7A1
100
AcDbEntity
  8
0
  6
BYBLOCK
 62
     0
100
AcDbLine
 10
156.614336
 20
329.878423
 30
0.0
 11
161.186336
 21
329.878423
 31
0.0
  0
SOLID
  5
7A2
100
AcDbEntity
  8
0
  6
BYBLOCK
 62
     0
100
AcDbTrace
 10
155.852336
 20
306.449483
 30
0.0
 11
157.376336
 21
306.449483
 31
0.0
 12
156.614336
 22
311.021483
 32
0.0
 13
156.614336
 23
311.021483
 33
0.0
  0
SOLID
  5
7A3
100
AcDbEntity
  8
0
  6
BYBLOCK
 62
     0
100
AcDbTrace
 10
155.852336
 20
325.306423
 30
0.0
 11
157.376336
 21
325.306423
 31
0.0
 12
156.614336
 22
320.734423
 32
0.0
 13
156.614336
 23
320.734423
 33
0.0
  0
MTEXT
  5
7A4
100
AcDbEntity
  8
0
  6
BYBLOCK
 62
     0
100
AcDbMText
 10
188.237336
 20
329.878423
 30
0.0
 40
4.572
 41
0.0
 71
     5
 72
     1
  1
\A1;9.71mm[0.382"]
  0
POINT
  5
7A5
100
AcDbEntity
  8
DEFPOINTS
  6
BYBLOCK
 62
     0
100
AcDbPoint
 10
381.119654
 20
311.021483
 30
0.0
  0
POINT
  5
7A6
100
AcDbEntity
  8
DEFPOINTS
  6
BYBLOCK
 62
     0
100
AcDbPoint
 10
322.213194
 20
320.734423
 30
0.0
  0
POINT
  5
7A7
100
AcDbEntity
  8
DEFPOINTS
  6
BYBLOCK
 62
     0
100
AcDbPoint
 10
156.614336
 20
320.734423
 30
0.0
  0
ENDBLK
  5
7A8
100
AcDbEntity
  8
0
100
AcDbBlockEnd
  0
BLOCK
  5
776
100
AcDbEntity
  8
0
100
AcDbBlockBegin
  2
*D25
 70
    65
 10
0.0
 20
0.0
 30
0.0
  3
*D25
  1
*TB
  0
LINE
  5
777
100
AcDbEntity
  8
0
  6
BYBLOCK
 62
     0
100
AcDbLine
 10
379.532154
 20
298.021763
 30
0.0
 11
84.829523
 21
298.021763
 31
0.0
  0
LINE
  5
778
100
AcDbEntity
  8
0
  6
BYBLOCK
 62
     0
100
AcDbLine
 10
320.625694
 20
320.734423
 30
0.0
 11
84.829523
 21
320.734423
 31
0.0
  0
LINE
  5
779
100
AcDbEntity
  8
0
  6
BYBLOCK
 62
     0
100
AcDbLine
 10
89.401523
 20
293.449763
 30
0.0
 11
89.401523
 21
288.877763
 31
0.0
  0
LINE
  5
77A
100
AcDbEntity
  8
0
  6
BYBLOCK
 62
     0
100
AcDbLine
 10
89.401523
 20
325.306423
 30
0.0
 11
89.401523
 21
329.878423
 31
0.0
  0
LINE
  5
77B
100
AcDbEntity
  8
0
  6
BYBLOCK
 62
     0
100
AcDbLine
 10
89.401523
 20
329.878423
 30
0.0
 11
93.973523
 21
329.878423
 31
0.0
  0
SOLID
  5
77C
100
AcDbEntity
  8
0
  6
BYBLOCK
 62
     0
100
AcDbTrace
 10
88.639523
 20
293.449763
 30
0.0
 11
90.163523
 21
293.449763
 31
0.0
 12
89.401523
 22
298.021763
 32
0.0
 13
89.401523
 23
298.021763
 33
0.0
  0
SOLID
  5
77D
100
AcDbEntity
  8
0
  6
BYBLOCK
 62
     0
100
AcDbTrace
 10
88.639523
 20
325.306423
 30
0.0
 11
90.163523
 21
325.306423
 31
0.0
 12
89.401523
 22
320.734423
 32
0.0
 13
89.401523
 23
320.734423
 33
0.0
  0
MTEXT
  5
77E
100
AcDbEntity
  8
0
  6
BYBLOCK
 62
     0
100
AcDbMText
 10
123.310523
 20
329.878423
 30
0.0
 40
4.572
 41
0.0
 71
     5
 72
     1
  1
\A1;22.71mm[0.894"]
  0
POINT
  5
77F
100
AcDbEntity
  8
DEFPOINTS
  6
BYBLOCK
 62
     0
100
AcDbPoint
 10
381.119654
 20
298.021763
 30
0.0
  0
POINT
  5
780
100
AcDbEntity
  8
DEFPOINTS
  6
BYBLOCK
 62
     0
100
AcDbPoint
 10
322.213194
 20
320.734423
 30
0.0
  0
POINT
  5
781
100
AcDbEntity
  8
DEFPOINTS
  6
BYBLOCK
 62
     0
100
AcDbPoint
 10
89.401523
 20
320.734423
 30
0.0
  0
ENDBLK
  5
782
100
AcDbEntity
  8
0
100
AcDbBlockEnd
  0
BLOCK
  5
783
100
AcDbEntity
  8
0
100
AcDbBlockBegin
  2
*D26
 70
    65
 10
0.0
 20
0.0
 30
0.0
  3
*D26
  1
*TB
  0
LINE
  5
784
100
AcDbEntity
  8
0
  6
BYBLOCK
 62
     0
100
AcDbLine
 10
379.532154
 20
295.019483
 30
0.0
 11
58.316783
 21
295.019483
 31
0.0
  0
LINE
  5
785
100
AcDbEntity
  8
0
  6
BYBLOCK
 62
     0
100
AcDbLine
 10
320.625694
 20
320.734423
 30
0.0
 11
58.316783
 21
320.734423
 31
0.0
  0
LINE
  5
786
100
AcDbEntity
  8
0
  6
BYBLOCK
 62
     0
100
AcDbLine
 10
62.888783
 20
299.591483
 30
0.0
 11
62.888783
 21
303.304953
 31
0.0
  0
LINE
  5
787
100
AcDbEntity
  8
0
  6
BYBLOCK
 62
     0
100
AcDbLine
 10
62.888783
 20
316.162423
 30
0.0
 11
62.888783
 21
312.448953
 31
0.0
  0
SOLID
  5
788
100
AcDbEntity
  8
0
  6
BYBLOCK
 62
     0
100
AcDbTrace
 10
62.126783
 20
299.591483
 30
0.0
 11
63.650783
 21
299.591483
 31
0.0
 12
62.888783
 22
295.019483
 32
0.0
 13
62.888783
 23
295.019483
 33
0.0
  0
SOLID
  5
789
100
AcDbEntity
  8
0
  6
BYBLOCK
 62
     0
100
AcDbTrace
 10
62.126783
 20
316.162423
 30
0.0
 11
63.650783
 21
316.162423
 31
0.0
 12
62.888783
 22
320.734423
 32
0.0
 13
62.888783
 23
320.734423
 33
0.0
  0
MTEXT
  5
78A
100
AcDbEntity
  8
0
  6
BYBLOCK
 62
     0
100
AcDbMText
 10
62.888783
 20
307.876953
 30
0.0
 40
4.572
 41
0.0
 71
     5
 72
     1
  1
\A1;25.71mm[1.012"]
  0
POINT
  5
78B
100
AcDbEntity
  8
DEFPOINTS
  6
BYBLOCK
 62
     0
100
AcDbPoint
 10
381.119654
 20
295.019483
 30
0.0
  0
POINT
  5
78C
100
AcDbEntity
  8
DEFPOINTS
  6
BYBLOCK
 62
     0
100
AcDbPoint
 10
322.213194
 20
320.734423
 30
0.0
  0
POINT
  5
78D
100
AcDbEntity
  8
DEFPOINTS
  6
BYBLOCK
 62
     0
100
AcDbPoint
 10
62.888783
 20
320.734423
 30
0.0
  0
ENDBLK
  5
78E
100
AcDbEntity
  8
0
100
AcDbBlockEnd
  0
BLOCK
  5
599
100
AcDbEntity
  8
0
100
AcDbBlockBegin
  2
*D27
 70
    65
 10
0.0
 20
0.0
 30
0.0
  3
*D27
  1
*TB
  0
LINE
  5
59A
100
AcDbEntity
  8
0
  6
BYBLOCK
 62
     0
100
AcDbLine
 10
234.638457
 20
327.902381
 30
0.0
 11
219.468517
 21
327.902381
 31
0.0
  0
LINE
  5
59B
100
AcDbEntity
  8
0
  6
BYBLOCK
 62
     0
100
AcDbLine
 10
234.638457
 20
327.140381
 30
0.0
 11
219.468517
 21
327.140381
 31
0.0
  0
LINE
  5
59C
100
AcDbEntity
  8
0
  6
BYBLOCK
 62
     0
100
AcDbLine
 10
224.040517
 20
332.474381
 30
0.0
 11
224.040517
 21
337.046381
 31
0.0
  0
LINE
  5
59D
100
AcDbEntity
  8
0
  6
BYBLOCK
 62
     0
100
AcDbLine
 10
224.040517
 20
322.568381
 30
0.0
 11
224.040517
 21
317.996381
 31
0.0
  0
LINE
  5
59E
100
AcDbEntity
  8
0
  6
BYBLOCK
 62
     0
100
AcDbLine
 10
224.040517
 20
317.996381
 30
0.0
 11
219.468517
 21
317.996381
 31
0.0
  0
SOLID
  5
59F
100
AcDbEntity
  8
0
  6
BYBLOCK
 62
     0
100
AcDbTrace
 10
223.278517
 20
332.474381
 30
0.0
 11
224.802517
 21
332.474381
 31
0.0
 12
224.040517
 22
327.902381
 32
0.0
 13
224.040517
 23
327.902381
 33
0.0
  0
SOLID
  5
5A0
100
AcDbEntity
  8
0
  6
BYBLOCK
 62
     0
100
AcDbTrace
 10
223.278517
 20
322.568381
 30
0.0
 11
224.802517
 21
322.568381
 31
0.0
 12
224.040517
 22
327.140381
 32
0.0
 13
224.040517
 23
327.140381
 33
0.0
  0
MTEXT
  5
5A1
100
AcDbEntity
  8
0
  6
BYBLOCK
 62
     0
100
AcDbMText
 10
167.271517
 20
317.996381
 30
0.0
 40
4.572
 41
0.0
 71
     5
 72
     1
  1
\A1;{0.76mm±0.03mm[0.030"±0.001"]}\P{WALL THICKNESS}
  0
POINT
  5
5A2
100
AcDbEntity
  8
DEFPOINTS
  6
BYBLOCK
 62
     0
100
AcDbPoint
 10
236.225957
 20
327.902381
 30
0.0
  0
POINT
  5
5A3
100
AcDbEntity
  8
DEFPOINTS
  6
BYBLOCK
 62
     0
100
AcDbPoint
 10
236.225957
 20
327.140381
 30
0.0
  0
POINT
  5
5A4
100
AcDbEntity
  8
DEFPOINTS
  6
BYBLOCK
 62
     0
100
AcDbPoint
 10
224.040517
 20
327.140381
 30
0.0
  0
ENDBLK
  5
5A5
100
AcDbEntity
  8
0
100
AcDbBlockEnd
  0
BLOCK
  5
7D6
100
AcDbEntity
  8
0
100
AcDbBlockBegin
  2
*D28
 70
    65
 10
0.0
 20
0.0
 30
0.0
  3
*D28
  1
*TB
  0
LINE
  5
7D7
100
AcDbEntity
  8
0
  6
BYBLOCK
 62
     0
100
AcDbLine
 10
390.794671
 20
318.885323
 30
0.0
 11
390.794671
 21
350.454591
 31
0.0
  0
LINE
  5
7D8
100
AcDbEntity
  8
0
  6
BYBLOCK
 62
     0
100
AcDbLine
 10
328.754813
 20
345.882591
 30
0.0
 11
324.182813
 21
345.882591
 31
0.0
  0
LINE
  5
7D9
100
AcDbEntity
  8
0
  6
BYBLOCK
 62
     0
100
AcDbLine
 10
395.366671
 20
345.882591
 30
0.0
 11
399.938671
 21
345.882591
 31
0.0
  0
SOLID
  5
7DA
100
AcDbEntity
  8
0
  6
BYBLOCK
 62
     0
100
AcDbTrace
 10
328.754813
 20
346.644591
 30
0.0
 11
328.754813
 21
345.120591
 31
0.0
 12
333.326813
 22
345.882591
 32
0.0
 13
333.326813
 23
345.882591
 33
0.0
  0
SOLID
  5
7DB
100
AcDbEntity
  8
0
  6
BYBLOCK
 62
     0
100
AcDbTrace
 10
395.366671
 20
346.644591
 30
0.0
 11
395.366671
 21
345.120591
 31
0.0
 12
390.794671
 22
345.882591
 32
0.0
 13
390.794671
 23
345.882591
 33
0.0
  0
MTEXT
  5
7DC
100
AcDbEntity
  8
0
  6
BYBLOCK
 62
     0
100
AcDbMText
 10
430.418671
 20
345.882591
 30
0.0
 40
4.572
 41
0.0
 71
     5
 72
     1
  1
\A1;57.47mm[2.263"]
  0
POINT
  5
7DD
100
AcDbEntity
  8
DEFPOINTS
  6
BYBLOCK
 62
     0
100
AcDbPoint
 10
333.326813
 20
471.850262
 30
0.0
  0
POINT
  5
7DE
100
AcDbEntity
  8
DEFPOINTS
  6
BYBLOCK
 62
     0
100
AcDbPoint
 10
390.794671
 20
317.297823
 30
0.0
  0
POINT
  5
7DF
100
AcDbEntity
  8
DEFPOINTS
  6
BYBLOCK
 62
     0
100
AcDbPoint
 10
390.794671
 20
345.882591
 30
0.0
  0
ENDBLK
  5
7E0
100
AcDbEntity
  8
0
100
AcDbBlockEnd
  0
BLOCK
  5
7CB
100
AcDbEntity
  8
0
100
AcDbBlockBegin
  2
*D29
 70
    65
 10
0.0
 20
0.0
 30
0.0
  3
*D29
  1
*TB
  0
LINE
  5
7CC
100
AcDbEntity
  8
0
  6
BYBLOCK
 62
     0
100
AcDbLine
 10
388.097412
 20
310.474748
 30
0.0
 11
388.097412
 21
360.725166
 31
0.0
  0
LINE
  5
7CD
100
AcDbEntity
  8
0
  6
BYBLOCK
 62
     0
100
AcDbLine
 10
328.754813
 20
356.153166
 30
0.0
 11
324.182813
 21
356.153166
 31
0.0
  0
LINE
  5
7CE
100
AcDbEntity
  8
0
  6
BYBLOCK
 62
     0
100
AcDbLine
 10
392.669412
 20
356.153166
 30
0.0
 11
397.241412
 21
356.153166
 31
0.0
  0
SOLID
  5
7CF
100
AcDbEntity
  8
0
  6
BYBLOCK
 62
     0
100
AcDbTrace
 10
328.754813
 20
356.915166
 30
0.0
 11
328.754813
 21
355.391166
 31
0.0
 12
333.326813
 22
356.153166
 32
0.0
 13
333.326813
 23
356.153166
 33
0.0
  0
SOLID
  5
7D0
100
AcDbEntity
  8
0
  6
BYBLOCK
 62
     0
100
AcDbTrace
 10
392.669412
 20
356.915166
 30
0.0
 11
392.669412
 21
355.391166
 31
0.0
 12
388.097412
 22
356.153166
 32
0.0
 13
388.097412
 23
356.153166
 33
0.0
  0
MTEXT
  5
7D1
100
AcDbEntity
  8
0
  6
BYBLOCK
 62
     0
100
AcDbMText
 10
452.486412
 20
356.153166
 30
0.0
 40
4.572
 41
0.0
 71
     5
 72
     1
  1
\A1;54.77mm±0.03mm[2.156"±0.001"]
  0
POINT
  5
7D2
100
AcDbEntity
  8
DEFPOINTS
  6
BYBLOCK
 62
     0
100
AcDbPoint
 10
333.326813
 20
471.850262
 30
0.0
  0
POINT
  5
7D3
100
AcDbEntity
  8
DEFPOINTS
  6
BYBLOCK
 62
     0
100
AcDbPoint
 10
388.097412
 20
308.887248
 30
0.0
  0
POINT
  5
7D4
100
AcDbEntity
  8
DEFPOINTS
  6
BYBLOCK
 62
     0
100
AcDbPoint
 10
388.097412
 20
356.153166
 30
0.0
  0
ENDBLK
  5
7D5
100
AcDbEntity
  8
0
100
AcDbBlockEnd
  0
BLOCK
  5
7C0
100
AcDbEntity
  8
0
100
AcDbBlockBegin
  2
*D30
 70
    65
 10
0.0
 20
0.0
 30
0.0
  3
*D30
  1
*TB
  0
LINE
  5
7C1
100
AcDbEntity
  8
0
  6
BYBLOCK
 62
     0
100
AcDbLine
 10
386.324271
 20
318.885323
 30
0.0
 11
386.324271
 21
372.076854
 31
0.0
  0
LINE
  5
7C2
100
AcDbEntity
  8
0
  6
BYBLOCK
 62
     0
100
AcDbLine
 10
328.754813
 20
367.504854
 30
0.0
 11
324.182813
 21
367.504854
 31
0.0
  0
LINE
  5
7C3
100
AcDbEntity
  8
0
  6
BYBLOCK
 62
     0
100
AcDbLine
 10
390.896271
 20
367.504854
 30
0.0
 11
395.468271
 21
367.504854
 31
0.0
  0
SOLID
  5
7C4
100
AcDbEntity
  8
0
  6
BYBLOCK
 62
     0
100
AcDbTrace
 10
328.754813
 20
368.266854
 30
0.0
 11
328.754813
 21
366.742854
 31
0.0
 12
333.326813
 22
367.504854
 32
0.0
 13
333.326813
 23
367.504854
 33
0.0
  0
SOLID
  5
7C5
100
AcDbEntity
  8
0
  6
BYBLOCK
 62
     0
100
AcDbTrace
 10
390.896271
 20
368.266854
 30
0.0
 11
390.896271
 21
366.742854
 31
0.0
 12
386.324271
 22
367.504854
 32
0.0
 13
386.324271
 23
367.504854
 33
0.0
  0
MTEXT
  5
7C6
100
AcDbEntity
  8
0
  6
BYBLOCK
 62
     0
100
AcDbMText
 10
424.805271
 20
367.504854
 30
0.0
 40
4.572
 41
0.0
 71
     5
 72
     1
  1
\A1;53.00mm[2.087"]
  0
POINT
  5
7C7
100
AcDbEntity
  8
DEFPOINTS
  6
BYBLOCK
 62
     0
100
AcDbPoint
 10
333.326813
 20
471.850262
 30
0.0
  0
POINT
  5
7C8
100
AcDbEntity
  8
DEFPOINTS
  6
BYBLOCK
 62
     0
100
AcDbPoint
 10
386.324271
 20
317.297823
 30
0.0
  0
POINT
  5
7C9
100
AcDbEntity
  8
DEFPOINTS
  6
BYBLOCK
 62
     0
100
AcDbPoint
 10
386.324271
 20
367.504854
 30
0.0
  0
ENDBLK
  5
7CA
100
AcDbEntity
  8
0
100
AcDbBlockEnd
  0
BLOCK
  5
7B5
100
AcDbEntity
  8
0
100
AcDbBlockBegin
  2
*D31
 70
    65
 10
0.0
 20
0.0
 30
0.0
  3
*D31
  1
*TB
  0
LINE
  5
7B6
100
AcDbEntity
  8
0
  6
BYBLOCK
 62
     0
100
AcDbLine
 10
384.119394
 20
315.110883
 30
0.0
 11
384.119394
 21
383.428543
 31
0.0
  0
LINE
  5
7B7
100
AcDbEntity
  8
0
  6
BYBLOCK
 62
     0
100
AcDbLine
 10
328.754813
 20
378.856543
 30
0.0
 11
324.182813
 21
378.856543
 31
0.0
  0
LINE
  5
7B8
100
AcDbEntity
  8
0
  6
BYBLOCK
 62
     0
100
AcDbLine
 10
388.691394
 20
378.856543
 30
0.0
 11
393.263394
 21
378.856543
 31
0.0
  0
SOLID
  5
7B9
100
AcDbEntity
  8
0
  6
BYBLOCK
 62
     0
100
AcDbTrace
 10
328.754813
 20
379.618543
 30
0.0
 11
328.754813
 21
378.094543
 31
0.0
 12
333.326813
 22
378.856543
 32
0.0
 13
333.326813
 23
378.856543
 33
0.0
  0
SOLID
  5
7BA
100
AcDbEntity
  8
0
  6
BYBLOCK
 62
     0
100
AcDbTrace
 10
388.691394
 20
379.618543
 30
0.0
 11
388.691394
 21
378.094543
 31
0.0
 12
384.119394
 22
378.856543
 32
0.0
 13
384.119394
 23
378.856543
 33
0.0
  0
MTEXT
  5
7BB
100
AcDbEntity
  8
0
  6
BYBLOCK
 62
     0
100
AcDbMText
 10
422.219394
 20
378.856543
 30
0.0
 40
4.572
 41
0.0
 71
     5
 72
     1
  1
\A1;50.79mm[2.000"]
  0
POINT
  5
7BC
100
AcDbEntity
  8
DEFPOINTS
  6
BYBLOCK
 62
     0
100
AcDbPoint
 10
333.326813
 20
471.850262
 30
0.0
  0
POINT
  5
7BD
100
AcDbEntity
  8
DEFPOINTS
  6
BYBLOCK
 62
     0
100
AcDbPoint
 10
384.119394
 20
313.523383
 30
0.0
  0
POINT
  5
7BE
100
AcDbEntity
  8
DEFPOINTS
  6
BYBLOCK
 62
     0
100
AcDbPoint
 10
384.119394
 20
378.856543
 30
0.0
  0
ENDBLK
  5
7BF
100
AcDbEntity
  8
0
100
AcDbBlockEnd
  0
BLOCK
  5
7AA
100
AcDbEntity
  8
0
100
AcDbBlockBegin
  2
*D32
 70
    65
 10
0.0
 20
0.0
 30
0.0
  3
*D32
  1
*TB
  0
LINE
  5
7AB
100
AcDbEntity
  8
0
  6
BYBLOCK
 62
     0
100
AcDbLine
 10
380.619274
 20
315.110883
 30
0.0
 11
380.619274
 21
394.239673
 31
0.0
  0
LINE
  5
7AC
100
AcDbEntity
  8
0
  6
BYBLOCK
 62
     0
100
AcDbLine
 10
328.754813
 20
389.667673
 30
0.0
 11
324.182813
 21
389.667673
 31
0.0
  0
LINE
  5
7AD
100
AcDbEntity
  8
0
  6
BYBLOCK
 62
     0
100
AcDbLine
 10
385.191274
 20
389.667673
 30
0.0
 11
389.763274
 21
389.667673
 31
0.0
  0
SOLID
  5
7AE
100
AcDbEntity
  8
0
  6
BYBLOCK
 62
     0
100
AcDbTrace
 10
328.754813
 20
390.429673
 30
0.0
 11
328.754813
 21
388.905673
 31
0.0
 12
333.326813
 22
389.667673
 32
0.0
 13
333.326813
 23
389.667673
 33
0.0
  0
SOLID
  5
7AF
100
AcDbEntity
  8
0
  6
BYBLOCK
 62
     0
100
AcDbTrace
 10
385.191274
 20
390.429673
 30
0.0
 11
385.191274
 21
388.905673
 31
0.0
 12
380.619274
 22
389.667673
 32
0.0
 13
380.619274
 23
389.667673
 33
0.0
  0
MTEXT
  5
7B0
100
AcDbEntity
  8
0
  6
BYBLOCK
 62
     0
100
AcDbMText
 10
419.481274
 20
389.667673
 30
0.0
 40
4.572
 41
0.0
 71
     5
 72
     1
  1
\A1;47.29mm[1.862"]
  0
POINT
  5
7B1
100
AcDbEntity
  8
DEFPOINTS
  6
BYBLOCK
 62
     0
100
AcDbPoint
 10
333.326813
 20
471.850262
 30
0.0
  0
POINT
  5
7B2
100
AcDbEntity
  8
DEFPOINTS
  6
BYBLOCK
 62
     0
100
AcDbPoint
 10
380.619274
 20
313.523383
 30
0.0
  0
POINT
  5
7B3
100
AcDbEntity
  8
DEFPOINTS
  6
BYBLOCK
 62
     0
100
AcDbPoint
 10
380.619274
 20
389.667673
 30
0.0
  0
ENDBLK
  5
7B4
100
AcDbEntity
  8
0
100
AcDbBlockEnd
  0
BLOCK
  5
7E1
100
AcDbEntity
  8
0
100
AcDbBlockBegin
  2
*D33
 70
    65
 10
0.0
 20
0.0
 30
0.0
  3
*D33
  1
*TB
  0
LINE
  5
7E2
100
AcDbEntity
  8
0
  6
BYBLOCK
 62
     0
100
AcDbLine
 10
351.932146
 20
310.757323
 30
0.0
 11
351.932146
 21
407.48331
 31
0.0
  0
LINE
  5
7E3
100
AcDbEntity
  8
0
  6
BYBLOCK
 62
     0
100
AcDbLine
 10
328.754813
 20
402.91131
 30
0.0
 11
324.182813
 21
402.91131
 31
0.0
  0
LINE
  5
7E4
100
AcDbEntity
  8
0
  6
BYBLOCK
 62
     0
100
AcDbLine
 10
356.504146
 20
402.91131
 30
0.0
 11
361.076146
 21
402.91131
 31
0.0
  0
SOLID
  5
7E5
100
AcDbEntity
  8
0
  6
BYBLOCK
 62
     0
100
AcDbTrace
 10
328.754813
 20
403.67331
 30
0.0
 11
328.754813
 21
402.14931
 31
0.0
 12
333.326813
 22
402.91131
 32
0.0
 13
333.326813
 23
402.91131
 33
0.0
  0
SOLID
  5
7E6
100
AcDbEntity
  8
0
  6
BYBLOCK
 62
     0
100
AcDbTrace
 10
356.504146
 20
403.67331
 30
0.0
 11
356.504146
 21
402.14931
 31
0.0
 12
351.932146
 22
402.91131
 32
0.0
 13
351.932146
 23
402.91131
 33
0.0
  0
MTEXT
  5
7E7
100
AcDbEntity
  8
0
  6
BYBLOCK
 62
     0
100
AcDbMText
 10
389.651146
 20
402.91131
 30
0.0
 40
4.572
 41
0.0
 71
     5
 72
     1
  1
\A1;18.61mm[0.732"]
  0
POINT
  5
7E8
100
AcDbEntity
  8
DEFPOINTS
  6
BYBLOCK
 62
     0
100
AcDbPoint
 10
333.326813
 20
471.850262
 30
0.0
  0
POINT
  5
7E9
100
AcDbEntity
  8
DEFPOINTS
  6
BYBLOCK
 62
     0
100
AcDbPoint
 10
351.932146
 20
309.169823
 30
0.0
  0
POINT
  5
7EA
100
AcDbEntity
  8
DEFPOINTS
  6
BYBLOCK
 62
     0
100
AcDbPoint
 10
351.932146
 20
402.91131
 30
0.0
  0
ENDBLK
  5
7EB
100
AcDbEntity
  8
0
100
AcDbBlockEnd
  0
BLOCK
  5
6D1
100
AcDbEntity
  8
0
100
AcDbBlockBegin
  2
*D34
 70
    65
 10
0.0
 20
0.0
 30
0.0
  3
*D34
  1
*TB
  0
LINE
  5
6D2
100
AcDbEntity
  8
0
  6
BYBLOCK
 62
     0
100
AcDbLine
 10
394.527561
 20
291.605179
 30
0.0
 11
429.070789
 21
246.118893
 31
0.0
  0
LINE
  5
6D3
100
AcDbEntity
  8
0
  6
BYBLOCK
 62
     0
100
AcDbLine
 10
429.070789
 20
246.118893
 30
0.0
 11
433.642789
 21
246.118893
 31
0.0
  0
SOLID
  5
6D4
100
AcDbEntity
  8
0
  6
BYBLOCK
 62
     0
100
AcDbTrace
 10
395.134406
 20
292.06603
 30
0.0
 11
393.920716
 21
291.144328
 31
0.0
 12
391.762457
 22
295.246248
 32
0.0
 13
391.762457
 23
295.246248
 33
0.0
  0
MTEXT
  5
6D5
100
AcDbEntity
  8
0
  6
BYBLOCK
 62
     0
100
AcDbMText
 10
464.884789
 20
246.118893
 30
0.0
 40
4.572
 41
0.0
 71
     5
 72
     1
  1
\A1;{\U+22053.20mm[\U+22050.126"]}\P{4X}
  0
LINE
  5
6D6
100
AcDbEntity
  8
0
  6
BYBLOCK
 62
     0
100
AcDbLine
 10
388.508671
 20
296.520623
 30
0.0
 11
393.080671
 21
296.520623
 31
0.0
  0
LINE
  5
6D7
100
AcDbEntity
  8
0
  6
BYBLOCK
 62
     0
100
AcDbLine
 10
390.794671
 20
294.234623
 30
0.0
 11
390.794671
 21
298.806623
 31
0.0
  0
POINT
  5
6D8
100
AcDbEntity
  8
DEFPOINTS
  6
BYBLOCK
 62
     0
100
AcDbPoint
 10
391.762457
 20
295.246248
 30
0.0
  0
POINT
  5
6D9
100
AcDbEntity
  8
DEFPOINTS
  6
BYBLOCK
 62
     0
100
AcDbPoint
 10
389.826885
 20
297.794997
 30
0.0
  0
ENDBLK
  5
6DA
100
AcDbEntity
  8
0
100
AcDbBlockEnd
  0
BLOCK
  5
6DB
100
AcDbEntity
  8
0
100
AcDbBlockBegin
  2
*D35
 70
    65
 10
0.0
 20
0.0
 30
0.0
  3
*D35
  1
*TB
  0
LINE
  5
6DC
100
AcDbEntity
  8
0
  6
BYBLOCK
 62
     0
100
AcDbLine
 10
391.619681
 20
299.96076
 30
0.0
 11
416.252158
 21
268.065034
 31
0.0
  0
LINE
  5
6DD
100
AcDbEntity
  8
0
  6
BYBLOCK
 62
     0
100
AcDbLine
 10
416.252158
 20
268.065034
 30
0.0
 11
420.824158
 21
268.065034
 31
0.0
  0
SOLID
  5
6DE
100
AcDbEntity
  8
0
  6
BYBLOCK
 62
     0
100
AcDbTrace
 10
392.22277
 20
300.426515
 30
0.0
 11
391.016592
 21
299.495006
 31
0.0
 12
388.825153
 22
303.579296
 32
0.0
 13
388.825153
 23
303.579296
 33
0.0
  0
MTEXT
  5
6DF
100
AcDbEntity
  8
0
  6
BYBLOCK
 62
     0
100
AcDbMText
 10
478.355158
 20
268.065034
 30
0.0
 40
4.572
 41
0.0
 71
     5
 72
     1
  1
\A1;{\U+22052.38mm±0.03mm[\U+22050.094"±0.001"]}\P{2X}
  0
LINE
  5
6E0
100
AcDbEntity
  8
0
  6
BYBLOCK
 62
     0
100
AcDbLine
 10
385.811412
 20
304.521623
 30
0.0
 11
390.383412
 21
304.521623
 31
0.0
  0
LINE
  5
6E1
100
AcDbEntity
  8
0
  6
BYBLOCK
 62
     0
100
AcDbLine
 10
388.097412
 20
302.235623
 30
0.0
 11
388.097412
 21
306.807623
 31
0.0
  0
POINT
  5
6E2
100
AcDbEntity
  8
DEFPOINTS
  6
BYBLOCK
 62
     0
100
AcDbPoint
 10
388.825153
 20
303.579296
 30
0.0
  0
POINT
  5
6E3
100
AcDbEntity
  8
DEFPOINTS
  6
BYBLOCK
 62
     0
100
AcDbPoint
 10
387.36967
 20
305.46395
 30
0.0
  0
ENDBLK
  5
6E4
100
AcDbEntity
  8
0
100
AcDbBlockEnd
  0
BLOCK
  5
70F
100
AcDbEntity
  8
0
100
AcDbBlockBegin
  2
*D36
 70
    65
 10
0.0
 20
0.0
 30
0.0
  3
*D36
  1
*TB
  0
LINE
  5
710
100
AcDbEntity
  8
0
  6
BYBLOCK
 62
     0
100
AcDbLine
 10
377.737882
 20
291.7393
 30
0.0
 11
325.030571
 21
232.816545
 31
0.0
  0
LINE
  5
711
100
AcDbEntity
  8
0
  6
BYBLOCK
 62
     0
100
AcDbLine
 10
325.030571
 20
232.816545
 30
0.0
 11
320.458571
 21
232.816545
 31
0.0
  0
SOLID
  5
712
100
AcDbEntity
  8
0
  6
BYBLOCK
 62
     0
100
AcDbTrace
 10
377.169946
 20
292.247328
 30
0.0
 11
378.305818
 21
291.231272
 31
0.0
 12
380.786049
 22
295.146918
 32
0.0
 13
380.786049
 23
295.146918
 33
0.0
  0
MTEXT
  5
713
100
AcDbEntity
  8
0
  6
BYBLOCK
 62
     0
100
AcDbMText
 10
289.978571
 20
232.816545
 30
0.0
 40
4.572
 41
0.0
 71
     5
 72
     1
  1
\A1;{\U+22051.00mm[\U+22050.039"]}\P{8X}
  0
LINE
  5
714
100
AcDbEntity
  8
0
  6
BYBLOCK
 62
     0
100
AcDbLine
 10
378.833654
 20
295.519863
 30
0.0
 11
383.405654
 21
295.519863
 31
0.0
  0
LINE
  5
715
100
AcDbEntity
  8
0
  6
BYBLOCK
 62
     0
100
AcDbLine
 10
381.119654
 20
293.233863
 30
0.0
 11
381.119654
 21
297.805863
 31
0.0
  0
POINT
  5
716
100
AcDbEntity
  8
DEFPOINTS
  6
BYBLOCK
 62
     0
100
AcDbPoint
 10
380.786049
 20
295.146918
 30
0.0
  0
POINT
  5
717
100
AcDbEntity
  8
DEFPOINTS
  6
BYBLOCK
 62
     0
100
AcDbPoint
 10
381.453259
 20
295.892808
 30
0.0
  0
ENDBLK
  5
718
100
AcDbEntity
  8
0
100
AcDbBlockEnd
  0
BLOCK
  5
71A
100
AcDbEntity
  8
0
100
AcDbBlockBegin
  2
*D37
 70
    65
 10
0.0
 20
0.0
 30
0.0
  3
*D37
  1
*TB
  0
LINE
  5
71B
100
AcDbEntity
  8
0
  6
BYBLOCK
 62
     0
100
AcDbLine
 10
347.865432
 20
300.048785
 30
0.0
 11
304.134177
 21
251.950287
 31
0.0
  0
LINE
  5
71C
100
AcDbEntity
  8
0
  6
BYBLOCK
 62
     0
100
AcDbLine
 10
304.134177
 20
251.950287
 30
0.0
 11
299.562177
 21
251.950287
 31
0.0
  0
SOLID
  5
71D
100
AcDbEntity
  8
0
  6
BYBLOCK
 62
     0
100
AcDbTrace
 10
347.301629
 20
300.561396
 30
0.0
 11
348.429235
 21
299.536174
 31
0.0
 12
350.941098
 22
303.431603
 32
0.0
 13
350.941098
 23
303.431603
 33
0.0
  0
MTEXT
  5
71E
100
AcDbEntity
  8
0
  6
BYBLOCK
 62
     0
100
AcDbMText
 10
268.701177
 20
251.950287
 30
0.0
 40
4.572
 41
0.0
 71
     5
 72
     1
  1
\A1;\U+22052.95mm[\U+22050.116"]
  0
LINE
  5
71F
100
AcDbEntity
  8
0
  6
BYBLOCK
 62
     0
100
AcDbLine
 10
349.646146
 20
304.521623
 30
0.0
 11
354.218146
 21
304.521623
 31
0.0
  0
LINE
  5
720
100
AcDbEntity
  8
0
  6
BYBLOCK
 62
     0
100
AcDbLine
 10
351.932146
 20
302.235623
 30
0.0
 11
351.932146
 21
306.807623
 31
0.0
  0
POINT
  5
721
100
AcDbEntity
  8
DEFPOINTS
  6
BYBLOCK
 62
     0
100
AcDbPoint
 10
350.941098
 20
303.431603
 30
0.0
  0
POINT
  5
722
100
AcDbEntity
  8
DEFPOINTS
  6
BYBLOCK
 62
     0
100
AcDbPoint
 10
352.923193
 20
305.611642
 30
0.0
  0
ENDBLK
  5
723
100
AcDbEntity
  8
0
100
AcDbBlockEnd
  0
BLOCK
  5
733
100
AcDbEntity
  8
0
100
AcDbBlockBegin
  2
*D38
 70
    65
 10
0.0
 20
0.0
 30
0.0
  3
*D38
  1
*TB
  0
ARC
  5
734
100
AcDbEntity
  8
0
  6
BYBLOCK
 62
     0
100
AcDbCircle
 10
333.326813
 20
120.254302
 30
0.0
 40
72.236589
100
AcDbArc
 50
93.626971
 51
102.181081
  0
ARC
  5
735
100
AcDbEntity
  8
0
  6
BYBLOCK
 62
     0
100
AcDbCircle
 10
333.326813
 20
120.254302
 30
0.0
 40
72.236589
100
AcDbArc
 50
120.97597
 51
132.323029
  0
SOLID
  5
736
100
AcDbEntity
  8
0
  6
BYBLOCK
 62
     0
100
AcDbTrace
 10
328.732989
 20
193.107824
 30
0.0
 11
328.781217
 21
191.584587
 31
0.0
 12
333.326813
 22
192.490891
 32
0.0
 13
333.326813
 23
192.490891
 33
0.0
  0
SOLID
  5
737
100
AcDbEntity
  8
0
  6
BYBLOCK
 62
     0
100
AcDbTrace
 10
285.219849
 20
173.116311
 30
0.0
 11
284.15858
 21
174.210059
 31
0.0
 12
281.407969
 22
170.47938
 32
0.0
 13
281.407969
 23
170.47938
 33
0.0
  0
MTEXT
  5
738
100
AcDbEntity
  8
0
  6
BYBLOCK
 62
     0
100
AcDbMText
 10
305.130745
 20
186.760742
 30
0.0
 40
4.572
 41
0.0
 71
     5
 72
     1
  1
\A1;45.95°
  0
POINT
  5
739
100
AcDbEntity
  8
DEFPOINTS
  6
BYBLOCK
 62
     0
100
AcDbPoint
 10
314.245257
 20
189.925092
 30
0.0
  0
POINT
  5
73A
100
AcDbEntity
  8
DEFPOINTS
  6
BYBLOCK
 62
     0
100
AcDbPoint
 10
419.307309
 20
37.078777
 30
0.0
  0
POINT
  5
73B
100
AcDbEntity
  8
DEFPOINTS
  6
BYBLOCK
 62
     0
100
AcDbPoint
 10
333.326813
 20
63.550756
 30
0.0
  0
POINT
  5
73C
100
AcDbEntity
  8
DEFPOINTS
  6
BYBLOCK
 62
     0
100
AcDbPoint
 10
333.326813
 20
471.850262
 30
0.0
  0
POINT
  5
73D
100
AcDbEntity
  8
DEFPOINTS
  6
BYBLOCK
 62
     0
100
AcDbPoint
 10
230.497928
 20
219.728566
 30
0.0
  0
ENDBLK
  5
73E
100
AcDbEntity
  8
0
100
AcDbBlockEnd
  0
BLOCK
  5
879
100
AcDbEntity
  8
0
100
AcDbBlockBegin
  2
*D40
 70
    65
 10
0.0
 20
0.0
 30
0.0
  3
*D40
  1

  0
LINE
  5
87A
100
AcDbEntity
  8
0
  6
BYBLOCK
 62
     0
100
AcDbLine
 10
378.919248
 20
449.86627
 30
0.0
 11
411.60287
 21
415.543122
 31
0.0
  0
LINE
  5
87B
100
AcDbEntity
  8
0
  6
BYBLOCK
 62
     0
100
AcDbLine
 10
411.60287
 20
415.543122
 30
0.0
 11
416.17487
 21
415.543122
 31
0.0
  0
SOLID
  5
87C
100
AcDbEntity
  8
0
  6
BYBLOCK
 62
     0
100
AcDbTrace
 10
379.471082
 20
450.391744
 30
0.0
 11
378.367414
 21
449.340796
 31
0.0
 12
375.766402
 22
453.177274
 32
0.0
 13
375.766402
 23
453.177274
 33
0.0
  0
MTEXT
  5
87D
100
AcDbEntity
  8
0
  6
BYBLOCK
 62
     0
100
AcDbMText
 10
473.70587
 20
415.543122
 30
0.0
 40
4.572
 41
0.0
 71
     5
 72
     1
  1
\A1;{\U+22052.38mm±0.03mm[\U+22050.094"±0.001"]}\P{4X}
  0
LINE
  5
87E
100
AcDbEntity
  8
0
  6
BYBLOCK
 62
     0
100
AcDbLine
 10
372.659331
 20
454.039532
 30
0.0
 11
377.231331
 21
454.039532
 31
0.0
  0
LINE
  5
87F
100
AcDbEntity
  8
0
  6
BYBLOCK
 62
     0
100
AcDbLine
 10
374.945331
 20
451.753532
 30
0.0
 11
374.945331
 21
456.325532
 31
0.0
  0
POINT
  5
880
100
AcDbEntity
  8
DEFPOINTS
  6
BYBLOCK
 62
     0
100
AcDbPoint
 10
375.766402
 20
453.177274
 30
0.0
  0
POINT
  5
881
100
AcDbEntity
  8
DEFPOINTS
  6
BYBLOCK
 62
     0
100
AcDbPoint
 10
374.12426
 20
454.901791
 30
0.0
  0
ENDBLK
  5
882
100
AcDbEntity
  8
0
100
AcDbBlockEnd
  0
BLOCK
  5
86F
100
AcDbEntity
  8
0
100
AcDbBlockBegin
  2
*D42
 70
    65
 10
0.0
 20
0.0
 30
0.0
  3
*D42
  1

  0
LINE
  5
870
100
AcDbEntity
  8
0
  6
BYBLOCK
 62
     0
100
AcDbLine
 10
396.914891
 20
446.442032
 30
0.0
 11
409.591059
 21
434.634215
 31
0.0
  0
LINE
  5
871
100
AcDbEntity
  8
0
  6
BYBLOCK
 62
     0
100
AcDbLine
 10
409.591059
 20
434.634215
 30
0.0
 11
414.163059
 21
434.634215
 31
0.0
  0
SOLID
  5
872
100
AcDbEntity
  8
0
  6
BYBLOCK
 62
     0
100
AcDbTrace
 10
397.43427
 20
446.999606
 30
0.0
 11
396.395512
 21
445.884457
 31
0.0
 12
393.569444
 22
449.558307
 32
0.0
 13
393.569444
 23
449.558307
 33
0.0
  0
MTEXT
  5
873
100
AcDbEntity
  8
0
  6
BYBLOCK
 62
     0
100
AcDbMText
 10
445.405059
 20
434.634215
 30
0.0
 40
4.572
 41
0.0
 71
     5
 72
     1
  1
\A1;{R1.59mm[R0.062"]}\P{2X}
  0
LINE
  5
874
100
AcDbEntity
  8
0
  6
BYBLOCK
 62
     0
100
AcDbLine
 10
390.121831
 20
450.640347
 30
0.0
 11
394.693831
 21
450.640347
 31
0.0
  0
LINE
  5
875
100
AcDbEntity
  8
0
  6
BYBLOCK
 62
     0
100
AcDbLine
 10
392.407831
 20
448.354347
 30
0.0
 11
392.407831
 21
452.926347
 31
0.0
  0
POINT
  5
876
100
AcDbEntity
  8
DEFPOINTS
  6
BYBLOCK
 62
     0
100
AcDbPoint
 10
393.569444
 20
449.558307
 30
0.0
  0
POINT
  5
877
100
AcDbEntity
  8
DEFPOINTS
  6
BYBLOCK
 62
     0
100
AcDbPoint
 10
392.407831
 20
450.640347
 30
0.0
  0
ENDBLK
  5
878
100
AcDbEntity
  8
0
100
AcDbBlockEnd
  0
ENDSEC
  0
SECTION
  2
ENTITIES
  0
ACAD_ZOMBIE_ENTITY
  5
3D
100
AcDbEntity
  8
0
100
AcDbZombieEntity
 90
      498
 91
      515
 92
        8
310
0800000000000000
 93
       97
310
D2800000002029040000780280
330
3E
330
3F
330
40
330
41
330
3E
 94
        0
  0
INSERT
  5
E3
100
AcDbEntity
  8
0
100
AcDbBlockReference
  2
D-BORDER
 10
0.0
 20
0.0
 30
0.0
 41
25.4
 42
25.4
 43
25.4
  0
MTEXT
  5
F4
100
AcDbEntity
  8
TEXT
100
AcDbMText
 10
736.935774
 20
27.724124
 30
0.0
 40
3.0
 41
100.0
 71
     5
 72
     1
  1
{LAYER 5A FORWARD ENDPIECE}
  0
TEXT
  5
F5
100
AcDbEntity
  8
TEXT
100
AcDbText
 10
697.75
 20
11.625
 30
0.0
 40
3.0
  1
B-PARTS
100
AcDbText
  0
TEXT
  5
F6
100
AcDbEntity
  8
TEXT
100
AcDbText
 10
746.125
 20
12.75
 30
0.0
 40
3.0
  1
L5-END01
100
AcDbText
  0
TEXT
  5
F7
100
AcDbEntity
  8
TEXT
100
AcDbText
 10
694.875
 20
4.625
 30
0.0
 40
3.0
  1
1=1
100
AcDbText
  0
TEXT
  5
F8
100
AcDbEntity
  8
TEXT
100
AcDbText
 10
646.375
 20
21.125
 30
0.0
 40
3.0
  1
S. KYRE
100
AcDbText
  0
TEXT
  5
F9
100
AcDbEntity
  8
TEXT
100
AcDbText
 10
671.125
 20
21.125
 30
0.0
 40
1.5
  1
01-24-97
100
AcDbText
  0
LINE
  5
FA
100
AcDbEntity
  8
TEXT
100
AcDbLine
 10
663.144457
 20
492.122347
 30
0.0
 11
663.144457
 21
460.0
 31
0.0
  0
LINE
  5
FB
100
AcDbEntity
  8
TEXT
100
AcDbLine
 10
673.056868
 20
492.122347
 30
0.0
 11
673.056868
 21
460.0
 31
0.0
  0
LINE
  5
FC
100
AcDbEntity
  8
TEXT
100
AcDbLine
 10
742.652868
 20
492.122347
 30
0.0
 11
742.652868
 21
460.0
 31
0.0
  0
LINE
  5
FD
100
AcDbEntity
  8
TEXT
100
AcDbLine
 10
765.004868
 20
492.122347
 30
0.0
 11
765.004868
 21
460.0
 31
0.0
  0
TEXT
  5
102
100
AcDbEntity
  8
TEXT
100
AcDbText
 10
744.0
 20
487.0
 30
0.0
 40
2.5
  1
05-06-96
100
AcDbText
  0
TEXT
  5
103
100
AcDbEntity
  8
TEXT
100
AcDbText
 10
678.0
 20
487.0
 30
0.0
 40
2.5
  1
UPDATED DESIGN,
100
AcDbText
  0
TEXT
  5
104
100
AcDbEntity
  8
TEXT
100
AcDbText
 10
678.0
 20
482.833333
 30
0.0
 40
2.5
  1
ADDED HOLES AND SLOTS
100
AcDbText
  0
TEXT
  5
105
100
AcDbEntity
  8
TEXT
100
AcDbText
 10
665.0
 20
487.0
 30
0.0
 40
2.5
  1
01
100
AcDbText
  0
LINE
  5
106
100
AcDbEntity
  8
FOOT-A
100
AcDbLine
 10
393.995331
 20
106.824784
 30
0.0
 11
393.995331
 21
115.237284
 31
0.0
1001
ACAD
1000
ASC_BOUNDS
1002
{
1070
    19
1005
3F6
1002
}
  0
LINE
  5
107
100
AcDbEntity
  8
FOOT-A
100
AcDbLine
 10
392.407831
 20
116.824784
 30
0.0
 11
348.000392
 21
116.824784
 31
0.0
  0
LINE
  5
10A
100
AcDbEntity
  8
FOOT-A
100
AcDbLine
 10
393.995331
 20
106.824784
 30
0.0
 11
341.546828
 21
106.824784
 31
0.0
1001
ACAD
1000
ASC_BOUNDS
1002
{
1070
    19
1005
3F6
1002
}
  0
LINE
  5
10B
100
AcDbEntity
  8
FOOT-A
100
AcDbLine
 10
341.855083
 20
107.586784
 30
0.0
 11
322.743002
 21
126.075365
 31
0.0
1001
ACAD
1000
ASC_BOUNDS
1002
{
1070
    19
1005
3F6
1002
}
  0
LINE
  5
10C
100
AcDbEntity
  8
FOOT-A
100
AcDbLine
 10
341.546828
 20
106.824784
 30
0.0
 11
322.213194
 21
125.52769
 31
0.0
1001
ACAD
1000
ASC_BOUNDS
1002
{
1070
    19
1005
3F6
1002
}
  0
LINE
  5
10E
100
AcDbEntity
  8
FOOT-A
100
AcDbLine
 10
348.000392
 20
116.824784
 30
0.0
 11
324.299052
 21
127.68389
 31
0.0
  0
LINE
  5
10F
100
AcDbEntity
  8
FOOT-A
100
AcDbLine
 10
322.213194
 20
125.52769
 30
0.0
 11
324.299052
 21
127.68389
 31
0.0
1001
ACAD
1000
ASC_BOUNDS
1002
{
1070
    19
1005
3F6
1002
}
  0
POLYLINE
  5
110
100
AcDbEntity
  8
FOOT-A
100
AcDb2dPolyline
 66
     1
 10
0.0
 20
0.0
 30
0.0
 70
     1
  0
VERTEX
  5
111
100
AcDbEntity
  8
FOOT-A
100
AcDbVertex
100
AcDb2dVertex
 10
393.995331
 20
288.308823
 30
0.0
  0
VERTEX
  5
112
100
AcDbEntity
  8
FOOT-A
100
AcDbVertex
100
AcDb2dVertex
 10
393.995331
 20
320.734423
 30
0.0
  0
VERTEX
  5
113
100
AcDbEntity
  8
FOOT-A
100
AcDbVertex
100
AcDb2dVertex
 10
322.213194
 20
320.734423
 30
0.0
  0
VERTEX
  5
114
100
AcDbEntity
  8
FOOT-A
100
AcDbVertex
100
AcDb2dVertex
 10
322.213194
 20
288.308823
 30
0.0
  0
SEQEND
  5
115
100
AcDbEntity
  8
FOOT-A
  0
LINE
  5
117
100
AcDbEntity
  8
FOOT-A
100
AcDbLine
 10
322.213194
 20
319.972423
 30
0.0
 11
393.995331
 21
319.972423
 31
0.0
  0
LINE
  5
118
100
AcDbEntity
  8
FOOT-A
100
AcDbLine
 10
322.213194
 20
289.070823
 30
0.0
 11
393.995331
 21
289.070823
 31
0.0
  0
LINE
  5
119
100
AcDbEntity
  8
FOOT-A
100
AcDbLine
 10
393.995331
 20
107.586784
 30
0.0
 11
341.855083
 21
107.586784
 31
0.0
1001
ACAD
1000
ASC_BOUNDS
1002
{
1070
    19
1005
3F6
1002
}
  0
LINE
  5
11A
100
AcDbEntity
  8
FOOT-A
100
AcDbLine
 10
341.855083
 20
289.070823
 30
0.0
 11
341.855083
 21
319.972423
 31
0.0
  0
LINE
  5
11B
100
AcDbEntity
  8
FOOT-A
100
AcDbLine
 10
322.743002
 20
289.070823
 30
0.0
 11
322.743002
 21
319.972423
 31
0.0
  0
LINE
  5
11C
100
AcDbEntity
  8
FOOT-A
100
AcDbLine
 10
324.299052
 20
288.308823
 30
0.0
 11
324.299052
 21
289.070823
 31
0.0
  0
LINE
  5
11D
100
AcDbEntity
  8
FOOT-A
100
AcDbLine
 10
348.000392
 20
288.308823
 30
0.0
 11
348.000392
 21
289.070823
 31
0.0
  0
LINE
  5
11E
100
AcDbEntity
  8
FOOT-A
100
AcDbLine
 10
324.299052
 20
320.734423
 30
0.0
 11
324.299052
 21
319.972423
 31
0.0
  0
LINE
  5
11F
100
AcDbEntity
  8
FOOT-A
100
AcDbLine
 10
348.000392
 20
320.734423
 30
0.0
 11
348.000392
 21
319.972423
 31
0.0
  0
INSERT
  5
18B
100
AcDbEntity
  8
FOOT-2
100
AcDbBlockReference
  2
*U3
 10
351.932146
 20
304.521623
 30
0.0
 41
25.4
 42
25.4
 43
25.4
1001
TB_S_MPD
1070
   100
1000
HOLE
1070
   101
1000
TOOLBOX 13.0 HOLE 2.0
1070
   112
1000
#32 (.116) DIAMETER HOLE
1070
   102
1000
Near side
1070
   103
1000
ANSI-Number
1070
   104
1000
hole
1070
   105
1000
_usn
1070
   304
1040
0.0
1070
   305
1040
0.0
1070
   306
1040
0.116
1070
   302
1040
0.0
1070
   303
1040
0.0
1070
   307
1040
0.03
1070
   300
1040
0.125
1070
   110
1000
1
1070
   111
1000
#32
1070
   116
1000
T
1070
   308
1040
0.03
  0
INSERT
  5
18D
100
AcDbEntity
  8
FOOT-2
100
AcDbBlockReference
  2
*U5
 10
390.794671
 20
296.520623
 30
0.0
 41
25.4
 42
25.4
 43
25.4
1001
TB_S_MPD
1070
   100
1000
SLOT
1070
   101
1000
TOOLBOX 13.0 SLOT 2.0
1070
   103
1000
STD
1070
   306
1040
0.126
1070
   307
1040
0.03
1070
   112
1000
SLOT
1070
   102
1000
Near side
1070
   116
1000
T
1070
   308
1040
0.03
1070
   309
1040
0.063
1070
   310
1040
0.176
1070
   311
1040
0.0
  0
POLYLINE
  5
18E
100
AcDbEntity
  8
FOOT-2
100
AcDb2dPolyline
 66
     1
 10
0.0
 20
0.0
 30
0.0
 70
     1
  0
VERTEX
  5
18F
100
AcDbEntity
  8
FOOT-2
100
AcDbVertex
100
AcDb2dVertex
 10
380.619274
 20
295.519863
 30
0.0
  0
VERTEX
  5
190
100
AcDbEntity
  8
FOOT-2
100
AcDbVertex
100
AcDb2dVertex
 10
380.619274
 20
297.521383
 30
0.0
 42
-0.414214
  0
VERTEX
  5
191
100
AcDbEntity
  8
FOOT-2
100
AcDbVertex
100
AcDb2dVertex
 10
381.119654
 20
298.021763
 30
0.0
  0
VERTEX
  5
192
100
AcDbEntity
  8
FOOT-2
100
AcDbVertex
100
AcDb2dVertex
 10
383.619014
 20
298.021763
 30
0.0
 42
-0.414214
  0
VERTEX
  5
193
100
AcDbEntity
  8
FOOT-2
100
AcDbVertex
100
AcDb2dVertex
 10
384.119394
 20
297.521383
 30
0.0
  0
VERTEX
  5
194
100
AcDbEntity
  8
FOOT-2
100
AcDbVertex
100
AcDb2dVertex
 10
384.119394
 20
295.519863
 30
0.0
 42
-0.414214
  0
VERTEX
  5
195
100
AcDbEntity
  8
FOOT-2
100
AcDbVertex
100
AcDb2dVertex
 10
383.619014
 20
295.019483
 30
0.0
  0
VERTEX
  5
196
100
AcDbEntity
  8
FOOT-2
100
AcDbVertex
100
AcDb2dVertex
 10
381.119654
 20
295.019483
 30
0.0
 42
-0.414214
  0
SEQEND
  5
197
100
AcDbEntity
  8
FOOT-2
  0
INSERT
  5
198
100
AcDbEntity
  8
FOOT-2
100
AcDbBlockReference
  2
*U5
 10
390.794671
 20
312.522623
 30
0.0
 41
25.4
 42
25.4
 43
25.4
1001
TB_S_MPD
1070
   100
1000
SLOT
1070
   101
1000
TOOLBOX 13.0 SLOT 2.0
1070
   103
1000
STD
1070
   306
1040
0.126
1070
   307
1040
0.03
1070
   112
1000
SLOT
1070
   102
1000
Near side
1070
   116
1000
T
1070
   308
1040
0.03
1070
   309
1040
0.063
1070
   310
1040
0.176
1070
   311
1040
0.0
  0
INSERT
  5
199
100
AcDbEntity
  8
FOOT-2
100
AcDbBlockReference
  2
*U4
 10
388.097412
 20
304.521623
 30
0.0
 41
25.4
 42
25.4
 43
25.4
1001
TB_S_MPD
1070
   100
1000
HOLE
1070
   101
1000
TOOLBOX 13.0 HOLE 2.0
1070
   112
1000
3/32 (.0938) DIAMETER HOLE
1070
   102
1000
Near side
1070
   103
1000
ANSI-Fraction
1070
   104
1000
hole
1070
   105
1000
_usf
1070
   304
1040
0.0
1070
   305
1040
0.0
1070
   306
1040
0.09375
1070
   302
1040
0.0
1070
   303
1040
0.0
1070
   307
1040
0.03
1070
   300
1040
0.125
1070
   110
1000
1
1070
   111
1000
3/32
1070
   116
1000
T
1070
   308
1040
0.03
  0
POLYLINE
  5
19A
100
AcDbEntity
  8
FOOT-2
100
AcDb2dPolyline
 66
     1
 10
0.0
 20
0.0
 30
0.0
 70
     1
  0
VERTEX
  5
19B
100
AcDbEntity
  8
FOOT-2
100
AcDbVertex
100
AcDb2dVertex
 10
380.619274
 20
311.521863
 30
0.0
  0
VERTEX
  5
19C
100
AcDbEntity
  8
FOOT-2
100
AcDbVertex
100
AcDb2dVertex
 10
380.619274
 20
313.523383
 30
0.0
 42
-0.414214
  0
VERTEX
  5
19D
100
AcDbEntity
  8
FOOT-2
100
AcDbVertex
100
AcDb2dVertex
 10
381.119654
 20
314.023763
 30
0.0
  0
VERTEX
  5
19E
100
AcDbEntity
  8
FOOT-2
100
AcDbVertex
100
AcDb2dVertex
 10
383.619014
 20
314.023763
 30
0.0
 42
-0.414214
  0
VERTEX
  5
19F
100
AcDbEntity
  8
FOOT-2
100
AcDbVertex
100
AcDb2dVertex
 10
384.119394
 20
313.523383
 30
0.0
  0
VERTEX
  5
1A0
100
AcDbEntity
  8
FOOT-2
100
AcDbVertex
100
AcDb2dVertex
 10
384.119394
 20
311.521863
 30
0.0
 42
-0.414214
  0
VERTEX
  5
1A1
100
AcDbEntity
  8
FOOT-2
100
AcDbVertex
100
AcDb2dVertex
 10
383.619014
 20
311.021483
 30
0.0
  0
VERTEX
  5
1A2
100
AcDbEntity
  8
FOOT-2
100
AcDbVertex
100
AcDb2dVertex
 10
381.119654
 20
311.021483
 30
0.0
 42
-0.414214
  0
SEQEND
  5
1A3
100
AcDbEntity
  8
FOOT-2
  0
LINE
  5
1A4
100
AcDbEntity
  8
CENTER
100
AcDbLine
 10
211.171388
 20
120.254302
 30
0.0
 11
704.20139
 21
120.254302
 31
0.0
  0
LINE
  5
1A5
100
AcDbEntity
  8
CENTER
100
AcDbLine
 10
333.326813
 20
63.550756
 30
0.0
 11
333.326813
 21
471.850262
 31
0.0
  0
LINE
  5
1A6
100
AcDbEntity
  8
CENTER
100
AcDbLine
 10
267.167794
 20
51.86417
 30
0.0
 11
436.611365
 21
227.021971
 31
0.0
  0
LINE
  5
1A7
100
AcDbEntity
  8
CENTER
100
AcDbLine
 10
419.307309
 20
37.078777
 30
0.0
 11
230.497928
 21
219.728566
 31
0.0
  0
LINE
  5
1B4
100
AcDbEntity
  8
FOOT-A
100
AcDbLine
 10
406.869879
 20
174.794107
 30
0.0
 11
428.355325
 21
197.004117
 31
0.0
  0
LINE
  5
1B5
100
AcDbEntity
  8
FOOT-A
100
AcDbLine
 10
387.227991
 20
192.735013
 30
0.0
 11
409.773052
 21
216.040373
 31
0.0
  0
LINE
  5
1B6
100
AcDbEntity
  8
FOOT-A
100
AcDbLine
 10
409.773052
 20
216.040373
 30
0.0
 11
432.455853
 21
194.09756
 31
0.0
  0
LINE
  5
1B8
100
AcDbEntity
  8
FOOT-A
100
AcDbLine
 10
409.365961
 20
171.319258
 30
0.0
 11
387.227991
 21
192.735013
 31
0.0
  0
LINE
  5
1B9
100
AcDbEntity
  8
FOOT-A
100
AcDbLine
 10
409.744629
 20
172.013142
 30
0.0
 11
387.757799
 21
193.282688
 31
0.0
  0
LINE
  5
1BA
100
AcDbEntity
  8
FOOT-A
100
AcDbLine
 10
409.243244
 20
215.492698
 30
0.0
 11
431.707735
 21
193.761073
 31
0.0
  0
LINE
  5
1BB
100
AcDbEntity
  8
FOOT-A
100
AcDbLine
 10
404.89814
 20
175.641324
 30
0.0
 11
405.427948
 21
176.188998
 31
0.0
  0
LINE
  5
1BC
100
AcDbEntity
  8
FOOT-A
100
AcDbLine
 10
427.443201
 20
198.946683
 30
0.0
 11
426.913393
 21
198.399008
 31
0.0
  0
LINE
  5
1BD
100
AcDbEntity
  8
FOOT-A
100
AcDbLine
 10
409.365961
 20
171.319258
 30
0.0
 11
412.187221
 21
176.489028
 31
0.0
  0
LINE
  5
1BE
100
AcDbEntity
  8
FOOT-A
100
AcDbLine
 10
412.187221
 20
176.489028
 30
0.0
 11
420.58306
 21
180.433852
 31
0.0
  0
LINE
  5
1BF
100
AcDbEntity
  8
FOOT-A
100
AcDbLine
 10
420.58306
 20
180.433852
 30
0.0
 11
420.654819
 21
186.386949
 31
0.0
  0
LINE
  5
1C0
100
AcDbEntity
  8
FOOT-A
100
AcDbLine
 10
420.654819
 20
186.386949
 30
0.0
 11
428.117787
 21
186.817293
 31
0.0
  0
LINE
  5
1C1
100
AcDbEntity
  8
FOOT-A
100
AcDbLine
 10
428.117787
 20
186.817293
 30
0.0
 11
429.98353
 21
192.985562
 31
0.0
  0
LINE
  5
1C2
100
AcDbEntity
  8
FOOT-A
100
AcDbLine
 10
429.98353
 20
192.985562
 30
0.0
 11
432.455853
 21
194.09756
 31
0.0
  0
CIRCLE
  5
1C3
100
AcDbEntity
  8
FOOT-A
100
AcDbCircle
 10
404.594834
 20
198.492197
 30
0.0
 40
1.19065
  0
LINE
  5
1C4
100
AcDbEntity
  8
CENTER
100
AcDbLine
 10
402.863008
 20
200.167525
 30
0.0
 11
406.367468
 21
196.777393
 31
0.0
  0
CIRCLE
  5
1C6
100
AcDbEntity
  8
FOOT-A
100
AcDbCircle
 10
333.326813
 20
120.254302
 30
0.0
 40
1.19065
  0
CIRCLE
  5
1C7
100
AcDbEntity
  8
FOOT-A
100
AcDbCircle
 10
374.945331
 20
111.838098
 30
0.0
 40
1.19065
  0
LINE
  5
1C8
100
AcDbEntity
  8
CENTER
100
AcDbLine
 10
372.909914
 20
111.838098
 30
0.0
 11
377.28318
 21
111.838098
 31
0.0
  0
LINE
  5
1C9
100
AcDbEntity
  8
CENTER
100
AcDbLine
 10
374.945331
 20
113.987061
 30
0.0
 11
374.945331
 21
109.694001
 31
0.0
  0
LINE
  5
1CA
100
AcDbEntity
  8
CENTER
100
AcDbLine
 10
403.143951
 20
196.992386
 30
0.0
 11
406.195906
 21
200.147263
 31
0.0
  0
LINE
  5
1CE
100
AcDbEntity
  8
CENTER
100
AcDbLine
 10
328.837315
 20
300.002362
 30
0.0
 11
328.837315
 21
308.961778
 31
0.0
  0
LINE
  5
1CF
100
AcDbEntity
  8
CENTER
100
AcDbLine
 10
333.647557
 20
304.521623
 30
0.0
 11
324.729008
 21
304.521623
 31
0.0
  0
ELLIPSE
  5
1D2
100
AcDbEntity
  8
FOOT-A
100
AcDbEllipse
 10
328.837315
 20
304.521623
 30
0.0
 11
0.0
 21
1.190625000000011
 31
0.0
210
0.0
220
0.0
230
1.0
 40
0.718748
 41
0.0
 42
6.2831853071796
  0
ELLIPSE
  5
1D4
100
AcDbEntity
  8
FOOT-A
100
AcDbEllipse
 10
328.307507
 20
304.521623
 30
0.0
 11
0.0
 21
1.190625000000011
 31
0.0
210
0.0
220
0.0
230
1.0
 40
0.718748
 41
-2.826868658942531
 42
-0.3147239946472617
  0
INSERT
  5
3F6
100
AcDbEntity
  8
HATCH
100
AcDbBlockReference
  2
*X7
 10
85.987237
 20
-38.831558
 30
0.0
1001
ACAD
1000
HATCH
1002
{
1070
    19
1000
ANSI31
1040
10.0
1040
0.0
1000
ASC_BOUNDS
1070
     1
1070
     1
1070
     6
1005
119
1005
10B
1005
10F
1005
10C
1005
10A
1005
106
1000
ASC_SEEDPOINT
1011
363.858757
1021
107.262237
1031
0.0
1002
}
  0
LINE
  5
42C
100
AcDbEntity
  8
FOOT-A
100
AcDbLine
 10
393.995331
 20
459.052847
 30
0.0
 11
341.546828
 21
459.052847
 31
0.0
1001
ACAD
1000
ASC_BOUNDS
1002
{
1070
    19
1002
}
  0
LINE
  5
42D
100
AcDbEntity
  8
CENTER
100
AcDbLine
 10
372.909914
 20
454.039532
 30
0.0
 11
377.28318
 21
454.039532
 31
0.0
  0
CIRCLE
  5
42E
100
AcDbEntity
  8
FOOT-A
100
AcDbCircle
 10
374.945331
 20
454.039532
 30
0.0
 40
1.19065
  0
LINE
  5
42F
100
AcDbEntity
  8
FOOT-A
100
AcDbLine
 10
392.407831
 20
449.052847
 30
0.0
 11
348.000392
 21
449.052847
 31
0.0
  0
LINE
  5
431
100
AcDbEntity
  8
FOOT-A
100
AcDbLine
 10
341.546828
 20
459.052847
 30
0.0
 11
322.213194
 21
440.34994
 31
0.0
1001
ACAD
1000
ASC_BOUNDS
1002
{
1070
    19
1002
}
  0
LINE
  5
432
100
AcDbEntity
  8
FOOT-A
100
AcDbLine
 10
348.000392
 20
449.052847
 30
0.0
 11
324.299052
 21
438.193741
 31
0.0
  0
CIRCLE
  5
433
100
AcDbEntity
  8
FOOT-A
100
AcDbCircle
 10
333.326813
 20
445.623328
 30
0.0
 40
1.19065
  0
LINE
  5
434
100
AcDbEntity
  8
FOOT-A
100
AcDbLine
 10
322.213194
 20
440.34994
 30
0.0
 11
324.299052
 21
438.193741
 31
0.0
1001
ACAD
1000
ASC_BOUNDS
1002
{
1070
    19
1002
}
  0
LINE
  5
435
100
AcDbEntity
  8
CENTER
100
AcDbLine
 10
374.945331
 20
451.890569
 30
0.0
 11
374.945331
 21
456.18363
 31
0.0
  0
LINE
  5
436
100
AcDbEntity
  8
FOOT-A
100
AcDbLine
 10
393.995331
 20
459.052847
 30
0.0
 11
393.995331
 21
450.640347
 31
0.0
1001
ACAD
1000
ASC_BOUNDS
1002
{
1070
    19
1002
}
  0
LINE
  5
438
100
AcDbEntity
  8
CENTER
100
AcDbLine
 10
211.171388
 20
445.623328
 30
0.0
 11
704.20139
 21
445.623328
 31
0.0
  0
DIMENSION
  5
460
100
AcDbEntity
  8
DIM
100
AcDbDimension
  2
*D8
 10
348.000392
 20
138.41176
 30
0.0
 11
386.481392
 21
138.41176
 31
0.0
 70
    32
  3
SU1
100
AcDbAlignedDimension
 13
333.326813
 23
63.550756
 33
0.0
 14
348.000392
 24
116.824784
 34
0.0
100
AcDbRotatedDimension
1001
ACAD
1000
DSTYLE
1002
{
1070
    47
1040
0.03
1070
    48
1040
0.03
1070
   272
1070
     2
1070
    75
1070
     1
1070
    40
1040
25.4
1070
     3
1000
mm
1070
   271
1070
     2
1070
     4
1000
"
1070
   274
1070
     3
1070
   143
1040
0.03937
1070
   171
1070
     3
1070
   170
1070
     1
1002
}
  0
DIMENSION
  5
46D
100
AcDbEntity
  8
DIM
100
AcDbDimension
  2
*D9
 10
393.995331
 20
99.071741
 30
0.0
 11
433.238331
 21
99.071741
 31
0.0
 12
0.0
 22
-38.831558
 32
0.0
 70
    32
  3
SU1
100
AcDbAlignedDimension
 13
333.326813
 23
63.550756
 33
0.0
 14
393.995331
 24
106.824784
 34
0.0
100
AcDbRotatedDimension
1001
ACAD
1000
DSTYLE
1002
{
1070
    47
1040
0.03
1070
    48
1040
0.03
1070
   272
1070
     2
1070
    75
1070
     1
1070
    40
1040
25.4
1070
     3
1000
mm
1070
   271
1070
     2
1070
     4
1000
"
1070
   274
1070
     3
1070
   143
1040
0.03937
1070
   171
1070
     3
1070
   170
1070
     1
1002
}
  0
DIMENSION
  5
47A
100
AcDbEntity
  8
DIM
100
AcDbDimension
  2
*D10
 10
374.945331
 20
87.712784
 30
0.0
 11
438.572331
 21
87.712784
 31
0.0
 12
0.0
 22
-38.831558
 32
0.0
 70
    32
  3
SU1
100
AcDbAlignedDimension
 13
333.326813
 23
63.550756
 33
0.0
 14
374.945331
 24
109.694001
 34
0.0
100
AcDbRotatedDimension
1001
ACAD
1000
DSTYLE
1002
{
1070
    47
1040
0.03
1070
    71
1070
     1
1070
    48
1040
0.03
1070
   272
1070
     2
1070
    75
1070
     1
1070
    40
1040
25.4
1070
     3
1000
mm
1070
   271
1070
     2
1070
     4
1000
"
1070
   274
1070
     3
1070
   143
1040
0.03937
1070
   171
1070
     3
1070
   170
1070
     1
1002
}
  0
DIMENSION
  5
493
100
AcDbEntity
  8
DIM
100
AcDbDimension
  2
*D11
 10
492.622802
 20
120.254302
 30
0.0
 11
549.772802
 21
129.398302
 31
0.0
 12
85.987237
 22
-38.831558
 32
0.0
 70
    32
  3
SU1
100
AcDbAlignedDimension
 13
377.28318
 23
111.838098
 33
0.0
 14
211.171388
 24
120.254302
 34
0.0
 50
90.0
100
AcDbRotatedDimension
1001
ACAD
1000
DSTYLE
1002
{
1070
    47
1040
0.03
1070
    71
1070
     1
1070
    48
1040
0.03
1070
   272
1070
     2
1070
    76
1070
     1
1070
    40
1040
25.4
1070
     3
1000
mm
1070
   271
1070
     2
1070
     4
1000
"
1070
   274
1070
     3
1070
   143
1040
0.03937
1070
   171
1070
     3
1070
   170
1070
     1
1002
}
  0
DIMENSION
  5
4A1
100
AcDbEntity
  8
DIM
100
AcDbDimension
  2
*D12
 10
427.460633
 20
120.254302
 30
0.0
 11
459.083633
 21
129.398302
 31
0.0
 12
85.987237
 22
-38.831558
 32
0.0
 70
    32
  3
SU1
100
AcDbAlignedDimension
 13
391.995331
 23
116.824784
 33
0.0
 14
211.171388
 24
120.254302
 34
0.0
 50
90.0
100
AcDbRotatedDimension
1001
ACAD
1000
DSTYLE
1002
{
1070
    47
1040
0.03
1070
    48
1040
0.03
1070
   272
1070
     2
1070
    76
1070
     1
1070
    40
1040
25.4
1070
     3
1000
mm
1070
   271
1070
     2
1070
     4
1000
"
1070
   274
1070
     3
1070
   143
1040
0.03937
1070
   171
1070
     3
1070
   170
1070
     1
1002
}
  0
DIMENSION
  5
4BB
100
AcDbEntity
  8
DIM
100
AcDbDimension
  2
*D13
 10
611.52526
 20
120.254302
 30
0.0
 11
676.44766
 21
129.398302
 31
0.0
 12
85.987237
 22
-38.831558
 32
0.0
 70
    32
  3
SU1
100
AcDbAlignedDimension
 13
393.995331
 23
106.824784
 33
0.0
 14
704.20139
 24
120.254302
 34
0.0
 50
90.0
100
AcDbRotatedDimension
1001
ACAD
1000
DSTYLE
1002
{
1070
    47
1040
0.0
1070
    71
1070
     1
1070
    48
1040
0.05
1070
   272
1070
     2
1070
    76
1070
     1
1070
    40
1040
25.4
1070
     3
1000
mm
1070
   271
1070
     2
1070
     4
1000
"
1070
   274
1070
     3
1070
   143
1040
0.03937
1070
   171
1070
     3
1070
   170
1070
     1
1002
}
  0
DIMENSION
  5
4C8
100
AcDbEntity
  8
DIM
100
AcDbDimension
  2
*D14
 10
290.187705
 20
75.660393
 30
0.0
 11
317.297607
 21
49.434906
 31
0.0
 12
85.987237
 22
-38.831558
 32
0.0
 70
    32
 51
44.05
  3
SU1
100
AcDbAlignedDimension
 13
322.213194
 23
125.52769
 33
0.0
 14
267.167794
 24
51.86417
 34
0.0
 50
315.95
100
AcDbRotatedDimension
1001
ACAD
1000
DSTYLE
1002
{
1070
    47
1040
0.0
1070
    48
1040
0.05
1070
   272
1070
     2
1070
    76
1070
     1
1070
    40
1040
25.4
1070
     3
1000
mm
1070
   271
1070
     2
1070
     4
1000
"
1070
   274
1070
     3
1070
   143
1040
0.03937
1070
   171
1070
     3
1070
   170
1070
     1
1002
}
  0
DIMENSION
  5
4D5
100
AcDbEntity
  8
DIM
100
AcDbDimension
  2
*D15
 10
311.063278
 20
75.313222
 30
0.0
 11
338.17318
 21
49.087735
 31
0.0
 12
85.987237
 22
-38.831558
 32
0.0
 70
    32
 51
44.05
  3
SU1
100
AcDbAlignedDimension
 13
267.167794
 23
51.86417
 33
0.0
 14
341.546828
 24
106.824784
 34
0.0
 50
315.95
100
AcDbRotatedDimension
1001
ACAD
1000
DSTYLE
1002
{
1070
    47
1040
0.0
1070
    48
1040
0.05
1070
   272
1070
     2
1070
    75
1070
     1
1070
    40
1040
25.4
1070
     3
1000
mm
1070
   271
1070
     2
1070
     4
1000
"
1070
   274
1070
     3
1070
   143
1040
0.03937
1070
   171
1070
     3
1070
   170
1070
     1
1002
}
  0
DIMENSION
  5
4F9
100
AcDbEntity
  8
DIM
100
AcDbDimension
  2
*D16
 10
311.971112
 20
135.435642
 30
0.0
 11
282.884914
 21
150.850569
 31
0.0
 12
85.987237
 22
-38.831558
 32
0.0
 70
    32
 51
44.05
  3
SU1
100
AcDbAlignedDimension
 13
230.497928
 23
219.728566
 33
0.0
 14
322.213194
 24
125.52769
 34
0.0
 50
45.95
100
AcDbRotatedDimension
1001
ACAD
1000
DSTYLE
1002
{
1070
    47
1040
0.0
1070
    48
1040
0.05
1070
   272
1070
     2
1070
    75
1070
     1
1070
    40
1040
25.4
1070
     3
1000
mm
1070
   271
1070
     2
1070
     4
1000
"
1070
   274
1070
     3
1070
   143
1040
0.03937
1070
   171
1070
     3
1070
   170
1070
     1
1002
}
  0
DIMENSION
  5
507
100
AcDbEntity
  8
DIM
100
AcDbDimension
  2
*D17
 10
268.680867
 20
181.487624
 30
0.0
 11
239.59467
 21
196.902551
 31
0.0
 12
85.987237
 22
-38.831558
 32
0.0
 70
    32
 51
44.05
  3
SU1
100
AcDbAlignedDimension
 13
230.497928
 23
219.728566
 33
0.0
 14
324.299052
 24
127.68389
 34
0.0
 50
45.95
100
AcDbRotatedDimension
1001
ACAD
1000
DSTYLE
1002
{
1070
    47
1040
0.0
1070
    48
1040
0.05
1070
   272
1070
     2
1070
    75
1070
     1
1070
    40
1040
25.4
1070
     3
1000
mm
1070
   271
1070
     2
1070
     4
1000
"
1070
   274
1070
     3
1070
   143
1040
0.03937
1070
   171
1070
     3
1070
   170
1070
     1
1002
}
  0
DIMENSION
  5
514
100
AcDbEntity
  8
DIM
100
AcDbDimension
  2
*D18
 10
428.063728
 20
218.186078
 30
0.0
 11
471.877711
 21
175.801453
 31
0.0
 12
85.987237
 22
-38.831558
 32
0.0
 70
    32
 51
44.05
  3
SU1
100
AcDbAlignedDimension
 13
406.195906
 23
200.147263
 33
0.0
 14
436.611365
 24
227.021971
 34
0.0
 50
315.95
100
AcDbRotatedDimension
1001
ACAD
1000
DSTYLE
1002
{
1070
    47
1040
0.03
1070
    71
1070
     1
1070
    48
1040
0.03
1070
   272
1070
     2
1070
    76
1070
     1
1070
    40
1040
25.4
1070
     3
1000
mm
1070
   271
1070
     2
1070
     4
1000
"
1070
   274
1070
     3
1070
   143
1040
0.03937
1070
   171
1070
     3
1070
   170
1070
     1
1002
}
  0
DIMENSION
  5
523
100
AcDbEntity
  8
DIM
100
AcDbDimension
  2
*D19
 10
434.189507
 20
320.734423
 30
0.0
 11
465.812507
 21
329.878423
 31
0.0
 70
    32
  3
SU1
100
AcDbAlignedDimension
 13
395.569871
 23
312.522623
 33
0.0
 14
393.995331
 24
320.734423
 34
0.0
 50
90.0
100
AcDbRotatedDimension
1001
ACAD
1000
DSTYLE
1002
{
1070
    47
1040
0.03
1070
    48
1040
0.03
1070
   272
1070
     2
1070
    40
1040
25.4
1070
     3
1000
mm
1070
   271
1070
     2
1070
     4
1000
"
1070
   274
1070
     3
1070
   143
1040
0.03937
1070
   171
1070
     3
1070
   170
1070
     1
1002
}
  0
DIMENSION
  5
532
100
AcDbEntity
  8
DIM
100
AcDbDimension
  2
*D20
 10
495.80701
 20
320.734423
 30
0.0
 11
554.48101
 21
329.878423
 31
0.0
 70
    32
  3
SU1
100
AcDbAlignedDimension
 13
392.463037
 23
304.521623
 33
0.0
 14
393.995331
 24
320.734423
 34
0.0
 50
90.0
100
AcDbRotatedDimension
1001
ACAD
1000
DSTYLE
1002
{
1070
    47
1040
0.03
1070
    71
1070
     1
1070
    48
1040
0.03
1070
   272
1070
     2
1070
    40
1040
25.4
1070
     3
1000
mm
1070
   271
1070
     2
1070
     4
1000
"
1070
   274
1070
     3
1070
   143
1040
0.03937
1070
   171
1070
     3
1070
   170
1070
     1
1002
}
  0
DIMENSION
  5
540
100
AcDbEntity
  8
DIM
100
AcDbDimension
  2
*D21
 10
579.523438
 20
319.972423
 30
0.0
 11
579.523438
 21
308.246523
 31
0.0
 70
    32
  3
SU1
100
AcDbAlignedDimension
 13
395.569871
 23
296.520623
 33
0.0
 14
393.995331
 24
319.972423
 34
0.0
 50
90.0
100
AcDbRotatedDimension
1001
ACAD
1000
DSTYLE
1002
{
1070
    47
1040
0.03
1070
    48
1040
0.03
1070
   272
1070
     2
1070
    40
1040
25.4
1070
     3
1000
mm
1070
   271
1070
     2
1070
     4
1000
"
1070
   274
1070
     3
1070
   143
1040
0.03937
1070
   171
1070
     3
1070
   170
1070
     1
1002
}
  0
DIMENSION
  5
54E
100
AcDbEntity
  8
DIM
100
AcDbDimension
  2
*D22
 10
675.842316
 20
320.734423
 30
0.0
 11
675.842316
 21
304.521623
 31
0.0
 70
    32
  3
SU1
100
AcDbAlignedDimension
 13
393.995331
 23
288.308823
 33
0.0
 14
393.995331
 24
320.734423
 34
0.0
 50
90.0
100
AcDbRotatedDimension
1001
ACAD
1000
DSTYLE
1002
{
1070
    47
1040
0.03
1070
    71
1070
     1
1070
    48
1040
0.03
1070
   272
1070
     2
1070
    40
1040
25.4
1070
     3
1000
mm
1070
   271
1070
     2
1070
     4
1000
"
1070
   274
1070
     3
1070
   143
1040
0.03937
1070
   171
1070
     3
1070
   170
1070
     1
1002
}
  0
DIMENSION
  5
55D
100
AcDbEntity
  8
DIM
100
AcDbDimension
  2
*D23
 10
223.57618
 20
320.734423
 30
0.0
 11
255.19918
 21
329.878423
 31
0.0
 70
    32
  3
SU1
100
AcDbAlignedDimension
 13
381.119654
 23
314.023763
 33
0.0
 14
322.213194
 24
320.734423
 34
0.0
 50
90.0
100
AcDbRotatedDimension
1001
ACAD
1000
DSTYLE
1002
{
1070
    47
1040
0.03
1070
    48
1040
0.03
1070
   272
1070
     2
1070
    40
1040
25.4
1070
     3
1000
mm
1070
   271
1070
     2
1070
     4
1000
"
1070
   274
1070
     3
1070
   143
1040
0.03937
1070
   171
1070
     3
1070
   170
1070
     1
1002
}
  0
DIMENSION
  5
56C
100
AcDbEntity
  8
DIM
100
AcDbDimension
  2
*D24
 10
156.614336
 20
320.734423
 30
0.0
 11
188.237336
 21
329.878423
 31
0.0
 70
    32
  3
SU1
100
AcDbAlignedDimension
 13
381.119654
 23
311.021483
 33
0.0
 14
322.213194
 24
320.734423
 34
0.0
 50
90.0
100
AcDbRotatedDimension
1001
ACAD
1000
DSTYLE
1002
{
1070
    47
1040
0.03
1070
    48
1040
0.03
1070
   272
1070
     2
1070
    40
1040
25.4
1070
     3
1000
mm
1070
   271
1070
     2
1070
     4
1000
"
1070
   274
1070
     3
1070
   143
1040
0.03937
1070
   171
1070
     3
1070
   170
1070
     1
1002
}
  0
DIMENSION
  5
57B
100
AcDbEntity
  8
DIM
100
AcDbDimension
  2
*D25
 10
89.401523
 20
320.734423
 30
0.0
 11
123.310523
 21
329.878423
 31
0.0
 70
    32
  3
SU1
100
AcDbAlignedDimension
 13
381.119654
 23
298.021763
 33
0.0
 14
322.213194
 24
320.734423
 34
0.0
 50
90.0
100
AcDbRotatedDimension
1001
ACAD
1000
DSTYLE
1002
{
1070
    47
1040
0.03
1070
    48
1040
0.03
1070
   272
1070
     2
1070
    40
1040
25.4
1070
     3
1000
mm
1070
   271
1070
     2
1070
     4
1000
"
1070
   274
1070
     3
1070
   143
1040
0.03937
1070
   171
1070
     3
1070
   170
1070
     1
1002
}
  0
DIMENSION
  5
589
100
AcDbEntity
  8
DIM
100
AcDbDimension
  2
*D26
 10
62.888783
 20
320.734423
 30
0.0
 11
62.888783
 21
307.876953
 31
0.0
 70
    32
  3
SU1
100
AcDbAlignedDimension
 13
381.119654
 23
295.019483
 33
0.0
 14
322.213194
 24
320.734423
 34
0.0
 50
90.0
100
AcDbRotatedDimension
1001
ACAD
1000
DSTYLE
1002
{
1070
    47
1040
0.03
1070
    48
1040
0.03
1070
   272
1070
     2
1070
    40
1040
25.4
1070
     3
1000
mm
1070
   271
1070
     2
1070
     4
1000
"
1070
   274
1070
     3
1070
   143
1040
0.03937
1070
   171
1070
     3
1070
   170
1070
     1
1002
}
  0
DIMENSION
  5
598
100
AcDbEntity
  8
DIM
100
AcDbDimension
  2
*D27
 10
310.027754
 20
288.308823
 30
0.0
 11
253.258754
 21
279.164823
 31
0.0
 12
85.987237
 22
-38.831558
 32
0.0
 70
    32
  1
{<>}\P{WALL THICKNESS}
  3
SU1
100
AcDbAlignedDimension
 13
322.213194
 23
289.070823
 33
0.0
 14
322.213194
 24
288.308823
 34
0.0
 50
90.0
100
AcDbRotatedDimension
1001
ACAD
1000
DSTYLE
1002
{
1070
    47
1040
0.03
1070
    71
1070
     1
1070
    48
1040
0.03
1070
   272
1070
     2
1070
    40
1040
25.4
1070
     3
1000
mm
1070
   271
1070
     2
1070
     4
1000
"
1070
   274
1070
     3
1070
   143
1040
0.03937
1070
   171
1070
     3
1070
   170
1070
     1
1002
}
  0
DIMENSION
  5
5B2
100
AcDbEntity
  8
DIM
100
AcDbDimension
  2
*D28
 10
390.794671
 20
345.882591
 30
0.0
 11
430.418671
 21
345.882591
 31
0.0
 70
    32
  3
SU1
100
AcDbAlignedDimension
 13
333.326813
 23
471.850262
 33
0.0
 14
390.794671
 24
317.297823
 34
0.0
100
AcDbRotatedDimension
1001
ACAD
1000
DSTYLE
1002
{
1070
    47
1040
0.03
1070
    48
1040
0.03
1070
   272
1070
     2
1070
    75
1070
     1
1070
    40
1040
25.4
1070
     3
1000
mm
1070
   271
1070
     2
1070
     4
1000
"
1070
   274
1070
     3
1070
   143
1040
0.03937
1070
   171
1070
     3
1070
   170
1070
     1
1002
}
  0
DIMENSION
  5
5BF
100
AcDbEntity
  8
DIM
100
AcDbDimension
  2
*D29
 10
388.097412
 20
356.153166
 30
0.0
 11
452.486412
 21
356.153166
 31
0.0
 70
    32
  3
SU1
100
AcDbAlignedDimension
 13
333.326813
 23
471.850262
 33
0.0
 14
388.097412
 24
308.887248
 34
0.0
100
AcDbRotatedDimension
1001
ACAD
1000
DSTYLE
1002
{
1070
    47
1040
0.03
1070
    71
1070
     1
1070
    48
1040
0.03
1070
   272
1070
     2
1070
    75
1070
     1
1070
    40
1040
25.4
1070
     3
1000
mm
1070
   271
1070
     2
1070
     4
1000
"
1070
   274
1070
     3
1070
   143
1040
0.03937
1070
   171
1070
     3
1070
   170
1070
     1
1002
}
  0
DIMENSION
  5
5CC
100
AcDbEntity
  8
DIM
100
AcDbDimension
  2
*D30
 10
386.324271
 20
367.504854
 30
0.0
 11
424.805271
 21
367.504854
 31
0.0
 70
    32
  3
SU1
100
AcDbAlignedDimension
 13
333.326813
 23
471.850262
 33
0.0
 14
386.324271
 24
317.297823
 34
0.0
100
AcDbRotatedDimension
1001
ACAD
1000
DSTYLE
1002
{
1070
    47
1040
0.03
1070
    48
1040
0.03
1070
   272
1070
     2
1070
    75
1070
     1
1070
    40
1040
25.4
1070
     3
1000
mm
1070
   271
1070
     2
1070
     4
1000
"
1070
   274
1070
     3
1070
   143
1040
0.03937
1070
   171
1070
     3
1070
   170
1070
     1
1002
}
  0
DIMENSION
  5
5D9
100
AcDbEntity
  8
DIM
100
AcDbDimension
  2
*D31
 10
384.119394
 20
378.856543
 30
0.0
 11
422.219394
 21
378.856543
 31
0.0
 70
    32
  3
SU1
100
AcDbAlignedDimension
 13
333.326813
 23
471.850262
 33
0.0
 14
384.119394
 24
313.523383
 34
0.0
100
AcDbRotatedDimension
1001
ACAD
1000
DSTYLE
1002
{
1070
    47
1040
0.03
1070
    48
1040
0.03
1070
   272
1070
     2
1070
    75
1070
     1
1070
    40
1040
25.4
1070
     3
1000
mm
1070
   271
1070
     2
1070
     4
1000
"
1070
   274
1070
     3
1070
   143
1040
0.03937
1070
   171
1070
     3
1070
   170
1070
     1
1002
}
  0
DIMENSION
  5
5E6
100
AcDbEntity
  8
DIM
100
AcDbDimension
  2
*D32
 10
380.619274
 20
389.667673
 30
0.0
 11
419.481274
 21
389.667673
 31
0.0
 70
    32
  3
SU1
100
AcDbAlignedDimension
 13
333.326813
 23
471.850262
 33
0.0
 14
380.619274
 24
313.523383
 34
0.0
100
AcDbRotatedDimension
1001
ACAD
1000
DSTYLE
1002
{
1070
    47
1040
0.03
1070
    48
1040
0.03
1070
   272
1070
     2
1070
    75
1070
     1
1070
    40
1040
25.4
1070
     3
1000
mm
1070
   271
1070
     2
1070
     4
1000
"
1070
   274
1070
     3
1070
   143
1040
0.03937
1070
   171
1070
     3
1070
   170
1070
     1
1002
}
  0
DIMENSION
  5
5F3
100
AcDbEntity
  8
DIM
100
AcDbDimension
  2
*D33
 10
351.932146
 20
402.91131
 30
0.0
 11
389.651146
 21
402.91131
 31
0.0
 70
    32
  3
SU1
100
AcDbAlignedDimension
 13
333.326813
 23
471.850262
 33
0.0
 14
351.932146
 24
309.169823
 34
0.0
100
AcDbRotatedDimension
1001
ACAD
1000
DSTYLE
1002
{
1070
    47
1040
0.03
1070
    48
1040
0.03
1070
   272
1070
     2
1070
    75
1070
     1
1070
    40
1040
25.4
1070
     3
1000
mm
1070
   271
1070
     2
1070
     4
1000
"
1070
   274
1070
     3
1070
   143
1040
0.03937
1070
   171
1070
     3
1070
   170
1070
     1
1002
}
  0
DIMENSION
  5
6B0
100
AcDbEntity
  8
DIM
100
AcDbDimension
  2
*D34
 10
389.826885
 20
297.794997
 30
0.0
 11
464.884789
 21
246.118893
 31
0.0
 70
   163
  1
{<>}\P{4X}
  3
SU1$3
100
AcDbDiametricDimension
 15
391.762457
 25
295.246248
 35
0.0
 40
0.0
1001
ACAD
1000
DSTYLE
1002
{
1070
    47
1040
0.03
1070
    48
1040
0.03
1070
   272
1070
     2
1070
    75
1070
     1
1070
    40
1040
25.4
1070
     3
1000
mm
1070
   271
1070
     2
1070
     4
1000
"
1070
   274
1070
     3
1070
   143
1040
0.03937
1070
   171
1070
     3
1070
   170
1070
     1
1002
}
  0
DIMENSION
  5
6BC
100
AcDbEntity
  8
DIM
100
AcDbDimension
  2
*D35
 10
387.36967
 20
305.46395
 30
0.0
 11
478.355158
 21
268.065034
 31
0.0
 70
   163
  1
{<>}\P{2X}
  3
SU1$3
100
AcDbDiametricDimension
 15
388.825153
 25
303.579296
 35
0.0
 40
0.0
1001
ACAD
1000
DSTYLE
1002
{
1070
    47
1040
0.03
1070
    71
1070
     1
1070
    48
1040
0.03
1070
   272
1070
     2
1070
    75
1070
     1
1070
    40
1040
25.4
1070
     3
1000
mm
1070
   271
1070
     2
1070
     4
1000
"
1070
   274
1070
     3
1070
   143
1040
0.03937
1070
   171
1070
     3
1070
   170
1070
     1
1002
}
  0
DIMENSION
  5
6F0
100
AcDbEntity
  8
DIM
100
AcDbDimension
  2
*D36
 10
381.453259
 20
295.892808
 30
0.0
 11
289.978571
 21
232.816545
 31
0.0
 70
   163
  1
{<>}\P{8X}
  3
SU1$3
100
AcDbDiametricDimension
 15
380.786049
 25
295.146918
 35
0.0
 40
0.0
1001
ACAD
1000
DSTYLE
1002
{
1070
    47
1040
0.03
1070
    48
1040
0.03
1070
   272
1070
     2
1070
    75
1070
     1
1070
    40
1040
25.4
1070
     3
1000
mm
1070
   271
1070
     2
1070
     4
1000
"
1070
   274
1070
     3
1070
   143
1040
0.03937
1070
   171
1070
     3
1070
   170
1070
     1
1002
}
  0
DIMENSION
  5
724
100
AcDbEntity
  8
DIM
100
AcDbDimension
  2
*D37
 10
352.923193
 20
305.611642
 30
0.0
 11
268.701177
 21
251.950287
 31
0.0
 70
   163
  3
SU1$3
100
AcDbDiametricDimension
 15
350.941098
 25
303.431603
 35
0.0
 40
0.0
1001
ACAD
1000
DSTYLE
1002
{
1070
    47
1040
0.03
1070
    48
1040
0.03
1070
   272
1070
     2
1070
    75
1070
     1
1070
    40
1040
25.4
1070
     3
1000
mm
1070
   271
1070
     2
1070
     4
1000
"
1070
   274
1070
     3
1070
   143
1040
0.03937
1070
   171
1070
     3
1070
   170
1070
     1
1002
}
  0
DIMENSION
  5
732
100
AcDbEntity
  8
DIM
100
AcDbDimension
  2
*D38
 10
230.497928
 20
219.728566
 30
0.0
 11
305.130745
 21
186.760742
 31
0.0
 70
    34
  3
SU1$2
100
AcDb2LineAngularDimension
 13
333.326813
 23
63.550756
 33
0.0
 14
333.326813
 24
471.850262
 34
0.0
 15
419.307309
 25
37.078777
 35
0.0
 16
307.30793
 26
187.642302
 36
0.0
1001
ACAD
1000
DSTYLE
1002
{
1070
    47
1040
0.03
1070
    48
1040
0.03
1070
   272
1070
     2
1070
    40
1040
25.4
1070
   271
1070
     2
1070
     4
1000
"
1070
   274
1070
     3
1070
   143
1040
0.03937
1070
   171
1070
     3
1070
   170
1070
     1
1002
}
  0
DIMENSION
  5
761
100
AcDbEntity
  8
DIM
100
AcDbDimension
  2
*D40
 10
374.12426
 20
454.901791
 30
0.0
 11
473.70587
 21
415.543122
 31
0.0
 70
   163
  1
{<>}\P{4X}
  3
SU1$3
100
AcDbDiametricDimension
 15
375.766402
 25
453.177274
 35
0.0
 40
0.0
1001
ACAD
1000
DSTYLE
1002
{
1070
    47
1040
0.03
1070
    71
1070
     1
1070
    48
1040
0.03
1070
   272
1070
     2
1070
    40
1040
25.4
1070
     3
1000
mm
1070
   271
1070
     2
1070
     4
1000
"
1070
   274
1070
     3
1070
   143
1040
0.03937
1070
   171
1070
     3
1070
   170
1070
     1
1002
}
  0
MTEXT
  5
76C
100
AcDbEntity
  8
TEXT
100
AcDbMText
 10
12.532456
 20
183.147584
 30
0.0
 40
4.5
 41
193.6884
 71
     1
 72
     1
  3
{MATERIAL: }\P{0.76mm [0.030"] thick carbon-fiber-epoxy-composite}\P\P{LAMINATE SCHEDULE:}\P{cloth:  - 1 layer Carbon-fiber (0.006" thick ea.)}\P{ xx oz/sq. yd. plain weave @ 90°}\P{ - 1 layer Carbon-fiber (0.001" thick ea.)}\P{ 0.4 oz/sq. yd. mat}\P
  3
{ - 1 layer Carbon-fiber (0.006" thick ea.)}\P{ xx oz/sq. yd. plain weave @ 45°}\P{ 1 layer Carbon-fiber (0.001" thick ea.)}\P{ 0.4 oz/sq. yd. mat}\P{ - 1 layer Carbon-fiber (0.006" thick ea.)}\P{ xx oz/sq. yd. plain weave @ 90°}\P{epoxy: heat resist
  1
ant laminating epoxy}\P{ Ciba-Geigy RP4005R/RP1500H}\P{cure: 24 hrs at room temp. @ 20psi}\P{ 2 hrs postcure at 66°C}\P\P{MACHINING:}\P{use fixture L5-END11}\P
  0
TEXT
  5
76D
100
AcDbEntity
  8
TEXT
100
AcDbText
 10
665.0
 20
476.664812
 30
0.0
 40
2.5
  1
02
100
AcDbText
  0
TEXT
  5
76E
100
AcDbEntity
  8
TEXT
100
AcDbText
 10
678.0
 20
476.664812
 30
0.0
 40
2.5
  1
MOVE FRONT END UP TO 3mm
100
AcDbText
  0
TEXT
  5
76F
100
AcDbEntity
  8
TEXT
100
AcDbText
 10
744.0
 20
476.664812
 30
0.0
 40
2.5
  1
01-27-97
100
AcDbText
  0
TEXT
  5
770
100
AcDbEntity
  8
TEXT
100
AcDbText
 10
678.0
 20
472.498146
 30
0.0
 40
2.5
  1
ABOVE SILICON
100
AcDbText
  0
TEXT
  5
771
100
AcDbEntity
  8
TEXT
100
AcDbText
 10
678.0
 20
468.463972
 30
0.0
 40
2.5
  1
CHANGE MATERIAL TO CARBON-
100
AcDbText
  0
TEXT
  5
772
100
AcDbEntity
  8
TEXT
100
AcDbText
 10
678.0
 20
464.178452
 30
0.0
 40
2.5
  1
FIBER
100
AcDbText
  0
TEXT
  5
773
100
AcDbEntity
  8
TEXT
100
AcDbText
 10
783.865636
 20
11.623905
 30
0.0
 40
3.0
  1
02
100
AcDbText
  0
TEXT
  5
774
100
AcDbEntity
  8
TEXT
100
AcDbText
 10
318.0
 20
10.0
 30
0.0
 40
4.5
  1
SECTION
100
AcDbText
  0
TEXT
  5
775
100
AcDbEntity
  8
TEXT
100
AcDbText
 10
350.0
 20
10.0
 30
0.0
 40
6.0
  1
A-A
100
AcDbText
  0
LEADER
  5
7A9
100
AcDbEntity
  8
TEXT
100
AcDbLeader
  3
SU1$7
 76
     3
 10
311.0
 20
330.0
 30
0.0
 10
311.0
 20
308.0
 30
0.0
 10
320.0
 20
308.0
 30
0.0
 77
   256
1001
ACAD
1000
DSTYLE
1002
{
1070
    47
1040
0.03
1070
    71
1070
     1
1070
    48
1040
0.03
1070
   272
1070
     2
1070
    40
1040
25.4
1070
     3
1000
mm
1070
   271
1070
     2
1070
     4
1000
"
1070
   274
1070
     3
1070
   143
1040
0.03937
1070
   171
1070
     3
1070
   170
1070
     1
1002
}
  0
LEADER
  5
836
100
AcDbEntity
  8
TEXT
100
AcDbLeader
  3
SU1$7
 76
     3
 10
405.573889
 20
330.0
 30
0.0
 10
405.573889
 20
308.0
 30
0.0
 10
396.573889
 20
308.0
 30
0.0
 77
   256
211
-1.0
221
0.0
231
0.0
1001
ACAD
1000
DSTYLE
1002
{
1070
    47
1040
0.03
1070
    71
1070
     1
1070
    48
1040
0.03
1070
   272
1070
     2
1070
    40
1040
25.4
1070
     3
1000
mm
1070
   271
1070
     2
1070
     4
1000
"
1070
   274
1070
     3
1070
   143
1040
0.03937
1070
   171
1070
     3
1070
   170
1070
     1
1002
}
  0
TEXT
  5
837
100
AcDbEntity
  8
TEXT
100
AcDbText
 10
309.210543
 20
332.183759
 30
0.0
 40
6.0
  1
A
100
AcDbText
  0
TEXT
  5
838
100
AcDbEntity
  8
TEXT
100
AcDbText
 10
403.488894
 20
331.865134
 30
0.0
 40
6.0
  1
A
100
AcDbText
  0
ARC
  5
841
100
AcDbEntity
  8
FOOT-A
100
AcDbCircle
 10
392.407831
 20
115.237284
 30
0.0
 40
1.5875
100
AcDbArc
 50
0.0
 51
90.0
1001
ACAD
1000
ASC_BOUNDS
1002
{
1070
    19
1005
3F6
1002
}
  0
ARC
  5
842
100
AcDbEntity
  8
FOOT-A
100
AcDbCircle
 10
392.407831
 20
450.640347
 30
0.0
 40
1.5875
100
AcDbArc
 50
270.0
 51
360.0
1001
ACAD
1000
ASC_BOUNDS
1002
{
1070
    19
1002
}
  0
DIMENSION
  5
864
100
AcDbEntity
  8
DIM
100
AcDbDimension
  2
*D42
 10
392.407831
 20
450.640347
 30
0.0
 11
445.405059
 21
434.634215
 31
0.0
 70
   164
  1
{<>}\P{2X}
  3
SU1$4
100
AcDbRadialDimension
 15
393.569444
 25
449.558307
 35
0.0
 40
0.0
1001
ACAD
1000
DSTYLE
1002
{
1070
    47
1040
0.03
1070
    48
1040
0.03
1070
   272
1070
     2
1070
    40
1040
25.4
1070
     3
1000
mm
1070
   271
1070
     2
1070
     4
1000
"
1070
   274
1070
     3
1070
   143
1040
0.03937
1070
   171
1070
     3
1070
   170
1070
     1
1002
}
  0
ENDSEC
  0
SECTION
  2
OBJECTS
  0
DICTIONARY
  5
C
100
AcDbDictionary
  3
ACAD_GROUP
350
D
  3
ACAD_MLINESTYLE
350
E
  3
ACASAPPOBJECT
350
7B
  3
ACASGREF_MASTER
350
2D
  3
ACCELVIEW
350
86
  3
ACDMSYSVARMGR
350
49
  3
ACGREF_MASTER
350
2B
  3
ACME_COMMAND_HISTORY
350
29
  3
ACME_SCOPE_NAME
350
28
  3
AD_APPL
350
3C
  3
AD_DRAWMGR_NAME
350
5E
  3
AD_GREF_MODULE
350
44
  3
AD_HOLENOTE_REPOSITORY
350
43
  3
ADSYSVARMGR
350
32
  3
AMI_MASTER
350
2C
  3
AUTOCAD_ASSEMBLIES_PROJECT
350
6A
  3
DESIGNER_ASSEMBLIES_SYSVARS
350
65
  0
DICTIONARY
  5
D
102
{ACAD_REACTORS
330
C
102
}
100
AcDbDictionary
  0
DICTIONARY
  5
E
102
{ACAD_REACTORS
330
C
102
}
100
AcDbDictionary
  3
STANDARD
350
13
  0
ACAD_ZOMBIE_OBJECT
  5
7B
102
{ACAD_REACTORS
330
C
102
}
100
AcDbZombieObject
 90
      499
 91
      536
 93
        2
310
90
360
79
 94
        0
  0
ACAD_ZOMBIE_OBJECT
  5
2D
102
{ACAD_REACTORS
330
C
102
}
100
AcDbZombieObject
 90
      499
 91
      505
 93
       34
310
0100004040
 94
        0
  0
ACAD_ZOMBIE_OBJECT
  5
86
102
{ACAD_REACTORS
330
C
102
}
100
AcDbZombieObject
 90
      499
 91
      537
 93
       12
310
9014
330
3D
 94
        0
  0
ACAD_ZOMBIE_OBJECT
  5
49
102
{ACAD_REACTORS
330
C
102
}
100
AcDbZombieObject
 90
      499
 91
      510
 93
      176
310
4C5114810100000000000000000000000000000000004F
330
4A
330
4B
330
4C
330
4D
330
4E
330
50
330
52
330
53
330
54
330
55
330
56
330
57
330
58
330
59
330
5A
330
5B
330
5D
 94
        0
  0
ACAD_ZOMBIE_OBJECT
  5
2B
102
{ACAD_REACTORS
330
C
102
}
100
AcDbZombieObject
 90
      499
 91
      503
 93
      114
310
01000040C000000000000000000000
 94
        0
  0
ACAD_ZOMBIE_OBJECT
  5
29
102
{ACAD_REACTORS
330
C
102
}
100
AcDbZombieObject
 90
      499
 91
      501
 93
     3940
310
478050444494D3140405084E202D205341564501411112534C501014293880B4814D1551590548050444494D31404050A4E202D2053455456415201411112534C501014293880B4814D1551590548050444494D31404050A4E202D2053455456415201411112534C501014293880B4814D1551590548050444494D31404050
310
A4E202D2053455456415201411112534C501014213880B4814D055914050444494D31404050A4E202D2053455456415201411112534C501014293880B4814D1551590548050444494D31404050A4E202D2053455456415201411112534C501014293880B4814D1551590548050444494D31404050A4E202D20534554564152
310
01411112534C501014293880B4814D1551590548050444494D3140405084E202D205341564501411112534C5010142D3880B48149154D513D49140504554E444F80504554E444F805034E455780508554E444546494E4580508554E444546494E458050A4D454E55554E4C4F4144805084D454E554C4F41448050C41445F43
310
4F4E56455254523140805084E202D20554E444F014213880B4815539113C050C414D4C54595045434845434B40C05084E202D20554E444F014253880B481310565154805084E202D20554E444F01415310565154A01415310565154A014115539113E014115539113E014113D41153AC
 94
        0
  0
ACAD_ZOMBIE_OBJECT
  5
28
102
{ACAD_REACTORS
330
C
102
}
100
AcDbZombieObject
 90
      499
 91
      500
 93
      456
310
01010040931000000000000000000000000000000000000000000000000000000000000000000000000000000000000000000000000009010020
360
2E
360
2F
360
30
360
31
360
33
360
34
360
35
360
36
360
37
360
38
360
39
360
3A
360
3B
360
3E
360
3F
360
40
360
41
360
42
360
45
360
46
360
47
360
48
360
4A
360
4B
360
4C
360
4D
360
4E
360
50
360
52
360
53
360
54
360
55
360
56
360
57
360
58
360
59
360
5A
360
5B
360
5D
360
66
360
67
360
68
360
69
360
6E
360
6F
360
70
360
71
360
72
360
76
330
3D
 94
        0
  0
ACAD_ZOMBIE_OBJECT
  5
3C
102
{ACAD_REACTORS
330
C
102
}
100
AcDbZombieObject
 90
      499
 91
      514
 93
       42
310
000100004351
330
2E
 94
        0
  0
ACAD_ZOMBIE_OBJECT
  5
5E
102
{ACAD_REACTORS
330
C
102
}
100
AcDbZombieObject
 90
      499
 91
      526
 93
       42
310
000100004400
330
45
 94
        0
  0
ACAD_ZOMBIE_OBJECT
  5
44
102
{ACAD_REACTORS
330
C
102
}
100
AcDbZombieObject
 90
      499
 91
      521
 93
      114
310
000000428000000000000000000004
 94
        0
  0
ACAD_ZOMBIE_OBJECT
  5
43
102
{ACAD_REACTORS
330
C
102
}
100
AcDbZombieObject
 90
      499
 91
      520
 93
        8
310
001E
330
42
 94
        0
  0
ACAD_ZOMBIE_OBJECT
  5
32
102
{ACAD_REACTORS
330
C
102
}
100
AcDbZombieObject
 90
      499
 91
      510
 93
      104
310
9094410100000000000000000000
330
33
330
34
330
35
330
36
330
37
330
38
330
39
330
3A
330
3B
 94
        0
  0
ACAD_ZOMBIE_OBJECT
  5
2C
102
{ACAD_REACTORS
330
C
102
}
100
AcDbZombieObject
 90
      499
 91
      504
 93
       34
310
010000406C
 94
        0
  0
ACAD_ZOMBIE_OBJECT
  5
6A
102
{ACAD_REACTORS
330
C
102
}
100
AcDbZombieObject
 90
      499
 91
      527
 93
       58
310
0100004180000000
330
70
330
76
330
71
 94
        0
  0
ACAD_ZOMBIE_OBJECT
  5
65
102
{ACAD_REACTORS
330
C
102
}
100
AcDbZombieObject
 90
      499
 91
      510
 93
       64
310
904441010000000055
330
66
330
67
330
68
330
69
 94
        0
  0
MLINESTYLE
  5
13
102
{ACAD_REACTORS
330
E
102
}
100
AcDbMlineStyle
  2
STANDARD
 70
     0
  3

 62
     0
 51
90.0
 52
90.0
 71
     2
 49
0.5
 62
   256
  6
BYLAYER
 49
-0.5
 62
   256
  6
BYLAYER
  0
ACAD_ZOMBIE_OBJECT
  5
79
100
AcDbZombieObject
 90
      499
 91
      534
 93
      720
310
9064D2E312E313607014B7269BC41100000000000000E03F1EC52B91F85EA10FE1EC52B91F85EA10FD034153471EC52B91F85EA10FC000000FC83D797414650540C000000000000E03F3F2A7C749358940FC000000FC83D797414F
 94
        0
  0
ACAD_ZOMBIE_OBJECT
  5
2E
100
AcDbZombieObject
 90
      499
 91
      506
 93
      280
310
000000000000014119185D1940506462E312E3136014119185D1940506462E312E31365F
330
28
330
2F
330
30
330
32
330
3D
 94
        0
  0
ACAD_ZOMBIE_OBJECT
  5
2F
100
AcDbZombieObject
 90
      499
 91
      507
 93
      120
310
00009024410100000092080002A6A600
330
28
330
3F
330
3E
330
0
 94
        0
  0
ACAD_ZOMBIE_OBJECT
  5
30
100
AcDbZombieObject
 90
      499
 91
      508
 93
       46
310
000000009208
330
28
330
0
330
31
 94
        0
  0
ACAD_ZOMBIE_OBJECT
  5
31
100
AcDbZombieObject
 90
      499
 91
      509
 93
       22
310
0000A9
330
28
 94
        0
  0
ACAD_ZOMBIE_OBJECT
  5
33
100
AcDbZombieObject
 90
      499
 91
      511
 93
      124
310
00000142905350D3D39114D414D69054
330
28
 94
        0
  0
ACAD_ZOMBIE_OBJECT
  5
34
100
AcDbZombieObject
 90
      499
 91
      511
 93
      124
310
000001429053549553115353D1115011
330
28
 94
        0
  0
ACAD_ZOMBIE_OBJECT
  5
35
100
AcDbZombieObject
 90
      499
 91
      511
 93
      108
310
00000142105354D2D353D1115016
330
28
 94
        0
  0
ACAD_ZOMBIE_OBJECT
  5
36
100
AcDbZombieObject
 90
      499
 91
      511
 93
      140
310
000001435053511253511254D41353D1116C
330
28
 94
        0
  0
ACAD_ZOMBIE_OBJECT
  5
37
100
AcDbZombieObject
 90
      499
 91
      512
 93
      180
310
00000142905354D2D05391D513D3000000000000010400
330
28
 94
        0
  0
ACAD_ZOMBIE_OBJECT
  5
38
100
AcDbZombieObject
 90
      499
 91
      513
 93
      164
310
00000142505354D2D4D516531140505434F4E542A4
330
28
 94
        0
  0
ACAD_ZOMBIE_OBJECT
  5
39
100
AcDbZombieObject
 90
      499
 91
      511
 93
      108
310
00000142105350D3511112535011
330
28
 94
        0
  0
ACAD_ZOMBIE_OBJECT
  5
3A
100
AcDbZombieObject
 90
      499
 91
      513
 93
      116
310
000001425053541054919253114063
330
28
 94
        0
  0
ACAD_ZOMBIE_OBJECT
  5
3B
100
AcDbZombieObject
 90
      499
 91
      511
 93
      100
310
00000142105350D3D35414D5A3
330
28
 94
        0
  0
ACAD_ZOMBIE_OBJECT
  5
3E
100
AcDbZombieObject
 90
      499
 91
      516
 93
      164
310
000092090148200A00000440000FFFFFFFF000000C
330
28
330
3F
330
2F
330
3D
 94
        0
  0
ACAD_ZOMBIE_OBJECT
  5
3F
100
AcDbZombieObject
 90
      499
 91
      517
 93
       82
310
000040520802482A800000
330
28
330
3E
330
2F
330
3D
 94
        0
  0
ACAD_ZOMBIE_OBJECT
  5
40
100
AcDbZombieObject
 90
      499
 91
      509
 93
       22
310
0000A9
330
28
 94
        0
  0
ACAD_ZOMBIE_OBJECT
  5
41
100
AcDbZombieObject
 90
      499
 91
      518
 93
       38
310
0000009208
330
28
330
0
 94
        0
  0
ACAD_ZOMBIE_OBJECT
  5
42
100
AcDbZombieObject
 90
      499
 91
      519
 93
     3196
310
0000419208050A544852555F4452494C4C0142D09312539117D1149253130050A544852555F43424F52450142D09312539117D0D093D4914050A544852555F4353494E4B0142D09312539117D0D4D25392D0648201459EC94958C8094950535112504815121493D551D20B9F4051C7B252563202525414D444941205820252
310
5414D44455020444545507D014F5EC94958C8094950535112504815121493D551D20B9F57141ED0D093D49148094958C80949505350D112504816080949505350D091115408111151541F405437B252563202525414D4449412058202525414D44455020444545507D5C507B43424F524520252563202525414D4344494120
310
58202525414D434244455020444545507D014EDEC94958C8094950535112504815121493D551D20B9F57141ED0D4D25392C8094958C80949505350D112504816080949505350D4D05391C949591F405417B252563202525414D4449412058202525414D44455020444545507D5C507B4353494E4B20252563202525414D434
310
449412058202525414D4353414E472525647D0
330
28
 94
        0
  0
ACAD_ZOMBIE_OBJECT
  5
45
100
AcDbZombieObject
 90
      499
 91
      522
 93
      308
310
0000014119185D1940507442E312E313663014119185D1940507442E312E313663405010000004
330
28
330
46
330
48
330
49
 94
        0
  0
ACAD_ZOMBIE_OBJECT
  5
46
100
AcDbZombieObject
 90
      499
 91
      523
 93
       56
310
0000901441010064
330
28
330
47
 94
        0
  0
ACAD_ZOMBIE_OBJECT
  5
47
100
AcDbZombieObject
 90
      499
 91
      524
 93
       40
310
0000A4410169
330
28
 94
        0
  0
ACAD_ZOMBIE_OBJECT
  5
48
100
AcDbZombieObject
 90
      499
 91
      525
 93
       68
310
0000A44101920A4820
330
28
 94
        0
  0
ACAD_ZOMBIE_OBJECT
  5
4A
100
AcDbZombieObject
 90
      499
 91
      511
 93
      108
310
000001421053521310D05310D010
330
28
 94
        0
  0
ACAD_ZOMBIE_OBJECT
  5
4B
100
AcDbZombieObject
 90
      499
 91
      511
 93
      124
310
000001429053541493D2951654115013
330
28
 94
        0
  0
ACAD_ZOMBIE_OBJECT
  5
4C
100
AcDbZombieObject
 90
      499
 91
      511
 93
      124
310
00000142905354915554D15112535010
330
28
 94
        0
  0
ACAD_ZOMBIE_OBJECT
  5
4D
100
AcDbZombieObject
 90
      499
 91
      511
 93
      132
310
00000143105354D150D51253D391125360
330
28
 94
        0
  0
ACAD_ZOMBIE_OBJECT
  5
4E
100
AcDbZombieObject
 90
      499
 91
      511
 93
      124
310
00000142905355941093D49111549013
330
28
 94
        0
  0
ACAD_ZOMBIE_OBJECT
  5
50
100
AcDbZombieObject
 90
      499
 91
      513
 93
      180
310
00000142905352125113151654114050648494444454E0
330
28
 94
        0
  0
ACAD_ZOMBIE_OBJECT
  5
52
100
AcDbZombieObject
 90
      499
 91
      513
 93
      196
310
00000142905354D150D315165411405085048414E544F4D320
330
28
 94
        0
  0
ACAD_ZOMBIE_OBJECT
  5
53
100
AcDbZombieObject
 90
      499
 91
      511
 93
      108
310
00000142105354D51114D0D51024
330
28
 94
        0
  0
ACAD_ZOMBIE_OBJECT
  5
54
100
AcDbZombieObject
 90
      499
 91
      511
 93
      108
310
00000142105354D5111510541021
330
28
 94
        0
  0
ACAD_ZOMBIE_OBJECT
  5
55
100
AcDbZombieObject
 90
      499
 91
      511
 93
      108
310
00000142105354D5111115131020
330
28
 94
        0
  0
ACAD_ZOMBIE_OBJECT
  5
56
100
AcDbZombieObject
 90
      499
 91
      512
 93
      148
310
00000141905350D310D34295C8FC2F528BC3F9
330
28
 94
        0
  0
ACAD_ZOMBIE_OBJECT
  5
57
100
AcDbZombieObject
 90
      499
 91
      512
 93
      156
310
00000141D05350D311D05402B8716D9CEF7C33F0
330
28
 94
        0
  0
ACAD_ZOMBIE_OBJECT
  5
58
100
AcDbZombieObject
 90
      499
 91
      512
 93
      164
310
00000142105350D313D4D2150295C8FC2F528BC3F0
330
28
 94
        0
  0
ACAD_ZOMBIE_OBJECT
  5
59
100
AcDbZombieObject
 90
      499
 91
      511
 93
      100
310
00000141D05350D31410549018
330
28
 94
        0
  0
ACAD_ZOMBIE_OBJECT
  5
5A
100
AcDbZombieObject
 90
      499
 91
      511
 93
      100
310
0000014210535590539254D220
330
28
 94
        0
  0
ACAD_ZOMBIE_OBJECT
  5
5B
100
AcDbZombieObject
 90
      499
 91
      512
 93
      188
310
00000142D0535312539155121250D2C295C8FC2F5289C3F0
330
28
 94
        0
  0
ACAD_ZOMBIE_OBJECT
  5
5D
100
AcDbZombieObject
 90
      499
 91
      513
 93
      164
310
00000142105350D3151654114050643454E5445520
330
28
 94
        0
  0
ACAD_ZOMBIE_OBJECT
  5
66
100
AcDbZombieObject
 90
      499
 91
      511
 93
      132
310
00000142D05050555513D4D3D315915010
330
28
 94
        0
  0
ACAD_ZOMBIE_OBJECT
  5
67
100
AcDbZombieObject
 90
      499
 91
      511
 93
      156
310
00000143905050555513D054D4D1535093115010
330
28
 94
        0
  0
ACAD_ZOMBIE_OBJECT
  5
68
100
AcDbZombieObject
 90
      499
 91
      511
 93
      148
310
00000143505055925155D49154D513D4915010
330
28
 94
        0
  0
ACAD_ZOMBIE_OBJECT
  5
69
100
AcDbZombieObject
 90
      499
 91
      511
 93
      124
310
00000142D050525394D15495105094E0
330
28
 94
        0
  0
ACAD_ZOMBIE_OBJECT
  5
6E
100
AcDbZombieObject
 90
      499
 91
      528
 93
       32
310
000000004F
330
28
340
6B
330
6F
330
6B
 94
        0
  0
ACAD_ZOMBIE_OBJECT
  5
6F
100
AcDbZombieObject
 90
      499
 91
      529
 93
      111
310
000001411050D05110400522080C
330
28
330
6E
 94
        0
  0
ACAD_ZOMBIE_OBJECT
  5
70
100
AcDbZombieObject
 90
      499
 91
      530
 93
       72
310
000000A44101A4410100
330
28
330
6F
 94
        0
  0
ACAD_ZOMBIE_OBJECT
  5
71
100
AcDbZombieObject
 90
      499
 91
      531
 93
       80
310
0000901441010000000000
330
28
330
72
330
72
330
72
330
72
 94
        0
  0
ACAD_ZOMBIE_OBJECT
  5
72
100
AcDbZombieObject
 90
      499
 91
      532
 93
      173
310
00000000406AAAAAAAAAAAAAAAAA806A44101A441010
330
28
330
71
330
6F
 94
        0
  0
ACAD_ZOMBIE_OBJECT
  5
76
100
AcDbZombieObject
 90
      499
 91
      533
 93
       26
310
00008000
330
28
330
0
 94
        0
  0
ENDSEC
  0
EOF
