  0
SECTION
  2
HEADER
  9
$ACADVER
  1
AC1012
  9
$DWGCODEPAGE
  3
ansi_1252
  9
$INSBASE
 10
0.0
 20
0.0
 30
0.0
  9
$EXTMIN
 10
25.4
 20
15.875
 30
0.0
  9
$EXTMAX
 10
813.97907
 20
519.368925
 30
0.0
  9
$LIMMIN
 10
0.0
 20
0.0
  9
$LIMMAX
 10
812.0
 20
533.0
  9
$ORTHOMODE
 70
     1
  9
$REGENMODE
 70
     1
  9
$FILLMODE
 70
     1
  9
$QTEXTMODE
 70
     0
  9
$MIRRTEXT
 70
     1
  9
$DRAGMODE
 70
     2
  9
$LTSCALE
 40
10.0
  9
$OSMODE
 70
     1
  9
$ATTMODE
 70
     1
  9
$TEXTSIZE
 40
3.0
  9
$TRACEWID
 40
0.05
  9
$TEXTSTYLE
  7
STANDARD
  9
$CLAYER
  8
DIM
  9
$CELTYPE
  6
BYLAYER
  9
$CECOLOR
 62
   256
  9
$CELTSCALE
 40
1.0
  9
$DELOBJ
 70
     1
  9
$DISPSILH
 70
     0
  9
$DIMSCALE
 40
25.4
  9
$DIMASZ
 40
0.18
  9
$DIMEXO
 40
0.0625
  9
$DIMDLI
 40
0.38
  9
$DIMRND
 40
0.0
  9
$DIMDLE
 40
0.0
  9
$DIMEXE
 40
0.18
  9
$DIMTP
 40
0.03
  9
$DIMTM
 40
0.03
  9
$DIMTXT
 40
0.18
  9
$DIMCEN
 40
0.09
  9
$DIMTSZ
 40
0.0
  9
$DIMTOL
 70
     1
  9
$DIMLIM
 70
     0
  9
$DIMTIH
 70
     1
  9
$DIMTOH
 70
     1
  9
$DIMSE1
 70
     0
  9
$DIMSE2
 70
     1
  9
$DIMTAD
 70
     0
  9
$DIMZIN
 70
     0
  9
$DIMBLK
  1

  9
$DIMASO
 70
     1
  9
$DIMSHO
 70
     1
  9
$DIMPOST
  1

  9
$DIMAPOST
  1
"
  9
$DIMALT
 70
     1
  9
$DIMALTD
 70
     3
  9
$DIMALTF
 40
0.03937
  9
$DIMLFAC
 40
1.0
  9
$DIMTOFL
 70
     0
  9
$DIMTVP
 40
0.0
  9
$DIMTIX
 70
     0
  9
$DIMSOXD
 70
     0
  9
$DIMSAH
 70
     0
  9
$DIMBLK1
  1

  9
$DIMBLK2
  1

  9
$DIMSTYLE
  2
STANDARD
  9
$DIMCLRD
 70
     0
  9
$DIMCLRE
 70
     0
  9
$DIMCLRT
 70
     0
  9
$DIMTFAC
 40
1.0
  9
$DIMGAP
 40
0.09
  9
$DIMJUST
 70
     0
  9
$DIMSD1
 70
     0
  9
$DIMSD2
 70
     0
  9
$DIMTOLJ
 70
     1
  9
$DIMTZIN
 70
     0
  9
$DIMALTZ
 70
     0
  9
$DIMALTTZ
 70
     0
  9
$DIMFIT
 70
     0
  9
$DIMUPT
 70
     0
  9
$DIMUNIT
 70
     2
  9
$DIMDEC
 70
     2
  9
$DIMTDEC
 70
     2
  9
$DIMALTU
 70
     2
  9
$DIMALTTD
 70
     3
  9
$DIMTXSTY
  7
STANDARD
  9
$DIMAUNIT
 70
     0
  9
$LUNITS
 70
     2
  9
$LUPREC
 70
     4
  9
$SKETCHINC
 40
0.1
  9
$FILLETRAD
 40
0.0
  9
$AUNITS
 70
     0
  9
$AUPREC
 70
     0
  9
$MENU
  1
C:\CIM\ACAD
  9
$ELEVATION
 40
0.0
  9
$PELEVATION
 40
0.0
  9
$THICKNESS
 40
0.0
  9
$LIMCHECK
 70
     0
  9
$BLIPMODE
 70
     1
  9
$CHAMFERA
 40
0.0
  9
$CHAMFERB
 40
0.0
  9
$CHAMFERC
 40
0.0
  9
$CHAMFERD
 40
0.0
  9
$SKPOLY
 70
     0
  9
$TDCREATE
 40
2450030.500736111
  9
$TDUPDATE
 40
2450526.645759606
  9
$TDINDWG
 40
0.1154111921
  9
$TDUSRTIMER
 40
0.1154111921
  9
$USRTIMER
 70
     1
  9
$ANGBASE
 50
0.0
  9
$ANGDIR
 70
     0
  9
$PDMODE
 70
     0
  9
$PDSIZE
 40
0.0
  9
$PLINEWID
 40
0.0
  9
$COORDS
 70
     1
  9
$SPLFRAME
 70
     0
  9
$SPLINETYPE
 70
     6
  9
$SPLINESEGS
 70
     8
  9
$ATTDIA
 70
     0
  9
$ATTREQ
 70
     1
  9
$HANDLING
 70
     1
  9
$HANDSEED
  5
EB7
  9
$SURFTAB1
 70
     6
  9
$SURFTAB2
 70
     6
  9
$SURFTYPE
 70
     6
  9
$SURFU
 70
     6
  9
$SURFV
 70
     6
  9
$UCSNAME
  2

  9
$UCSORG
 10
0.0
 20
0.0
 30
0.0
  9
$UCSXDIR
 10
1.0
 20
0.0
 30
0.0
  9
$UCSYDIR
 10
0.0
 20
1.0
 30
0.0
  9
$PUCSNAME
  2

  9
$PUCSORG
 10
0.0
 20
0.0
 30
0.0
  9
$PUCSXDIR
 10
1.0
 20
0.0
 30
0.0
  9
$PUCSYDIR
 10
0.0
 20
1.0
 30
0.0
  9
$USERI1
 70
     0
  9
$USERI2
 70
     0
  9
$USERI3
 70
     0
  9
$USERI4
 70
     0
  9
$USERI5
 70
     0
  9
$USERR1
 40
0.0
  9
$USERR2
 40
0.0
  9
$USERR3
 40
0.0
  9
$USERR4
 40
0.0
  9
$USERR5
 40
0.0
  9
$WORLDVIEW
 70
     1
  9
$SHADEDGE
 70
     3
  9
$SHADEDIF
 70
    70
  9
$TILEMODE
 70
     1
  9
$MAXACTVP
 70
    16
  9
$PINSBASE
 10
0.0
 20
0.0
 30
0.0
  9
$PLIMCHECK
 70
     0
  9
$PEXTMIN
 10
1.000000E+20
 20
1.000000E+20
 30
1.000000E+20
  9
$PEXTMAX
 10
-1.000000E+20
 20
-1.000000E+20
 30
-1.000000E+20
  9
$PLIMMIN
 10
0.0
 20
0.0
  9
$PLIMMAX
 10
12.0
 20
9.0
  9
$UNITMODE
 70
     0
  9
$VISRETAIN
 70
     0
  9
$PLINEGEN
 70
     0
  9
$PSLTSCALE
 70
     1
  9
$TREEDEPTH
 70
  3020
  9
$PICKSTYLE
 70
     1
  9
$CMLSTYLE
  2
STANDARD
  9
$CMLJUST
 70
     0
  9
$CMLSCALE
 40
1.0
  9
$SAVEIMAGES
 70
     0
  0
ENDSEC
  0
SECTION
  2
CLASSES
  0
CLASS
  1
ACMESCOPE
  2
AcMeScope
  3
ACME_MODULE_NAME
 90
        0
280
     0
281
     0
  0
CLASS
  1
ACMECOMMANDHISTORY
  2
AcMeCommandHistory
  3
ACME_MODULE_NAME
 90
        0
280
     0
281
     0
  0
CLASS
  1
AcRfInsAdjusterMgr
  2
AcRfInsAdjusterMgr
  3
ACME_MODULE_NAME
 90
        0
280
     0
281
     0
  0
CLASS
  1
ACGREFMASTER
  2
AcGrefMaster
  3
"AcadRfServer"
 90
        0
280
     0
281
     0
  0
CLASS
  1
AmiMaster
  2
AmiMaster
  3
"AmiServices"
 90
        0
280
     0
281
     0
  0
CLASS
  1
ACASGREFMASTER
  2
AcAsGrefMaster
  3
"AutoSurfResolver"
 90
        0
280
     0
281
     0
  0
CLASS
  1
ADAPPL
  2
AcAdAppl
  3
"DesignerServices"
 90
        0
280
     0
281
     0
  0
CLASS
  1
DEPMGR
  2
AcAdDepMgr
  3
"DesignerServices"
 90
        0
280
     0
281
     0
  0
CLASS
  1
PARAMMGR
  2
AcAdParamMgr
  3
"DesignerServices"
 90
        0
280
     0
281
     0
  0
CLASS
  1
PARAMSCOPE
  2
AcAdParamScope
  3
"DesignerServices"
 90
        0
280
     0
281
     0
  0
CLASS
  1
"IM_SYSVAR_MAN"
  2
AcImSysVarManager
  3
"ADAM"
 90
        0
280
     0
281
     0
  0
CLASS
  1
SYSTEM_VAR_INT
  2
AcImIntSysVar
  3
"ADAM"
 90
        0
280
     0
281
     0
  0
CLASS
  1
SYSTEM_VAR_REAL
  2
AcImRealSysVar
  3
"ADAM"
 90
        0
280
     0
281
     0
  0
CLASS
  1
SYSTEM_VAR_STR
  2
AcImStrSysVar
  3
"ADAM"
 90
        0
280
     0
281
     0
  0
CLASS
  1
NAMEDAPPL
  2
AcAdNamedAppl
  3
"DesignerServices"
 90
        0
280
     0
281
     0
  0
CLASS
  1
ADPART
  2
AcAdPart
  3
"DesignerServices"
 90
        0
280
     0
281
     1
  0
CLASS
  1
ADBASE
  2
AcAdBase
  3
"DesignerServices"
 90
        0
280
     0
281
     0
  0
CLASS
  1
BODYID
  2
AcAdBodyId
  3
"DesignerServices"
 90
        0
280
     0
281
     0
  0
CLASS
  1
WORKPLANEDISPLAYMGR
  2
AcAdDisplayMgr
  3
"DesignerServices"
 90
        0
280
     0
281
     0
  0
CLASS
  1
ADHNTMPLT
  2
AdHoleNoteTemplateMgr
  3
"DesignerServices"
 90
        0
280
     0
281
     0
  0
CLASS
  1
AM_HNTEMPLATE_MGR_NAME
  2
AdHoleNoteTemplateMgrName
  3
"DesignerServices"
 90
        0
280
     0
281
     0
  0
CLASS
  1
AcAdGrefModule
  2
AcAdGrefModule
  3
AD_GREF_SERVICES_NSTR
 90
        0
280
     0
281
     0
  0
CLASS
  1
AM_DRAWING_MGR
  2
AcDmDwgMgr
  3
"Designer_Drawing_Mgmt"
 90
        0
280
     0
281
     0
  0
CLASS
  1
AM_DWG_DOCUMENT
  2
AcDmDwgDocument
  3
"Designer_Drawing_Mgmt"
 90
        0
280
     0
281
     0
  0
CLASS
  1
AM_DWG_SHEET
  2
AcDmSheet
  3
"Designer_Drawing_Mgmt"
 90
        0
280
     0
281
     0
  0
CLASS
  1
AM_VIEWDIMPARMAP
  2
AcDmViewDimParMap
  3
"Designer_Drawing_Mgmt"
 90
        0
280
     0
281
     0
  0
CLASS
  1
AM_DWGMGR_NAME
  2
AcDmDwgMgrName
  3
"Designer_Drawing_Mgmt"
 90
        0
280
     0
281
     0
  0
CLASS
  1
ACAMPROJECT
  2
AcAmProject
  3
"DesignerAssemblies"
 90
        0
280
     0
281
     0
  0
CLASS
  1
ACAMGRCOMPDEF
  2
AcAmGrCompDef
  3
"DesignerAssemblies"
 90
        0
280
     0
281
     0
  0
CLASS
  1
ACAMCOMPDEF
  2
AcAmCompDef
  3
"DesignerAssemblies"
 90
        0
280
     0
281
     0
  0
CLASS
  1
ACAMCOMPDEFMGR
  2
AcAmCompDefMgr
  3
"DesignerAssemblies"
 90
        0
280
     0
281
     0
  0
CLASS
  1
AMCONTEXTMGR
  2
AcAmContextMgr
  3
"DesignerAssemblies"
 90
        0
280
     0
281
     0
  0
CLASS
  1
AcAmContextModeler
  2
AcAmContextModeler
  3
"DesignerAssemblies"
 90
        0
280
     0
281
     0
  0
CLASS
  1
ACAMDRAWINGMAN
  2
AcAmDrawingMan
  3
"DesignerAssemblies"
 90
        0
280
     0
281
     0
  0
CLASS
  1
ASSYSVARS
  2
AcAsSysVars
  3
"AutoSurf"
 90
        0
280
     0
281
     0
  0
CLASS
  1
ASSTATICVARS
  2
AcAsStaticVars
  3
"AutoSurf"
 90
        0
280
     0
281
     0
  0
CLASS
  1
ASAPP
  2
AcAsAppObject
  3
"AutoSurf"
 90
        0
280
     0
281
     0
  0
CLASS
  1
AGDICTIONARY
  2
AgDictionary
  3
"AccelView"
 90
        1
280
     0
281
     0
  0
CLASS
  1
ACRFATTGENMGR
  2
AcRfAttGeneralMgr
  3
"AcadRfServer"
 90
        0
280
     0
281
     0
  0
ENDSEC
  0
SECTION
  2
TABLES
  0
TABLE
  2
VPORT
  5
8
100
AcDbSymbolTable
 70
     2
  0
VPORT
  5
EB6
100
AcDbSymbolTableRecord
100
AcDbViewportTableRecord
  2
*ACTIVE
 70
     0
 10
0.0
 20
0.0
 11
1.0
 21
1.0
 12
428.722359
 22
267.621963
 13
0.0
 23
0.0
 14
1.0
 24
1.0
 15
10.0
 25
10.0
 16
0.0
 26
0.0
 36
1.0
 17
0.0
 27
0.0
 37
0.0
 40
503.493925
 41
1.602094
 42
50.0
 43
0.0
 44
0.0
 50
0.0
 51
0.0
 71
     0
 72
   100
 73
     1
 74
     0
 75
     0
 76
     1
 77
     0
 78
     0
  0
ENDTAB
  0
TABLE
  2
LTYPE
  5
5
100
AcDbSymbolTable
 70
     6
  0
LTYPE
  5
14
100
AcDbSymbolTableRecord
100
AcDbLinetypeTableRecord
  2
BYBLOCK
 70
     0
  3

 72
    65
 73
     0
 40
0.0
  0
LTYPE
  5
15
100
AcDbSymbolTableRecord
100
AcDbLinetypeTableRecord
  2
BYLAYER
 70
     0
  3

 72
    65
 73
     0
 40
0.0
  0
LTYPE
  5
16
100
AcDbSymbolTableRecord
100
AcDbLinetypeTableRecord
  2
CONTINUOUS
 70
    64
  3
Solid line
 72
    65
 73
     0
 40
0.0
  0
LTYPE
  5
24
100
AcDbSymbolTableRecord
100
AcDbLinetypeTableRecord
  2
CENTER
 70
    64
  3
____ _ ____ _ ____ _ ____ _ ____ _ ____ _ ____ 
 72
    65
 73
     4
 40
2.0
 49
1.25
 74
     0
 49
-0.25
 74
     0
 49
0.25
 74
     0
 49
-0.25
 74
     0
  0
LTYPE
  5
26
100
AcDbSymbolTableRecord
100
AcDbLinetypeTableRecord
  2
HIDDEN
 70
    64
  3
__ __ __ __ __ __ __ __ __ __ __ __ __ __ __ __
 72
    65
 73
     2
 40
0.375
 49
0.25
 74
     0
 49
-0.125
 74
     0
  0
LTYPE
  5
972
100
AcDbSymbolTableRecord
100
AcDbLinetypeTableRecord
  2
PHANTOM2
 70
     0
  3
___ _ _ ___ _ _ ___ _ _ ___ _ _ ___ _ _ ___ _ _
 72
    65
 73
     6
 40
1.25
 49
0.625
 74
     0
 49
-0.125
 74
     0
 49
0.125
 74
     0
 49
-0.125
 74
     0
 49
0.125
 74
     0
 49
-0.125
 74
     0
  0
LTYPE
  5
99C
100
AcDbSymbolTableRecord
100
AcDbLinetypeTableRecord
  2
ASULTYPE
 70
     0
  3
Solid line
 72
    65
 73
     2
 40
3.0
 49
2.5
 74
     0
 49
0.5
 74
     0
  0
LTYPE
  5
99D
100
AcDbSymbolTableRecord
100
AcDbLinetypeTableRecord
  2
ASVLTYPE
 70
     0
  3
__ __ __ __ __ __ __ __ __ __ __ __ __ __ __ __ __ __ __ __ __
 72
    65
 73
     2
 40
0.75
 49
0.5
 74
     0
 49
-0.25
 74
     0
  0
ENDTAB
  0
TABLE
  2
LAYER
  5
2
100
AcDbSymbolTable
 70
    10
  0
LAYER
  5
F
100
AcDbSymbolTableRecord
100
AcDbLayerTableRecord
  2
0
 70
     0
 62
     7
  6
CONTINUOUS
  0
LAYER
  5
23
100
AcDbSymbolTableRecord
100
AcDbLayerTableRecord
  2
CENTER
 70
    64
 62
     1
  6
CENTER
  0
LAYER
  5
29
100
AcDbSymbolTableRecord
100
AcDbLayerTableRecord
  2
DIM
 70
    64
 62
     3
  6
CONTINUOUS
  0
LAYER
  5
2A
100
AcDbSymbolTableRecord
100
AcDbLayerTableRecord
  2
TEXT
 70
    64
 62
     7
  6
CONTINUOUS
  0
LAYER
  5
48
100
AcDbSymbolTableRecord
100
AcDbLayerTableRecord
  2
BEAMS-A
 70
    64
 62
     7
  6
CONTINUOUS
  0
LAYER
  5
6F
100
AcDbSymbolTableRecord
100
AcDbLayerTableRecord
  2
BORDER
 70
    64
 62
     6
  6
CONTINUOUS
  0
LAYER
  5
FC
100
AcDbSymbolTableRecord
100
AcDbLayerTableRecord
  2
DEFPOINTS
 70
    64
 62
     7
  6
CONTINUOUS
  0
LAYER
  5
6D0
100
AcDbSymbolTableRecord
100
AcDbLayerTableRecord
  2
KEVLAR
 70
    64
 62
     7
  6
CONTINUOUS
  0
LAYER
  5
B08
100
AcDbSymbolTableRecord
100
AcDbLayerTableRecord
  2
C-FIBER
 70
    64
 62
     5
  6
CONTINUOUS
  0
LAYER
  5
E3A
100
AcDbSymbolTableRecord
100
AcDbLayerTableRecord
  2
ASHADE
 70
    68
 62
     7
  6
CONTINUOUS
  0
ENDTAB
  0
TABLE
  2
STYLE
  5
3
100
AcDbSymbolTable
 70
     4
  0
STYLE
  5
10
100
AcDbSymbolTableRecord
100
AcDbTextStyleTableRecord
  2
STANDARD
 70
    64
 40
0.0
 41
1.0
 50
0.0
 71
     0
 42
3.0
  3
txt
  4

  0
STYLE
  5
28
100
AcDbSymbolTableRecord
100
AcDbTextStyleTableRecord
  2
CIM_TB
 70
    64
 40
0.0
 41
1.0
 50
0.0
 71
     0
 42
0.2
  3
romans
  4

  0
STYLE
  5
70
100
AcDbSymbolTableRecord
100
AcDbTextStyleTableRecord
  2
ADESK2
 70
    64
 40
0.0
 41
1.0
 50
0.0
 71
     0
 42
0.065
  3
romans
  4

  0
STYLE
  5
E37
100
AcDbSymbolTableRecord
100
AcDbTextStyleTableRecord
  2
ASHADE
 70
    64
 40
0.2
 41
1.0
 50
0.0
 71
     0
 42
3.0
  3
simplex
  4

  0
ENDTAB
  0
TABLE
  2
VIEW
  5
6
100
AcDbSymbolTable
 70
     0
  0
ENDTAB
  0
TABLE
  2
UCS
  5
7
100
AcDbSymbolTable
 70
     1
  0
UCS
  5
2D
100
AcDbSymbolTableRecord
100
AcDbUCSTableRecord
  2
CIM_TB_HOLD
 70
     0
 10
0.0
 20
0.0
 30
0.0
 11
1.0
 21
0.0
 31
0.0
 12
0.0
 22
1.0
 32
0.0
  0
ENDTAB
  0
TABLE
  2
APPID
  5
9
100
AcDbSymbolTable
 70
    11
  0
APPID
  5
11
100
AcDbSymbolTableRecord
100
AcDbRegAppTableRecord
  2
ACAD
 70
     0
  0
APPID
  5
22
100
AcDbSymbolTableRecord
100
AcDbRegAppTableRecord
  2
TB_S_MPD
 70
     0
  0
APPID
  5
97F
100
AcDbSymbolTableRecord
100
AcDbRegAppTableRecord
  2
AD_DRAW
 70
     0
  0
APPID
  5
997
100
AcDbSymbolTableRecord
100
AcDbRegAppTableRecord
  2
DESIGNERASSEMBLIES
 70
     0
  0
APPID
  5
998
100
AcDbSymbolTableRecord
100
AcDbRegAppTableRecord
  2
MCAD_NO_VIS
 70
     0
  0
APPID
  5
99E
100
AcDbSymbolTableRecord
100
AcDbRegAppTableRecord
  2
ASURF_PCURVE_APPNAME
 70
     0
  0
APPID
  5
E38
100
AcDbSymbolTableRecord
100
AcDbRegAppTableRecord
  2
AVE_RENDER
 70
     0
  0
APPID
  5
E39
100
AcDbSymbolTableRecord
100
AcDbRegAppTableRecord
  2
AVE_ENTITY_MATERIAL
 70
     0
  0
APPID
  5
E46
100
AcDbSymbolTableRecord
100
AcDbRegAppTableRecord
  2
AVE_FINISH
 70
     0
  0
APPID
  5
E47
100
AcDbSymbolTableRecord
100
AcDbRegAppTableRecord
  2
AVE_MATERIAL
 70
     0
  0
APPID
  5
E48
100
AcDbSymbolTableRecord
100
AcDbRegAppTableRecord
  2
AVE_GLOBAL
 70
     0
  0
ENDTAB
  0
TABLE
  2
DIMSTYLE
  5
A
100
AcDbSymbolTable
 70
     5
  0
DIMSTYLE
105
1D
100
AcDbSymbolTableRecord
100
AcDbDimStyleTableRecord
  2
STANDARD
 70
     0
  3

  4

  5

  6

  7

 40
1.0
 41
0.18
 42
0.0625
 43
0.38
 44
0.18
 45
0.0
 46
0.0
 47
0.0
 48
0.0
140
0.18
141
0.09
142
0.0
143
25.4
144
1.0
145
0.0
146
1.0
147
0.09
 71
     0
 72
     0
 73
     1
 74
     1
 75
     0
 76
     0
 77
     0
 78
     0
170
     0
171
     2
172
     0
173
     0
174
     0
175
     0
176
     0
177
     0
178
     0
270
     2
271
     3
272
     4
273
     2
274
     2
340
10
275
     0
280
     0
281
     0
282
     0
283
     1
284
     0
285
     0
286
     0
287
     0
288
     0
  0
DIMSTYLE
105
2B
100
AcDbSymbolTableRecord
100
AcDbDimStyleTableRecord
  2
STANDARD$4
 70
     0
  3

  4

  5

  6

  7

 40
1.0
 41
0.18
 42
0.0625
 43
0.38
 44
0.18
 45
0.0
 46
0.0
 47
0.0
 48
0.0
140
0.18
141
0.09
142
0.0
143
25.4
144
1.0
145
0.0
146
1.0
147
0.09
 71
     0
 72
     0
 73
     1
 74
     1
 75
     0
 76
     0
 77
     0
 78
     0
170
     0
171
     2
172
     0
173
     0
174
     0
175
     0
176
     0
177
     0
178
     0
270
     2
271
     4
272
     4
273
     2
274
     2
340
10
275
     0
280
     0
281
     0
282
     0
283
     1
284
     0
285
     0
286
     0
287
     3
288
     0
  0
DIMSTYLE
105
2C
100
AcDbSymbolTableRecord
100
AcDbDimStyleTableRecord
  2
STANDARD$3
 70
     0
  3

  4

  5

  6

  7

 40
1.0
 41
0.18
 42
0.0625
 43
0.38
 44
0.18
 45
0.0
 46
0.0
 47
0.0
 48
0.0
140
0.18
141
0.09
142
0.0
143
25.4
144
1.0
145
0.0
146
1.0
147
0.09
 71
     0
 72
     0
 73
     1
 74
     1
 75
     0
 76
     0
 77
     0
 78
     0
170
     0
171
     2
172
     0
173
     0
174
     0
175
     0
176
     0
177
     0
178
     0
270
     2
271
     4
272
     4
273
     2
274
     2
340
10
275
     0
280
     0
281
     0
282
     0
283
     1
284
     0
285
     0
286
     0
287
     3
288
     0
  0
DIMSTYLE
105
326
100
AcDbSymbolTableRecord
100
AcDbDimStyleTableRecord
  2
STANDARD$2
 70
     0
  3

  4
"
  5

  6

  7

 40
25.4
 41
0.18
 42
0.0625
 43
0.38
 44
0.18
 45
0.0
 46
0.0
 47
0.0
 48
0.0
140
0.18
141
0.09
142
0.0
143
0.03937
144
1.0
145
0.0
146
1.0
147
0.09
 71
     0
 72
     0
 73
     1
 74
     1
 75
     0
 76
     0
 77
     0
 78
     0
170
     1
171
     3
172
     0
173
     0
174
     0
175
     0
176
     0
177
     0
178
     0
270
     2
271
     2
272
     4
273
     2
274
     2
340
10
275
     0
280
     0
281
     0
282
     0
283
     1
284
     0
285
     0
286
     0
287
     0
288
     0
  0
DIMSTYLE
105
50C
100
AcDbSymbolTableRecord
100
AcDbDimStyleTableRecord
  2
SU1
 70
     0
  3

  4

  5

  6

  7

 40
1.0
 41
0.18
 42
0.0625
 43
0.38
 44
0.18
 45
0.0
 46
0.0
 47
0.001
 48
0.0
140
0.18
141
0.09
142
0.0
143
25.4
144
1.0
145
0.0
146
1.0
147
0.09
 71
     0
 72
     0
 73
     1
 74
     1
 75
     0
 76
     0
 77
     0
 78
     0
170
     0
171
     2
172
     0
173
     0
174
     0
175
     0
176
     0
177
     0
178
     0
270
     2
271
     3
272
     3
273
     2
274
     2
340
10
275
     0
280
     0
281
     0
282
     0
283
     1
284
     0
285
     0
286
     0
287
     0
288
     0
  0
ENDTAB
  0
TABLE
  2
BLOCK_RECORD
  5
1
100
AcDbSymbolTable
 70
    31
  0
BLOCK_RECORD
  5
1A
100
AcDbSymbolTableRecord
100
AcDbBlockTableRecord
  2
*MODEL_SPACE
  0
BLOCK_RECORD
  5
17
100
AcDbSymbolTableRecord
100
AcDbBlockTableRecord
  2
*PAPER_SPACE
  0
BLOCK_RECORD
  5
427
100
AcDbSymbolTableRecord
100
AcDbBlockTableRecord
  2
*D0
  0
BLOCK_RECORD
  5
6D1
100
AcDbSymbolTableRecord
100
AcDbBlockTableRecord
  2
D-BORDER
  0
BLOCK_RECORD
  5
98B
100
AcDbSymbolTableRecord
100
AcDbBlockTableRecord
  2
*U2
  0
BLOCK_RECORD
  5
AC7
100
AcDbSymbolTableRecord
100
AcDbBlockTableRecord
  2
*D3
  0
BLOCK_RECORD
  5
B7B
100
AcDbSymbolTableRecord
100
AcDbBlockTableRecord
  2
*D4
  0
BLOCK_RECORD
  5
B88
100
AcDbSymbolTableRecord
100
AcDbBlockTableRecord
  2
*D5
  0
BLOCK_RECORD
  5
B95
100
AcDbSymbolTableRecord
100
AcDbBlockTableRecord
  2
*D6
  0
BLOCK_RECORD
  5
BA2
100
AcDbSymbolTableRecord
100
AcDbBlockTableRecord
  2
*D7
  0
BLOCK_RECORD
  5
BDF
100
AcDbSymbolTableRecord
100
AcDbBlockTableRecord
  2
A$C368
  0
BLOCK_RECORD
  5
CF7
100
AcDbSymbolTableRecord
100
AcDbBlockTableRecord
  2
*D9
  0
BLOCK_RECORD
  5
D04
100
AcDbSymbolTableRecord
100
AcDbBlockTableRecord
  2
*D10
  0
BLOCK_RECORD
  5
D11
100
AcDbSymbolTableRecord
100
AcDbBlockTableRecord
  2
*D11
  0
BLOCK_RECORD
  5
D1E
100
AcDbSymbolTableRecord
100
AcDbBlockTableRecord
  2
*D12
  0
BLOCK_RECORD
  5
D2B
100
AcDbSymbolTableRecord
100
AcDbBlockTableRecord
  2
*D13
  0
BLOCK_RECORD
  5
D7B
100
AcDbSymbolTableRecord
100
AcDbBlockTableRecord
  2
*D14
  0
BLOCK_RECORD
  5
D88
100
AcDbSymbolTableRecord
100
AcDbBlockTableRecord
  2
*D15
  0
BLOCK_RECORD
  5
D95
100
AcDbSymbolTableRecord
100
AcDbBlockTableRecord
  2
*D16
  0
BLOCK_RECORD
  5
DA3
100
AcDbSymbolTableRecord
100
AcDbBlockTableRecord
  2
*D17
  0
BLOCK_RECORD
  5
DB0
100
AcDbSymbolTableRecord
100
AcDbBlockTableRecord
  2
*D18
  0
BLOCK_RECORD
  5
DBE
100
AcDbSymbolTableRecord
100
AcDbBlockTableRecord
  2
*D19
  0
BLOCK_RECORD
  5
DCC
100
AcDbSymbolTableRecord
100
AcDbBlockTableRecord
  2
*D20
  0
BLOCK_RECORD
  5
DDA
100
AcDbSymbolTableRecord
100
AcDbBlockTableRecord
  2
*D21
  0
BLOCK_RECORD
  5
DE8
100
AcDbSymbolTableRecord
100
AcDbBlockTableRecord
  2
*D22
  0
BLOCK_RECORD
  5
DF5
100
AcDbSymbolTableRecord
100
AcDbBlockTableRecord
  2
*D23
  0
BLOCK_RECORD
  5
E02
100
AcDbSymbolTableRecord
100
AcDbBlockTableRecord
  2
*D24
  0
BLOCK_RECORD
  5
E0F
100
AcDbSymbolTableRecord
100
AcDbBlockTableRecord
  2
*D25
  0
BLOCK_RECORD
  5
E1C
100
AcDbSymbolTableRecord
100
AcDbBlockTableRecord
  2
*D26
  0
BLOCK_RECORD
  5
E3B
100
AcDbSymbolTableRecord
100
AcDbBlockTableRecord
  2
AVE_RENDER
  0
BLOCK_RECORD
  5
E49
100
AcDbSymbolTableRecord
100
AcDbBlockTableRecord
  2
AVE_GLOBAL
  0
BLOCK_RECORD
  5
E62
100
AcDbSymbolTableRecord
100
AcDbBlockTableRecord
  2
*D29
  0
BLOCK_RECORD
  5
E92
100
AcDbSymbolTableRecord
100
AcDbBlockTableRecord
  2
*D30
  0
ENDTAB
  0
ENDSEC
  0
SECTION
  2
BLOCKS
  0
BLOCK
  5
1B
100
AcDbEntity
  8
0
100
AcDbBlockBegin
  2
*MODEL_SPACE
 70
     0
 10
0.0
 20
0.0
 30
0.0
  3
*MODEL_SPACE
  1

  0
ENDBLK
  5
1C
100
AcDbEntity
  8
0
100
AcDbBlockEnd
  0
BLOCK
  5
18
100
AcDbEntity
 67
     1
  8
0
100
AcDbBlockBegin
  2
*PAPER_SPACE
 70
     0
 10
0.0
 20
0.0
 30
0.0
  3
*PAPER_SPACE
  1

  0
ENDBLK
  5
19
100
AcDbEntity
 67
     1
  8
0
100
AcDbBlockEnd
  0
BLOCK
  5
ABD
100
AcDbEntity
  8
0
100
AcDbBlockBegin
  2
*D0
 70
    65
 10
0.0
 20
0.0
 30
0.0
  3
*D0
  1

  0
LINE
  5
ABE
100
AcDbEntity
  8
0
  6
BYBLOCK
 62
     0
100
AcDbLine
 10
501.096044
 20
284.23596
 30
0.0
 11
564.702036
 21
320.052038
 31
0.0
  0
LINE
  5
ABF
100
AcDbEntity
  8
0
  6
BYBLOCK
 62
     0
100
AcDbLine
 10
564.702036
 20
320.052038
 30
0.0
 11
569.274036
 21
320.052038
 31
0.0
  0
SOLID
  5
AC0
100
AcDbEntity
  8
0
  6
BYBLOCK
 62
     0
100
AcDbTrace
 10
500.722166
 20
284.899932
 30
0.0
 11
501.469922
 21
283.571988
 31
0.0
 12
497.11221
 22
281.992692
 32
0.0
 13
497.11221
 23
281.992692
 33
0.0
  0
MTEXT
  5
AC1
100
AcDbEntity
  8
0
  6
BYBLOCK
 62
     0
100
AcDbMText
 10
600.516036
 20
320.052038
 30
0.0
 40
4.572
 41
0.0
 71
     5
 72
     1
  1
\A1;{R2.00mm[R0.079"]}\P{7X}
  0
LINE
  5
AC2
100
AcDbEntity
  8
0
  6
BYBLOCK
 62
     0
100
AcDbLine
 10
493.083501
 20
281.011385
 30
0.0
 11
497.655501
 21
281.011385
 31
0.0
  0
LINE
  5
AC3
100
AcDbEntity
  8
0
  6
BYBLOCK
 62
     0
100
AcDbLine
 10
495.369501
 20
278.725385
 30
0.0
 11
495.369501
 21
283.297385
 31
0.0
  0
POINT
  5
AC4
100
AcDbEntity
  8
DEFPOINTS
  6
BYBLOCK
 62
     0
100
AcDbPoint
 10
497.11221
 20
281.992692
 30
0.0
  0
POINT
  5
AC5
100
AcDbEntity
  8
DEFPOINTS
  6
BYBLOCK
 62
     0
100
AcDbPoint
 10
495.369501
 20
281.011385
 30
0.0
  0
ENDBLK
  5
AC6
100
AcDbEntity
  8
0
100
AcDbBlockEnd
  0
BLOCK
  5
714
100
AcDbEntity
  8
TEXT
100
AcDbBlockBegin
  2
D-BORDER
 70
     0
 10
0.0
 20
0.0
 30
0.0
  3
D-BORDER
  1

  0
LINE
  5
6D2
100
AcDbEntity
  8
TEXT
100
AcDbLine
 10
1.0
 20
19.947595
 30
0.0
 11
3.5625
 21
19.947595
 31
0.0
  0
LINE
  5
6D3
100
AcDbEntity
  8
TEXT
100
AcDbLine
 10
3.5625
 20
19.947595
 30
0.0
 11
3.5625
 21
20.447595
 31
0.0
  0
CIRCLE
  5
6D4
100
AcDbEntity
  8
TEXT
100
AcDbCircle
 10
1.677871
 20
20.184056
 30
0.0
 40
0.1875
  0
CIRCLE
  5
6D5
100
AcDbEntity
  8
TEXT
100
AcDbCircle
 10
1.677871
 20
20.184056
 30
0.0
 40
0.09375
  0
LINE
  5
6D6
100
AcDbEntity
  8
TEXT
  6
CENTER
100
AcDbLine
 10
1.443951
 20
20.184056
 30
0.0
 11
2.896621
 21
20.184056
 31
0.0
  0
LINE
  5
6D7
100
AcDbEntity
  8
TEXT
  6
CENTER
100
AcDbLine
 10
1.677871
 20
19.955375
 30
0.0
 11
1.677871
 21
20.423251
 31
0.0
  0
LINE
  5
6D8
100
AcDbEntity
  8
TEXT
100
AcDbLine
 10
2.146621
 20
20.277806
 30
0.0
 11
2.631263
 21
20.371556
 31
0.0
  0
LINE
  5
6D9
100
AcDbEntity
  8
TEXT
100
AcDbLine
 10
2.146621
 20
20.090306
 30
0.0
 11
2.631263
 21
19.996556
 31
0.0
  0
LINE
  5
6DA
100
AcDbEntity
  8
TEXT
100
AcDbLine
 10
2.146621
 20
20.090306
 30
0.0
 11
2.146621
 21
20.277806
 31
0.0
  0
LINE
  5
6DB
100
AcDbEntity
  8
TEXT
100
AcDbLine
 10
2.631263
 20
20.371556
 30
0.0
 11
2.631263
 21
19.996556
 31
0.0
  0
TEXT
  5
6DC
100
AcDbEntity
  8
TEXT
100
AcDbText
 10
1.1875
 20
19.762423
 30
0.0
 40
0.1
  1
THIRD ANGLE PROJECTION
100
AcDbText
  0
LINE
  5
6DD
100
AcDbEntity
  8
TEXT
100
AcDbLine
 10
3.5625
 20
19.947595
 30
0.0
 11
3.5625
 21
19.697595
 31
0.0
  0
LINE
  5
6DE
100
AcDbEntity
  8
TEXT
100
AcDbLine
 10
3.5625
 20
19.697595
 30
0.0
 11
1.0
 21
19.697595
 31
0.0
  0
TEXT
  5
6DF
100
AcDbEntity
  8
TEXT
100
AcDbText
 10
31.135292
 20
0.744377
 30
0.0
 40
0.065
  1
OF
  7
ADESK2
100
AcDbText
  0
TEXT
  5
6E0
100
AcDbEntity
  8
TEXT
100
AcDbText
 10
27.375724
 20
1.474951
 30
0.0
 40
0.065
  1
DATE
  7
ADESK2
100
AcDbText
  0
LINE
  5
6E1
100
AcDbEntity
  8
TEXT
100
AcDbLine
 10
27.252305
 20
1.591501
 30
0.0
 11
27.252305
 21
0.625
 31
0.0
  0
TEXT
  5
6E2
100
AcDbEntity
  8
TEXT
100
AcDbText
 10
25.832321
 20
0.856501
 30
0.0
 40
0.065
  1
DESIGN
  7
ADESK2
100
AcDbText
  0
TEXT
  5
6E3
100
AcDbEntity
  8
TEXT
100
AcDbText
 10
25.832321
 20
1.171501
 30
0.0
 40
0.065
  1
CHECKED
  7
ADESK2
100
AcDbText
  0
LINE
  5
6E4
100
AcDbEntity
  8
TEXT
100
AcDbLine
 10
25.752321
 20
1.591501
 30
0.0
 11
27.752321
 21
1.591501
 31
0.0
  0
TEXT
  5
6E5
100
AcDbEntity
  8
TEXT
100
AcDbText
 10
31.234702
 20
19.965196
 30
0.0
 40
0.065
  1
APPROVED
  7
ADESK2
100
AcDbText
  0
TEXT
  5
6E6
100
AcDbEntity
  8
TEXT
100
AcDbText
 10
30.441002
 20
19.965196
 30
0.0
 40
0.065
  1
DATE
  7
ADESK2
100
AcDbText
  0
TEXT
  5
6E7
100
AcDbEntity
  8
TEXT
100
AcDbText
 10
28.375302
 20
19.965196
 30
0.0
 40
0.065
  1
DESCRIPTION
  7
ADESK2
100
AcDbText
  0
TEXT
  5
6E8
100
AcDbEntity
  8
TEXT
100
AcDbText
 10
27.073402
 20
19.965196
 30
0.0
 40
0.065
  1
REV
  7
ADESK2
100
AcDbText
  0
TEXT
  5
6E9
100
AcDbEntity
  8
TEXT
100
AcDbText
 10
29.203502
 20
20.207396
 30
0.0
 40
0.065
  1
REVISIONS
  7
ADESK2
100
AcDbText
  0
LINE
  5
6EA
100
AcDbEntity
  8
TEXT
100
AcDbLine
 10
30.993302
 20
19.874896
 30
0.0
 11
30.993302
 21
20.124896
 31
0.0
  0
LINE
  5
6EB
100
AcDbEntity
  8
TEXT
100
AcDbLine
 10
30.113302
 20
19.874896
 30
0.0
 11
30.113302
 21
20.124896
 31
0.0
  0
LINE
  5
6EC
100
AcDbEntity
  8
TEXT
100
AcDbLine
 10
27.373302
 20
19.874896
 30
0.0
 11
27.373302
 21
20.124896
 31
0.0
  0
LINE
  5
6ED
100
AcDbEntity
  8
TEXT
100
AcDbLine
 10
26.983049
 20
20.434959
 30
0.0
 11
26.983049
 21
19.874896
 31
0.0
  0
LINE
  5
6EE
100
AcDbEntity
  8
TEXT
100
AcDbLine
 10
26.983049
 20
19.874896
 30
0.0
 11
32.037356
 21
19.874896
 31
0.0
  0
LINE
  5
6EF
100
AcDbEntity
  8
TEXT
100
AcDbLine
 10
26.983049
 20
20.124896
 30
0.0
 11
32.037356
 21
20.124896
 31
0.0
  0
TEXT
  5
6F0
100
AcDbEntity
  8
TEXT
100
AcDbText
 10
31.702821
 20
1.167401
 30
0.0
 40
0.065
  1
REV
  7
ADESK2
100
AcDbText
  0
TEXT
  5
6F1
100
AcDbEntity
  8
TEXT
100
AcDbText
 10
29.323321
 20
1.167401
 30
0.0
 40
0.065
  1
DWG NO.
  7
ADESK2
100
AcDbText
  0
TEXT
  5
6F2
100
AcDbEntity
  8
TEXT
100
AcDbText
 10
27.840221
 20
1.167401
 30
0.0
 40
0.065
  1
SIZE
  7
ADESK2
100
AcDbText
  0
TEXT
  5
6F3
100
AcDbEntity
  8
TEXT
100
AcDbText
 10
30.305121
 20
0.744001
 30
0.0
 40
0.065
  1
SHEET
  7
ADESK2
100
AcDbText
  0
TEXT
  5
6F4
100
AcDbEntity
  8
TEXT
100
AcDbText
 10
27.804621
 20
0.744001
 30
0.0
 40
0.065
  1
SCALE
  7
ADESK2
100
AcDbText
  0
LINE
  5
6F5
100
AcDbEntity
  8
TEXT
100
AcDbLine
 10
31.622321
 20
0.901501
 30
0.0
 11
31.622321
 21
1.281501
 31
0.0
  0
LINE
  5
6F6
100
AcDbEntity
  8
TEXT
100
AcDbLine
 10
29.252321
 20
0.901501
 30
0.0
 11
29.252321
 21
1.281501
 31
0.0
  0
LINE
  5
6F7
100
AcDbEntity
  8
TEXT
100
AcDbLine
 10
28.132321
 20
0.901501
 30
0.0
 11
28.132321
 21
1.281501
 31
0.0
  0
LINE
  5
6F8
100
AcDbEntity
  8
TEXT
100
AcDbLine
 10
30.252321
 20
0.625
 30
0.0
 11
30.252321
 21
0.901501
 31
0.0
  0
LINE
  5
6F9
100
AcDbEntity
  8
TEXT
100
AcDbLine
 10
28.752321
 20
0.625
 30
0.0
 11
28.752321
 21
0.901501
 31
0.0
  0
LINE
  5
6FA
100
AcDbEntity
  8
BORDER
100
AcDbLine
 10
27.752321
 20
0.625
 30
0.0
 11
27.752321
 21
2.401501
 31
0.0
  0
LINE
  5
6FB
100
AcDbEntity
  8
BORDER
100
AcDbLine
 10
27.752321
 20
1.901501
 30
0.0
 11
32.024118
 21
1.901501
 31
0.0
  0
LINE
  5
6FC
100
AcDbEntity
  8
TEXT
100
AcDbLine
 10
27.752321
 20
0.901501
 30
0.0
 11
32.024118
 21
0.901501
 31
0.0
  0
LINE
  5
6FD
100
AcDbEntity
  8
TEXT
100
AcDbLine
 10
25.752321
 20
1.281501
 30
0.0
 11
32.024118
 21
1.281501
 31
0.0
  0
LINE
  5
6FE
100
AcDbEntity
  8
TEXT
100
AcDbLine
 10
25.752321
 20
0.966501
 30
0.0
 11
27.752321
 21
0.966501
 31
0.0
  0
LINE
  5
6FF
100
AcDbEntity
  8
BORDER
100
AcDbLine
 10
25.752321
 20
2.401501
 30
0.0
 11
32.024118
 21
2.401501
 31
0.0
  0
LINE
  5
700
100
AcDbEntity
  8
BORDER
100
AcDbLine
 10
25.752321
 20
0.625
 30
0.0
 11
25.752321
 21
2.824147
 31
0.0
  0
TEXT
  5
701
100
AcDbEntity
  8
TEXT
100
AcDbText
 10
25.820631
 20
1.479964
 30
0.0
 40
0.065
  1
DRAWN
  7
ADESK2
100
AcDbText
  0
TEXT
  5
702
100
AcDbEntity
  8
BORDER
100
AcDbText
 10
25.930285
 20
2.549228
 30
0.0
 40
0.15
  1
UNIVERSITY OF CALIFORNIA @ SANTA BARBARA
100
AcDbText
  0
LINE
  5
703
100
AcDbEntity
  8
BORDER
100
AcDbLine
 10
25.75128
 20
2.824147
 30
0.0
 11
32.024118
 21
2.824147
 31
0.0
  0
LINE
  5
704
100
AcDbEntity
  8
BORDER
100
AcDbLine
 10
32.04642
 20
0.625
 30
0.0
 11
32.04642
 21
20.447595
 31
0.0
  0
LINE
  5
705
100
AcDbEntity
  8
BORDER
100
AcDbLine
 10
1.0
 20
20.447595
 30
0.0
 11
1.0
 21
0.625
 31
0.0
  0
LINE
  5
706
100
AcDbEntity
  8
BORDER
100
AcDbLine
 10
1.0
 20
0.625
 30
0.0
 11
32.04642
 21
0.625
 31
0.0
  0
TEXT
  5
707
100
AcDbEntity
  8
TEXT
100
AcDbText
 10
28.203393
 20
1.165354
 30
0.0
 40
0.075
  1
DIRECTORY
100
AcDbText
  0
LINE
  5
708
100
AcDbEntity
  8
BORDER
100
AcDbLine
 10
1.0
 20
20.447595
 30
0.0
 11
32.04642
 21
20.447595
 31
0.0
  0
TEXT
  5
709
100
AcDbEntity
  8
BORDER
100
AcDbText
 10
28.439864
 20
2.075566
 30
0.0
 40
0.15
  1
HIGH ENERGY PHYSICS
100
AcDbText
  0
TEXT
  5
70A
100
AcDbEntity
  8
BORDER
100
AcDbText
 10
27.876167
 20
0.934778
 30
0.0
 40
0.2
  1
D
100
AcDbText
  0
TEXT
  5
70B
100
AcDbEntity
  8
TEXT
100
AcDbText
 10
25.981606
 20
2.285089
 30
0.0
 40
0.065
  1
UNLESS OTHERWISE SPECIFIED:
  7
ADESK2
 72
     1
 11
26.752321
 21
2.285089
 31
0.0
100
AcDbText
  0
TEXT
  5
70C
100
AcDbEntity
  8
TEXT
100
AcDbText
 10
26.055892
 20
2.179851
 30
0.0
 40
0.065
  1
DIMENSIONS ARE IN INCHES
  7
ADESK2
 72
     1
 11
26.752321
 21
2.179851
 31
0.0
100
AcDbText
  0
TEXT
  5
70D
100
AcDbEntity
  8
TEXT
100
AcDbText
 10
26.45363
 20
2.074613
 30
0.0
 40
0.065
  1
TOLERANCES
  7
ADESK2
 72
     1
 11
26.752321
 21
2.074613
 31
0.0
100
AcDbText
  0
TEXT
  5
70E
100
AcDbEntity
  8
TEXT
100
AcDbText
 10
26.067279
 20
1.966743
 30
0.0
 40
0.065
  1
DECIMALS
  7
ADESK2
100
AcDbText
  0
TEXT
  5
70F
100
AcDbEntity
  8
TEXT
100
AcDbText
 10
26.067279
 20
1.861505
 30
0.0
 40
0.065
  1
.XX  %%P .05
  7
ADESK2
100
AcDbText
  0
TEXT
  5
710
100
AcDbEntity
  8
TEXT
100
AcDbText
 10
26.067279
 20
1.756267
 30
0.0
 40
0.065
  1
.XXX %%P .005
  7
ADESK2
100
AcDbText
  0
TEXT
  5
711
100
AcDbEntity
  8
TEXT
100
AcDbText
 10
26.137916
 20
1.653744
 30
0.0
 40
0.065
  1
DO NOT SCALE DRAWING
  7
ADESK2
 72
     1
 11
26.752321
 21
1.653744
 31
0.0
100
AcDbText
  0
TEXT
  5
712
100
AcDbEntity
  8
TEXT
100
AcDbText
 10
26.931176
 20
1.966743
 30
0.0
 40
0.065
  1
ANGULAR
  7
ADESK2
100
AcDbText
  0
TEXT
  5
713
100
AcDbEntity
  8
TEXT
100
AcDbText
 10
26.931176
 20
1.861505
 30
0.0
 40
0.065
  1
  %%P 0.5%%D
  7
ADESK2
100
AcDbText
  0
ENDBLK
  5
715
100
AcDbEntity
  8
TEXT
100
AcDbBlockEnd
  0
BLOCK
  5
98C
100
AcDbEntity
  8
DIM
100
AcDbBlockBegin
  2
*U2
 70
     1
 10
0.0
 20
0.0
 30
0.0
  3
*U2
  1

  0
ENDBLK
  5
98D
100
AcDbEntity
  8
DIM
100
AcDbBlockEnd
  0
BLOCK
  5
E9F
100
AcDbEntity
  8
0
100
AcDbBlockBegin
  2
*D3
 70
    65
 10
0.0
 20
0.0
 30
0.0
  3
*D3
  1

  0
LINE
  5
EA0
100
AcDbEntity
  8
0
  6
BYBLOCK
 62
     0
100
AcDbLine
 10
272.089416
 20
239.816578
 30
0.0
 11
304.304606
 21
221.105806
 31
0.0
  0
LINE
  5
EA1
100
AcDbEntity
  8
0
  6
BYBLOCK
 62
     0
100
AcDbLine
 10
304.304606
 20
221.105806
 30
0.0
 11
308.876606
 21
221.105806
 31
0.0
  0
SOLID
  5
EA2
100
AcDbEntity
  8
0
  6
BYBLOCK
 62
     0
100
AcDbTrace
 10
272.472122
 20
240.475501
 30
0.0
 11
271.706709
 21
239.157655
 31
0.0
 12
268.135877
 22
242.112817
 32
0.0
 13
268.135877
 23
242.112817
 33
0.0
  0
MTEXT
  5
EA3
100
AcDbEntity
  8
0
  6
BYBLOCK
 62
     0
100
AcDbMText
 10
365.254344
 20
219.120183
 30
0.0
 40
4.572
 41
0.0
 71
     5
 72
     1
  1
\A1;{\U+22052.38mm±0.03mm[\U+22050.094"±0.001"]}\P{2X}
  0
LINE
  5
EA4
100
AcDbEntity
  8
0
  6
BYBLOCK
 62
     0
100
AcDbLine
 10
264.819769
 20
242.711109
 30
0.0
 11
269.391769
 21
242.711109
 31
0.0
  0
LINE
  5
EA5
100
AcDbEntity
  8
0
  6
BYBLOCK
 62
     0
100
AcDbLine
 10
267.105769
 20
240.425109
 30
0.0
 11
267.105769
 21
244.997109
 31
0.0
  0
POINT
  5
EA6
100
AcDbEntity
  8
DEFPOINTS
  6
BYBLOCK
 62
     0
100
AcDbPoint
 10
268.135877
 20
242.112817
 30
0.0
  0
POINT
  5
EA7
100
AcDbEntity
  8
DEFPOINTS
  6
BYBLOCK
 62
     0
100
AcDbPoint
 10
266.075661
 20
243.309402
 30
0.0
  0
ENDBLK
  5
EA8
100
AcDbEntity
  8
0
100
AcDbBlockEnd
  0
BLOCK
  5
BAF
100
AcDbEntity
  8
0
100
AcDbBlockBegin
  2
*D4
 70
    65
 10
0.0
 20
0.0
 30
0.0
  3
*D4
  1

  0
LINE
  5
BB0
100
AcDbEntity
  8
0
  6
BYBLOCK
 62
     0
100
AcDbLine
 10
687.24694
 20
342.058092
 30
0.0
 11
653.869367
 21
342.058092
 31
0.0
  0
LINE
  5
BB1
100
AcDbEntity
  8
0
  6
BYBLOCK
 62
     0
100
AcDbLine
 10
688.77094
 20
312.058092
 30
0.0
 11
653.869367
 21
312.058092
 31
0.0
  0
LINE
  5
BB2
100
AcDbEntity
  8
0
  6
BYBLOCK
 62
     0
100
AcDbLine
 10
658.441367
 20
337.486092
 30
0.0
 11
658.441367
 21
331.630092
 31
0.0
  0
LINE
  5
BB3
100
AcDbEntity
  8
0
  6
BYBLOCK
 62
     0
100
AcDbLine
 10
658.441367
 20
316.630092
 30
0.0
 11
658.441367
 21
322.486092
 31
0.0
  0
SOLID
  5
BB4
100
AcDbEntity
  8
0
  6
BYBLOCK
 62
     0
100
AcDbTrace
 10
657.679367
 20
337.486092
 30
0.0
 11
659.203367
 21
337.486092
 31
0.0
 12
658.441367
 22
342.058092
 32
0.0
 13
658.441367
 23
342.058092
 33
0.0
  0
SOLID
  5
BB5
100
AcDbEntity
  8
0
  6
BYBLOCK
 62
     0
100
AcDbTrace
 10
657.679367
 20
316.630092
 30
0.0
 11
659.203367
 21
316.630092
 31
0.0
 12
658.441367
 22
312.058092
 32
0.0
 13
658.441367
 23
312.058092
 33
0.0
  0
MTEXT
  5
BB6
100
AcDbEntity
  8
0
  6
BYBLOCK
 62
     0
100
AcDbMText
 10
658.441367
 20
327.058092
 30
0.0
 40
4.572
 41
0.0
 71
     5
 72
     1
  1
\A1;3.00mm[0.118"]
  0
POINT
  5
BB7
100
AcDbEntity
  8
DEFPOINTS
  6
BYBLOCK
 62
     0
100
AcDbPoint
 10
688.83444
 20
342.058092
 30
0.0
  0
POINT
  5
BB8
100
AcDbEntity
  8
DEFPOINTS
  6
BYBLOCK
 62
     0
100
AcDbPoint
 10
690.35844
 20
312.058092
 30
0.0
  0
POINT
  5
BB9
100
AcDbEntity
  8
DEFPOINTS
  6
BYBLOCK
 62
     0
100
AcDbPoint
 10
658.441367
 20
312.058092
 30
0.0
  0
ENDBLK
  5
BBA
100
AcDbEntity
  8
0
100
AcDbBlockEnd
  0
BLOCK
  5
BBB
100
AcDbEntity
  8
0
100
AcDbBlockBegin
  2
*D5
 70
    65
 10
0.0
 20
0.0
 30
0.0
  3
*D5
  1

  0
LINE
  5
BBC
100
AcDbEntity
  8
0
  6
BYBLOCK
 62
     0
100
AcDbLine
 10
690.35844
 20
413.645592
 30
0.0
 11
690.35844
 21
451.038096
 31
0.0
  0
LINE
  5
BBD
100
AcDbEntity
  8
0
  6
BYBLOCK
 62
     0
100
AcDbLine
 10
688.83444
 20
413.645592
 30
0.0
 11
688.83444
 21
451.038096
 31
0.0
  0
LINE
  5
BBE
100
AcDbEntity
  8
0
  6
BYBLOCK
 62
     0
100
AcDbLine
 10
694.93044
 20
446.466096
 30
0.0
 11
699.50244
 21
446.466096
 31
0.0
  0
LINE
  5
BBF
100
AcDbEntity
  8
0
  6
BYBLOCK
 62
     0
100
AcDbLine
 10
684.26244
 20
446.466096
 30
0.0
 11
679.69044
 21
446.466096
 31
0.0
  0
SOLID
  5
BC0
100
AcDbEntity
  8
0
  6
BYBLOCK
 62
     0
100
AcDbTrace
 10
694.93044
 20
447.228096
 30
0.0
 11
694.93044
 21
445.704096
 31
0.0
 12
690.35844
 22
446.466096
 32
0.0
 13
690.35844
 23
446.466096
 33
0.0
  0
SOLID
  5
BC1
100
AcDbEntity
  8
0
  6
BYBLOCK
 62
     0
100
AcDbTrace
 10
684.26244
 20
447.228096
 30
0.0
 11
684.26244
 21
445.704096
 31
0.0
 12
688.83444
 22
446.466096
 32
0.0
 13
688.83444
 23
446.466096
 33
0.0
  0
MTEXT
  5
BC2
100
AcDbEntity
  8
0
  6
BYBLOCK
 62
     0
100
AcDbMText
 10
628.25544
 20
446.466096
 30
0.0
 40
4.572
 41
0.0
 71
     5
 72
     1
  1
\A1;0.15mm±0.03mm[0.006"±0.001"]
  0
POINT
  5
BC3
100
AcDbEntity
  8
DEFPOINTS
  6
BYBLOCK
 62
     0
100
AcDbPoint
 10
690.35844
 20
412.058092
 30
0.0
  0
POINT
  5
BC4
100
AcDbEntity
  8
DEFPOINTS
  6
BYBLOCK
 62
     0
100
AcDbPoint
 10
688.83444
 20
412.058092
 30
0.0
  0
POINT
  5
BC5
100
AcDbEntity
  8
DEFPOINTS
  6
BYBLOCK
 62
     0
100
AcDbPoint
 10
688.83444
 20
446.466096
 30
0.0
  0
ENDBLK
  5
BC6
100
AcDbEntity
  8
0
100
AcDbBlockEnd
  0
BLOCK
  5
BC7
100
AcDbEntity
  8
0
100
AcDbBlockBegin
  2
*D6
 70
    65
 10
0.0
 20
0.0
 30
0.0
  3
*D6
  1

  0
LINE
  5
BC8
100
AcDbEntity
  8
0
  6
BYBLOCK
 62
     0
100
AcDbLine
 10
692.39044
 20
413.645592
 30
0.0
 11
692.39044
 21
438.336622
 31
0.0
  0
LINE
  5
BC9
100
AcDbEntity
  8
0
  6
BYBLOCK
 62
     0
100
AcDbLine
 10
693.91444
 20
413.645592
 30
0.0
 11
693.91444
 21
438.336622
 31
0.0
  0
LINE
  5
BCA
100
AcDbEntity
  8
0
  6
BYBLOCK
 62
     0
100
AcDbLine
 10
687.81844
 20
433.764622
 30
0.0
 11
683.24644
 21
433.764622
 31
0.0
  0
LINE
  5
BCB
100
AcDbEntity
  8
0
  6
BYBLOCK
 62
     0
100
AcDbLine
 10
698.48644
 20
433.764622
 30
0.0
 11
703.05844
 21
433.764622
 31
0.0
  0
SOLID
  5
BCC
100
AcDbEntity
  8
0
  6
BYBLOCK
 62
     0
100
AcDbTrace
 10
687.81844
 20
434.526622
 30
0.0
 11
687.81844
 21
433.002622
 31
0.0
 12
692.39044
 22
433.764622
 32
0.0
 13
692.39044
 23
433.764622
 33
0.0
  0
SOLID
  5
BCD
100
AcDbEntity
  8
0
  6
BYBLOCK
 62
     0
100
AcDbTrace
 10
698.48644
 20
434.526622
 30
0.0
 11
698.48644
 21
433.002622
 31
0.0
 12
693.91444
 22
433.764622
 32
0.0
 13
693.91444
 23
433.764622
 33
0.0
  0
MTEXT
  5
BCE
100
AcDbEntity
  8
0
  6
BYBLOCK
 62
     0
100
AcDbMText
 10
754.49344
 20
433.764622
 30
0.0
 40
4.572
 41
0.0
 71
     5
 72
     1
  1
\A1;0.15mm±0.03mm[0.006"±0.001"]
  0
POINT
  5
BCF
100
AcDbEntity
  8
DEFPOINTS
  6
BYBLOCK
 62
     0
100
AcDbPoint
 10
692.39044
 20
412.058092
 30
0.0
  0
POINT
  5
BD0
100
AcDbEntity
  8
DEFPOINTS
  6
BYBLOCK
 62
     0
100
AcDbPoint
 10
693.91444
 20
412.058092
 30
0.0
  0
POINT
  5
BD1
100
AcDbEntity
  8
DEFPOINTS
  6
BYBLOCK
 62
     0
100
AcDbPoint
 10
693.91444
 20
433.764622
 30
0.0
  0
ENDBLK
  5
BD2
100
AcDbEntity
  8
0
100
AcDbBlockEnd
  0
BLOCK
  5
BD3
100
AcDbEntity
  8
0
100
AcDbBlockBegin
  2
*D7
 70
    65
 10
0.0
 20
0.0
 30
0.0
  3
*D7
  1

  0
LINE
  5
BD4
100
AcDbEntity
  8
0
  6
BYBLOCK
 62
     0
100
AcDbLine
 10
688.83444
 20
413.645592
 30
0.0
 11
688.83444
 21
426.020042
 31
0.0
  0
LINE
  5
BD5
100
AcDbEntity
  8
0
  6
BYBLOCK
 62
     0
100
AcDbLine
 10
693.91444
 20
413.645592
 30
0.0
 11
693.91444
 21
426.020042
 31
0.0
  0
LINE
  5
BD6
100
AcDbEntity
  8
0
  6
BYBLOCK
 62
     0
100
AcDbLine
 10
684.26244
 20
421.448042
 30
0.0
 11
679.69044
 21
421.448042
 31
0.0
  0
LINE
  5
BD7
100
AcDbEntity
  8
0
  6
BYBLOCK
 62
     0
100
AcDbLine
 10
698.48644
 20
421.448042
 30
0.0
 11
703.05844
 21
421.448042
 31
0.0
  0
SOLID
  5
BD8
100
AcDbEntity
  8
0
  6
BYBLOCK
 62
     0
100
AcDbTrace
 10
684.26244
 20
422.210042
 30
0.0
 11
684.26244
 21
420.686042
 31
0.0
 12
688.83444
 22
421.448042
 32
0.0
 13
688.83444
 23
421.448042
 33
0.0
  0
SOLID
  5
BD9
100
AcDbEntity
  8
0
  6
BYBLOCK
 62
     0
100
AcDbTrace
 10
698.48644
 20
422.210042
 30
0.0
 11
698.48644
 21
420.686042
 31
0.0
 12
693.91444
 22
421.448042
 32
0.0
 13
693.91444
 23
421.448042
 33
0.0
  0
MTEXT
  5
BDA
100
AcDbEntity
  8
0
  6
BYBLOCK
 62
     0
100
AcDbMText
 10
754.49344
 20
421.448042
 30
0.0
 40
4.572
 41
0.0
 71
     5
 72
     1
  1
\A1;0.51mm±0.03mm[0.020"±0.001"]
  0
POINT
  5
BDB
100
AcDbEntity
  8
DEFPOINTS
  6
BYBLOCK
 62
     0
100
AcDbPoint
 10
688.83444
 20
412.058092
 30
0.0
  0
POINT
  5
BDC
100
AcDbEntity
  8
DEFPOINTS
  6
BYBLOCK
 62
     0
100
AcDbPoint
 10
693.91444
 20
412.058092
 30
0.0
  0
POINT
  5
BDD
100
AcDbEntity
  8
DEFPOINTS
  6
BYBLOCK
 62
     0
100
AcDbPoint
 10
693.91444
 20
421.448042
 30
0.0
  0
ENDBLK
  5
BDE
100
AcDbEntity
  8
0
100
AcDbBlockEnd
  0
BLOCK
  5
BE5
100
AcDbEntity
  8
TEXT
100
AcDbBlockBegin
  2
A$C368
 70
     0
 10
0.0
 20
0.0
 30
0.0
  3
A$C368
  1

  0
TEXT
  5
BE0
100
AcDbEntity
  8
TEXT
100
AcDbText
 10
0.177246
 20
6.39265
 30
0.0
 40
2.0
  1
02
100
AcDbText
  0
TEXT
  5
BE1
100
AcDbEntity
  8
TEXT
100
AcDbText
 10
9.177246
 20
6.39265
 30
0.0
 40
2.0
  1
CHANGE LOCATION OF LOCATING HOLES
100
AcDbText
  0
TEXT
  5
BE2
100
AcDbEntity
  8
TEXT
100
AcDbText
 10
81.062803
 20
6.39265
 30
0.0
 40
2.0
  1
01-07-97
100
AcDbText
  0
TEXT
  5
BE3
100
AcDbEntity
  8
TEXT
100
AcDbText
 10
9.177246
 20
3.090417
 30
0.0
 40
2.0
  1
CHANGE MATERIAL TO CARBON-FIBER -
100
AcDbText
  0
TEXT
  5
BE4
100
AcDbEntity
  8
TEXT
100
AcDbText
 10
9.177246
 20
0.042202
 30
0.0
 40
2.0
  1
KEVLAR COMPOSITE
100
AcDbText
  0
ENDBLK
  5
BE6
100
AcDbEntity
  8
TEXT
100
AcDbBlockEnd
  0
BLOCK
  5
D64
100
AcDbEntity
  8
0
100
AcDbBlockBegin
  2
*D9
 70
    65
 10
0.0
 20
0.0
 30
0.0
  3
*D9
  1

  0
LINE
  5
D65
100
AcDbEntity
  8
0
  6
BYBLOCK
 62
     0
100
AcDbLine
 10
319.444236
 20
265.436836
 30
0.0
 11
319.444236
 21
386.870989
 31
0.0
  0
LINE
  5
D66
100
AcDbEntity
  8
0
  6
BYBLOCK
 62
     0
100
AcDbLine
 10
324.016236
 20
382.298989
 30
0.0
 11
328.588236
 21
382.298989
 31
0.0
  0
LINE
  5
D67
100
AcDbEntity
  8
0
  6
BYBLOCK
 62
     0
100
AcDbLine
 10
262.533769
 20
382.298989
 30
0.0
 11
257.961769
 21
382.298989
 31
0.0
  0
SOLID
  5
D68
100
AcDbEntity
  8
0
  6
BYBLOCK
 62
     0
100
AcDbTrace
 10
324.016236
 20
383.060989
 30
0.0
 11
324.016236
 21
381.536989
 31
0.0
 12
319.444236
 22
382.298989
 32
0.0
 13
319.444236
 23
382.298989
 33
0.0
  0
SOLID
  5
D69
100
AcDbEntity
  8
0
  6
BYBLOCK
 62
     0
100
AcDbTrace
 10
262.533769
 20
383.060989
 30
0.0
 11
262.533769
 21
381.536989
 31
0.0
 12
267.105769
 22
382.298989
 32
0.0
 13
267.105769
 23
382.298989
 33
0.0
  0
MTEXT
  5
D6A
100
AcDbEntity
  8
0
  6
BYBLOCK
 62
     0
100
AcDbMText
 10
228.624769
 20
382.298989
 30
0.0
 40
4.572
 41
0.0
 71
     5
 72
     1
  1
\A1;52.34mm[2.061"]
  0
POINT
  5
D6B
100
AcDbEntity
  8
DEFPOINTS
  6
BYBLOCK
 62
     0
100
AcDbPoint
 10
319.444236
 20
263.849336
 30
0.0
  0
POINT
  5
D6C
100
AcDbEntity
  8
DEFPOINTS
  6
BYBLOCK
 62
     0
100
AcDbPoint
 10
267.105769
 20
478.868715
 30
0.0
  0
POINT
  5
D6D
100
AcDbEntity
  8
DEFPOINTS
  6
BYBLOCK
 62
     0
100
AcDbPoint
 10
267.105769
 20
382.298989
 30
0.0
  0
ENDBLK
  5
D6E
100
AcDbEntity
  8
0
100
AcDbBlockEnd
  0
BLOCK
  5
D59
100
AcDbEntity
  8
0
100
AcDbBlockBegin
  2
*D10
 70
    65
 10
0.0
 20
0.0
 30
0.0
  3
*D10
  1

  0
LINE
  5
D5A
100
AcDbEntity
  8
0
  6
BYBLOCK
 62
     0
100
AcDbLine
 10
369.621719
 20
265.436836
 30
0.0
 11
369.621719
 21
403.633104
 31
0.0
  0
LINE
  5
D5B
100
AcDbEntity
  8
0
  6
BYBLOCK
 62
     0
100
AcDbLine
 10
365.049719
 20
399.061104
 30
0.0
 11
349.605744
 21
399.061104
 31
0.0
  0
LINE
  5
D5C
100
AcDbEntity
  8
0
  6
BYBLOCK
 62
     0
100
AcDbLine
 10
271.677769
 20
399.061104
 30
0.0
 11
287.121744
 21
399.061104
 31
0.0
  0
SOLID
  5
D5D
100
AcDbEntity
  8
0
  6
BYBLOCK
 62
     0
100
AcDbTrace
 10
365.049719
 20
399.823104
 30
0.0
 11
365.049719
 21
398.299104
 31
0.0
 12
369.621719
 22
399.061104
 32
0.0
 13
369.621719
 23
399.061104
 33
0.0
  0
SOLID
  5
D5E
100
AcDbEntity
  8
0
  6
BYBLOCK
 62
     0
100
AcDbTrace
 10
271.677769
 20
399.823104
 30
0.0
 11
271.677769
 21
398.299104
 31
0.0
 12
267.105769
 22
399.061104
 32
0.0
 13
267.105769
 23
399.061104
 33
0.0
  0
MTEXT
  5
D5F
100
AcDbEntity
  8
0
  6
BYBLOCK
 62
     0
100
AcDbMText
 10
318.363744
 20
399.061104
 30
0.0
 40
4.572
 41
0.0
 71
     5
 72
     1
  1
\A1;102.52mm[4.036"]
  0
POINT
  5
D60
100
AcDbEntity
  8
DEFPOINTS
  6
BYBLOCK
 62
     0
100
AcDbPoint
 10
369.621719
 20
263.849336
 30
0.0
  0
POINT
  5
D61
100
AcDbEntity
  8
DEFPOINTS
  6
BYBLOCK
 62
     0
100
AcDbPoint
 10
267.105769
 20
478.868715
 30
0.0
  0
POINT
  5
D62
100
AcDbEntity
  8
DEFPOINTS
  6
BYBLOCK
 62
     0
100
AcDbPoint
 10
267.105769
 20
399.061104
 30
0.0
  0
ENDBLK
  5
D63
100
AcDbEntity
  8
0
100
AcDbBlockEnd
  0
BLOCK
  5
D4E
100
AcDbEntity
  8
0
100
AcDbBlockBegin
  2
*D11
 70
    65
 10
0.0
 20
0.0
 30
0.0
  3
*D11
  1

  0
LINE
  5
D4F
100
AcDbEntity
  8
0
  6
BYBLOCK
 62
     0
100
AcDbLine
 10
373.621719
 20
265.436836
 30
0.0
 11
373.621719
 21
415.157057
 31
0.0
  0
LINE
  5
D50
100
AcDbEntity
  8
0
  6
BYBLOCK
 62
     0
100
AcDbLine
 10
369.049719
 20
410.585057
 30
0.0
 11
351.224744
 21
410.585057
 31
0.0
  0
LINE
  5
D51
100
AcDbEntity
  8
0
  6
BYBLOCK
 62
     0
100
AcDbLine
 10
271.677769
 20
410.585057
 30
0.0
 11
289.502744
 21
410.585057
 31
0.0
  0
SOLID
  5
D52
100
AcDbEntity
  8
0
  6
BYBLOCK
 62
     0
100
AcDbTrace
 10
369.049719
 20
411.347057
 30
0.0
 11
369.049719
 21
409.823057
 31
0.0
 12
373.621719
 22
410.585057
 32
0.0
 13
373.621719
 23
410.585057
 33
0.0
  0
SOLID
  5
D53
100
AcDbEntity
  8
0
  6
BYBLOCK
 62
     0
100
AcDbTrace
 10
271.677769
 20
411.347057
 30
0.0
 11
271.677769
 21
409.823057
 31
0.0
 12
267.105769
 22
410.585057
 32
0.0
 13
267.105769
 23
410.585057
 33
0.0
  0
MTEXT
  5
D54
100
AcDbEntity
  8
0
  6
BYBLOCK
 62
     0
100
AcDbMText
 10
320.363744
 20
410.585057
 30
0.0
 40
4.572
 41
0.0
 71
     5
 72
     1
  1
\A1;106.52mm[4.194"]
  0
POINT
  5
D55
100
AcDbEntity
  8
DEFPOINTS
  6
BYBLOCK
 62
     0
100
AcDbPoint
 10
373.621719
 20
263.849336
 30
0.0
  0
POINT
  5
D56
100
AcDbEntity
  8
DEFPOINTS
  6
BYBLOCK
 62
     0
100
AcDbPoint
 10
267.105769
 20
478.868715
 30
0.0
  0
POINT
  5
D57
100
AcDbEntity
  8
DEFPOINTS
  6
BYBLOCK
 62
     0
100
AcDbPoint
 10
267.105769
 20
410.585057
 30
0.0
  0
ENDBLK
  5
D58
100
AcDbEntity
  8
0
100
AcDbBlockEnd
  0
BLOCK
  5
D43
100
AcDbEntity
  8
0
100
AcDbBlockBegin
  2
*D12
 70
    65
 10
0.0
 20
0.0
 30
0.0
  3
*D12
  1

  0
LINE
  5
D44
100
AcDbEntity
  8
0
  6
BYBLOCK
 62
     0
100
AcDbLine
 10
423.496719
 20
265.436836
 30
0.0
 11
423.496719
 21
428.427065
 31
0.0
  0
LINE
  5
D45
100
AcDbEntity
  8
0
  6
BYBLOCK
 62
     0
100
AcDbLine
 10
418.924719
 20
423.855065
 30
0.0
 11
376.543244
 21
423.855065
 31
0.0
  0
LINE
  5
D46
100
AcDbEntity
  8
0
  6
BYBLOCK
 62
     0
100
AcDbLine
 10
271.677769
 20
423.855065
 30
0.0
 11
314.059244
 21
423.855065
 31
0.0
  0
SOLID
  5
D47
100
AcDbEntity
  8
0
  6
BYBLOCK
 62
     0
100
AcDbTrace
 10
418.924719
 20
424.617065
 30
0.0
 11
418.924719
 21
423.093065
 31
0.0
 12
423.496719
 22
423.855065
 32
0.0
 13
423.496719
 23
423.855065
 33
0.0
  0
SOLID
  5
D48
100
AcDbEntity
  8
0
  6
BYBLOCK
 62
     0
100
AcDbTrace
 10
271.677769
 20
424.617065
 30
0.0
 11
271.677769
 21
423.093065
 31
0.0
 12
267.105769
 22
423.855065
 32
0.0
 13
267.105769
 23
423.855065
 33
0.0
  0
MTEXT
  5
D49
100
AcDbEntity
  8
0
  6
BYBLOCK
 62
     0
100
AcDbMText
 10
345.301244
 20
423.855065
 30
0.0
 40
4.572
 41
0.0
 71
     5
 72
     1
  1
\A1;156.39mm[6.157"]
  0
POINT
  5
D4A
100
AcDbEntity
  8
DEFPOINTS
  6
BYBLOCK
 62
     0
100
AcDbPoint
 10
423.496719
 20
263.849336
 30
0.0
  0
POINT
  5
D4B
100
AcDbEntity
  8
DEFPOINTS
  6
BYBLOCK
 62
     0
100
AcDbPoint
 10
267.105769
 20
478.868715
 30
0.0
  0
POINT
  5
D4C
100
AcDbEntity
  8
DEFPOINTS
  6
BYBLOCK
 62
     0
100
AcDbPoint
 10
267.105769
 20
423.855065
 30
0.0
  0
ENDBLK
  5
D4D
100
AcDbEntity
  8
0
100
AcDbBlockEnd
  0
BLOCK
  5
D38
100
AcDbEntity
  8
0
100
AcDbBlockBegin
  2
*D13
 70
    65
 10
0.0
 20
0.0
 30
0.0
  3
*D13
  1

  0
LINE
  5
D39
100
AcDbEntity
  8
0
  6
BYBLOCK
 62
     0
100
AcDbLine
 10
427.496719
 20
265.436836
 30
0.0
 11
427.496719
 21
440.64944
 31
0.0
  0
LINE
  5
D3A
100
AcDbEntity
  8
0
  6
BYBLOCK
 62
     0
100
AcDbLine
 10
422.924719
 20
436.07744
 30
0.0
 11
378.162244
 21
436.07744
 31
0.0
  0
LINE
  5
D3B
100
AcDbEntity
  8
0
  6
BYBLOCK
 62
     0
100
AcDbLine
 10
271.677769
 20
436.07744
 30
0.0
 11
316.440244
 21
436.07744
 31
0.0
  0
SOLID
  5
D3C
100
AcDbEntity
  8
0
  6
BYBLOCK
 62
     0
100
AcDbTrace
 10
422.924719
 20
436.83944
 30
0.0
 11
422.924719
 21
435.31544
 31
0.0
 12
427.496719
 22
436.07744
 32
0.0
 13
427.496719
 23
436.07744
 33
0.0
  0
SOLID
  5
D3D
100
AcDbEntity
  8
0
  6
BYBLOCK
 62
     0
100
AcDbTrace
 10
271.677769
 20
436.83944
 30
0.0
 11
271.677769
 21
435.31544
 31
0.0
 12
267.105769
 22
436.07744
 32
0.0
 13
267.105769
 23
436.07744
 33
0.0
  0
MTEXT
  5
D3E
100
AcDbEntity
  8
0
  6
BYBLOCK
 62
     0
100
AcDbMText
 10
347.301244
 20
436.07744
 30
0.0
 40
4.572
 41
0.0
 71
     5
 72
     1
  1
\A1;160.39mm[6.315"]
  0
POINT
  5
D3F
100
AcDbEntity
  8
DEFPOINTS
  6
BYBLOCK
 62
     0
100
AcDbPoint
 10
427.496719
 20
263.849336
 30
0.0
  0
POINT
  5
D40
100
AcDbEntity
  8
DEFPOINTS
  6
BYBLOCK
 62
     0
100
AcDbPoint
 10
267.105769
 20
478.868715
 30
0.0
  0
POINT
  5
D41
100
AcDbEntity
  8
DEFPOINTS
  6
BYBLOCK
 62
     0
100
AcDbPoint
 10
267.105769
 20
436.07744
 30
0.0
  0
ENDBLK
  5
D42
100
AcDbEntity
  8
0
100
AcDbBlockEnd
  0
BLOCK
  5
E57
100
AcDbEntity
  8
0
100
AcDbBlockBegin
  2
*D14
 70
    65
 10
0.0
 20
0.0
 30
0.0
  3
*D14
  1

  0
LINE
  5
E58
100
AcDbEntity
  8
0
  6
BYBLOCK
 62
     0
100
AcDbLine
 10
478.371743
 20
272.187343
 30
0.0
 11
478.371743
 21
464.895296
 31
0.0
  0
LINE
  5
E59
100
AcDbEntity
  8
0
  6
BYBLOCK
 62
     0
100
AcDbLine
 10
473.799743
 20
460.323296
 30
0.0
 11
403.218756
 21
460.323296
 31
0.0
  0
LINE
  5
E5A
100
AcDbEntity
  8
0
  6
BYBLOCK
 62
     0
100
AcDbLine
 10
271.677769
 20
460.323296
 30
0.0
 11
342.258756
 21
460.323296
 31
0.0
  0
SOLID
  5
E5B
100
AcDbEntity
  8
0
  6
BYBLOCK
 62
     0
100
AcDbTrace
 10
473.799743
 20
461.085296
 30
0.0
 11
473.799743
 21
459.561296
 31
0.0
 12
478.371743
 22
460.323296
 32
0.0
 13
478.371743
 23
460.323296
 33
0.0
  0
SOLID
  5
E5C
100
AcDbEntity
  8
0
  6
BYBLOCK
 62
     0
100
AcDbTrace
 10
271.677769
 20
461.085296
 30
0.0
 11
271.677769
 21
459.561296
 31
0.0
 12
267.105769
 22
460.323296
 32
0.0
 13
267.105769
 23
460.323296
 33
0.0
  0
MTEXT
  5
E5D
100
AcDbEntity
  8
0
  6
BYBLOCK
 62
     0
100
AcDbMText
 10
372.738756
 20
460.323296
 30
0.0
 40
4.572
 41
0.0
 71
     5
 72
     1
  1
\A1;211.27mm[8.318"]
  0
POINT
  5
E5E
100
AcDbEntity
  8
DEFPOINTS
  6
BYBLOCK
 62
     0
100
AcDbPoint
 10
478.371743
 20
270.599843
 30
0.0
  0
POINT
  5
E5F
100
AcDbEntity
  8
DEFPOINTS
  6
BYBLOCK
 62
     0
100
AcDbPoint
 10
267.105769
 20
478.868715
 30
0.0
  0
POINT
  5
E60
100
AcDbEntity
  8
DEFPOINTS
  6
BYBLOCK
 62
     0
100
AcDbPoint
 10
267.105769
 20
460.323296
 30
0.0
  0
ENDBLK
  5
E61
100
AcDbEntity
  8
0
100
AcDbBlockEnd
  0
BLOCK
  5
D89
100
AcDbEntity
  8
0
100
AcDbBlockBegin
  2
*D15
 70
    65
 10
0.0
 20
0.0
 30
0.0
  3
*D15
  1

  0
LINE
  5
D8A
100
AcDbEntity
  8
0
  6
BYBLOCK
 62
     0
100
AcDbLine
 10
262.608326
 20
238.720954
 30
0.0
 11
262.608326
 21
374.299404
 31
0.0
  0
LINE
  5
D8B
100
AcDbEntity
  8
0
  6
BYBLOCK
 62
     0
100
AcDbLine
 10
271.677769
 20
369.727404
 30
0.0
 11
276.249769
 21
369.727404
 31
0.0
  0
LINE
  5
D8C
100
AcDbEntity
  8
0
  6
BYBLOCK
 62
     0
100
AcDbLine
 10
258.036326
 20
369.727404
 30
0.0
 11
253.464326
 21
369.727404
 31
0.0
  0
SOLID
  5
D8D
100
AcDbEntity
  8
0
  6
BYBLOCK
 62
     0
100
AcDbTrace
 10
271.677769
 20
370.489404
 30
0.0
 11
271.677769
 21
368.965404
 31
0.0
 12
267.105769
 22
369.727404
 32
0.0
 13
267.105769
 23
369.727404
 33
0.0
  0
SOLID
  5
D8E
100
AcDbEntity
  8
0
  6
BYBLOCK
 62
     0
100
AcDbTrace
 10
258.036326
 20
370.489404
 30
0.0
 11
258.036326
 21
368.965404
 31
0.0
 12
262.608326
 22
369.727404
 32
0.0
 13
262.608326
 23
369.727404
 33
0.0
  0
MTEXT
  5
D8F
100
AcDbEntity
  8
0
  6
BYBLOCK
 62
     0
100
AcDbMText
 10
226.794326
 20
369.727404
 30
0.0
 40
4.572
 41
0.0
 71
     5
 72
     1
  1
\A1;4.50mm[0.177"]
  0
POINT
  5
D90
100
AcDbEntity
  8
DEFPOINTS
  6
BYBLOCK
 62
     0
100
AcDbPoint
 10
267.105769
 20
143.941016
 30
0.0
  0
POINT
  5
D91
100
AcDbEntity
  8
DEFPOINTS
  6
BYBLOCK
 62
     0
100
AcDbPoint
 10
262.608326
 20
237.133454
 30
0.0
  0
POINT
  5
D92
100
AcDbEntity
  8
DEFPOINTS
  6
BYBLOCK
 62
     0
100
AcDbPoint
 10
262.608326
 20
369.727404
 30
0.0
  0
ENDBLK
  5
D93
100
AcDbEntity
  8
0
100
AcDbBlockEnd
  0
BLOCK
  5
E86
100
AcDbEntity
  8
0
100
AcDbBlockBegin
  2
*D16
 70
    65
 10
0.0
 20
0.0
 30
0.0
  3
*D16
  1

  0
LINE
  5
E87
100
AcDbEntity
  8
0
  6
BYBLOCK
 62
     0
100
AcDbLine
 10
479.959243
 20
260.599872
 30
0.0
 11
607.359498
 21
260.599872
 31
0.0
  0
LINE
  5
E88
100
AcDbEntity
  8
0
  6
BYBLOCK
 62
     0
100
AcDbLine
 10
602.787498
 20
265.171872
 30
0.0
 11
602.787498
 21
269.743872
 31
0.0
  0
LINE
  5
E89
100
AcDbEntity
  8
0
  6
BYBLOCK
 62
     0
100
AcDbLine
 10
602.787498
 20
238.139109
 30
0.0
 11
602.787498
 21
233.567109
 31
0.0
  0
LINE
  5
E8A
100
AcDbEntity
  8
0
  6
BYBLOCK
 62
     0
100
AcDbLine
 10
602.787498
 20
233.567109
 30
0.0
 11
598.215498
 21
233.567109
 31
0.0
  0
SOLID
  5
E8B
100
AcDbEntity
  8
0
  6
BYBLOCK
 62
     0
100
AcDbTrace
 10
602.025498
 20
265.171872
 30
0.0
 11
603.549498
 21
265.171872
 31
0.0
 12
602.787498
 22
260.599872
 32
0.0
 13
602.787498
 23
260.599872
 33
0.0
  0
SOLID
  5
E8C
100
AcDbEntity
  8
0
  6
BYBLOCK
 62
     0
100
AcDbTrace
 10
602.025498
 20
238.139109
 30
0.0
 11
603.549498
 21
238.139109
 31
0.0
 12
602.787498
 22
242.711109
 32
0.0
 13
602.787498
 23
242.711109
 33
0.0
  0
MTEXT
  5
E8D
100
AcDbEntity
  8
0
  6
BYBLOCK
 62
     0
100
AcDbMText
 10
538.246098
 20
233.567109
 30
0.0
 40
4.572
 41
0.0
 71
     5
 72
     1
  1
\A1;17.89mm\S+0.05mm^  0.00mm;{\o\l\H10.972800;[}0.704"\S+0.002"^  0.000";{\o\l\H10.972800;]}
  0
POINT
  5
E8E
100
AcDbEntity
  8
DEFPOINTS
  6
BYBLOCK
 62
     0
100
AcDbPoint
 10
478.371743
 20
260.599872
 30
0.0
  0
POINT
  5
E8F
100
AcDbEntity
  8
DEFPOINTS
  6
BYBLOCK
 62
     0
100
AcDbPoint
 10
780.136391
 20
242.711109
 30
0.0
  0
POINT
  5
E90
100
AcDbEntity
  8
DEFPOINTS
  6
BYBLOCK
 62
     0
100
AcDbPoint
 10
602.787498
 20
242.711109
 30
0.0
  0
ENDBLK
  5
E91
100
AcDbEntity
  8
0
100
AcDbBlockEnd
  0
BLOCK
  5
E6F
100
AcDbEntity
  8
0
100
AcDbBlockBegin
  2
*D17
 70
    65
 10
0.0
 20
0.0
 30
0.0
  3
*D17
  1

  0
LINE
  5
E70
100
AcDbEntity
  8
0
  6
BYBLOCK
 62
     0
100
AcDbLine
 10
479.959243
 20
270.599843
 30
0.0
 11
750.187423
 21
270.599843
 31
0.0
  0
LINE
  5
E71
100
AcDbEntity
  8
0
  6
BYBLOCK
 62
     0
100
AcDbLine
 10
745.615423
 20
266.027843
 30
0.0
 11
745.615423
 21
261.227476
 31
0.0
  0
LINE
  5
E72
100
AcDbEntity
  8
0
  6
BYBLOCK
 62
     0
100
AcDbLine
 10
745.615423
 20
247.283109
 30
0.0
 11
745.615423
 21
252.083476
 31
0.0
  0
SOLID
  5
E73
100
AcDbEntity
  8
0
  6
BYBLOCK
 62
     0
100
AcDbTrace
 10
744.853423
 20
266.027843
 30
0.0
 11
746.377423
 21
266.027843
 31
0.0
 12
745.615423
 22
270.599843
 32
0.0
 13
745.615423
 23
270.599843
 33
0.0
  0
SOLID
  5
E74
100
AcDbEntity
  8
0
  6
BYBLOCK
 62
     0
100
AcDbTrace
 10
744.853423
 20
247.283109
 30
0.0
 11
746.377423
 21
247.283109
 31
0.0
 12
745.615423
 22
242.711109
 32
0.0
 13
745.615423
 23
242.711109
 33
0.0
  0
MTEXT
  5
E75
100
AcDbEntity
  8
0
  6
BYBLOCK
 62
     0
100
AcDbMText
 10
745.615423
 20
256.655476
 30
0.0
 40
4.572
 41
0.0
 71
     5
 72
     1
  1
\A1;27.89mm[1.098"]
  0
POINT
  5
E76
100
AcDbEntity
  8
DEFPOINTS
  6
BYBLOCK
 62
     0
100
AcDbPoint
 10
478.371743
 20
270.599843
 30
0.0
  0
POINT
  5
E77
100
AcDbEntity
  8
DEFPOINTS
  6
BYBLOCK
 62
     0
100
AcDbPoint
 10
780.136391
 20
242.711109
 30
0.0
  0
POINT
  5
E78
100
AcDbEntity
  8
DEFPOINTS
  6
BYBLOCK
 62
     0
100
AcDbPoint
 10
745.615423
 20
242.711109
 30
0.0
  0
ENDBLK
  5
E79
100
AcDbEntity
  8
0
100
AcDbBlockEnd
  0
BLOCK
  5
DB1
100
AcDbEntity
  8
0
100
AcDbBlockBegin
  2
*D18
 70
    65
 10
0.0
 20
0.0
 30
0.0
  3
*D18
  1

  0
LINE
  5
DB2
100
AcDbEntity
  8
0
  6
BYBLOCK
 62
     0
100
AcDbLine
 10
263.192692
 20
233.036599
 30
0.0
 11
227.423742
 21
214.811409
 31
0.0
  0
LINE
  5
DB3
100
AcDbEntity
  8
0
  6
BYBLOCK
 62
     0
100
AcDbLine
 10
226.314872
 20
227.058385
 30
0.0
 11
224.239227
 21
231.132067
 31
0.0
  0
LINE
  5
DB4
100
AcDbEntity
  8
0
  6
BYBLOCK
 62
     0
100
AcDbLine
 10
233.573069
 20
212.813372
 30
0.0
 11
235.648713
 21
208.73969
 31
0.0
  0
LINE
  5
DB5
100
AcDbEntity
  8
0
  6
BYBLOCK
 62
     0
100
AcDbLine
 10
235.648713
 20
208.73969
 30
0.0
 11
231.575031
 21
206.664046
 31
0.0
  0
SOLID
  5
DB6
100
AcDbEntity
  8
0
  6
BYBLOCK
 62
     0
100
AcDbTrace
 10
225.635925
 20
226.712444
 30
0.0
 11
226.993819
 21
227.404326
 31
0.0
 12
228.390516
 22
222.984703
 32
0.0
 13
228.390516
 23
222.984703
 33
0.0
  0
SOLID
  5
DB7
100
AcDbEntity
  8
0
  6
BYBLOCK
 62
     0
100
AcDbTrace
 10
232.894122
 20
212.467431
 30
0.0
 11
234.252015
 21
213.159313
 31
0.0
 12
231.497424
 22
216.887054
 32
0.0
 13
231.497424
 23
216.887054
 33
0.0
  0
MTEXT
  5
DB8
100
AcDbEntity
  8
0
  6
BYBLOCK
 62
     0
100
AcDbMText
 10
179.160325
 20
179.957419
 30
0.0
 40
4.572
 41
0.0
 71
     5
 72
     1
  1
\A1;6.84mm\S 0.00mm^ -0.05mm;{\o\l\H10.972800;[}0.269"\S 0.000"^ -0.002";{\o\l\H10.972800;]}
 11
0.891007
 21
0.45399
 31
0.0
  0
POINT
  5
DB9
100
AcDbEntity
  8
DEFPOINTS
  6
BYBLOCK
 62
     0
100
AcDbPoint
 10
71.188912
 20
142.886485
 30
0.0
 50
333.0
  0
POINT
  5
DBA
100
AcDbEntity
  8
DEFPOINTS
  6
BYBLOCK
 62
     0
100
AcDbPoint
 10
264.607165
 20
233.757309
 30
0.0
 50
333.0
  0
POINT
  5
DBB
100
AcDbEntity
  8
DEFPOINTS
  6
BYBLOCK
 62
     0
100
AcDbPoint
 10
231.497424
 20
216.887054
 30
0.0
 50
333.0
  0
ENDBLK
  5
DBC
100
AcDbEntity
  8
0
100
AcDbBlockEnd
  0
BLOCK
  5
DBF
100
AcDbEntity
  8
0
100
AcDbBlockBegin
  2
*D19
 70
    65
 10
0.0
 20
0.0
 30
0.0
  3
*D19
  1

  0
LINE
  5
DC0
100
AcDbEntity
  8
0
  6
BYBLOCK
 62
     0
100
AcDbLine
 10
244.144116
 20
234.554162
 30
0.0
 11
108.814932
 21
165.600499
 31
0.0
  0
LINE
  5
DC1
100
AcDbEntity
  8
0
  6
BYBLOCK
 62
     0
100
AcDbLine
 10
110.812969
 20
171.749825
 30
0.0
 11
108.737324
 21
175.823507
 31
0.0
  0
LINE
  5
DC2
100
AcDbEntity
  8
0
  6
BYBLOCK
 62
     0
100
AcDbLine
 10
116.39727
 20
160.790018
 30
0.0
 11
118.472914
 21
156.716336
 31
0.0
  0
LINE
  5
DC3
100
AcDbEntity
  8
0
  6
BYBLOCK
 62
     0
100
AcDbLine
 10
118.472914
 20
156.716336
 30
0.0
 11
114.399232
 21
154.640692
 31
0.0
  0
SOLID
  5
DC4
100
AcDbEntity
  8
0
  6
BYBLOCK
 62
     0
100
AcDbTrace
 10
110.134022
 20
171.403885
 30
0.0
 11
111.491916
 21
172.095766
 31
0.0
 12
112.888613
 22
167.676144
 32
0.0
 13
112.888613
 23
167.676144
 33
0.0
  0
SOLID
  5
DC5
100
AcDbEntity
  8
0
  6
BYBLOCK
 62
     0
100
AcDbTrace
 10
115.718323
 20
160.444077
 30
0.0
 11
117.076217
 21
161.135959
 31
0.0
 12
114.321625
 22
164.8637
 32
0.0
 13
114.321625
 23
164.8637
 33
0.0
  0
MTEXT
  5
DC6
100
AcDbEntity
  8
0
  6
BYBLOCK
 62
     0
100
AcDbMText
 10
90.975562
 20
142.705735
 30
0.0
 40
4.572
 41
0.0
 71
     5
 72
     1
  1
\A1;3.16mm[0.124"]
 11
0.891007
 21
0.45399
 31
0.0
  0
POINT
  5
DC7
100
AcDbEntity
  8
DEFPOINTS
  6
BYBLOCK
 62
     0
100
AcDbPoint
 10
245.558589
 20
235.274872
 30
0.0
 50
333.0
  0
POINT
  5
DC8
100
AcDbEntity
  8
DEFPOINTS
  6
BYBLOCK
 62
     0
100
AcDbPoint
 10
71.188912
 20
142.886485
 30
0.0
 50
333.0
  0
POINT
  5
DC9
100
AcDbEntity
  8
DEFPOINTS
  6
BYBLOCK
 62
     0
100
AcDbPoint
 10
114.321625
 20
164.8637
 30
0.0
 50
333.0
  0
ENDBLK
  5
DCA
100
AcDbEntity
  8
0
100
AcDbBlockEnd
  0
BLOCK
  5
DCD
100
AcDbEntity
  8
0
100
AcDbBlockBegin
  2
*D20
 70
    65
 10
0.0
 20
0.0
 30
0.0
  3
*D20
  1

  0
LINE
  5
DCE
100
AcDbEntity
  8
0
  6
BYBLOCK
 62
     0
100
AcDbLine
 10
259.129179
 20
233.274872
 30
0.0
 11
194.797668
 21
233.274872
 31
0.0
  0
LINE
  5
DCF
100
AcDbEntity
  8
0
  6
BYBLOCK
 62
     0
100
AcDbLine
 10
199.369668
 20
247.283109
 30
0.0
 11
199.369668
 21
251.855109
 31
0.0
  0
LINE
  5
DD0
100
AcDbEntity
  8
0
  6
BYBLOCK
 62
     0
100
AcDbLine
 10
199.369668
 20
228.702872
 30
0.0
 11
199.369668
 21
224.130872
 31
0.0
  0
LINE
  5
DD1
100
AcDbEntity
  8
0
  6
BYBLOCK
 62
     0
100
AcDbLine
 10
199.369668
 20
224.130872
 30
0.0
 11
194.797668
 21
224.130872
 31
0.0
  0
SOLID
  5
DD2
100
AcDbEntity
  8
0
  6
BYBLOCK
 62
     0
100
AcDbTrace
 10
198.607668
 20
247.283109
 30
0.0
 11
200.131668
 21
247.283109
 31
0.0
 12
199.369668
 22
242.711109
 32
0.0
 13
199.369668
 23
242.711109
 33
0.0
  0
SOLID
  5
DD3
100
AcDbEntity
  8
0
  6
BYBLOCK
 62
     0
100
AcDbTrace
 10
198.607668
 20
228.702872
 30
0.0
 11
200.131668
 21
228.702872
 31
0.0
 12
199.369668
 22
233.274872
 32
0.0
 13
199.369668
 23
233.274872
 33
0.0
  0
MTEXT
  5
DD4
100
AcDbEntity
  8
0
  6
BYBLOCK
 62
     0
100
AcDbMText
 10
166.984668
 20
224.130872
 30
0.0
 40
4.572
 41
0.0
 71
     5
 72
     1
  1
\A1;9.44mm[0.372"]
  0
POINT
  5
DD5
100
AcDbEntity
  8
DEFPOINTS
  6
BYBLOCK
 62
     0
100
AcDbPoint
 10
49.526509
 20
242.711109
 30
0.0
  0
POINT
  5
DD6
100
AcDbEntity
  8
DEFPOINTS
  6
BYBLOCK
 62
     0
100
AcDbPoint
 10
260.716679
 20
233.274872
 30
0.0
  0
POINT
  5
DD7
100
AcDbEntity
  8
DEFPOINTS
  6
BYBLOCK
 62
     0
100
AcDbPoint
 10
199.369668
 20
233.274872
 30
0.0
  0
ENDBLK
  5
DD8
100
AcDbEntity
  8
0
100
AcDbBlockEnd
  0
BLOCK
  5
DDB
100
AcDbEntity
  8
0
100
AcDbBlockBegin
  2
*D21
 70
    65
 10
0.0
 20
0.0
 30
0.0
  3
*D21
  1

  0
LINE
  5
DDC
100
AcDbEntity
  8
0
  6
BYBLOCK
 62
     0
100
AcDbLine
 10
243.971089
 20
235.274872
 30
0.0
 11
128.469211
 21
235.274872
 31
0.0
  0
LINE
  5
DDD
100
AcDbEntity
  8
0
  6
BYBLOCK
 62
     0
100
AcDbLine
 10
133.041211
 20
247.283109
 30
0.0
 11
133.041211
 21
251.855109
 31
0.0
  0
LINE
  5
DDE
100
AcDbEntity
  8
0
  6
BYBLOCK
 62
     0
100
AcDbLine
 10
133.041211
 20
230.702872
 30
0.0
 11
133.041211
 21
226.130872
 31
0.0
  0
LINE
  5
DDF
100
AcDbEntity
  8
0
  6
BYBLOCK
 62
     0
100
AcDbLine
 10
133.041211
 20
226.130872
 30
0.0
 11
128.469211
 21
226.130872
 31
0.0
  0
SOLID
  5
DE0
100
AcDbEntity
  8
0
  6
BYBLOCK
 62
     0
100
AcDbTrace
 10
132.279211
 20
247.283109
 30
0.0
 11
133.803211
 21
247.283109
 31
0.0
 12
133.041211
 22
242.711109
 32
0.0
 13
133.041211
 23
242.711109
 33
0.0
  0
SOLID
  5
DE1
100
AcDbEntity
  8
0
  6
BYBLOCK
 62
     0
100
AcDbTrace
 10
132.279211
 20
230.702872
 30
0.0
 11
133.803211
 21
230.702872
 31
0.0
 12
133.041211
 22
235.274872
 32
0.0
 13
133.041211
 23
235.274872
 33
0.0
  0
MTEXT
  5
DE2
100
AcDbEntity
  8
0
  6
BYBLOCK
 62
     0
100
AcDbMText
 10
100.656211
 20
226.130872
 30
0.0
 40
4.572
 41
0.0
 71
     5
 72
     1
  1
\A1;7.44mm[0.293"]
  0
POINT
  5
DE3
100
AcDbEntity
  8
DEFPOINTS
  6
BYBLOCK
 62
     0
100
AcDbPoint
 10
49.526509
 20
242.711109
 30
0.0
  0
POINT
  5
DE4
100
AcDbEntity
  8
DEFPOINTS
  6
BYBLOCK
 62
     0
100
AcDbPoint
 10
245.558589
 20
235.274872
 30
0.0
  0
POINT
  5
DE5
100
AcDbEntity
  8
DEFPOINTS
  6
BYBLOCK
 62
     0
100
AcDbPoint
 10
133.041211
 20
235.274872
 30
0.0
  0
ENDBLK
  5
DE6
100
AcDbEntity
  8
0
100
AcDbBlockEnd
  0
BLOCK
  5
DE9
100
AcDbEntity
  8
0
100
AcDbBlockBegin
  2
*D22
 70
    65
 10
0.0
 20
0.0
 30
0.0
  3
*D22
  1

  0
LINE
  5
DEA
100
AcDbEntity
  8
0
  6
BYBLOCK
 62
     0
100
AcDbLine
 10
314.167038
 20
272.014316
 30
0.0
 11
272.807414
 21
353.187149
 31
0.0
  0
LINE
  5
DEB
100
AcDbEntity
  8
0
  6
BYBLOCK
 62
     0
100
AcDbLine
 10
278.95674
 20
351.189112
 30
0.0
 11
283.030422
 21
353.264756
 31
0.0
  0
LINE
  5
DEC
100
AcDbEntity
  8
0
  6
BYBLOCK
 62
     0
100
AcDbLine
 10
221.594386
 20
321.961532
 30
0.0
 11
217.520704
 21
319.885888
 31
0.0
  0
SOLID
  5
DED
100
AcDbEntity
  8
0
  6
BYBLOCK
 62
     0
100
AcDbTrace
 10
278.6108
 20
351.868059
 30
0.0
 11
279.302681
 21
350.510165
 31
0.0
 12
274.883059
 22
349.113467
 32
0.0
 13
274.883059
 23
349.113467
 33
0.0
  0
SOLID
  5
DEE
100
AcDbEntity
  8
0
  6
BYBLOCK
 62
     0
100
AcDbTrace
 10
221.248445
 20
322.640479
 30
0.0
 11
221.940327
 21
321.282585
 31
0.0
 12
225.668068
 22
324.037177
 32
0.0
 13
225.668068
 23
324.037177
 33
0.0
  0
MTEXT
  5
DEF
100
AcDbEntity
  8
0
  6
BYBLOCK
 62
     0
100
AcDbMText
 10
191.041772
 20
306.394198
 30
0.0
 40
4.572
 41
0.0
 71
     5
 72
     1
  1
\A1;55.24mm[2.175"]
 11
0.891007
 21
0.45399
 31
0.0
  0
POINT
  5
DF0
100
AcDbEntity
  8
DEFPOINTS
  6
BYBLOCK
 62
     0
100
AcDbPoint
 10
314.887748
 20
270.599843
 30
0.0
 50
333.0
  0
POINT
  5
DF1
100
AcDbEntity
  8
DEFPOINTS
  6
BYBLOCK
 62
     0
100
AcDbPoint
 10
223.456111
 20
328.378387
 30
0.0
 50
333.0
  0
POINT
  5
DF2
100
AcDbEntity
  8
DEFPOINTS
  6
BYBLOCK
 62
     0
100
AcDbPoint
 10
225.668068
 20
324.037177
 30
0.0
 50
333.0
  0
ENDBLK
  5
DF3
100
AcDbEntity
  8
0
100
AcDbBlockEnd
  0
BLOCK
  5
DF6
100
AcDbEntity
  8
0
100
AcDbBlockBegin
  2
*D23
 70
    65
 10
0.0
 20
0.0
 30
0.0
  3
*D23
  1

  0
LINE
  5
DF7
100
AcDbEntity
  8
0
  6
BYBLOCK
 62
     0
100
AcDbLine
 10
316.087886
 20
264.014392
 30
0.0
 11
276.353037
 21
341.998425
 31
0.0
  0
LINE
  5
DF8
100
AcDbEntity
  8
0
  6
BYBLOCK
 62
     0
100
AcDbLine
 10
282.502363
 20
340.000388
 30
0.0
 11
286.576045
 21
342.076032
 31
0.0
  0
LINE
  5
DF9
100
AcDbEntity
  8
0
  6
BYBLOCK
 62
     0
100
AcDbLine
 10
226.851099
 20
311.644652
 30
0.0
 11
222.777417
 21
309.569008
 31
0.0
  0
SOLID
  5
DFA
100
AcDbEntity
  8
0
  6
BYBLOCK
 62
     0
100
AcDbTrace
 10
282.156422
 20
340.679335
 30
0.0
 11
282.848304
 21
339.321441
 31
0.0
 12
278.428681
 22
337.924743
 32
0.0
 13
278.428681
 23
337.924743
 33
0.0
  0
SOLID
  5
DFB
100
AcDbEntity
  8
0
  6
BYBLOCK
 62
     0
100
AcDbTrace
 10
226.505158
 20
312.323599
 30
0.0
 11
227.19704
 21
310.965705
 31
0.0
 12
230.924781
 22
313.720297
 32
0.0
 13
230.924781
 23
313.720297
 33
0.0
  0
MTEXT
  5
DFC
100
AcDbEntity
  8
0
  6
BYBLOCK
 62
     0
100
AcDbMText
 10
196.637959
 20
296.250288
 30
0.0
 40
4.572
 41
0.0
 71
     5
 72
     1
  1
\A1;53.31mm[2.099"]
 11
0.891007
 21
0.45399
 31
0.0
  0
POINT
  5
DFD
100
AcDbEntity
  8
DEFPOINTS
  6
BYBLOCK
 62
     0
100
AcDbPoint
 10
316.808596
 20
262.59992
 30
0.0
 50
333.0
  0
POINT
  5
DFE
100
AcDbEntity
  8
DEFPOINTS
  6
BYBLOCK
 62
     0
100
AcDbPoint
 10
223.456111
 20
328.378387
 30
0.0
 50
333.0
  0
POINT
  5
DFF
100
AcDbEntity
  8
DEFPOINTS
  6
BYBLOCK
 62
     0
100
AcDbPoint
 10
230.924781
 20
313.720297
 30
0.0
 50
333.0
  0
ENDBLK
  5
E00
100
AcDbEntity
  8
0
100
AcDbBlockEnd
  0
BLOCK
  5
E03
100
AcDbEntity
  8
0
100
AcDbBlockBegin
  2
*D24
 70
    65
 10
0.0
 20
0.0
 30
0.0
  3
*D24
  1

  0
LINE
  5
E04
100
AcDbEntity
  8
0
  6
BYBLOCK
 62
     0
100
AcDbLine
 10
313.238989
 20
263.79909
 30
0.0
 11
279.674805
 21
329.672512
 31
0.0
  0
LINE
  5
E05
100
AcDbEntity
  8
0
  6
BYBLOCK
 62
     0
100
AcDbLine
 10
285.824131
 20
327.674474
 30
0.0
 11
289.897813
 21
329.750119
 31
0.0
  0
LINE
  5
E06
100
AcDbEntity
  8
0
  6
BYBLOCK
 62
     0
100
AcDbLine
 10
232.521676
 20
300.515517
 30
0.0
 11
228.447995
 21
298.439873
 31
0.0
  0
SOLID
  5
E07
100
AcDbEntity
  8
0
  6
BYBLOCK
 62
     0
100
AcDbTrace
 10
285.47819
 20
328.353421
 30
0.0
 11
286.170072
 21
326.995527
 31
0.0
 12
281.750449
 22
325.59883
 32
0.0
 13
281.750449
 23
325.59883
 33
0.0
  0
SOLID
  5
E08
100
AcDbEntity
  8
0
  6
BYBLOCK
 62
     0
100
AcDbTrace
 10
232.175736
 20
301.194464
 30
0.0
 11
232.867617
 21
299.83657
 31
0.0
 12
236.595358
 22
302.591162
 32
0.0
 13
236.595358
 23
302.591162
 33
0.0
  0
MTEXT
  5
E09
100
AcDbEntity
  8
0
  6
BYBLOCK
 62
     0
100
AcDbMText
 10
202.308536
 20
285.121153
 30
0.0
 40
4.572
 41
0.0
 71
     5
 72
     1
  1
\A1;50.68mm[1.995"]
 11
0.891007
 21
0.45399
 31
0.0
  0
POINT
  5
E0A
100
AcDbEntity
  8
DEFPOINTS
  6
BYBLOCK
 62
     0
100
AcDbPoint
 10
313.959699
 20
262.384618
 30
0.0
 50
333.0
  0
POINT
  5
E0B
100
AcDbEntity
  8
DEFPOINTS
  6
BYBLOCK
 62
     0
100
AcDbPoint
 10
223.456111
 20
328.378387
 30
0.0
 50
333.0
  0
POINT
  5
E0C
100
AcDbEntity
  8
DEFPOINTS
  6
BYBLOCK
 62
     0
100
AcDbPoint
 10
236.595358
 20
302.591162
 30
0.0
 50
333.0
  0
ENDBLK
  5
E0D
100
AcDbEntity
  8
0
100
AcDbBlockEnd
  0
BLOCK
  5
E10
100
AcDbEntity
  8
0
100
AcDbBlockBegin
  2
*D25
 70
    65
 10
0.0
 20
0.0
 30
0.0
  3
*D25
  1

  0
LINE
  5
E11
100
AcDbEntity
  8
0
  6
BYBLOCK
 62
     0
100
AcDbLine
 10
244.837879
 20
236.689345
 30
0.0
 11
219.924189
 21
285.585215
 31
0.0
  0
LINE
  5
E12
100
AcDbEntity
  8
0
  6
BYBLOCK
 62
     0
100
AcDbLine
 10
246.187684
 20
293.835858
 30
0.0
 11
250.261365
 21
295.911503
 31
0.0
  0
LINE
  5
E13
100
AcDbEntity
  8
0
  6
BYBLOCK
 62
     0
100
AcDbLine
 10
217.926152
 20
279.435889
 30
0.0
 11
213.85247
 21
277.360244
 31
0.0
  0
SOLID
  5
E14
100
AcDbEntity
  8
0
  6
BYBLOCK
 62
     0
100
AcDbTrace
 10
245.841743
 20
294.514805
 30
0.0
 11
246.533624
 21
293.156911
 31
0.0
 12
242.114002
 22
291.760214
 32
0.0
 13
242.114002
 23
291.760214
 33
0.0
  0
SOLID
  5
E15
100
AcDbEntity
  8
0
  6
BYBLOCK
 62
     0
100
AcDbTrace
 10
217.580211
 20
280.114836
 30
0.0
 11
218.272092
 21
278.756942
 31
0.0
 12
221.999834
 22
281.511533
 32
0.0
 13
221.999834
 23
281.511533
 33
0.0
  0
MTEXT
  5
E16
100
AcDbEntity
  8
0
  6
BYBLOCK
 62
     0
100
AcDbMText
 10
187.034065
 20
263.695584
 30
0.0
 40
4.572
 41
0.0
 71
     5
 72
     1
  1
\A1;22.57mm[0.889"]
 11
0.891007
 21
0.45399
 31
0.0
  0
POINT
  5
E17
100
AcDbEntity
  8
DEFPOINTS
  6
BYBLOCK
 62
     0
100
AcDbPoint
 10
223.456111
 20
328.378387
 30
0.0
 50
333.0
  0
POINT
  5
E18
100
AcDbEntity
  8
DEFPOINTS
  6
BYBLOCK
 62
     0
100
AcDbPoint
 10
245.558589
 20
235.274872
 30
0.0
 50
333.0
  0
POINT
  5
E19
100
AcDbEntity
  8
DEFPOINTS
  6
BYBLOCK
 62
     0
100
AcDbPoint
 10
221.999834
 20
281.511533
 30
0.0
 50
333.0
  0
ENDBLK
  5
E1A
100
AcDbEntity
  8
0
100
AcDbBlockEnd
  0
BLOCK
  5
E1D
100
AcDbEntity
  8
0
100
AcDbBlockBegin
  2
*D26
 70
    65
 10
0.0
 20
0.0
 30
0.0
  3
*D26
  1

  0
ARC
  5
E1E
100
AcDbEntity
  8
0
  6
BYBLOCK
 62
     0
100
AcDbCircle
 10
267.105769
 20
242.711109
 30
0.0
 40
91.816347
100
AcDbArc
 50
272.853341
 51
275.777094
  0
ARC
  5
E1F
100
AcDbEntity
  8
0
  6
BYBLOCK
 62
     0
100
AcDbCircle
 10
267.105769
 20
242.711109
 30
0.0
 40
91.816347
100
AcDbArc
 50
291.483433
 51
294.146659
  0
SOLID
  5
E20
100
AcDbEntity
  8
0
  6
BYBLOCK
 62
     0
100
AcDbTrace
 10
271.695323
 20
150.24683
 30
0.0
 11
271.65738
 21
151.770358
 31
0.0
 12
267.105769
 22
150.894763
 32
0.0
 13
267.105769
 23
150.894763
 33
0.0
  0
SOLID
  5
E21
100
AcDbEntity
  8
0
  6
BYBLOCK
 62
     0
100
AcDbTrace
 10
304.336491
 20
159.615918
 30
0.0
 11
304.99435
 21
158.241219
 31
0.0
 12
308.789518
 22
160.902145
 32
0.0
 13
308.789518
 23
160.902145
 33
0.0
  0
MTEXT
  5
E22
100
AcDbEntity
  8
0
  6
BYBLOCK
 62
     0
100
AcDbMText
 10
288.539869
 20
153.431656
 30
0.0
 40
4.572
 41
0.0
 71
     5
 72
     1
  1
\A1;27.00°
  0
POINT
  5
E23
100
AcDbEntity
  8
DEFPOINTS
  6
BYBLOCK
 62
     0
100
AcDbPoint
 10
281.46901
 20
152.025174
 30
0.0
  0
POINT
  5
E24
100
AcDbEntity
  8
DEFPOINTS
  6
BYBLOCK
 62
     0
100
AcDbPoint
 10
267.105769
 20
143.941016
 30
0.0
  0
POINT
  5
E25
100
AcDbEntity
  8
DEFPOINTS
  6
BYBLOCK
 62
     0
100
AcDbPoint
 10
223.456111
 20
328.378387
 30
0.0
  0
POINT
  5
E26
100
AcDbEntity
  8
DEFPOINTS
  6
BYBLOCK
 62
     0
100
AcDbPoint
 10
312.852133
 20
152.928814
 30
0.0
  0
POINT
  5
E27
100
AcDbEntity
  8
DEFPOINTS
  6
BYBLOCK
 62
     0
100
AcDbPoint
 10
267.105769
 20
478.868715
 30
0.0
  0
ENDBLK
  5
E28
100
AcDbEntity
  8
0
100
AcDbBlockEnd
  0
BLOCK
  5
E3C
100
AcDbEntity
  8
ASHADE
100
AcDbBlockBegin
  2
AVE_RENDER
 70
    64
 10
0.0
 20
0.0
 30
0.0
  3
AVE_RENDER
  1
AVE_RENDER
  0
ENDBLK
  5
E3D
100
AcDbEntity
  8
0
100
AcDbBlockEnd
  0
BLOCK
  5
E4A
100
AcDbEntity
  8
ASHADE
100
AcDbBlockBegin
  2
AVE_GLOBAL
 70
    64
 10
0.0
 20
0.0
 30
0.0
  3
AVE_GLOBAL
  1
AVE_GLOBAL
  0
ENDBLK
  5
E4B
100
AcDbEntity
  8
0
100
AcDbBlockEnd
  0
BLOCK
  5
E63
100
AcDbEntity
  8
0
100
AcDbBlockBegin
  2
*D29
 70
    65
 10
0.0
 20
0.0
 30
0.0
  3
*D29
  1

  0
LINE
  5
E64
100
AcDbEntity
  8
0
  6
BYBLOCK
 62
     0
100
AcDbLine
 10
468.371743
 20
270.716119
 30
0.0
 11
468.371743
 21
452.406593
 31
0.0
  0
LINE
  5
E65
100
AcDbEntity
  8
0
  6
BYBLOCK
 62
     0
100
AcDbLine
 10
463.799743
 20
447.834593
 30
0.0
 11
415.744756
 21
447.834593
 31
0.0
  0
LINE
  5
E66
100
AcDbEntity
  8
0
  6
BYBLOCK
 62
     0
100
AcDbLine
 10
271.677769
 20
447.834593
 30
0.0
 11
319.732756
 21
447.834593
 31
0.0
  0
SOLID
  5
E67
100
AcDbEntity
  8
0
  6
BYBLOCK
 62
     0
100
AcDbTrace
 10
463.799743
 20
448.596593
 30
0.0
 11
463.799743
 21
447.072593
 31
0.0
 12
468.371743
 22
447.834593
 32
0.0
 13
468.371743
 23
447.834593
 33
0.0
  0
SOLID
  5
E68
100
AcDbEntity
  8
0
  6
BYBLOCK
 62
     0
100
AcDbTrace
 10
271.677769
 20
448.596593
 30
0.0
 11
271.677769
 21
447.072593
 31
0.0
 12
267.105769
 22
447.834593
 32
0.0
 13
267.105769
 23
447.834593
 33
0.0
  0
MTEXT
  5
E69
100
AcDbEntity
  8
0
  6
BYBLOCK
 62
     0
100
AcDbMText
 10
367.738756
 20
447.834593
 30
0.0
 40
4.572
 41
0.0
 71
     5
 72
     1
  1
\A1;201.27±0.03[7.924"±0.001"]
  0
POINT
  5
E6A
100
AcDbEntity
  8
DEFPOINTS
  6
BYBLOCK
 62
     0
100
AcDbPoint
 10
468.371743
 20
269.128619
 30
0.0
  0
POINT
  5
E6B
100
AcDbEntity
  8
DEFPOINTS
  6
BYBLOCK
 62
     0
100
AcDbPoint
 10
267.105769
 20
478.868715
 30
0.0
  0
POINT
  5
E6C
100
AcDbEntity
  8
DEFPOINTS
  6
BYBLOCK
 62
     0
100
AcDbPoint
 10
267.105769
 20
447.834593
 30
0.0
  0
ENDBLK
  5
E6D
100
AcDbEntity
  8
0
100
AcDbBlockEnd
  0
BLOCK
  5
E93
100
AcDbEntity
  8
0
100
AcDbBlockBegin
  2
*D30
 70
    65
 10
0.0
 20
0.0
 30
0.0
  3
*D30
  1

  0
LINE
  5
E94
100
AcDbEntity
  8
0
  6
BYBLOCK
 62
     0
100
AcDbLine
 10
471.910509
 20
267.099858
 30
0.0
 11
670.697953
 21
267.099858
 31
0.0
  0
LINE
  5
E95
100
AcDbEntity
  8
0
  6
BYBLOCK
 62
     0
100
AcDbLine
 10
666.125953
 20
262.527858
 30
0.0
 11
666.125953
 21
259.477484
 31
0.0
  0
LINE
  5
E96
100
AcDbEntity
  8
0
  6
BYBLOCK
 62
     0
100
AcDbLine
 10
666.125953
 20
247.283109
 30
0.0
 11
666.125953
 21
250.333484
 31
0.0
  0
SOLID
  5
E97
100
AcDbEntity
  8
0
  6
BYBLOCK
 62
     0
100
AcDbTrace
 10
665.363953
 20
262.527858
 30
0.0
 11
666.887953
 21
262.527858
 31
0.0
 12
666.125953
 22
267.099858
 32
0.0
 13
666.125953
 23
267.099858
 33
0.0
  0
SOLID
  5
E98
100
AcDbEntity
  8
0
  6
BYBLOCK
 62
     0
100
AcDbTrace
 10
665.363953
 20
247.283109
 30
0.0
 11
666.887953
 21
247.283109
 31
0.0
 12
666.125953
 22
242.711109
 32
0.0
 13
666.125953
 23
242.711109
 33
0.0
  0
MTEXT
  5
E99
100
AcDbEntity
  8
0
  6
BYBLOCK
 62
     0
100
AcDbMText
 10
666.125953
 20
254.905484
 30
0.0
 40
4.572
 41
0.0
 71
     5
 72
     1
  1
\A1;24.39±0.03[0.960"±0.001"]
  0
POINT
  5
E9A
100
AcDbEntity
  8
DEFPOINTS
  6
BYBLOCK
 62
     0
100
AcDbPoint
 10
470.323009
 20
267.099858
 30
0.0
  0
POINT
  5
E9B
100
AcDbEntity
  8
DEFPOINTS
  6
BYBLOCK
 62
     0
100
AcDbPoint
 10
780.136391
 20
242.711109
 30
0.0
  0
POINT
  5
E9C
100
AcDbEntity
  8
DEFPOINTS
  6
BYBLOCK
 62
     0
100
AcDbPoint
 10
666.125953
 20
242.711109
 30
0.0
  0
ENDBLK
  5
E9D
100
AcDbEntity
  8
0
100
AcDbBlockEnd
  0
ENDSEC
  0
SECTION
  2
ENTITIES
  0
LINE
  5
CC
100
AcDbEntity
  8
CENTER
100
AcDbLine
 10
369.621719
 20
259.19875
 30
0.0
 11
369.621719
 21
263.849336
 31
0.0
  0
LINE
  5
CD
100
AcDbEntity
  8
CENTER
100
AcDbLine
 10
371.167506
 20
260.59992
 30
0.0
 11
366.064931
 21
260.59992
 31
0.0
  0
LINE
  5
CE
100
AcDbEntity
  8
CENTER
100
AcDbLine
 10
373.621719
 20
259.19875
 30
0.0
 11
373.621719
 21
263.849336
 31
0.0
  0
LINE
  5
CF
100
AcDbEntity
  8
CENTER
100
AcDbLine
 10
372.075933
 20
260.59992
 30
0.0
 11
377.178508
 21
260.59992
 31
0.0
  0
LINE
  5
D0
100
AcDbEntity
  8
CENTER
100
AcDbLine
 10
425.950933
 20
260.59992
 30
0.0
 11
431.053508
 21
260.59992
 31
0.0
  0
LINE
  5
D1
100
AcDbEntity
  8
CENTER
100
AcDbLine
 10
423.496719
 20
259.19875
 30
0.0
 11
423.496719
 21
263.849336
 31
0.0
  0
LINE
  5
D2
100
AcDbEntity
  8
CENTER
100
AcDbLine
 10
425.042506
 20
260.59992
 30
0.0
 11
419.939931
 21
260.59992
 31
0.0
  0
LINE
  5
D3
100
AcDbEntity
  8
CENTER
100
AcDbLine
 10
427.496719
 20
259.19875
 30
0.0
 11
427.496719
 21
263.849336
 31
0.0
  0
LINE
  5
D8
100
AcDbEntity
  8
CENTER
100
AcDbLine
 10
317.89845
 20
260.59992
 30
0.0
 11
323.185325
 21
260.59992
 31
0.0
  0
LINE
  5
D9
100
AcDbEntity
  8
CENTER
100
AcDbLine
 10
319.444236
 20
259.19875
 30
0.0
 11
319.444236
 21
263.849336
 31
0.0
  0
LINE
  5
DA
100
AcDbEntity
  8
CENTER
100
AcDbLine
 10
315.877172
 20
258.621366
 30
0.0
 11
313.959699
 21
262.384618
 31
0.0
  0
LINE
  5
DB
100
AcDbEntity
  8
CENTER
100
AcDbLine
 10
316.362992
 20
260.128221
 30
0.0
 11
312.647824
 21
258.235248
 31
0.0
  0
LINE
  5
E2
100
AcDbEntity
  8
CENTER
100
AcDbLine
 10
262.608326
 20
231.667595
 30
0.0
 11
262.608326
 21
237.133454
 31
0.0
  0
LINE
  5
E3
100
AcDbEntity
  8
CENTER
100
AcDbLine
 10
264.748332
 20
233.274872
 30
0.0
 11
260.716679
 21
233.274872
 31
0.0
  0
DIMENSION
  5
432
100
AcDbEntity
  8
DIM
100
AcDbDimension
  2
*D0
 10
427.496719
 20
260.59992
 30
0.0
 11
532.643255
 21
299.640573
 31
0.0
 12
-67.872781
 22
-20.411465
 32
0.0
 70
   164
  1
{<>}\P{7X}
  3
STANDARD$4
100
AcDbRadialDimension
 15
429.239429
 25
261.581227
 35
0.0
 40
0.0
1001
ACAD
1000
DSTYLE
1002
{
1070
   288
1070
     1
1070
    40
1040
25.4
1070
     3
1000
mm
1070
   271
1070
     2
1070
     4
1000
"
1070
   143
1040
0.03937
1070
   171
1070
     3
1070
   170
1070
     1
1002
}
  0
TEXT
  5
435
100
AcDbEntity
  8
TEXT
100
AcDbText
 10
714.537092
 20
38.427413
 30
0.0
 40
3.0
  1
LAYER 4A BACKWARD SUPPORT RIB
100
AcDbText
  0
TEXT
  5
436
100
AcDbEntity
  8
TEXT
100
AcDbText
 10
718.995751
 20
24.25368
 30
0.0
 40
3.0
  1
B-FAC
100
AcDbText
  0
TEXT
  5
437
100
AcDbEntity
  8
TEXT
100
AcDbText
 10
763.251742
 20
24.468434
 30
0.0
 40
3.0
  1
L4-RIB02
100
AcDbText
  0
TEXT
  5
438
100
AcDbEntity
  8
TEXT
100
AcDbText
 10
717.062236
 20
17.166814
 30
0.0
 40
3.0
  1
1=1
100
AcDbText
  0
TEXT
  5
439
100
AcDbEntity
  8
TEXT
100
AcDbText
 10
670.443062
 20
34.347095
 30
0.0
 40
3.0
  1
S. KYRE
100
AcDbText
  0
TEXT
  5
43A
100
AcDbEntity
  8
TEXT
100
AcDbText
 10
693.278257
 20
33.488082
 30
0.0
 40
1.5
  1
11-08-95
100
AcDbText
  0
LINE
  5
470
100
AcDbEntity
  8
BEAMS-A
100
AcDbLine
 10
314.887748
 20
270.599843
 30
0.0
 11
478.371743
 21
270.599843
 31
0.0
  0
LINE
  5
472
100
AcDbEntity
  8
BEAMS-A
100
AcDbLine
 10
314.887748
 20
270.599843
 30
0.0
 11
245.558589
 21
235.274872
 31
0.0
  0
LINE
  5
473
100
AcDbEntity
  8
BEAMS-A
100
AcDbLine
 10
264.607165
 20
233.757309
 30
0.0
 11
313.585754
 21
258.713147
 31
0.0
  0
ARC
  5
476
100
AcDbEntity
  8
BEAMS-A
100
AcDbCircle
 10
369.621719
 20
260.59992
 30
0.0
 40
2.0
100
AcDbArc
 50
90.0
 51
180.00135
  0
ARC
  5
477
100
AcDbEntity
  8
BEAMS-A
100
AcDbCircle
 10
373.621719
 20
260.59992
 30
0.0
 40
2.0
100
AcDbArc
 50
359.99865
 51
90.0
  0
LINE
  5
478
100
AcDbEntity
  8
BEAMS-A
100
AcDbLine
 10
369.621719
 20
262.59992
 30
0.0
 11
373.621719
 21
262.59992
 31
0.0
  0
ARC
  5
479
100
AcDbEntity
  8
BEAMS-A
100
AcDbCircle
 10
423.496719
 20
260.59992
 30
0.0
 40
2.0
100
AcDbArc
 50
90.0
 51
180.00135
  0
ARC
  5
47A
100
AcDbEntity
  8
BEAMS-A
100
AcDbCircle
 10
427.496719
 20
260.59992
 30
0.0
 40
2.0
100
AcDbArc
 50
359.99865
 51
90.0
  0
LINE
  5
47B
100
AcDbEntity
  8
BEAMS-A
100
AcDbLine
 10
423.496719
 20
262.59992
 30
0.0
 11
427.496719
 21
262.59992
 31
0.0
  0
LINE
  5
481
100
AcDbEntity
  8
BEAMS-A
100
AcDbLine
 10
367.621719
 20
260.599872
 30
0.0
 11
321.444236
 21
260.599872
 31
0.0
  0
LINE
  5
482
100
AcDbEntity
  8
BEAMS-A
100
AcDbLine
 10
421.496719
 20
260.599872
 30
0.0
 11
375.621719
 21
260.599872
 31
0.0
  0
ARC
  5
484
100
AcDbEntity
  8
BEAMS-A
100
AcDbCircle
 10
319.444236
 20
260.59992
 30
0.0
 40
2.0
100
AcDbArc
 50
359.99865
 51
90.0
  0
LINE
  5
485
100
AcDbEntity
  8
BEAMS-A
100
AcDbLine
 10
316.808596
 20
262.59992
 30
0.0
 11
319.444236
 21
262.59992
 31
0.0
  0
ARC
  5
486
100
AcDbEntity
  8
BEAMS-A
100
AcDbCircle
 10
315.367767
 20
259.621128
 30
0.0
 40
2.0
100
AcDbArc
 50
117.0
 51
207.0
  0
LINE
  5
487
100
AcDbEntity
  8
BEAMS-A
100
AcDbLine
 10
314.459786
 20
261.403141
 30
0.0
 11
316.808596
 21
262.59992
 31
0.0
  0
LINE
  5
48D
100
AcDbEntity
  8
BEAMS-A
100
AcDbLine
 10
264.607165
 20
233.757309
 30
0.0
 11
264.390339
 21
234.182853
 31
0.0
  0
ARC
  5
48E
100
AcDbEntity
  8
BEAMS-A
100
AcDbCircle
 10
262.608326
 20
233.274872
 30
0.0
 40
2.0
100
AcDbArc
 50
27.0
 51
90.0
  0
LINE
  5
48F
100
AcDbEntity
  8
BEAMS-A
100
AcDbLine
 10
245.558589
 20
235.274872
 30
0.0
 11
262.608326
 21
235.274872
 31
0.0
  0
LINE
  5
490
100
AcDbEntity
  8
BEAMS-A
100
AcDbLine
 10
478.371743
 20
260.599872
 30
0.0
 11
478.371743
 21
270.599843
 31
0.0
  0
LINE
  5
492
100
AcDbEntity
  8
BEAMS-A
100
AcDbLine
 10
478.371743
 20
260.599872
 30
0.0
 11
429.496719
 21
260.599872
 31
0.0
  0
LINE
  5
68E
100
AcDbEntity
  8
CENTER
100
AcDbLine
 10
268.270184
 20
240.425816
 30
0.0
 11
265.964055
 21
244.951848
 31
0.0
  0
LINE
  5
6C5
100
AcDbEntity
  8
TEXT
100
AcDbLine
 10
685.369457
 20
504.822347
 30
0.0
 11
685.369457
 21
477.398953
 31
0.0
  0
LINE
  5
6C6
100
AcDbEntity
  8
TEXT
100
AcDbLine
 10
695.281868
 20
504.822347
 30
0.0
 11
695.281868
 21
477.398953
 31
0.0
  0
LINE
  5
6C7
100
AcDbEntity
  8
TEXT
100
AcDbLine
 10
764.877868
 20
504.822347
 30
0.0
 11
764.877868
 21
477.398953
 31
0.0
  0
LINE
  5
6C8
100
AcDbEntity
  8
TEXT
100
AcDbLine
 10
787.229868
 20
504.822347
 30
0.0
 11
787.229868
 21
477.398953
 31
0.0
  0
TEXT
  5
6C9
100
AcDbEntity
  8
TEXT
100
AcDbText
 10
688.048837
 20
499.694942
 30
0.0
 40
2.0
  1
01
100
AcDbText
  0
TEXT
  5
6CA
100
AcDbEntity
  8
TEXT
100
AcDbText
 10
699.048837
 20
499.694942
 30
0.0
 40
2.0
  1
ADD ALIGNMENT HOLES
100
AcDbText
  0
TEXT
  5
6CB
100
AcDbEntity
  8
TEXT
100
AcDbText
 10
769.048837
 20
499.694942
 30
0.0
 40
2.0
  1
03-27-96
100
AcDbText
  0
INSERT
  5
716
100
AcDbEntity
  8
TEXT
100
AcDbBlockReference
  2
D-BORDER
 10
0.0
 20
0.0
 30
0.0
 41
25.4
 42
25.4
 43
25.4
  0
LINE
  5
719
100
AcDbEntity
  8
CENTER
100
AcDbLine
 10
267.105769
 20
143.941016
 30
0.0
 11
267.105769
 21
478.868715
 31
0.0
  0
LINE
  5
71A
100
AcDbEntity
  8
CENTER
100
AcDbLine
 10
49.526509
 20
242.711109
 30
0.0
 11
780.136391
 21
242.711109
 31
0.0
  0
LINE
  5
71B
100
AcDbEntity
  8
CENTER
100
AcDbLine
 10
71.188912
 20
142.886485
 30
0.0
 11
427.112396
 21
324.238558
 31
0.0
  0
LINE
  5
71C
100
AcDbEntity
  8
CENTER
100
AcDbLine
 10
223.456111
 20
328.378387
 30
0.0
 11
312.852133
 21
152.928814
 31
0.0
  0
ACAD_ZOMBIE_ENTITY
  5
95F
100
AcDbEntity
  8
DIM
100
AcDbZombieEntity
 90
      498
 91
      515
 92
        8
310
0800000000000000
 93
       97
310
D28000000020290400007802E8
330
960
330
961
330
962
330
963
330
960
 94
        0
  0
CIRCLE
  5
99F
100
AcDbEntity
  8
BEAMS-A
100
AcDbCircle
 10
267.105769
 20
242.711109
 30
0.0
 40
1.19125
  0
DIMENSION
  5
AD2
100
AcDbEntity
  8
DIM
100
AcDbDimension
  2
*D3
 10
266.075661
 20
243.309402
 30
0.0
 11
365.254344
 21
219.120183
 31
0.0
 70
   163
  1
{<>}\P{2X}
  3
STANDARD$3
100
AcDbDiametricDimension
 15
268.135877
 25
242.112817
 35
0.0
 40
0.0
1001
ACAD
1000
DSTYLE
1002
{
1070
   288
1070
     1
1070
    47
1040
0.03
1070
    71
1070
     1
1070
    48
1040
0.03
1070
   272
1070
     2
1070
    75
1070
     1
1070
    40
1040
25.4
1070
     3
1000
mm
1070
   271
1070
     2
1070
     4
1000
"
1070
   274
1070
     3
1070
   143
1040
0.03937
1070
   171
1070
     3
1070
   170
1070
     1
1002
}
  0
MTEXT
  5
AD3
100
AcDbEntity
  8
TEXT
100
AcDbMText
 10
448.419972
 20
184.030761
 30
0.0
 40
4.0
 41
200.0
 71
     1
 72
     1
  3
{MATERIAL: }\P{0.51mm [0.020"] thick Kevlar-Carbon-fiber-Epoxy-composite}\P\P{LAMINATE SCHEDULE:}\P\P{Core:}\P{cloth:  2 layers Kevlar 29 (0.004" thick ea.)}\P{ 1.7 oz/sq. yd. plain weave}\P{epoxy: heat resistant laminating epoxy}\P{ Ciba-Geigy RP400
  3
5R/RP1500H}\P{cure: 24 hrs at room temp. @ 20psi}\P{ 2 hrs postcure at 66°C}\P\P{Skins:}\P{cloth: 1 layer Carbon fiber (0.006" thick)}\P{ xx oz/sq. yd. plain weave}\P{epoxy: heat resistant laminating epoxy}\P{ Ciba-Geigy RP4005R/RP1500H}\P{cure: 24 h
  1
rs at room temp. @ 20psi}\P{ 2 hrs postcure at 66°C}\P\P{LASER CUTTING:}\P{use fixture L4-RIB12}\P
  0
TEXT
  5
B5E
100
AcDbEntity
  8
TEXT
100
AcDbText
 10
634.161386
 20
287.550859
 30
0.0
 40
8.0
  1
SCALE: 10=1
100
AcDbText
  0
TEXT
  5
B5F
100
AcDbEntity
  8
TEXT
100
AcDbText
 10
634.161386
 20
300.884192
 30
0.0
 40
8.0
  1
ENDVIEW
100
AcDbText
  0
DIMENSION
  5
B60
100
AcDbEntity
  8
DIM
100
AcDbDimension
  2
*D4
 10
657.782609
 20
321.276173
 30
0.0
 11
657.782609
 21
336.276173
 31
0.0
 12
-0.658759
 22
9.218081
 32
0.0
 70
    32
  3
STANDARD
100
AcDbAlignedDimension
 13
688.175682
 23
351.276173
 33
0.0
 14
689.699682
 24
321.276173
 34
0.0
 50
90.0
100
AcDbRotatedDimension
1001
ACAD
1000
DSTYLE
1002
{
1070
    47
1040
0.03
1070
    48
1040
0.03
1070
   272
1070
     2
1070
    40
1040
25.4
1070
     3
1000
mm
1070
   144
1040
0.1
1070
   271
1070
     2
1070
     4
1000
"
1070
   274
1070
     3
1070
   143
1040
0.03937
1070
   171
1070
     3
1070
   170
1070
     1
1002
}
  0
DIMENSION
  5
B61
100
AcDbEntity
  8
DIM
100
AcDbDimension
  2
*D5
 10
688.175682
 20
455.684177
 30
0.0
 11
627.596682
 21
455.684177
 31
0.0
 12
-0.658759
 22
9.218081
 32
0.0
 70
    32
  3
STANDARD
100
AcDbAlignedDimension
 13
689.699682
 23
421.276173
 33
0.0
 14
688.175682
 24
421.276173
 34
0.0
100
AcDbRotatedDimension
1001
ACAD
1000
DSTYLE
1002
{
1070
    47
1040
0.03
1070
    71
1070
     1
1070
    48
1040
0.03
1070
   272
1070
     2
1070
    40
1040
25.4
1070
     3
1000
mm
1070
   144
1040
0.1
1070
   271
1070
     2
1070
     4
1000
"
1070
   274
1070
     3
1070
   143
1040
0.03937
1070
   171
1070
     3
1070
   170
1070
     1
1002
}
  0
DIMENSION
  5
B62
100
AcDbEntity
  8
DIM
100
AcDbDimension
  2
*D6
 10
693.255682
 20
442.982703
 30
0.0
 11
753.834682
 21
442.982703
 31
0.0
 12
-0.658759
 22
9.218081
 32
0.0
 70
    32
  3
STANDARD
100
AcDbAlignedDimension
 13
691.731682
 23
421.276173
 33
0.0
 14
693.255682
 24
421.276173
 34
0.0
100
AcDbRotatedDimension
1001
ACAD
1000
DSTYLE
1002
{
1070
    47
1040
0.03
1070
    71
1070
     1
1070
    48
1040
0.03
1070
   272
1070
     2
1070
    40
1040
25.4
1070
     3
1000
mm
1070
   144
1040
0.1
1070
   271
1070
     2
1070
     4
1000
"
1070
   274
1070
     3
1070
   143
1040
0.03937
1070
   171
1070
     3
1070
   170
1070
     1
1002
}
  0
DIMENSION
  5
B63
100
AcDbEntity
  8
DIM
100
AcDbDimension
  2
*D7
 10
693.255682
 20
430.666123
 30
0.0
 11
753.834682
 21
430.666123
 31
0.0
 12
-0.658759
 22
9.218081
 32
0.0
 70
    32
  3
STANDARD
100
AcDbAlignedDimension
 13
688.175682
 23
421.276173
 33
0.0
 14
693.255682
 24
421.276173
 34
0.0
100
AcDbRotatedDimension
1001
ACAD
1000
DSTYLE
1002
{
1070
    47
1040
0.03
1070
    71
1070
     1
1070
    48
1040
0.03
1070
   272
1070
     2
1070
    40
1040
25.4
1070
     3
1000
mm
1070
   144
1040
0.1
1070
   271
1070
     2
1070
     4
1000
"
1070
   274
1070
     3
1070
   143
1040
0.03937
1070
   171
1070
     3
1070
   170
1070
     1
1002
}
  0
MTEXT
  5
B64
100
AcDbEntity
  8
KEVLAR
100
AcDbMText
 10
716.89389
 20
361.400581
 30
0.0
 40
4.572
 41
0.0
 71
     4
 72
     1
  1
{KEVLAR}
  0
LEADER
  5
B65
100
AcDbEntity
  8
KEVLAR
100
AcDbLeader
  3
STANDARD
 73
     0
 74
     0
 75
     1
 40
4.572
 41
27.432
 76
     3
 10
690.432656
 20
331.318182
 30
0.0
 10
710.03589
 20
361.400581
 30
0.0
 10
714.60789
 20
361.400581
 30
0.0
 77
   256
1001
ACAD
1000
DSTYLE
1002
{
1070
   288
1070
     1
1070
    47
1040
0.03
1070
    71
1070
     1
1070
    48
1040
0.03
1070
   272
1070
     2
1070
    76
1070
     1
1070
    40
1040
25.4
1070
     3
1000
mm
1070
   271
1070
     2
1070
     4
1000
"
1070
   274
1070
     3
1070
   143
1040
0.03937
1070
   171
1070
     3
1070
   170
1070
     1
1002
}
  0
LEADER
  5
B66
100
AcDbEntity
  8
C-FIBER
100
AcDbLeader
  3
STANDARD
 76
     2
 10
688.849817
 20
376.907229
 30
0.0
 10
715.179712
 20
400.838622
 30
0.0
 77
   256
1001
ACAD
1000
DSTYLE
1002
{
1070
   288
1070
     1
1070
    47
1040
0.03
1070
    71
1070
     1
1070
    48
1040
0.03
1070
   272
1070
     2
1070
    76
1070
     1
1070
    40
1040
25.4
1070
     3
1000
mm
1070
   271
1070
     2
1070
     4
1000
"
1070
   274
1070
     3
1070
   143
1040
0.03937
1070
   171
1070
     3
1070
   170
1070
     1
1002
}
  0
MTEXT
  5
B67
100
AcDbEntity
  8
C-FIBER
100
AcDbMText
 10
722.696471
 20
391.620541
 30
0.0
 40
4.572
 41
0.0
 71
     4
 72
     1
  1
{CARBON FIBER}
  0
LEADER
  5
B68
100
AcDbEntity
  8
C-FIBER
100
AcDbLeader
  3
STANDARD
 73
     0
 74
     0
 75
     1
 40
4.572
 41
51.816
 76
     3
 10
692.913279
 20
368.544034
 30
0.0
 10
715.179712
 20
400.838622
 30
0.0
 10
719.751712
 20
400.838622
 30
0.0
 77
   256
1001
ACAD
1000
DSTYLE
1002
{
1070
   288
1070
     1
1070
    47
1040
0.03
1070
    71
1070
     1
1070
    48
1040
0.03
1070
   272
1070
     2
1070
    76
1070
     1
1070
    40
1040
25.4
1070
     3
1000
mm
1070
   271
1070
     2
1070
     4
1000
"
1070
   274
1070
     3
1070
   143
1040
0.03937
1070
   171
1070
     3
1070
   170
1070
     1
1002
}
  0
POLYLINE
  5
B69
100
AcDbEntity
  8
C-FIBER
100
AcDb2dPolyline
 66
     1
 10
0.0
 20
0.0
 30
0.0
 70
     1
  0
VERTEX
  5
B6A
100
AcDbEntity
  8
C-FIBER
100
AcDbVertex
100
AcDb2dVertex
 10
689.699682
 20
421.276173
 30
0.0
  0
VERTEX
  5
B6B
100
AcDbEntity
  8
C-FIBER
100
AcDbVertex
100
AcDb2dVertex
 10
689.699682
 20
351.276173
 30
0.0
  0
VERTEX
  5
B6C
100
AcDbEntity
  8
C-FIBER
100
AcDbVertex
100
AcDb2dVertex
 10
688.175682
 20
351.276173
 30
0.0
  0
VERTEX
  5
B6D
100
AcDbEntity
  8
C-FIBER
100
AcDbVertex
100
AcDb2dVertex
 10
688.175682
 20
421.276173
 30
0.0
  0
SEQEND
  5
B6E
100
AcDbEntity
  8
C-FIBER
  0
POLYLINE
  5
B6F
100
AcDbEntity
  8
C-FIBER
100
AcDb2dPolyline
 66
     1
 10
0.0
 20
0.0
 30
0.0
 70
     1
  0
VERTEX
  5
B70
100
AcDbEntity
  8
C-FIBER
100
AcDbVertex
100
AcDb2dVertex
 10
691.731682
 20
421.276173
 30
0.0
  0
VERTEX
  5
B71
100
AcDbEntity
  8
C-FIBER
100
AcDbVertex
100
AcDb2dVertex
 10
691.731682
 20
351.276173
 30
0.0
  0
VERTEX
  5
B72
100
AcDbEntity
  8
C-FIBER
100
AcDbVertex
100
AcDb2dVertex
 10
693.255682
 20
351.276173
 30
0.0
  0
VERTEX
  5
B73
100
AcDbEntity
  8
C-FIBER
100
AcDbVertex
100
AcDb2dVertex
 10
693.255682
 20
421.276173
 30
0.0
  0
SEQEND
  5
B74
100
AcDbEntity
  8
C-FIBER
  0
POLYLINE
  5
B75
100
AcDbEntity
  8
TEXT
100
AcDb2dPolyline
 66
     1
 10
0.0
 20
0.0
 30
0.0
 70
     1
  0
VERTEX
  5
B76
100
AcDbEntity
  8
TEXT
100
AcDbVertex
100
AcDb2dVertex
 10
689.699682
 20
321.276173
 30
0.0
  0
VERTEX
  5
B77
100
AcDbEntity
  8
TEXT
100
AcDbVertex
100
AcDb2dVertex
 10
689.699682
 20
421.276173
 30
0.0
  0
VERTEX
  5
B78
100
AcDbEntity
  8
TEXT
100
AcDbVertex
100
AcDb2dVertex
 10
691.731682
 20
421.276173
 30
0.0
  0
VERTEX
  5
B79
100
AcDbEntity
  8
TEXT
100
AcDbVertex
100
AcDb2dVertex
 10
691.731682
 20
321.276173
 30
0.0
  0
SEQEND
  5
B7A
100
AcDbEntity
  8
TEXT
  0
TEXT
  5
BE8
100
AcDbEntity
  8
TEXT
100
AcDbText
 10
806.061469
 20
24.430173
 30
0.0
 40
3.0
  1
03
100
AcDbText
  0
DIMENSION
  5
D03
100
AcDbEntity
  8
DIM
100
AcDbDimension
  2
*D9
 10
267.105769
 20
382.298989
 30
0.0
 11
228.624769
 21
382.298989
 31
0.0
 70
    32
  3
STANDARD
100
AcDbAlignedDimension
 13
319.444236
 23
263.849336
 33
0.0
 14
267.105769
 24
478.868715
 34
0.0
100
AcDbRotatedDimension
1001
ACAD
1000
DSTYLE
1002
{
1070
    47
1040
0.03
1070
    48
1040
0.03
1070
   272
1070
     2
1070
    76
1070
     1
1070
    40
1040
25.4
1070
     3
1000
mm
1070
   271
1070
     2
1070
     4
1000
"
1070
   274
1070
     3
1070
   143
1040
0.03937
1070
   171
1070
     3
1070
   170
1070
     1
1002
}
  0
DIMENSION
  5
D10
100
AcDbEntity
  8
DIM
100
AcDbDimension
  2
*D10
 10
267.105769
 20
399.061104
 30
0.0
 11
318.363744
 21
399.061104
 31
0.0
 70
    32
  3
STANDARD
100
AcDbAlignedDimension
 13
369.621719
 23
263.849336
 33
0.0
 14
267.105769
 24
478.868715
 34
0.0
100
AcDbRotatedDimension
1001
ACAD
1000
DSTYLE
1002
{
1070
    47
1040
0.03
1070
    48
1040
0.03
1070
   272
1070
     2
1070
    76
1070
     1
1070
    40
1040
25.4
1070
     3
1000
mm
1070
   271
1070
     2
1070
     4
1000
"
1070
   274
1070
     3
1070
   143
1040
0.03937
1070
   171
1070
     3
1070
   170
1070
     1
1002
}
  0
DIMENSION
  5
D1D
100
AcDbEntity
  8
DIM
100
AcDbDimension
  2
*D11
 10
267.105769
 20
410.585057
 30
0.0
 11
320.363744
 21
410.585057
 31
0.0
 70
    32
  3
STANDARD
100
AcDbAlignedDimension
 13
373.621719
 23
263.849336
 33
0.0
 14
267.105769
 24
478.868715
 34
0.0
100
AcDbRotatedDimension
1001
ACAD
1000
DSTYLE
1002
{
1070
    47
1040
0.03
1070
    48
1040
0.03
1070
   272
1070
     2
1070
    76
1070
     1
1070
    40
1040
25.4
1070
     3
1000
mm
1070
   271
1070
     2
1070
     4
1000
"
1070
   274
1070
     3
1070
   143
1040
0.03937
1070
   171
1070
     3
1070
   170
1070
     1
1002
}
  0
DIMENSION
  5
D2A
100
AcDbEntity
  8
DIM
100
AcDbDimension
  2
*D12
 10
267.105769
 20
423.855065
 30
0.0
 11
345.301244
 21
423.855065
 31
0.0
 70
    32
  3
STANDARD
100
AcDbAlignedDimension
 13
423.496719
 23
263.849336
 33
0.0
 14
267.105769
 24
478.868715
 34
0.0
100
AcDbRotatedDimension
1001
ACAD
1000
DSTYLE
1002
{
1070
    47
1040
0.03
1070
    48
1040
0.03
1070
   272
1070
     2
1070
    76
1070
     1
1070
    40
1040
25.4
1070
     3
1000
mm
1070
   271
1070
     2
1070
     4
1000
"
1070
   274
1070
     3
1070
   143
1040
0.03937
1070
   171
1070
     3
1070
   170
1070
     1
1002
}
  0
DIMENSION
  5
D37
100
AcDbEntity
  8
DIM
100
AcDbDimension
  2
*D13
 10
267.105769
 20
436.07744
 30
0.0
 11
347.301244
 21
436.07744
 31
0.0
 70
    32
  3
STANDARD
100
AcDbAlignedDimension
 13
427.496719
 23
263.849336
 33
0.0
 14
267.105769
 24
478.868715
 34
0.0
100
AcDbRotatedDimension
1001
ACAD
1000
DSTYLE
1002
{
1070
    47
1040
0.03
1070
    48
1040
0.03
1070
   272
1070
     2
1070
    76
1070
     1
1070
    40
1040
25.4
1070
     3
1000
mm
1070
   271
1070
     2
1070
     4
1000
"
1070
   274
1070
     3
1070
   143
1040
0.03937
1070
   171
1070
     3
1070
   170
1070
     1
1002
}
  0
DIMENSION
  5
D87
100
AcDbEntity
  8
DIM
100
AcDbDimension
  2
*D14
 10
267.105769
 20
460.323296
 30
0.0
 11
372.738756
 21
460.323296
 31
0.0
 70
    32
  3
STANDARD
100
AcDbAlignedDimension
 13
478.371743
 23
270.599843
 33
0.0
 14
267.105769
 24
478.868715
 34
0.0
100
AcDbRotatedDimension
1001
ACAD
1000
DSTYLE
1002
{
1070
    47
1040
0.03
1070
    48
1040
0.03
1070
   272
1070
     2
1070
    76
1070
     1
1070
    40
1040
25.4
1070
     3
1000
mm
1070
   271
1070
     2
1070
     4
1000
"
1070
   274
1070
     3
1070
   143
1040
0.03937
1070
   171
1070
     3
1070
   170
1070
     1
1002
}
  0
DIMENSION
  5
D94
100
AcDbEntity
  8
DIM
100
AcDbDimension
  2
*D15
 10
262.608326
 20
369.727404
 30
0.0
 11
226.794326
 21
369.727404
 31
0.0
 70
    32
  3
STANDARD
100
AcDbAlignedDimension
 13
267.105769
 23
143.941016
 33
0.0
 14
262.608326
 24
237.133454
 34
0.0
100
AcDbRotatedDimension
1001
ACAD
1000
DSTYLE
1002
{
1070
    47
1040
0.03
1070
    48
1040
0.03
1070
   272
1070
     2
1070
    75
1070
     1
1070
    40
1040
25.4
1070
     3
1000
mm
1070
   271
1070
     2
1070
     4
1000
"
1070
   274
1070
     3
1070
   143
1040
0.03937
1070
   171
1070
     3
1070
   170
1070
     1
1002
}
  0
DIMENSION
  5
DA2
100
AcDbEntity
  8
DIM
100
AcDbDimension
  2
*D16
 10
602.787498
 20
242.711109
 30
0.0
 11
538.246098
 21
233.567109
 31
0.0
 70
    32
  3
STANDARD
100
AcDbAlignedDimension
 13
478.371743
 23
260.599872
 33
0.0
 14
780.136391
 24
242.711109
 34
0.0
 50
90.0
100
AcDbRotatedDimension
1001
ACAD
1000
DSTYLE
1002
{
1070
    47
1040
0.05
1070
    71
1070
     1
1070
   272
1070
     2
1070
    76
1070
     1
1070
    40
1040
25.4
1070
     3
1000
mm
1070
   271
1070
     2
1070
     4
1000
"
1070
   274
1070
     3
1070
   143
1040
0.03937
1070
   171
1070
     3
1070
   170
1070
     1
1002
}
  0
DIMENSION
  5
DAF
100
AcDbEntity
  8
DIM
100
AcDbDimension
  2
*D17
 10
745.615423
 20
242.711109
 30
0.0
 11
745.615423
 21
256.655476
 31
0.0
 70
    32
  3
STANDARD
100
AcDbAlignedDimension
 13
478.371743
 23
270.599843
 33
0.0
 14
780.136391
 24
242.711109
 34
0.0
 50
90.0
100
AcDbRotatedDimension
1001
ACAD
1000
DSTYLE
1002
{
1070
    47
1040
0.05
1070
   272
1070
     2
1070
    76
1070
     1
1070
    40
1040
25.4
1070
     3
1000
mm
1070
   271
1070
     2
1070
     4
1000
"
1070
   274
1070
     3
1070
   143
1040
0.03937
1070
   171
1070
     3
1070
   170
1070
     1
1002
}
  0
DIMENSION
  5
DBD
100
AcDbEntity
  8
DIM
100
AcDbDimension
  2
*D18
 10
231.497424
 20
216.887054
 30
0.0
 11
179.160325
 21
179.957419
 31
0.0
 70
    32
 51
333.0
  3
STANDARD
100
AcDbAlignedDimension
 13
71.188912
 23
142.886485
 33
0.0
 14
264.607165
 24
233.757309
 34
0.0
 50
117.0
100
AcDbRotatedDimension
1001
ACAD
1000
DSTYLE
1002
{
1070
    71
1070
     1
1070
    48
1040
0.05
1070
   272
1070
     2
1070
    75
1070
     1
1070
    40
1040
25.4
1070
     3
1000
mm
1070
   271
1070
     2
1070
     4
1000
"
1070
   274
1070
     3
1070
   143
1040
0.03937
1070
   171
1070
     3
1070
   170
1070
     1
1002
}
  0
DIMENSION
  5
DCB
100
AcDbEntity
  8
DIM
100
AcDbDimension
  2
*D19
 10
114.321625
 20
164.8637
 30
0.0
 11
90.975562
 21
142.705735
 31
0.0
 70
    32
 51
333.0
  3
STANDARD
100
AcDbAlignedDimension
 13
245.558589
 23
235.274872
 33
0.0
 14
71.188912
 24
142.886485
 34
0.0
 50
117.0
100
AcDbRotatedDimension
1001
ACAD
1000
DSTYLE
1002
{
1070
    48
1040
0.05
1070
   272
1070
     2
1070
    76
1070
     1
1070
    40
1040
25.4
1070
     3
1000
mm
1070
   271
1070
     2
1070
     4
1000
"
1070
   274
1070
     3
1070
   143
1040
0.03937
1070
   171
1070
     3
1070
   170
1070
     1
1002
}
  0
DIMENSION
  5
DD9
100
AcDbEntity
  8
DIM
100
AcDbDimension
  2
*D20
 10
199.369668
 20
233.274872
 30
0.0
 11
166.984668
 21
224.130872
 31
0.0
 70
    32
  3
STANDARD
100
AcDbAlignedDimension
 13
49.526509
 23
242.711109
 33
0.0
 14
260.716679
 24
233.274872
 34
0.0
 50
90.0
100
AcDbRotatedDimension
1001
ACAD
1000
DSTYLE
1002
{
1070
    48
1040
0.05
1070
   272
1070
     2
1070
    75
1070
     1
1070
    40
1040
25.4
1070
     3
1000
mm
1070
   271
1070
     2
1070
     4
1000
"
1070
   274
1070
     3
1070
   143
1040
0.03937
1070
   171
1070
     3
1070
   170
1070
     1
1002
}
  0
DIMENSION
  5
DE7
100
AcDbEntity
  8
DIM
100
AcDbDimension
  2
*D21
 10
133.041211
 20
235.274872
 30
0.0
 11
100.656211
 21
226.130872
 31
0.0
 70
    32
  3
STANDARD
100
AcDbAlignedDimension
 13
49.526509
 23
242.711109
 33
0.0
 14
245.558589
 24
235.274872
 34
0.0
 50
90.0
100
AcDbRotatedDimension
1001
ACAD
1000
DSTYLE
1002
{
1070
    48
1040
0.05
1070
   272
1070
     2
1070
    75
1070
     1
1070
    40
1040
25.4
1070
     3
1000
mm
1070
   271
1070
     2
1070
     4
1000
"
1070
   274
1070
     3
1070
   143
1040
0.03937
1070
   171
1070
     3
1070
   170
1070
     1
1002
}
  0
DIMENSION
  5
DF4
100
AcDbEntity
  8
DIM
100
AcDbDimension
  2
*D22
 10
225.668068
 20
324.037177
 30
0.0
 11
191.041772
 21
306.394198
 31
0.0
 70
    32
 51
333.0
  3
STANDARD
100
AcDbAlignedDimension
 13
314.887748
 23
270.599843
 33
0.0
 14
223.456111
 24
328.378387
 34
0.0
 50
27.0
100
AcDbRotatedDimension
1001
ACAD
1000
DSTYLE
1002
{
1070
    48
1040
0.05
1070
   272
1070
     2
1070
    76
1070
     1
1070
    40
1040
25.4
1070
     3
1000
mm
1070
   271
1070
     2
1070
     4
1000
"
1070
   274
1070
     3
1070
   143
1040
0.03937
1070
   171
1070
     3
1070
   170
1070
     1
1002
}
  0
DIMENSION
  5
E01
100
AcDbEntity
  8
DIM
100
AcDbDimension
  2
*D23
 10
230.924781
 20
313.720297
 30
0.0
 11
196.637959
 21
296.250288
 31
0.0
 70
    32
 51
333.0
  3
STANDARD
100
AcDbAlignedDimension
 13
316.808596
 23
262.59992
 33
0.0
 14
223.456111
 24
328.378387
 34
0.0
 50
27.0
100
AcDbRotatedDimension
1001
ACAD
1000
DSTYLE
1002
{
1070
    48
1040
0.05
1070
   272
1070
     2
1070
    76
1070
     1
1070
    40
1040
25.4
1070
     3
1000
mm
1070
   271
1070
     2
1070
     4
1000
"
1070
   274
1070
     3
1070
   143
1040
0.03937
1070
   171
1070
     3
1070
   170
1070
     1
1002
}
  0
DIMENSION
  5
E0E
100
AcDbEntity
  8
DIM
100
AcDbDimension
  2
*D24
 10
236.595358
 20
302.591162
 30
0.0
 11
202.308536
 21
285.121153
 31
0.0
 70
    32
 51
333.0
  3
STANDARD
100
AcDbAlignedDimension
 13
313.959699
 23
262.384618
 33
0.0
 14
223.456111
 24
328.378387
 34
0.0
 50
27.0
100
AcDbRotatedDimension
1001
ACAD
1000
DSTYLE
1002
{
1070
    48
1040
0.05
1070
   272
1070
     2
1070
    76
1070
     1
1070
    40
1040
25.4
1070
     3
1000
mm
1070
   271
1070
     2
1070
     4
1000
"
1070
   274
1070
     3
1070
   143
1040
0.03937
1070
   171
1070
     3
1070
   170
1070
     1
1002
}
  0
DIMENSION
  5
E1B
100
AcDbEntity
  8
DIM
100
AcDbDimension
  2
*D25
 10
221.999834
 20
281.511533
 30
0.0
 11
187.034065
 21
263.695584
 31
0.0
 70
    32
 51
333.0
  3
STANDARD
100
AcDbAlignedDimension
 13
223.456111
 23
328.378387
 33
0.0
 14
245.558589
 24
235.274872
 34
0.0
 50
27.0
100
AcDbRotatedDimension
1001
ACAD
1000
DSTYLE
1002
{
1070
    48
1040
0.05
1070
   272
1070
     2
1070
    75
1070
     1
1070
    40
1040
25.4
1070
     3
1000
mm
1070
   271
1070
     2
1070
     4
1000
"
1070
   274
1070
     3
1070
   143
1040
0.03937
1070
   171
1070
     3
1070
   170
1070
     1
1002
}
  0
DIMENSION
  5
E29
100
AcDbEntity
  8
DIM
100
AcDbDimension
  2
*D26
 10
267.105769
 20
478.868715
 30
0.0
 11
288.539869
 21
153.431656
 31
0.0
 70
    34
  3
STANDARD$2
100
AcDb2LineAngularDimension
 13
223.456111
 23
328.378387
 33
0.0
 14
312.852133
 24
152.928814
 34
0.0
 15
267.105769
 25
143.941016
 35
0.0
 16
297.459613
 26
156.057283
 36
0.0
1001
ACAD
1000
DSTYLE
1002
{
1070
    48
1040
0.05
1070
   272
1070
     2
1070
    75
1070
     1
1070
    40
1040
25.4
1070
   271
1070
     2
1070
     4
1000
"
1070
   274
1070
     3
1070
   143
1040
0.03937
1070
   171
1070
     3
1070
   170
1070
     1
1002
}
  0
LINE
  5
E2E
100
AcDbEntity
  8
BEAMS-A
100
AcDbLine
 10
478.371743
 20
263.599872
 30
0.0
 11
316.568425
 21
263.599872
 31
0.0
  0
LINE
  5
E2F
100
AcDbEntity
  8
BEAMS-A
100
AcDbLine
 10
260.977482
 20
235.274872
 30
0.0
 11
316.568425
 21
263.599872
 31
0.0
  0
INSERT
  5
E3E
100
AcDbEntity
  8
ASHADE
 62
     1
100
AcDbBlockReference
  2
AVE_RENDER
 10
0.0
 20
0.0
 30
0.0
1001
AVE_RENDER
1002
{
1070
     6
1000
Pref
1070
    30
1070
    20
1070
     1
1070
     0
1000

1070
    10
1070
     1
1070
    30
1040
1.0
1070
     1
1040
0.3
1040
0.7
1040
0.0
1040
10.0
1010
-1.0
1020
-1.0
1030
-1.0
1040
0.3
1070
    49
1070
     0
1070
     0
1010
1.0
1020
1.0
1030
1.0
1040
45.0
1070
     1
1070
     0
1000
WCS
1040
0.0
1002
}
  0
INSERT
  5
E3F
100
AcDbEntity
  8
ASHADE
 62
     3
100
AcDbBlockReference
  2
AVE_RENDER
 10
0.0
 20
0.0
 30
0.0
1001
AVE_RENDER
1002
{
1070
     0
1000
Full Opt
1070
     0
1070
     1
1070
     1
1070
     1
1070
     0
1070
     0
1070
     0
1070
     1
1070
     1
1040
0.0001
1040
0.0001
1002
}
  0
INSERT
  5
E40
100
AcDbEntity
  8
ASHADE
 62
     4
100
AcDbBlockReference
  2
AVE_RENDER
 10
0.0
 20
0.0
 30
0.0
1001
AVE_RENDER
1002
{
1070
     0
1000
Quick Opt
1070
     0
1070
     1
1070
     1
1070
     1
1070
     0
1070
     0
1070
     1
1002
}
  0
INSERT
  5
E41
100
AcDbEntity
  8
ASHADE
 62
     5
100
AcDbBlockReference
  2
AVE_RENDER
 10
0.0
 20
0.0
 30
0.0
1001
AVE_RENDER
1002
{
1070
     1
1000
Scanl Opt
1070
     2
1070
     0
1070
     2
1040
2.0
1040
4.0
1070
     0
1070
     1
1070
     0
1040
0.03
1002
}
  0
INSERT
  5
E42
100
AcDbEntity
  8
ASHADE
 62
     6
100
AcDbBlockReference
  2
AVE_RENDER
 10
0.0
 20
0.0
 30
0.0
1001
AVE_RENDER
1002
{
1070
     2
1000
Raytr Opt
1070
     2
1070
     0
1070
     2
1040
2.0
1040
4.0
1070
     0
1070
     1
1070
     1
1040
0.03
1070
     3
1040
0.03
1002
}
  0
INSERT
  5
E43
100
AcDbEntity
  8
ASHADE
 62
     7
100
AcDbBlockReference
  2
AVE_RENDER
 10
0.0
 20
0.0
 30
0.0
1001
AVE_RENDER
1002
{
1070
     0
1000
RFile Opt
1070
     5
1070
   640
1070
   480
1070
 10000
1070
     3
1070
    32
1070
    24
1070
     0
1070
     0
1070
     0
1070
     1
1070
     0
1070
     0
1070
     0
1002
}
  0
INSERT
  5
E44
100
AcDbEntity
  8
ASHADE
 62
     8
100
AcDbBlockReference
  2
AVE_RENDER
 10
0.0
 20
0.0
 30
0.0
1001
AVE_RENDER
1002
{
1070
     0
1000
Fog Opt
1070
     0
1070
     0
1040
0.0
1040
1.0
1040
0.0
1040
1.0
1010
0.5
1020
0.5
1030
0.5
1002
}
  0
INSERT
  5
E45
100
AcDbEntity
  8
ASHADE
 62
     9
100
AcDbBlockReference
  2
AVE_RENDER
 10
0.0
 20
0.0
 30
0.0
1001
AVE_RENDER
1002
{
1070
     0
1000
BG Opt
1070
     0
1070
     1
1010
0.0
1020
0.0
1030
0.0
1010
1.0
1020
0.0
1030
0.0
1010
0.0
1020
1.0
1030
0.0
1010
0.0
1020
0.0
1030
1.0
1040
0.5
1040
0.33
1040
0.0
1000

1070
     1
1000

1070
     1
1070
     1
1040
1.0
1040
1.0
1040
0.0
1040
0.0
1070
     0
1002
}
  0
INSERT
  5
E4C
100
AcDbEntity
  8
ASHADE
 62
     1
100
AcDbBlockReference
  2
AVE_GLOBAL
 10
0.0
 20
0.0
 30
0.0
1001
AVE_MATERIAL
1002
{
1000
*GLOBAL*
1000
1
1000
Global finish.
1002
{
1002
}
1002
{
1070
    63
1002
{
1002
{
1010
-1.0
1020
-1.0
1030
-1.0
1002
}
1040
0.1
1000

1040
0.0
1002
{
1002
}
1040
0.0
1002
{
1002
}
1040
0.0
1002
}
1002
{
1002
{
1010
-1.0
1020
-1.0
1030
-1.0
1002
}
1040
0.7
1000

1040
0.0
1002
{
1002
}
1040
0.0
1002
{
1002
}
1040
0.0
1002
}
1002
{
1002
{
1010
-1.0
1020
-1.0
1030
-1.0
1002
}
1040
0.2
1000

1040
0.0
1002
{
1002
}
1040
0.0
1002
{
1002
}
1040
0.0
1002
}
1002
{
1070
     0
1002
{
1070
     1
1002
{
1040
1.0
1040
1.0
1000

1040
0.0
1002
{
1002
}
1040
0.0
1002
{
1002
}
1040
0.0
1002
}
1002
}
1040
1.0
1040
0.0
1040
0.0
1002
}
1002
{
1040
1.0
1040
1.0
1000

1040
0.0
1002
{
1002
}
1040
0.0
1002
{
1002
}
1040
0.0
1002
}
1002
{
1040
0.5
1040
1.0
1000

1040
0.0
1002
{
1002
}
1040
0.0
1002
{
1002
}
1040
0.0
1002
}
1002
{
1070
     0
1040
0.0
1002
{
1002
}
1040
1.0
1002
{
1002
}
1040
0.0
1002
}
1002
{
1040
0.0
1002
{
1002
{
1010
0.0
1020
0.0
1030
0.0
1002
}
1040
1.0
1000

1040
0.0
1002
{
1002
}
1040
0.0
1002
{
1002
}
1040
0.0
1002
}
1002
}
1002
{
1002
{
1070
     1
1002
{
1040
0.0
1040
1.0
1000

1040
0.0
1002
{
1002
}
1040
0.0
1002
{
1002
}
1040
0.0
1002
}
1002
}
1040
0.0
1002
{
1002
}
1010
1.0
1020
0.0
1030
0.0
1010
0.0
1020
1.0
1030
0.0
1010
0.0
1020
0.0
1030
1.0
1070
     0
1002
}
1002
{
1002
{
1040
1.0
1040
1.0
1002
{
1070
     1
1002
{
1040
1.0
1040
1.0
1000

1040
0.0
1002
{
1002
}
1040
0.0
1002
{
1002
}
1040
0.0
1002
}
1002
}
1002
}
1070
     0
1040
0.0
1002
{
1002
}
1002
}
1002
{
1002
}
1002
}
1002
{
1071
        3
1070
     3
1070
     0
1002
{
1070
     2
1070
     0
1070
     0
1040
0.0
1002
}
1070
     0
1070
     2
1002
{
1002
}
1002
}
1002
{
1040
8030.0
1040
190.300003
1040
0.305
1040
228.0
1040
545.0
1040
14.0
1040
17.4
1040
0.456
1002
}
1002
}
  0
CIRCLE
  5
E54
100
AcDbEntity
  8
KEVLAR
100
AcDbCircle
 10
468.371743
 20
267.099858
 30
0.0
 40
1.1905
  0
LINE
  5
E55
100
AcDbEntity
  8
CENTER
100
AcDbLine
 10
470.323009
 20
267.099858
 30
0.0
 11
465.99703
 21
267.099858
 31
0.0
  0
LINE
  5
E56
100
AcDbEntity
  8
CENTER
100
AcDbLine
 10
468.371743
 20
264.958977
 30
0.0
 11
468.371743
 21
269.128619
 31
0.0
  0
DIMENSION
  5
E6E
100
AcDbEntity
  8
DIM
100
AcDbDimension
  2
*D29
 10
267.105769
 20
447.834593
 30
0.0
 11
367.738756
 21
447.834593
 31
0.0
 70
    32
  3
STANDARD
100
AcDbAlignedDimension
 13
468.371743
 23
269.128619
 33
0.0
 14
267.105769
 24
478.868715
 34
0.0
100
AcDbRotatedDimension
1001
ACAD
1000
DSTYLE
1002
{
1070
    47
1040
0.03
1070
    71
1070
     1
1070
    48
1040
0.03
1070
   272
1070
     2
1070
    76
1070
     1
1070
    40
1040
25.4
1070
   271
1070
     2
1070
     4
1000
"
1070
   274
1070
     3
1070
   143
1040
0.03937
1070
   171
1070
     3
1070
   170
1070
     1
1002
}
  0
DIMENSION
  5
E9E
100
AcDbEntity
  8
DIM
100
AcDbDimension
  2
*D30
 10
666.125953
 20
242.711109
 30
0.0
 11
666.125953
 21
254.905484
 31
0.0
 70
    32
  3
STANDARD
100
AcDbAlignedDimension
 13
470.323009
 23
267.099858
 33
0.0
 14
780.136391
 24
242.711109
 34
0.0
 50
90.0
100
AcDbRotatedDimension
1001
ACAD
1000
DSTYLE
1002
{
1070
    47
1040
0.03
1070
    71
1070
     1
1070
    48
1040
0.03
1070
   272
1070
     2
1070
    76
1070
     1
1070
    40
1040
25.4
1070
   271
1070
     2
1070
     4
1000
"
1070
   274
1070
     3
1070
   143
1040
0.03937
1070
   171
1070
     3
1070
   170
1070
     1
1002
}
  0
TEXT
  5
EA9
100
AcDbEntity
  8
TEXT
100
AcDbText
 10
687.979217
 20
495.599914
 30
0.0
 40
2.0
  1
02
100
AcDbText
  0
TEXT
  5
EAA
100
AcDbEntity
  8
TEXT
100
AcDbText
 10
696.979217
 20
495.599914
 30
0.0
 40
2.0
  1
CHANGE LOCATION OF LOCATING HOLES
100
AcDbText
  0
TEXT
  5
EAB
100
AcDbEntity
  8
TEXT
100
AcDbText
 10
768.864774
 20
495.599914
 30
0.0
 40
2.0
  1
01-07-97
100
AcDbText
  0
TEXT
  5
EAC
100
AcDbEntity
  8
TEXT
100
AcDbText
 10
696.979217
 20
492.297681
 30
0.0
 40
2.0
  1
CHANGE MATERIAL TO CARBON-FIBER -
100
AcDbText
  0
TEXT
  5
EAD
100
AcDbEntity
  8
TEXT
100
AcDbText
 10
696.979217
 20
489.249466
 30
0.0
 40
2.0
  1
KEVLAR COMPOSITE
100
AcDbText
  0
TEXT
  5
EAE
100
AcDbEntity
  8
TEXT
100
AcDbText
 10
687.979217
 20
484.86654
 30
0.0
 40
2.0
  1
03
100
AcDbText
  0
TEXT
  5
EAF
100
AcDbEntity
  8
TEXT
100
AcDbText
 10
696.979217
 20
484.86654
 30
0.0
 40
2.0
  1
ADD SECOND LOCATING HOLE
100
AcDbText
  0
TEXT
  5
EB0
100
AcDbEntity
  8
TEXT
100
AcDbText
 10
768.864774
 20
484.86654
 30
0.0
 40
2.0
  1
03-18-97
100
AcDbText
  0
ENDSEC
  0
SECTION
  2
OBJECTS
  0
DICTIONARY
  5
C
100
AcDbDictionary
  3
ACAD_GROUP
350
D
  3
ACAD_MLINESTYLE
350
E
  3
ACASAPPOBJECT
350
99B
  3
ACASGREF_MASTER
350
94F
  3
ACCELVIEW
350
BE9
  3
ACDMSYSVARMGR
350
96B
  3
ACGREF_MASTER
350
94D
  3
ACME_COMMAND_HISTORY
350
94B
  3
ACME_SCOPE_NAME
350
94A
  3
AD_APPL
350
95E
  3
AD_DRAWMGR_NAME
350
97E
  3
AD_GREF_MODULE
350
966
  3
AD_HOLENOTE_REPOSITORY
350
965
  3
ADSYSVARMGR
350
954
  3
AMI_MASTER
350
94E
  3
AUTOCAD_ASSEMBLIES_PROJECT
350
98A
  3
DESIGNER_ASSEMBLIES_SYSVARS
350
985
  0
DICTIONARY
  5
D
102
{ACAD_REACTORS
330
C
102
}
100
AcDbDictionary
  0
DICTIONARY
  5
E
102
{ACAD_REACTORS
330
C
102
}
100
AcDbDictionary
  3
STANDARD
350
13
  0
ACAD_ZOMBIE_OBJECT
  5
99B
102
{ACAD_REACTORS
330
C
102
}
100
AcDbZombieObject
 90
      499
 91
      536
 93
        2
310
90
360
999
 94
        0
  0
ACAD_ZOMBIE_OBJECT
  5
94F
102
{ACAD_REACTORS
330
C
102
}
100
AcDbZombieObject
 90
      499
 91
      505
 93
       34
310
0100004053
 94
        0
  0
ACAD_ZOMBIE_OBJECT
  5
BE9
102
{ACAD_REACTORS
330
C
102
}
100
AcDbZombieObject
 90
      499
 91
      537
 93
       12
310
9254
330
95F
330
99F
330
0
330
0
330
0
330
0
330
0
330
0
330
0
330
0
330
0
330
0
330
0
330
0
330
0
330
0
330
0
330
0
330
0
330
AD2
330
AD3
330
B5E
330
B5F
330
B60
330
B61
330
B62
330
B63
330
B64
330
B65
330
B66
330
B67
330
B68
330
B69
330
B6F
330
B75
330
0
330
BE8
 94
        0
  0
ACAD_ZOMBIE_OBJECT
  5
96B
102
{ACAD_REACTORS
330
C
102
}
100
AcDbZombieObject
 90
      499
 91
      510
 93
      176
310
4C5114810100000000000000000000000000000000004F
330
96C
330
96D
330
96E
330
96F
330
970
330
971
330
973
330
974
330
975
330
976
330
977
330
978
330
979
330
97A
330
97B
330
97C
330
97D
 94
        0
  0
ACAD_ZOMBIE_OBJECT
  5
94D
102
{ACAD_REACTORS
330
C
102
}
100
AcDbZombieObject
 90
      499
 91
      503
 93
      114
310
01000040C000000000000000000000
 94
        0
  0
ACAD_ZOMBIE_OBJECT
  5
94B
102
{ACAD_REACTORS
330
C
102
}
100
AcDbZombieObject
 90
      499
 91
      501
 93
     4198
310
478050444494D31404050A4E202D20534554564152014115539113E014115539113E0140D11253502014293880B48155411105511405184D5347202D20436F6D6D616E642043414E43454C4C45442E014115539113E014115539113E01411112534C5010142D3880B48149154D513D4914050444494D31404050A4E202D205
310
3455456415201411112534C501014293880B4814D1551590548050444494D31404050A4E202D2053455456415201411112534C501014293880B4814D1551590548050444494D31404050A4E202D2053455456415201411112534C501014293880B4814D15515905480504554E444F80504554E444F8050344494D40C050A4E
310
202D20555044415445014293880B48149151149055C05184D5347202D20436F6D6D616E642043414E43454C4C45442E014115539113E014115539113E01411112534C5010142D3880B48149154D513D4914050444494D31404050A4E202D2053455456415201411112534C501014293880B4814D1551590548050444494D31
310
404050A4E202D2053455456415201411112534C501014293880B4814D1551590548050444494D31404050A4E202D2053455456415201411112534C501014293880B4814D15515905480504554E444F80504554E444F8050344494D408050A4E202D2055504441544501461354D1C80B4810DBDB5B585B990810D05390D1531
310
311510B805044D4F5645805044F50454E8
 94
        0
  0
ACAD_ZOMBIE_OBJECT
  5
94A
102
{ACAD_REACTORS
330
C
102
}
100
AcDbZombieObject
 90
      499
 91
      500
 93
      456
310
0101004093100000000000000000000000000000000000000000000000000000000000000000000000000000000000000000000000000901000F
360
950
360
951
360
952
360
953
360
955
360
956
360
957
360
958
360
959
360
95A
360
95B
360
95C
360
95D
360
960
360
961
360
962
360
963
360
964
360
967
360
968
360
969
360
96A
360
96C
360
96D
360
96E
360
96F
360
970
360
971
360
973
360
974
360
975
360
976
360
977
360
978
360
979
360
97A
360
97B
360
97C
360
97D
360
986
360
987
360
988
360
989
360
98E
360
98F
360
990
360
991
360
992
360
996
330
95F
 94
        0
  0
ACAD_ZOMBIE_OBJECT
  5
95E
102
{ACAD_REACTORS
330
C
102
}
100
AcDbZombieObject
 90
      499
 91
      514
 93
       42
310
000100004340
330
950
 94
        0
  0
ACAD_ZOMBIE_OBJECT
  5
97E
102
{ACAD_REACTORS
330
C
102
}
100
AcDbZombieObject
 90
      499
 91
      526
 93
       42
310
000100004400
330
967
 94
        0
  0
ACAD_ZOMBIE_OBJECT
  5
966
102
{ACAD_REACTORS
330
C
102
}
100
AcDbZombieObject
 90
      499
 91
      521
 93
      114
310
000000428000000000000000000020
 94
        0
  0
ACAD_ZOMBIE_OBJECT
  5
965
102
{ACAD_REACTORS
330
C
102
}
100
AcDbZombieObject
 90
      499
 91
      520
 93
        8
310
0035
330
964
 94
        0
  0
ACAD_ZOMBIE_OBJECT
  5
954
102
{ACAD_REACTORS
330
C
102
}
100
AcDbZombieObject
 90
      499
 91
      510
 93
      104
310
9094410100000000000000000070
330
955
330
956
330
957
330
958
330
959
330
95A
330
95B
330
95C
330
95D
 94
        0
  0
ACAD_ZOMBIE_OBJECT
  5
94E
102
{ACAD_REACTORS
330
C
102
}
100
AcDbZombieObject
 90
      499
 91
      504
 93
       34
310
0100004040
 94
        0
  0
ACAD_ZOMBIE_OBJECT
  5
98A
102
{ACAD_REACTORS
330
C
102
}
100
AcDbZombieObject
 90
      499
 91
      527
 93
       58
310
0100004180000000
330
990
330
996
330
991
 94
        0
  0
ACAD_ZOMBIE_OBJECT
  5
985
102
{ACAD_REACTORS
330
C
102
}
100
AcDbZombieObject
 90
      499
 91
      510
 93
       64
310
904441010000000000
330
986
330
987
330
988
330
989
 94
        0
  0
MLINESTYLE
  5
13
102
{ACAD_REACTORS
330
E
102
}
100
AcDbMlineStyle
  2
STANDARD
 70
     0
  3

 62
     0
 51
90.0
 52
90.0
 71
     2
 49
0.5
 62
   256
  6
BYLAYER
 49
-0.5
 62
   256
  6
BYLAYER
  0
ACAD_ZOMBIE_OBJECT
  5
999
100
AcDbZombieObject
 90
      499
 91
      534
 93
      720
310
9064D2E312E313607014B7269BC41100000000000000E03F1EC52B91F85EA10FE1EC52B91F85EA10FD034153471EC52B91F85EA10FC000000FC83D797414650540C000000000000E03F3F2A7C749358940FC000000FC83D79741FF
 94
        0
  0
ACAD_ZOMBIE_OBJECT
  5
950
100
AcDbZombieObject
 90
      499
 91
      506
 93
      280
310
000000000000014119185D1940506462E312E3136014119185D1940506462E312E313600
330
94A
330
951
330
952
330
954
330
95F
 94
        0
  0
ACAD_ZOMBIE_OBJECT
  5
951
100
AcDbZombieObject
 90
      499
 91
      507
 93
      120
310
00009024410100000092080002A6A600
330
94A
330
961
330
960
330
0
 94
        0
  0
ACAD_ZOMBIE_OBJECT
  5
952
100
AcDbZombieObject
 90
      499
 91
      508
 93
       46
310
000000009208
330
94A
330
0
330
953
 94
        0
  0
ACAD_ZOMBIE_OBJECT
  5
953
100
AcDbZombieObject
 90
      499
 91
      509
 93
       22
310
0000A8
330
94A
 94
        0
  0
ACAD_ZOMBIE_OBJECT
  5
955
100
AcDbZombieObject
 90
      499
 91
      511
 93
      124
310
00000142905350D3D39114D414D69050
330
94A
 94
        0
  0
ACAD_ZOMBIE_OBJECT
  5
956
100
AcDbZombieObject
 90
      499
 91
      511
 93
      124
310
000001429053549553115353D1115010
330
94A
 94
        0
  0
ACAD_ZOMBIE_OBJECT
  5
957
100
AcDbZombieObject
 90
      499
 91
      511
 93
      108
310
00000142105354D2D353D1115010
330
94A
 94
        0
  0
ACAD_ZOMBIE_OBJECT
  5
958
100
AcDbZombieObject
 90
      499
 91
      511
 93
      140
310
000001435053511253511254D41353D11160
330
94A
 94
        0
  0
ACAD_ZOMBIE_OBJECT
  5
959
100
AcDbZombieObject
 90
      499
 91
      512
 93
      180
310
00000142905354D2D05391D513D3000000000000010400
330
94A
 94
        0
  0
ACAD_ZOMBIE_OBJECT
  5
95A
100
AcDbZombieObject
 90
      499
 91
      513
 93
      164
310
00000142505354D2D4D516531140505434F4E542A0
330
94A
 94
        0
  0
ACAD_ZOMBIE_OBJECT
  5
95B
100
AcDbZombieObject
 90
      499
 91
      511
 93
      108
310
00000142105350D3511112535010
330
94A
 94
        0
  0
ACAD_ZOMBIE_OBJECT
  5
95C
100
AcDbZombieObject
 90
      499
 91
      513
 93
      116
310
000001425053541054919253114060
330
94A
 94
        0
  0
ACAD_ZOMBIE_OBJECT
  5
95D
100
AcDbZombieObject
 90
      499
 91
      511
 93
      100
310
00000142105350D3D35414D5A0
330
94A
 94
        0
  0
ACAD_ZOMBIE_OBJECT
  5
960
100
AcDbZombieObject
 90
      499
 91
      516
 93
      164
310
000092090148200A00000440000FFFFFFFF0000000
330
94A
330
961
330
951
330
95F
 94
        0
  0
ACAD_ZOMBIE_OBJECT
  5
961
100
AcDbZombieObject
 90
      499
 91
      517
 93
       82
310
000040520802482A800000
330
94A
330
960
330
951
330
95F
 94
        0
  0
ACAD_ZOMBIE_OBJECT
  5
962
100
AcDbZombieObject
 90
      499
 91
      509
 93
       22
310
0000A9
330
94A
 94
        0
  0
ACAD_ZOMBIE_OBJECT
  5
963
100
AcDbZombieObject
 90
      499
 91
      518
 93
       38
310
000000920A
330
94A
330
0
 94
        0
  0
ACAD_ZOMBIE_OBJECT
  5
964
100
AcDbZombieObject
 90
      499
 91
      519
 93
     3196
310
0000419208050A544852555F4452494C4C0142D09312539117D1149253130050A544852555F43424F52450142D09312539117D0D093D4914050A544852555F4353494E4B0142D09312539117D0D4D25392D0648201459EC94958C8094950535112504815121493D551D20B9F4051C7B252563202525414D444941205820252
310
5414D44455020444545507D014F5EC94958C8094950535112504815121493D551D20B9F57141ED0D093D49148094958C80949505350D112504816080949505350D091115408111151541F405437B252563202525414D4449412058202525414D44455020444545507D5C507B43424F524520252563202525414D4344494120
310
58202525414D434244455020444545507D014EDEC94958C8094950535112504815121493D551D20B9F57141ED0D4D25392C8094958C80949505350D112504816080949505350D4D05391C949591F405417B252563202525414D4449412058202525414D44455020444545507D5C507B4353494E4B20252563202525414D434
310
449412058202525414D4353414E472525647D5
330
94A
 94
        0
  0
ACAD_ZOMBIE_OBJECT
  5
967
100
AcDbZombieObject
 90
      499
 91
      522
 93
      308
310
0000014119185D1940507442E312E313663014119185D1940507442E312E31366340501000000A
330
94A
330
968
330
96A
330
96B
 94
        0
  0
ACAD_ZOMBIE_OBJECT
  5
968
100
AcDbZombieObject
 90
      499
 91
      523
 93
       56
310
000090144101003A
330
94A
330
969
 94
        0
  0
ACAD_ZOMBIE_OBJECT
  5
969
100
AcDbZombieObject
 90
      499
 91
      524
 93
       40
310
0000A441014F
330
94A
 94
        0
  0
ACAD_ZOMBIE_OBJECT
  5
96A
100
AcDbZombieObject
 90
      499
 91
      525
 93
       68
310
0000A44101920A4820
330
94A
 94
        0
  0
ACAD_ZOMBIE_OBJECT
  5
96C
100
AcDbZombieObject
 90
      499
 91
      511
 93
      108
310
000001421053521310D05310D010
330
94A
 94
        0
  0
ACAD_ZOMBIE_OBJECT
  5
96D
100
AcDbZombieObject
 90
      499
 91
      511
 93
      124
310
000001429053541493D2951654115010
330
94A
 94
        0
  0
ACAD_ZOMBIE_OBJECT
  5
96E
100
AcDbZombieObject
 90
      499
 91
      511
 93
      124
310
00000142905354915554D15112535010
330
94A
 94
        0
  0
ACAD_ZOMBIE_OBJECT
  5
96F
100
AcDbZombieObject
 90
      499
 91
      511
 93
      132
310
00000143105354D150D51253D391125360
330
94A
 94
        0
  0
ACAD_ZOMBIE_OBJECT
  5
970
100
AcDbZombieObject
 90
      499
 91
      511
 93
      124
310
00000142905355941093D49111549010
330
94A
 94
        0
  0
ACAD_ZOMBIE_OBJECT
  5
971
100
AcDbZombieObject
 90
      499
 91
      513
 93
      180
310
00000142905352125113151654114050648494444454E0
330
94A
 94
        0
  0
ACAD_ZOMBIE_OBJECT
  5
973
100
AcDbZombieObject
 90
      499
 91
      513
 93
      196
310
00000142905354D150D315165411405085048414E544F4D320
330
94A
 94
        0
  0
ACAD_ZOMBIE_OBJECT
  5
974
100
AcDbZombieObject
 90
      499
 91
      511
 93
      108
310
00000142105354D51114D0D51020
330
94A
 94
        0
  0
ACAD_ZOMBIE_OBJECT
  5
975
100
AcDbZombieObject
 90
      499
 91
      511
 93
      108
310
00000142105354D5111510541021
330
94A
 94
        0
  0
ACAD_ZOMBIE_OBJECT
  5
976
100
AcDbZombieObject
 90
      499
 91
      511
 93
      108
310
00000142105354D5111115131020
330
94A
 94
        0
  0
ACAD_ZOMBIE_OBJECT
  5
977
100
AcDbZombieObject
 90
      499
 91
      512
 93
      148
310
00000141905350D310D34295C8FC2F528BC3F4
330
94A
 94
        0
  0
ACAD_ZOMBIE_OBJECT
  5
978
100
AcDbZombieObject
 90
      499
 91
      512
 93
      156
310
00000141D05350D311D05402B8716D9CEF7C33F0
330
94A
 94
        0
  0
ACAD_ZOMBIE_OBJECT
  5
979
100
AcDbZombieObject
 90
      499
 91
      512
 93
      164
310
00000142105350D313D4D2150295C8FC2F528BC3F0
330
94A
 94
        0
  0
ACAD_ZOMBIE_OBJECT
  5
97A
100
AcDbZombieObject
 90
      499
 91
      511
 93
      100
310
00000141D05350D31410549010
330
94A
 94
        0
  0
ACAD_ZOMBIE_OBJECT
  5
97B
100
AcDbZombieObject
 90
      499
 91
      511
 93
      100
310
0000014210535590539254D222
330
94A
 94
        0
  0
ACAD_ZOMBIE_OBJECT
  5
97C
100
AcDbZombieObject
 90
      499
 91
      512
 93
      188
310
00000142D0535312539155121250D2C295C8FC2F5289C3F5
330
94A
 94
        0
  0
ACAD_ZOMBIE_OBJECT
  5
97D
100
AcDbZombieObject
 90
      499
 91
      513
 93
      164
310
00000142105350D3151654114050643454E5445520
330
94A
 94
        0
  0
ACAD_ZOMBIE_OBJECT
  5
986
100
AcDbZombieObject
 90
      499
 91
      511
 93
      132
310
00000142D05050555513D4D3D315915018
330
94A
 94
        0
  0
ACAD_ZOMBIE_OBJECT
  5
987
100
AcDbZombieObject
 90
      499
 91
      511
 93
      156
310
00000143905050555513D054D4D1535093115010
330
94A
 94
        0
  0
ACAD_ZOMBIE_OBJECT
  5
988
100
AcDbZombieObject
 90
      499
 91
      511
 93
      148
310
00000143505055925155D49154D513D4915010
330
94A
 94
        0
  0
ACAD_ZOMBIE_OBJECT
  5
989
100
AcDbZombieObject
 90
      499
 91
      511
 93
      124
310
00000142D050525394D15495105094E0
330
94A
 94
        0
  0
ACAD_ZOMBIE_OBJECT
  5
98E
100
AcDbZombieObject
 90
      499
 91
      528
 93
       32
310
000000006F
330
94A
340
98B
330
98F
330
98B
 94
        0
  0
ACAD_ZOMBIE_OBJECT
  5
98F
100
AcDbZombieObject
 90
      499
 91
      529
 93
      143
310
00000142130D0B5492508C0C90400522080D
330
94A
330
98E
 94
        0
  0
ACAD_ZOMBIE_OBJECT
  5
990
100
AcDbZombieObject
 90
      499
 91
      530
 93
       72
310
000000A44101A4410162
330
94A
330
98F
 94
        0
  0
ACAD_ZOMBIE_OBJECT
  5
991
100
AcDbZombieObject
 90
      499
 91
      531
 93
       80
310
0000901441010000000000
330
94A
330
992
330
992
330
992
330
992
 94
        0
  0
ACAD_ZOMBIE_OBJECT
  5
992
100
AcDbZombieObject
 90
      499
 91
      532
 93
      173
310
00000000406AAAAAAAAAAAAAAAAA806A44101A441010
330
94A
330
991
330
98F
 94
        0
  0
ACAD_ZOMBIE_OBJECT
  5
996
100
AcDbZombieObject
 90
      499
 91
      533
 93
       26
310
00008000
330
94A
330
0
 94
        0
  0
ENDSEC
  0
EOF
