  0
SECTION
  2
HEADER
  9
$ACADVER
  1
AC1012
  9
$DWGCODEPAGE
  3
ansi_1252
  9
$INSBASE
 10
0.0
 20
0.0
 30
0.0
  9
$EXTMIN
 10
3.175
 20
3.175
 30
0.0
  9
$EXTMAX
 10
791.75407
 20
506.668925
 30
0.0
  9
$LIMMIN
 10
0.0
 20
0.0
  9
$LIMMAX
 10
838.0
 20
533.0
  9
$ORTHOMODE
 70
     1
  9
$REGENMODE
 70
     1
  9
$FILLMODE
 70
     1
  9
$QTEXTMODE
 70
     0
  9
$MIRRTEXT
 70
     1
  9
$DRAGMODE
 70
     2
  9
$LTSCALE
 40
10.0
  9
$OSMODE
 70
     0
  9
$ATTMODE
 70
     1
  9
$TEXTSIZE
 40
6.0
  9
$TRACEWID
 40
0.05
  9
$TEXTSTYLE
  7
STANDARD
  9
$CLAYER
  8
DIM
  9
$CELTYPE
  6
BYLAYER
  9
$CECOLOR
 62
   256
  9
$CELTSCALE
 40
1.0
  9
$DELOBJ
 70
     1
  9
$DISPSILH
 70
     0
  9
$DIMSCALE
 40
25.4
  9
$DIMASZ
 40
0.18
  9
$DIMEXO
 40
0.0625
  9
$DIMDLI
 40
0.38
  9
$DIMRND
 40
0.0
  9
$DIMDLE
 40
0.0
  9
$DIMEXE
 40
0.18
  9
$DIMTP
 40
0.03
  9
$DIMTM
 40
0.03
  9
$DIMTXT
 40
0.18
  9
$DIMCEN
 40
0.09
  9
$DIMTSZ
 40
0.0
  9
$DIMTOL
 70
     1
  9
$DIMLIM
 70
     0
  9
$DIMTIH
 70
     1
  9
$DIMTOH
 70
     1
  9
$DIMSE1
 70
     0
  9
$DIMSE2
 70
     0
  9
$DIMTAD
 70
     0
  9
$DIMZIN
 70
     0
  9
$DIMBLK
  1

  9
$DIMASO
 70
     1
  9
$DIMSHO
 70
     1
  9
$DIMPOST
  1
mm
  9
$DIMAPOST
  1
"
  9
$DIMALT
 70
     1
  9
$DIMALTD
 70
     3
  9
$DIMALTF
 40
0.03937
  9
$DIMLFAC
 40
1.0
  9
$DIMTOFL
 70
     0
  9
$DIMTVP
 40
0.0
  9
$DIMTIX
 70
     0
  9
$DIMSOXD
 70
     0
  9
$DIMSAH
 70
     0
  9
$DIMBLK1
  1

  9
$DIMBLK2
  1

  9
$DIMSTYLE
  2
SU1
  9
$DIMCLRD
 70
     0
  9
$DIMCLRE
 70
     0
  9
$DIMCLRT
 70
     0
  9
$DIMTFAC
 40
1.0
  9
$DIMGAP
 40
0.09
  9
$DIMJUST
 70
     0
  9
$DIMSD1
 70
     0
  9
$DIMSD2
 70
     0
  9
$DIMTOLJ
 70
     1
  9
$DIMTZIN
 70
     0
  9
$DIMALTZ
 70
     0
  9
$DIMALTTZ
 70
     0
  9
$DIMFIT
 70
     0
  9
$DIMUPT
 70
     0
  9
$DIMUNIT
 70
     2
  9
$DIMDEC
 70
     2
  9
$DIMTDEC
 70
     2
  9
$DIMALTU
 70
     2
  9
$DIMALTTD
 70
     3
  9
$DIMTXSTY
  7
STANDARD
  9
$DIMAUNIT
 70
     0
  9
$LUNITS
 70
     2
  9
$LUPREC
 70
     4
  9
$SKETCHINC
 40
0.1
  9
$FILLETRAD
 40
1.5875
  9
$AUNITS
 70
     0
  9
$AUPREC
 70
     0
  9
$MENU
  1
acad
  9
$ELEVATION
 40
0.0
  9
$PELEVATION
 40
0.0
  9
$THICKNESS
 40
0.0
  9
$LIMCHECK
 70
     0
  9
$BLIPMODE
 70
     1
  9
$CHAMFERA
 40
0.0
  9
$CHAMFERB
 40
0.0
  9
$CHAMFERC
 40
0.0
  9
$CHAMFERD
 40
0.0
  9
$SKPOLY
 70
     0
  9
$TDCREATE
 40
2450480.640983657
  9
$TDUPDATE
 40
2450487.621487210
  9
$TDINDWG
 40
0.1789482870
  9
$TDUSRTIMER
 40
0.1789482870
  9
$USRTIMER
 70
     1
  9
$ANGBASE
 50
0.0
  9
$ANGDIR
 70
     0
  9
$PDMODE
 70
     0
  9
$PDSIZE
 40
0.0
  9
$PLINEWID
 40
0.0
  9
$COORDS
 70
     1
  9
$SPLFRAME
 70
     0
  9
$SPLINETYPE
 70
     6
  9
$SPLINESEGS
 70
     8
  9
$ATTDIA
 70
     0
  9
$ATTREQ
 70
     1
  9
$HANDLING
 70
     1
  9
$HANDSEED
  5
B02
  9
$SURFTAB1
 70
     6
  9
$SURFTAB2
 70
     6
  9
$SURFTYPE
 70
     6
  9
$SURFU
 70
     6
  9
$SURFV
 70
     6
  9
$UCSNAME
  2

  9
$UCSORG
 10
0.0
 20
0.0
 30
0.0
  9
$UCSXDIR
 10
1.0
 20
0.0
 30
0.0
  9
$UCSYDIR
 10
0.0
 20
1.0
 30
0.0
  9
$PUCSNAME
  2

  9
$PUCSORG
 10
0.0
 20
0.0
 30
0.0
  9
$PUCSXDIR
 10
1.0
 20
0.0
 30
0.0
  9
$PUCSYDIR
 10
0.0
 20
1.0
 30
0.0
  9
$USERI1
 70
     0
  9
$USERI2
 70
     0
  9
$USERI3
 70
     0
  9
$USERI4
 70
     0
  9
$USERI5
 70
     0
  9
$USERR1
 40
0.0
  9
$USERR2
 40
0.0
  9
$USERR3
 40
0.0
  9
$USERR4
 40
0.0
  9
$USERR5
 40
0.0
  9
$WORLDVIEW
 70
     1
  9
$SHADEDGE
 70
     3
  9
$SHADEDIF
 70
    70
  9
$TILEMODE
 70
     1
  9
$MAXACTVP
 70
    16
  9
$PINSBASE
 10
0.0
 20
0.0
 30
0.0
  9
$PLIMCHECK
 70
     0
  9
$PEXTMIN
 10
1.000000E+20
 20
1.000000E+20
 30
1.000000E+20
  9
$PEXTMAX
 10
-1.000000E+20
 20
-1.000000E+20
 30
-1.000000E+20
  9
$PLIMMIN
 10
0.0
 20
0.0
  9
$PLIMMAX
 10
12.0
 20
9.0
  9
$UNITMODE
 70
     0
  9
$VISRETAIN
 70
     0
  9
$PLINEGEN
 70
     0
  9
$PSLTSCALE
 70
     1
  9
$TREEDEPTH
 70
  3020
  9
$PICKSTYLE
 70
     1
  9
$CMLSTYLE
  2
STANDARD
  9
$CMLJUST
 70
     0
  9
$CMLSCALE
 40
1.0
  9
$SAVEIMAGES
 70
     0
  0
ENDSEC
  0
SECTION
  2
CLASSES
  0
CLASS
  1
ACMESCOPE
  2
AcMeScope
  3
ACME_MODULE_NAME
 90
        0
280
     0
281
     0
  0
CLASS
  1
ACMECOMMANDHISTORY
  2
AcMeCommandHistory
  3
ACME_MODULE_NAME
 90
        0
280
     0
281
     0
  0
CLASS
  1
AcRfInsAdjusterMgr
  2
AcRfInsAdjusterMgr
  3
ACME_MODULE_NAME
 90
        0
280
     0
281
     0
  0
CLASS
  1
ACGREFMASTER
  2
AcGrefMaster
  3
"AcadRfServer"
 90
        0
280
     0
281
     0
  0
CLASS
  1
AmiMaster
  2
AmiMaster
  3
"AmiServices"
 90
        0
280
     0
281
     0
  0
CLASS
  1
ACASGREFMASTER
  2
AcAsGrefMaster
  3
"AutoSurfResolver"
 90
        0
280
     0
281
     0
  0
CLASS
  1
ADAPPL
  2
AcAdAppl
  3
"DesignerServices"
 90
        0
280
     0
281
     0
  0
CLASS
  1
DEPMGR
  2
AcAdDepMgr
  3
"DesignerServices"
 90
        0
280
     0
281
     0
  0
CLASS
  1
PARAMMGR
  2
AcAdParamMgr
  3
"DesignerServices"
 90
        0
280
     0
281
     0
  0
CLASS
  1
PARAMSCOPE
  2
AcAdParamScope
  3
"DesignerServices"
 90
        0
280
     0
281
     0
  0
CLASS
  1
"IM_SYSVAR_MAN"
  2
AcImSysVarManager
  3
"ADAM"
 90
        0
280
     0
281
     0
  0
CLASS
  1
SYSTEM_VAR_INT
  2
AcImIntSysVar
  3
"ADAM"
 90
        0
280
     0
281
     0
  0
CLASS
  1
SYSTEM_VAR_REAL
  2
AcImRealSysVar
  3
"ADAM"
 90
        0
280
     0
281
     0
  0
CLASS
  1
SYSTEM_VAR_STR
  2
AcImStrSysVar
  3
"ADAM"
 90
        0
280
     0
281
     0
  0
CLASS
  1
NAMEDAPPL
  2
AcAdNamedAppl
  3
"DesignerServices"
 90
        0
280
     0
281
     0
  0
CLASS
  1
ADPART
  2
AcAdPart
  3
"DesignerServices"
 90
        0
280
     0
281
     1
  0
CLASS
  1
ADBASE
  2
AcAdBase
  3
"DesignerServices"
 90
        0
280
     0
281
     0
  0
CLASS
  1
BODYID
  2
AcAdBodyId
  3
"DesignerServices"
 90
        0
280
     0
281
     0
  0
CLASS
  1
WORKPLANEDISPLAYMGR
  2
AcAdDisplayMgr
  3
"DesignerServices"
 90
        0
280
     0
281
     0
  0
CLASS
  1
ADHNTMPLT
  2
AdHoleNoteTemplateMgr
  3
"DesignerServices"
 90
        0
280
     0
281
     0
  0
CLASS
  1
AM_HNTEMPLATE_MGR_NAME
  2
AdHoleNoteTemplateMgrName
  3
"DesignerServices"
 90
        0
280
     0
281
     0
  0
CLASS
  1
AcAdGrefModule
  2
AcAdGrefModule
  3
AD_GREF_SERVICES_NSTR
 90
        0
280
     0
281
     0
  0
CLASS
  1
AM_DRAWING_MGR
  2
AcDmDwgMgr
  3
"Designer_Drawing_Mgmt"
 90
        0
280
     0
281
     0
  0
CLASS
  1
AM_DWG_DOCUMENT
  2
AcDmDwgDocument
  3
"Designer_Drawing_Mgmt"
 90
        0
280
     0
281
     0
  0
CLASS
  1
AM_DWG_SHEET
  2
AcDmSheet
  3
"Designer_Drawing_Mgmt"
 90
        0
280
     0
281
     0
  0
CLASS
  1
AM_VIEWDIMPARMAP
  2
AcDmViewDimParMap
  3
"Designer_Drawing_Mgmt"
 90
        0
280
     0
281
     0
  0
CLASS
  1
AM_DWGMGR_NAME
  2
AcDmDwgMgrName
  3
"Designer_Drawing_Mgmt"
 90
        0
280
     0
281
     0
  0
CLASS
  1
ACAMPROJECT
  2
AcAmProject
  3
"DesignerAssemblies"
 90
        0
280
     0
281
     0
  0
CLASS
  1
ACAMGRCOMPDEF
  2
AcAmGrCompDef
  3
"DesignerAssemblies"
 90
        0
280
     0
281
     0
  0
CLASS
  1
ACAMCOMPDEF
  2
AcAmCompDef
  3
"DesignerAssemblies"
 90
        0
280
     0
281
     0
  0
CLASS
  1
ACAMCOMPDEFMGR
  2
AcAmCompDefMgr
  3
"DesignerAssemblies"
 90
        0
280
     0
281
     0
  0
CLASS
  1
AMCONTEXTMGR
  2
AcAmContextMgr
  3
"DesignerAssemblies"
 90
        0
280
     0
281
     0
  0
CLASS
  1
AcAmContextModeler
  2
AcAmContextModeler
  3
"DesignerAssemblies"
 90
        0
280
     0
281
     0
  0
CLASS
  1
ACAMDRAWINGMAN
  2
AcAmDrawingMan
  3
"DesignerAssemblies"
 90
        0
280
     0
281
     0
  0
CLASS
  1
ASSYSVARS
  2
AcAsSysVars
  3
"AutoSurf"
 90
        0
280
     0
281
     0
  0
CLASS
  1
ASSTATICVARS
  2
AcAsStaticVars
  3
"AutoSurf"
 90
        0
280
     0
281
     0
  0
CLASS
  1
ASAPP
  2
AcAsAppObject
  3
"AutoSurf"
 90
        0
280
     0
281
     0
  0
CLASS
  1
AGDICTIONARY
  2
AgDictionary
  3
"AccelView"
 90
        1
280
     0
281
     0
  0
ENDSEC
  0
SECTION
  2
TABLES
  0
TABLE
  2
VPORT
  5
8
100
AcDbSymbolTable
 70
     3
  0
VPORT
  5
B01
100
AcDbSymbolTableRecord
100
AcDbViewportTableRecord
  2
*ACTIVE
 70
     0
 10
0.0
 20
0.0
 11
1.0
 21
1.0
 12
406.497359
 22
254.921963
 13
0.0
 23
0.0
 14
0.125
 24
0.125
 15
10.0
 25
10.0
 16
0.0
 26
0.0
 36
1.0
 17
0.0
 27
0.0
 37
0.0
 40
503.493925
 41
1.602094
 42
50.0
 43
0.0
 44
0.0
 50
0.0
 51
0.0
 71
     0
 72
   100
 73
     1
 74
     0
 75
     0
 76
     1
 77
     0
 78
     0
  0
ENDTAB
  0
TABLE
  2
LTYPE
  5
5
100
AcDbSymbolTable
 70
     6
  0
LTYPE
  5
14
100
AcDbSymbolTableRecord
100
AcDbLinetypeTableRecord
  2
BYBLOCK
 70
     0
  3

 72
    65
 73
     0
 40
0.0
  0
LTYPE
  5
15
100
AcDbSymbolTableRecord
100
AcDbLinetypeTableRecord
  2
BYLAYER
 70
     0
  3

 72
    65
 73
     0
 40
0.0
  0
LTYPE
  5
16
100
AcDbSymbolTableRecord
100
AcDbLinetypeTableRecord
  2
CONTINUOUS
 70
    64
  3
Solid line
 72
    65
 73
     0
 40
0.0
  0
LTYPE
  5
4F
100
AcDbSymbolTableRecord
100
AcDbLinetypeTableRecord
  2
HIDDEN
 70
    64
  3
__ __ __ __ __ __ __ __ __ __ __ __ __ __ __ __
 72
    65
 73
     2
 40
0.375
 49
0.25
 74
     0
 49
-0.125
 74
     0
  0
LTYPE
  5
51
100
AcDbSymbolTableRecord
100
AcDbLinetypeTableRecord
  2
PHANTOM2
 70
     0
  3
___ _ _ ___ _ _ ___ _ _ ___ _ _ ___ _ _ ___ _ _
 72
    65
 73
     6
 40
1.25
 49
0.625
 74
     0
 49
-0.125
 74
     0
 49
0.125
 74
     0
 49
-0.125
 74
     0
 49
0.125
 74
     0
 49
-0.125
 74
     0
  0
LTYPE
  5
5C
100
AcDbSymbolTableRecord
100
AcDbLinetypeTableRecord
  2
CENTER
 70
    64
  3
____ _ ____ _ ____ _ ____ _ ____ _ ____ _ ____ 
 72
    65
 73
     4
 40
2.0
 49
1.25
 74
     0
 49
-0.25
 74
     0
 49
0.25
 74
     0
 49
-0.25
 74
     0
  0
LTYPE
  5
7C
100
AcDbSymbolTableRecord
100
AcDbLinetypeTableRecord
  2
ASULTYPE
 70
     0
  3
Solid line
 72
    65
 73
     2
 40
3.0
 49
2.5
 74
     0
 49
0.5
 74
     0
  0
LTYPE
  5
7D
100
AcDbSymbolTableRecord
100
AcDbLinetypeTableRecord
  2
ASVLTYPE
 70
     0
  3
__ __ __ __ __ __ __ __ __ __ __ __ __ __ __ __ __ __ __ __ __
 72
    65
 73
     2
 40
0.75
 49
0.5
 74
     0
 49
-0.25
 74
     0
  0
ENDTAB
  0
TABLE
  2
LAYER
  5
2
100
AcDbSymbolTable
 70
    18
  0
LAYER
  5
F
100
AcDbSymbolTableRecord
100
AcDbLayerTableRecord
  2
0
 70
     0
 62
     7
  6
CONTINUOUS
  0
LAYER
  5
7F
100
AcDbSymbolTableRecord
100
AcDbLayerTableRecord
  2
CENTER
 70
    64
 62
     1
  6
CENTER
  0
LAYER
  5
80
100
AcDbSymbolTableRecord
100
AcDbLayerTableRecord
  2
DIM
 70
    64
 62
     3
  6
CONTINUOUS
  0
LAYER
  5
81
100
AcDbSymbolTableRecord
100
AcDbLayerTableRecord
  2
TEXT
 70
    64
 62
     7
  6
CONTINUOUS
  0
LAYER
  5
9C
100
AcDbSymbolTableRecord
100
AcDbLayerTableRecord
  2
BORDER
 70
    64
 62
     6
  6
CONTINUOUS
  0
LAYER
  5
E5
100
AcDbSymbolTableRecord
100
AcDbLayerTableRecord
  2
FOOT-A
 70
    64
 62
     7
  6
CONTINUOUS
  0
LAYER
  5
165
100
AcDbSymbolTableRecord
100
AcDbLayerTableRecord
  2
FOOT-2
 70
    64
 62
     7
  6
CONTINUOUS
  0
LAYER
  5
1E5
100
AcDbSymbolTableRecord
100
AcDbLayerTableRecord
  2
HATCH
 70
    64
 62
     7
  6
CONTINUOUS
  0
LAYER
  5
24F
100
AcDbSymbolTableRecord
100
AcDbLayerTableRecord
  2
DEFPOINTS
 70
    64
 62
     7
  6
CONTINUOUS
  0
ENDTAB
  0
TABLE
  2
STYLE
  5
3
100
AcDbSymbolTable
 70
     3
  0
STYLE
  5
10
100
AcDbSymbolTableRecord
100
AcDbTextStyleTableRecord
  2
STANDARD
 70
    64
 40
0.0
 41
1.0
 50
0.0
 71
     0
 42
6.0
  3
txt
  4

  0
STYLE
  5
85
100
AcDbSymbolTableRecord
100
AcDbTextStyleTableRecord
  2
CIM_TB
 70
    64
 40
0.0
 41
1.0
 50
0.0
 71
     0
 42
0.2
  3
romans
  4

  0
STYLE
  5
9D
100
AcDbSymbolTableRecord
100
AcDbTextStyleTableRecord
  2
ADESK2
 70
    64
 40
0.0
 41
1.0
 50
0.0
 71
     0
 42
0.065
  3
romans
  4

  0
ENDTAB
  0
TABLE
  2
VIEW
  5
6
100
AcDbSymbolTable
 70
     0
  0
ENDTAB
  0
TABLE
  2
UCS
  5
7
100
AcDbSymbolTable
 70
     0
  0
ENDTAB
  0
TABLE
  2
APPID
  5
9
100
AcDbSymbolTable
 70
     6
  0
APPID
  5
11
100
AcDbSymbolTableRecord
100
AcDbRegAppTableRecord
  2
ACAD
 70
     0
  0
APPID
  5
5F
100
AcDbSymbolTableRecord
100
AcDbRegAppTableRecord
  2
AD_DRAW
 70
     0
  0
APPID
  5
77
100
AcDbSymbolTableRecord
100
AcDbRegAppTableRecord
  2
DESIGNERASSEMBLIES
 70
     0
  0
APPID
  5
78
100
AcDbSymbolTableRecord
100
AcDbRegAppTableRecord
  2
MCAD_NO_VIS
 70
     0
  0
APPID
  5
7E
100
AcDbSymbolTableRecord
100
AcDbRegAppTableRecord
  2
ASURF_PCURVE_APPNAME
 70
     0
  0
APPID
  5
82
100
AcDbSymbolTableRecord
100
AcDbRegAppTableRecord
  2
TB_S_MPD
 70
     0
  0
ENDTAB
  0
TABLE
  2
DIMSTYLE
  5
A
100
AcDbSymbolTable
 70
     6
  0
DIMSTYLE
105
1D
100
AcDbSymbolTableRecord
100
AcDbDimStyleTableRecord
  2
STANDARD
 70
     0
  3

  4

  5

  6

  7

 40
1.0
 41
0.18
 42
0.0625
 43
0.38
 44
0.18
 45
0.0
 46
0.0
 47
0.0
 48
0.0
140
0.18
141
0.09
142
0.0
143
25.4
144
1.0
145
0.0
146
1.0
147
0.09
 71
     0
 72
     0
 73
     1
 74
     1
 75
     0
 76
     0
 77
     0
 78
     0
170
     0
171
     2
172
     0
173
     0
174
     0
175
     0
176
     0
177
     0
178
     0
270
     2
271
     4
272
     4
273
     2
274
     2
340
10
275
     0
280
     0
281
     0
282
     0
283
     1
284
     0
285
     0
286
     0
287
     3
288
     0
  0
DIMSTYLE
105
8D
100
AcDbSymbolTableRecord
100
AcDbDimStyleTableRecord
  2
SU1
 70
     0
  3

  4

  5

  6

  7

 40
1.0
 41
0.18
 42
0.0625
 43
0.38
 44
0.18
 45
0.0
 46
0.0
 47
0.001
 48
0.0
140
0.18
141
0.09
142
0.0
143
25.4
144
1.0
145
0.0
146
1.0
147
0.09
 71
     0
 72
     0
 73
     1
 74
     1
 75
     0
 76
     0
 77
     0
 78
     0
170
     0
171
     2
172
     0
173
     0
174
     0
175
     0
176
     0
177
     0
178
     0
270
     2
271
     3
272
     3
273
     2
274
     2
340
10
275
     0
280
     0
281
     0
282
     0
283
     1
284
     0
285
     0
286
     0
287
     0
288
     0
  0
DIMSTYLE
105
8E
100
AcDbSymbolTableRecord
100
AcDbDimStyleTableRecord
  2
SU1$4
 70
     0
  3

  4

  5

  6

  7

 40
1.0
 41
0.18
 42
0.0625
 43
0.38
 44
0.18
 45
0.0
 46
0.0
 47
0.001
 48
0.0
140
0.18
141
0.09
142
0.0
143
25.4
144
1.0
145
0.0
146
1.0
147
0.09
 71
     0
 72
     0
 73
     1
 74
     1
 75
     0
 76
     0
 77
     0
 78
     0
170
     0
171
     2
172
     0
173
     0
174
     0
175
     0
176
     0
177
     0
178
     0
270
     2
271
     3
272
     3
273
     2
274
     2
340
10
275
     0
280
     0
281
     0
282
     0
283
     1
284
     0
285
     0
286
     0
287
     0
288
     1
  0
DIMSTYLE
105
8F
100
AcDbSymbolTableRecord
100
AcDbDimStyleTableRecord
  2
SU1$2
 70
     0
  3

  4

  5

  6

  7

 40
1.0
 41
0.18
 42
0.0625
 43
0.38
 44
0.18
 45
0.0
 46
0.0
 47
0.001
 48
0.0
140
0.18
141
0.09
142
0.0
143
25.4
144
1.0
145
0.0
146
1.0
147
0.09
 71
     0
 72
     0
 73
     1
 74
     1
 75
     0
 76
     0
 77
     0
 78
     0
170
     0
171
     2
172
     0
173
     0
174
     0
175
     0
176
     0
177
     0
178
     0
270
     2
271
     1
272
     3
273
     2
274
     2
340
10
275
     0
280
     0
281
     0
282
     0
283
     1
284
     0
285
     0
286
     0
287
     0
288
     0
  0
DIMSTYLE
105
90
100
AcDbSymbolTableRecord
100
AcDbDimStyleTableRecord
  2
SU1$3
 70
     0
  3

  4

  5

  6

  7

 40
1.0
 41
0.18
 42
0.0625
 43
0.38
 44
0.18
 45
0.0
 46
0.0
 47
0.001
 48
0.0
140
0.18
141
0.09
142
0.0
143
25.4
144
1.0
145
0.0
146
1.0
147
0.09
 71
     0
 72
     0
 73
     1
 74
     1
 75
     0
 76
     0
 77
     0
 78
     0
170
     0
171
     2
172
     0
173
     0
174
     0
175
     0
176
     0
177
     0
178
     0
270
     2
271
     3
272
     3
273
     2
274
     2
340
10
275
     0
280
     0
281
     0
282
     0
283
     1
284
     0
285
     0
286
     0
287
     0
288
     1
  0
DIMSTYLE
105
91
100
AcDbSymbolTableRecord
100
AcDbDimStyleTableRecord
  2
SU1$7
 70
     0
  3

  4

  5

  6

  7

 40
1.0
 41
0.18
 42
0.0625
 43
0.38
 44
0.18
 45
0.0
 46
0.0
 47
0.001
 48
0.0
140
0.18
141
0.09
142
0.0
143
25.4
144
1.0
145
0.0
146
1.0
147
0.09
 71
     0
 72
     0
 73
     1
 74
     1
 75
     0
 76
     0
 77
     0
 78
     0
170
     0
171
     2
172
     0
173
     0
174
     0
175
     0
176
     0
177
     0
178
     0
270
     2
271
     3
272
     3
273
     2
274
     2
340
10
275
     0
280
     0
281
     0
282
     0
283
     1
284
     0
285
     0
286
     0
287
     0
288
     1
  0
ENDTAB
  0
TABLE
  2
BLOCK_RECORD
  5
1
100
AcDbSymbolTable
 70
    39
  0
BLOCK_RECORD
  5
1A
100
AcDbSymbolTableRecord
100
AcDbBlockTableRecord
  2
*MODEL_SPACE
  0
BLOCK_RECORD
  5
17
100
AcDbSymbolTableRecord
100
AcDbBlockTableRecord
  2
*PAPER_SPACE
  0
BLOCK_RECORD
  5
6B
100
AcDbSymbolTableRecord
100
AcDbBlockTableRecord
  2
*U0
  0
BLOCK_RECORD
  5
9E
100
AcDbSymbolTableRecord
100
AcDbBlockTableRecord
  2
D-BORDER
  0
BLOCK_RECORD
  5
477
100
AcDbSymbolTableRecord
100
AcDbBlockTableRecord
  2
*D2
  0
BLOCK_RECORD
  5
48D
100
AcDbSymbolTableRecord
100
AcDbBlockTableRecord
  2
*D3
  0
BLOCK_RECORD
  5
4A3
100
AcDbSymbolTableRecord
100
AcDbBlockTableRecord
  2
*D4
  0
BLOCK_RECORD
  5
4B9
100
AcDbSymbolTableRecord
100
AcDbBlockTableRecord
  2
*D5
  0
BLOCK_RECORD
  5
4D1
100
AcDbSymbolTableRecord
100
AcDbBlockTableRecord
  2
*D6
  0
BLOCK_RECORD
  5
583
100
AcDbSymbolTableRecord
100
AcDbBlockTableRecord
  2
*D7
  0
BLOCK_RECORD
  5
627
100
AcDbSymbolTableRecord
100
AcDbBlockTableRecord
  2
*U8
  0
BLOCK_RECORD
  5
631
100
AcDbSymbolTableRecord
100
AcDbBlockTableRecord
  2
*U9
  0
BLOCK_RECORD
  5
63B
100
AcDbSymbolTableRecord
100
AcDbBlockTableRecord
  2
*U10
  0
BLOCK_RECORD
  5
6ED
100
AcDbSymbolTableRecord
100
AcDbBlockTableRecord
  2
*D11
  0
BLOCK_RECORD
  5
705
100
AcDbSymbolTableRecord
100
AcDbBlockTableRecord
  2
*D12
  0
BLOCK_RECORD
  5
712
100
AcDbSymbolTableRecord
100
AcDbBlockTableRecord
  2
*D13
  0
BLOCK_RECORD
  5
720
100
AcDbSymbolTableRecord
100
AcDbBlockTableRecord
  2
*D14
  0
BLOCK_RECORD
  5
75E
100
AcDbSymbolTableRecord
100
AcDbBlockTableRecord
  2
*D15
  0
BLOCK_RECORD
  5
779
100
AcDbSymbolTableRecord
100
AcDbBlockTableRecord
  2
*D16
  0
BLOCK_RECORD
  5
786
100
AcDbSymbolTableRecord
100
AcDbBlockTableRecord
  2
*D17
  0
BLOCK_RECORD
  5
793
100
AcDbSymbolTableRecord
100
AcDbBlockTableRecord
  2
*D18
  0
BLOCK_RECORD
  5
7A1
100
AcDbSymbolTableRecord
100
AcDbBlockTableRecord
  2
*D19
  0
BLOCK_RECORD
  5
7C7
100
AcDbSymbolTableRecord
100
AcDbBlockTableRecord
  2
*D20
  0
BLOCK_RECORD
  5
7D4
100
AcDbSymbolTableRecord
100
AcDbBlockTableRecord
  2
*D21
  0
BLOCK_RECORD
  5
7E2
100
AcDbSymbolTableRecord
100
AcDbBlockTableRecord
  2
*D22
  0
BLOCK_RECORD
  5
812
100
AcDbSymbolTableRecord
100
AcDbBlockTableRecord
  2
*D23
  0
BLOCK_RECORD
  5
81F
100
AcDbSymbolTableRecord
100
AcDbBlockTableRecord
  2
*D24
  0
BLOCK_RECORD
  5
82C
100
AcDbSymbolTableRecord
100
AcDbBlockTableRecord
  2
*D25
  0
BLOCK_RECORD
  5
839
100
AcDbSymbolTableRecord
100
AcDbBlockTableRecord
  2
*D26
  0
BLOCK_RECORD
  5
846
100
AcDbSymbolTableRecord
100
AcDbBlockTableRecord
  2
*D27
  0
BLOCK_RECORD
  5
853
100
AcDbSymbolTableRecord
100
AcDbBlockTableRecord
  2
*D28
  0
BLOCK_RECORD
  5
8AD
100
AcDbSymbolTableRecord
100
AcDbBlockTableRecord
  2
*D29
  0
BLOCK_RECORD
  5
8BC
100
AcDbSymbolTableRecord
100
AcDbBlockTableRecord
  2
*D30
  0
BLOCK_RECORD
  5
8CB
100
AcDbSymbolTableRecord
100
AcDbBlockTableRecord
  2
*D31
  0
BLOCK_RECORD
  5
8D9
100
AcDbSymbolTableRecord
100
AcDbBlockTableRecord
  2
*D32
  0
BLOCK_RECORD
  5
8E7
100
AcDbSymbolTableRecord
100
AcDbBlockTableRecord
  2
*D33
  0
BLOCK_RECORD
  5
8F6
100
AcDbSymbolTableRecord
100
AcDbBlockTableRecord
  2
*D34
  0
BLOCK_RECORD
  5
905
100
AcDbSymbolTableRecord
100
AcDbBlockTableRecord
  2
*D35
  0
BLOCK_RECORD
  5
914
100
AcDbSymbolTableRecord
100
AcDbBlockTableRecord
  2
*D36
  0
BLOCK_RECORD
  5
976
100
AcDbSymbolTableRecord
100
AcDbBlockTableRecord
  2
*X37
  0
BLOCK_RECORD
  5
9A4
100
AcDbSymbolTableRecord
100
AcDbBlockTableRecord
  2
*D38
  0
ENDTAB
  0
ENDSEC
  0
SECTION
  2
BLOCKS
  0
BLOCK
  5
1B
100
AcDbEntity
  8
0
100
AcDbBlockBegin
  2
*MODEL_SPACE
 70
     0
 10
0.0
 20
0.0
 30
0.0
  3
*MODEL_SPACE
  1

  0
ENDBLK
  5
1C
100
AcDbEntity
  8
0
100
AcDbBlockEnd
  0
BLOCK
  5
18
100
AcDbEntity
 67
     1
  8
0
100
AcDbBlockBegin
  2
*PAPER_SPACE
 70
     0
 10
0.0
 20
0.0
 30
0.0
  3
*PAPER_SPACE
  1

  0
ENDBLK
  5
19
100
AcDbEntity
 67
     1
  8
0
100
AcDbBlockEnd
  0
BLOCK
  5
6C
100
AcDbEntity
  8
0
100
AcDbBlockBegin
  2
*U0
 70
     1
 10
0.0
 20
0.0
 30
0.0
  3
*U0
  1

  0
ENDBLK
  5
6D
100
AcDbEntity
  8
0
100
AcDbBlockEnd
  0
BLOCK
  5
E1
100
AcDbEntity
  8
0
100
AcDbBlockBegin
  2
D-BORDER
 70
     0
 10
0.0
 20
0.0
 30
0.0
  3
D-BORDER
  1

  0
LINE
  5
9F
100
AcDbEntity
  8
TEXT
100
AcDbLine
 10
0.125
 20
19.447595
 30
0.0
 11
2.6875
 21
19.447595
 31
0.0
  0
LINE
  5
A0
100
AcDbEntity
  8
TEXT
100
AcDbLine
 10
2.6875
 20
19.447595
 30
0.0
 11
2.6875
 21
19.947595
 31
0.0
  0
CIRCLE
  5
A1
100
AcDbEntity
  8
TEXT
100
AcDbCircle
 10
0.802871
 20
19.684056
 30
0.0
 40
0.1875
  0
CIRCLE
  5
A2
100
AcDbEntity
  8
TEXT
100
AcDbCircle
 10
0.802871
 20
19.684056
 30
0.0
 40
0.09375
  0
LINE
  5
A3
100
AcDbEntity
  8
TEXT
  6
CENTER
100
AcDbLine
 10
0.568951
 20
19.684056
 30
0.0
 11
2.021621
 21
19.684056
 31
0.0
  0
LINE
  5
A4
100
AcDbEntity
  8
TEXT
  6
CENTER
100
AcDbLine
 10
0.802871
 20
19.455375
 30
0.0
 11
0.802871
 21
19.923251
 31
0.0
  0
LINE
  5
A5
100
AcDbEntity
  8
TEXT
100
AcDbLine
 10
1.271621
 20
19.777806
 30
0.0
 11
1.756263
 21
19.871556
 31
0.0
  0
LINE
  5
A6
100
AcDbEntity
  8
TEXT
100
AcDbLine
 10
1.271621
 20
19.590306
 30
0.0
 11
1.756263
 21
19.496556
 31
0.0
  0
LINE
  5
A7
100
AcDbEntity
  8
TEXT
100
AcDbLine
 10
1.271621
 20
19.590306
 30
0.0
 11
1.271621
 21
19.777806
 31
0.0
  0
LINE
  5
A8
100
AcDbEntity
  8
TEXT
100
AcDbLine
 10
1.756263
 20
19.871556
 30
0.0
 11
1.756263
 21
19.496556
 31
0.0
  0
TEXT
  5
A9
100
AcDbEntity
  8
TEXT
100
AcDbText
 10
0.3125
 20
19.262423
 30
0.0
 40
0.1
  1
THIRD ANGLE PROJECTION
100
AcDbText
  0
LINE
  5
AA
100
AcDbEntity
  8
TEXT
100
AcDbLine
 10
2.6875
 20
19.447595
 30
0.0
 11
2.6875
 21
19.197595
 31
0.0
  0
LINE
  5
AB
100
AcDbEntity
  8
TEXT
100
AcDbLine
 10
2.6875
 20
19.197595
 30
0.0
 11
0.125
 21
19.197595
 31
0.0
  0
TEXT
  5
AC
100
AcDbEntity
  8
TEXT
100
AcDbText
 10
30.260292
 20
0.244377
 30
0.0
 40
0.065
  1
OF
  7
ADESK2
100
AcDbText
  0
TEXT
  5
AD
100
AcDbEntity
  8
TEXT
100
AcDbText
 10
26.500724
 20
0.974951
 30
0.0
 40
0.065
  1
DATE
  7
ADESK2
100
AcDbText
  0
LINE
  5
AE
100
AcDbEntity
  8
TEXT
100
AcDbLine
 10
26.377305
 20
1.091501
 30
0.0
 11
26.377305
 21
0.125
 31
0.0
  0
TEXT
  5
AF
100
AcDbEntity
  8
TEXT
100
AcDbText
 10
24.957321
 20
0.356501
 30
0.0
 40
0.065
  1
DESIGN
  7
ADESK2
100
AcDbText
  0
TEXT
  5
B0
100
AcDbEntity
  8
TEXT
100
AcDbText
 10
24.957321
 20
0.671501
 30
0.0
 40
0.065
  1
CHECKED
  7
ADESK2
100
AcDbText
  0
LINE
  5
B1
100
AcDbEntity
  8
TEXT
100
AcDbLine
 10
24.877321
 20
1.091501
 30
0.0
 11
26.877321
 21
1.091501
 31
0.0
  0
TEXT
  5
B2
100
AcDbEntity
  8
TEXT
100
AcDbText
 10
30.359702
 20
19.465196
 30
0.0
 40
0.065
  1
APPROVED
  7
ADESK2
100
AcDbText
  0
TEXT
  5
B3
100
AcDbEntity
  8
TEXT
100
AcDbText
 10
29.566002
 20
19.465196
 30
0.0
 40
0.065
  1
DATE
  7
ADESK2
100
AcDbText
  0
TEXT
  5
B4
100
AcDbEntity
  8
TEXT
100
AcDbText
 10
27.500302
 20
19.465196
 30
0.0
 40
0.065
  1
DESCRIPTION
  7
ADESK2
100
AcDbText
  0
TEXT
  5
B5
100
AcDbEntity
  8
TEXT
100
AcDbText
 10
26.198402
 20
19.465196
 30
0.0
 40
0.065
  1
REV
  7
ADESK2
100
AcDbText
  0
TEXT
  5
B6
100
AcDbEntity
  8
TEXT
100
AcDbText
 10
28.328502
 20
19.707396
 30
0.0
 40
0.065
  1
REVISIONS
  7
ADESK2
100
AcDbText
  0
LINE
  5
B7
100
AcDbEntity
  8
TEXT
100
AcDbLine
 10
30.118302
 20
19.374896
 30
0.0
 11
30.118302
 21
19.624896
 31
0.0
  0
LINE
  5
B8
100
AcDbEntity
  8
TEXT
100
AcDbLine
 10
29.238302
 20
19.374896
 30
0.0
 11
29.238302
 21
19.624896
 31
0.0
  0
LINE
  5
B9
100
AcDbEntity
  8
TEXT
100
AcDbLine
 10
26.498302
 20
19.374896
 30
0.0
 11
26.498302
 21
19.624896
 31
0.0
  0
LINE
  5
BA
100
AcDbEntity
  8
TEXT
100
AcDbLine
 10
26.108049
 20
19.934959
 30
0.0
 11
26.108049
 21
19.374896
 31
0.0
  0
LINE
  5
BB
100
AcDbEntity
  8
TEXT
100
AcDbLine
 10
26.108049
 20
19.374896
 30
0.0
 11
31.162356
 21
19.374896
 31
0.0
  0
LINE
  5
BC
100
AcDbEntity
  8
TEXT
100
AcDbLine
 10
26.108049
 20
19.624896
 30
0.0
 11
31.162356
 21
19.624896
 31
0.0
  0
TEXT
  5
BD
100
AcDbEntity
  8
TEXT
100
AcDbText
 10
30.827821
 20
0.667401
 30
0.0
 40
0.065
  1
REV
  7
ADESK2
100
AcDbText
  0
TEXT
  5
BE
100
AcDbEntity
  8
TEXT
100
AcDbText
 10
28.448321
 20
0.667401
 30
0.0
 40
0.065
  1
DWG NO.
  7
ADESK2
100
AcDbText
  0
TEXT
  5
BF
100
AcDbEntity
  8
TEXT
100
AcDbText
 10
26.965221
 20
0.667401
 30
0.0
 40
0.065
  1
SIZE
  7
ADESK2
100
AcDbText
  0
TEXT
  5
C0
100
AcDbEntity
  8
TEXT
100
AcDbText
 10
29.430121
 20
0.244001
 30
0.0
 40
0.065
  1
SHEET
  7
ADESK2
100
AcDbText
  0
TEXT
  5
C1
100
AcDbEntity
  8
TEXT
100
AcDbText
 10
26.929621
 20
0.244001
 30
0.0
 40
0.065
  1
SCALE
  7
ADESK2
100
AcDbText
  0
LINE
  5
C2
100
AcDbEntity
  8
TEXT
100
AcDbLine
 10
30.747321
 20
0.401501
 30
0.0
 11
30.747321
 21
0.781501
 31
0.0
  0
LINE
  5
C3
100
AcDbEntity
  8
TEXT
100
AcDbLine
 10
28.377321
 20
0.401501
 30
0.0
 11
28.377321
 21
0.781501
 31
0.0
  0
LINE
  5
C4
100
AcDbEntity
  8
TEXT
100
AcDbLine
 10
27.257321
 20
0.401501
 30
0.0
 11
27.257321
 21
0.781501
 31
0.0
  0
LINE
  5
C5
100
AcDbEntity
  8
TEXT
100
AcDbLine
 10
29.377321
 20
0.125
 30
0.0
 11
29.377321
 21
0.401501
 31
0.0
  0
LINE
  5
C6
100
AcDbEntity
  8
TEXT
100
AcDbLine
 10
27.877321
 20
0.125
 30
0.0
 11
27.877321
 21
0.401501
 31
0.0
  0
LINE
  5
C7
100
AcDbEntity
  8
BORDER
100
AcDbLine
 10
26.877321
 20
0.125
 30
0.0
 11
26.877321
 21
1.901501
 31
0.0
  0
LINE
  5
C8
100
AcDbEntity
  8
BORDER
100
AcDbLine
 10
26.877321
 20
1.401501
 30
0.0
 11
31.149118
 21
1.401501
 31
0.0
  0
LINE
  5
C9
100
AcDbEntity
  8
TEXT
100
AcDbLine
 10
26.877321
 20
0.401501
 30
0.0
 11
31.149118
 21
0.401501
 31
0.0
  0
LINE
  5
CA
100
AcDbEntity
  8
TEXT
100
AcDbLine
 10
24.877321
 20
0.781501
 30
0.0
 11
31.149118
 21
0.781501
 31
0.0
  0
LINE
  5
CB
100
AcDbEntity
  8
TEXT
100
AcDbLine
 10
24.877321
 20
0.466501
 30
0.0
 11
26.877321
 21
0.466501
 31
0.0
  0
LINE
  5
CC
100
AcDbEntity
  8
BORDER
100
AcDbLine
 10
24.877321
 20
1.901501
 30
0.0
 11
31.149118
 21
1.901501
 31
0.0
  0
LINE
  5
CD
100
AcDbEntity
  8
BORDER
100
AcDbLine
 10
24.877321
 20
0.125
 30
0.0
 11
24.877321
 21
2.324147
 31
0.0
  0
TEXT
  5
CE
100
AcDbEntity
  8
TEXT
100
AcDbText
 10
24.945631
 20
0.979964
 30
0.0
 40
0.065
  1
DRAWN
  7
ADESK2
100
AcDbText
  0
TEXT
  5
CF
100
AcDbEntity
  8
BORDER
100
AcDbText
 10
25.055285
 20
2.049228
 30
0.0
 40
0.15
  1
UNIVERSITY OF CALIFORNIA @ SANTA BARBARA
100
AcDbText
  0
LINE
  5
D0
100
AcDbEntity
  8
BORDER
100
AcDbLine
 10
24.87628
 20
2.324147
 30
0.0
 11
31.149118
 21
2.324147
 31
0.0
  0
LINE
  5
D1
100
AcDbEntity
  8
BORDER
100
AcDbLine
 10
31.17142
 20
0.125
 30
0.0
 11
31.17142
 21
19.947595
 31
0.0
  0
LINE
  5
D2
100
AcDbEntity
  8
BORDER
100
AcDbLine
 10
0.125
 20
19.947595
 30
0.0
 11
0.125
 21
0.125
 31
0.0
  0
LINE
  5
D3
100
AcDbEntity
  8
BORDER
100
AcDbLine
 10
0.125
 20
0.125
 30
0.0
 11
31.17142
 21
0.125
 31
0.0
  0
TEXT
  5
D4
100
AcDbEntity
  8
TEXT
100
AcDbText
 10
27.328393
 20
0.665354
 30
0.0
 40
0.075
  1
DIRECTORY
100
AcDbText
  0
LINE
  5
D5
100
AcDbEntity
  8
BORDER
100
AcDbLine
 10
0.125
 20
19.947595
 30
0.0
 11
31.17142
 21
19.947595
 31
0.0
  0
TEXT
  5
D6
100
AcDbEntity
  8
BORDER
100
AcDbText
 10
27.564864
 20
1.575566
 30
0.0
 40
0.15
  1
HIGH ENERGY PHYSICS
100
AcDbText
  0
TEXT
  5
D7
100
AcDbEntity
  8
BORDER
100
AcDbText
 10
27.001167
 20
0.434778
 30
0.0
 40
0.2
  1
D
100
AcDbText
  0
TEXT
  5
D8
100
AcDbEntity
  8
TEXT
100
AcDbText
 10
25.106606
 20
1.785089
 30
0.0
 40
0.065
  1
UNLESS OTHERWISE SPECIFIED:
  7
ADESK2
 72
     1
 11
25.877321
 21
1.785089
 31
0.0
100
AcDbText
  0
TEXT
  5
D9
100
AcDbEntity
  8
TEXT
100
AcDbText
 10
25.180892
 20
1.679851
 30
0.0
 40
0.065
  1
DIMENSIONS ARE IN INCHES
  7
ADESK2
 72
     1
 11
25.877321
 21
1.679851
 31
0.0
100
AcDbText
  0
TEXT
  5
DA
100
AcDbEntity
  8
TEXT
100
AcDbText
 10
25.57863
 20
1.574613
 30
0.0
 40
0.065
  1
TOLERANCES
  7
ADESK2
 72
     1
 11
25.877321
 21
1.574613
 31
0.0
100
AcDbText
  0
TEXT
  5
DB
100
AcDbEntity
  8
TEXT
100
AcDbText
 10
25.192279
 20
1.466743
 30
0.0
 40
0.065
  1
DECIMALS
  7
ADESK2
100
AcDbText
  0
TEXT
  5
DC
100
AcDbEntity
  8
TEXT
100
AcDbText
 10
25.192279
 20
1.361505
 30
0.0
 40
0.065
  1
.XX  %%P .05
  7
ADESK2
100
AcDbText
  0
TEXT
  5
DD
100
AcDbEntity
  8
TEXT
100
AcDbText
 10
25.192279
 20
1.256267
 30
0.0
 40
0.065
  1
.XXX %%P .005
  7
ADESK2
100
AcDbText
  0
TEXT
  5
DE
100
AcDbEntity
  8
TEXT
100
AcDbText
 10
25.262916
 20
1.153744
 30
0.0
 40
0.065
  1
DO NOT SCALE DRAWING
  7
ADESK2
 72
     1
 11
25.877321
 21
1.153744
 31
0.0
100
AcDbText
  0
TEXT
  5
DF
100
AcDbEntity
  8
TEXT
100
AcDbText
 10
26.056176
 20
1.466743
 30
0.0
 40
0.065
  1
ANGULAR
  7
ADESK2
100
AcDbText
  0
TEXT
  5
E0
100
AcDbEntity
  8
TEXT
100
AcDbText
 10
26.056176
 20
1.361505
 30
0.0
 40
0.065
  1
  %%P 0.5%%D
  7
ADESK2
100
AcDbText
  0
ENDBLK
  5
E2
100
AcDbEntity
  8
0
100
AcDbBlockEnd
  0
BLOCK
  5
6D9
100
AcDbEntity
  8
0
100
AcDbBlockBegin
  2
*D2
 70
    65
 10
0.0
 20
0.0
 30
0.0
  3
*D2
  1
*TB
  0
LINE
  5
6DA
100
AcDbEntity
  8
0
  6
BYBLOCK
 62
     0
100
AcDbLine
 10
374.529979
 20
440.826153
 30
0.0
 11
386.838914
 21
424.325211
 31
0.0
  0
LINE
  5
6DB
100
AcDbEntity
  8
0
  6
BYBLOCK
 62
     0
100
AcDbLine
 10
386.838914
 20
424.325211
 30
0.0
 11
391.410914
 21
424.325211
 31
0.0
  0
SOLID
  5
6DC
100
AcDbEntity
  8
0
  6
BYBLOCK
 62
     0
100
AcDbTrace
 10
375.140764
 20
441.281769
 30
0.0
 11
373.919195
 21
440.370536
 31
0.0
 12
371.796279
 22
444.490858
 32
0.0
 13
371.796279
 23
444.490858
 33
0.0
  0
MTEXT
  5
6DD
100
AcDbEntity
  8
0
  6
BYBLOCK
 62
     0
100
AcDbMText
 10
422.652914
 20
424.325211
 30
0.0
 40
4.572
 41
0.0
 71
     5
 72
     1
  1
\A1;{R1.59mm[R0.062"]}\P{2X}
  0
LINE
  5
6DE
100
AcDbEntity
  8
0
  6
BYBLOCK
 62
     0
100
AcDbLine
 10
368.561078
 20
445.763326
 30
0.0
 11
373.133078
 21
445.763326
 31
0.0
  0
LINE
  5
6DF
100
AcDbEntity
  8
0
  6
BYBLOCK
 62
     0
100
AcDbLine
 10
370.847078
 20
443.477326
 30
0.0
 11
370.847078
 21
448.049326
 31
0.0
  0
POINT
  5
6E0
100
AcDbEntity
  8
DEFPOINTS
  6
BYBLOCK
 62
     0
100
AcDbPoint
 10
371.796279
 20
444.490858
 30
0.0
  0
POINT
  5
6E1
100
AcDbEntity
  8
DEFPOINTS
  6
BYBLOCK
 62
     0
100
AcDbPoint
 10
370.847078
 20
445.763326
 30
0.0
  0
ENDBLK
  5
6E2
100
AcDbEntity
  8
0
100
AcDbBlockEnd
  0
BLOCK
  5
6E3
100
AcDbEntity
  8
0
100
AcDbBlockBegin
  2
*D3
 70
    65
 10
0.0
 20
0.0
 30
0.0
  3
*D3
  1
*TB
  0
LINE
  5
6E4
100
AcDbEntity
  8
0
  6
BYBLOCK
 62
     0
100
AcDbLine
 10
368.455478
 20
445.616887
 30
0.0
 11
398.916319
 21
400.627592
 31
0.0
  0
LINE
  5
6E5
100
AcDbEntity
  8
0
  6
BYBLOCK
 62
     0
100
AcDbLine
 10
398.916319
 20
400.627592
 30
0.0
 11
403.488319
 21
400.627592
 31
0.0
  0
SOLID
  5
6E6
100
AcDbEntity
  8
0
  6
BYBLOCK
 62
     0
100
AcDbTrace
 10
369.086454
 20
446.044102
 30
0.0
 11
367.824501
 21
445.189673
 31
0.0
 12
365.89219
 22
449.402748
 32
0.0
 13
365.89219
 23
449.402748
 33
0.0
  0
MTEXT
  5
6E7
100
AcDbEntity
  8
0
  6
BYBLOCK
 62
     0
100
AcDbMText
 10
461.019319
 20
400.627592
 30
0.0
 40
4.572
 41
0.0
 71
     5
 72
     1
  1
\A1;{\U+22052.38mm±0.03mm[\U+22050.094"±0.001"]}\P{4X}
  0
LINE
  5
6E8
100
AcDbEntity
  8
0
  6
BYBLOCK
 62
     0
100
AcDbLine
 10
362.938311
 20
450.389175
 30
0.0
 11
367.510311
 21
450.389175
 31
0.0
  0
LINE
  5
6E9
100
AcDbEntity
  8
0
  6
BYBLOCK
 62
     0
100
AcDbLine
 10
365.224311
 20
448.103175
 30
0.0
 11
365.224311
 21
452.675175
 31
0.0
  0
POINT
  5
6EA
100
AcDbEntity
  8
DEFPOINTS
  6
BYBLOCK
 62
     0
100
AcDbPoint
 10
365.89219
 20
449.402748
 30
0.0
  0
POINT
  5
6EB
100
AcDbEntity
  8
DEFPOINTS
  6
BYBLOCK
 62
     0
100
AcDbPoint
 10
364.556432
 20
451.375602
 30
0.0
  0
ENDBLK
  5
6EC
100
AcDbEntity
  8
0
100
AcDbBlockEnd
  0
BLOCK
  5
95E
100
AcDbEntity
  8
0
100
AcDbBlockBegin
  2
*D4
 70
    65
 10
0.0
 20
0.0
 30
0.0
  3
*D4
  1
*TB
  0
LINE
  5
95F
100
AcDbEntity
  8
0
  6
BYBLOCK
 62
     0
100
AcDbLine
 10
408.843678
 20
309.448554
 30
0.0
 11
381.316751
 21
277.080683
 31
0.0
  0
LINE
  5
960
100
AcDbEntity
  8
0
  6
BYBLOCK
 62
     0
100
AcDbLine
 10
381.316751
 20
277.080683
 30
0.0
 11
376.744751
 21
277.080683
 31
0.0
  0
SOLID
  5
961
100
AcDbEntity
  8
0
  6
BYBLOCK
 62
     0
100
AcDbTrace
 10
408.263206
 20
309.94221
 30
0.0
 11
409.424149
 21
308.954897
 31
0.0
 12
411.805615
 22
312.931384
 32
0.0
 13
411.805615
 23
312.931384
 33
0.0
  0
MTEXT
  5
962
100
AcDbEntity
  8
0
  6
BYBLOCK
 62
     0
100
AcDbMText
 10
319.213751
 20
277.080683
 30
0.0
 40
4.572
 41
0.0
 71
     5
 72
     1
  1
\A1;{\U+22052.38mm±0.03mm[\U+22050.094"±0.001"]}\P{2X}
  0
LINE
  5
963
100
AcDbEntity
  8
0
  6
BYBLOCK
 62
     0
100
AcDbLine
 10
410.290953
 20
313.838371
 30
0.0
 11
414.862953
 21
313.838371
 31
0.0
  0
LINE
  5
964
100
AcDbEntity
  8
0
  6
BYBLOCK
 62
     0
100
AcDbLine
 10
412.576953
 20
311.552371
 30
0.0
 11
412.576953
 21
316.124371
 31
0.0
  0
POINT
  5
965
100
AcDbEntity
  8
DEFPOINTS
  6
BYBLOCK
 62
     0
100
AcDbPoint
 10
411.805615
 20
312.931384
 30
0.0
  0
POINT
  5
966
100
AcDbEntity
  8
DEFPOINTS
  6
BYBLOCK
 62
     0
100
AcDbPoint
 10
413.348291
 20
314.745358
 30
0.0
  0
ENDBLK
  5
967
100
AcDbEntity
  8
0
100
AcDbBlockEnd
  0
BLOCK
  5
954
100
AcDbEntity
  8
0
100
AcDbBlockBegin
  2
*D5
 70
    65
 10
0.0
 20
0.0
 30
0.0
  3
*D5
  1
*TB
  0
LINE
  5
955
100
AcDbEntity
  8
0
  6
BYBLOCK
 62
     0
100
AcDbLine
 10
406.90545
 20
301.145801
 30
0.0
 11
366.825484
 21
254.276947
 31
0.0
  0
LINE
  5
956
100
AcDbEntity
  8
0
  6
BYBLOCK
 62
     0
100
AcDbLine
 10
366.825484
 20
254.276947
 30
0.0
 11
362.253484
 21
254.276947
 31
0.0
  0
SOLID
  5
957
100
AcDbEntity
  8
0
  6
BYBLOCK
 62
     0
100
AcDbTrace
 10
406.326327
 20
301.641039
 30
0.0
 11
407.484573
 21
300.650563
 31
0.0
 12
409.876877
 22
304.620539
 32
0.0
 13
409.876877
 23
304.620539
 33
0.0
  0
MTEXT
  5
958
100
AcDbEntity
  8
0
  6
BYBLOCK
 62
     0
100
AcDbMText
 10
331.011484
 20
254.276947
 30
0.0
 40
4.572
 41
0.0
 71
     5
 72
     1
  1
\A1;{\U+22053.20mm[\U+22050.126"]}\P{4X}
  0
LINE
  5
959
100
AcDbEntity
  8
0
  6
BYBLOCK
 62
     0
100
AcDbLine
 10
408.630876
 20
305.836698
 30
0.0
 11
413.202876
 21
305.836698
 31
0.0
  0
LINE
  5
95A
100
AcDbEntity
  8
0
  6
BYBLOCK
 62
     0
100
AcDbLine
 10
410.916876
 20
303.550698
 30
0.0
 11
410.916876
 21
308.122698
 31
0.0
  0
POINT
  5
95B
100
AcDbEntity
  8
DEFPOINTS
  6
BYBLOCK
 62
     0
100
AcDbPoint
 10
409.876877
 20
304.620539
 30
0.0
  0
POINT
  5
95C
100
AcDbEntity
  8
DEFPOINTS
  6
BYBLOCK
 62
     0
100
AcDbPoint
 10
411.956876
 20
307.052856
 30
0.0
  0
ENDBLK
  5
95D
100
AcDbEntity
  8
0
100
AcDbBlockEnd
  0
BLOCK
  5
922
100
AcDbEntity
  8
0
100
AcDbBlockBegin
  2
*D6
 70
    65
 10
0.0
 20
0.0
 30
0.0
  3
*D6
  1
*TB
  0
LINE
  5
923
100
AcDbEntity
  8
0
  6
BYBLOCK
 62
     0
100
AcDbLine
 10
491.544628
 20
298.682047
 30
0.0
 11
526.498292
 21
256.126991
 31
0.0
  0
LINE
  5
924
100
AcDbEntity
  8
0
  6
BYBLOCK
 62
     0
100
AcDbLine
 10
526.498292
 20
256.126991
 30
0.0
 11
531.070292
 21
256.126991
 31
0.0
  0
SOLID
  5
925
100
AcDbEntity
  8
0
  6
BYBLOCK
 62
     0
100
AcDbTrace
 10
492.133461
 20
299.165699
 30
0.0
 11
490.955795
 21
298.198394
 31
0.0
 12
488.642712
 22
302.215044
 32
0.0
 13
488.642712
 23
302.215044
 33
0.0
  0
MTEXT
  5
926
100
AcDbEntity
  8
0
  6
BYBLOCK
 62
     0
100
AcDbMText
 10
561.931292
 20
256.126991
 30
0.0
 40
4.572
 41
0.0
 71
     5
 72
     1
  1
\A1;\U+22052.95mm[\U+22050.116"]
  0
LINE
  5
927
100
AcDbEntity
  8
0
  6
BYBLOCK
 62
     0
100
AcDbLine
 10
485.42165
 20
303.353454
 30
0.0
 11
489.99365
 21
303.353454
 31
0.0
  0
LINE
  5
928
100
AcDbEntity
  8
0
  6
BYBLOCK
 62
     0
100
AcDbLine
 10
487.70765
 20
301.067454
 30
0.0
 11
487.70765
 21
305.639454
 31
0.0
  0
POINT
  5
929
100
AcDbEntity
  8
DEFPOINTS
  6
BYBLOCK
 62
     0
100
AcDbPoint
 10
488.642712
 20
302.215044
 30
0.0
  0
POINT
  5
92A
100
AcDbEntity
  8
DEFPOINTS
  6
BYBLOCK
 62
     0
100
AcDbPoint
 10
486.772589
 20
304.491864
 30
0.0
  0
ENDBLK
  5
92B
100
AcDbEntity
  8
0
100
AcDbBlockEnd
  0
BLOCK
  5
94A
100
AcDbEntity
  8
0
100
AcDbBlockBegin
  2
*D7
 70
    65
 10
0.0
 20
0.0
 30
0.0
  3
*D7
  1
*TB
  0
LINE
  5
94B
100
AcDbEntity
  8
0
  6
BYBLOCK
 62
     0
100
AcDbLine
 10
414.950552
 20
300.85389
 30
0.0
 11
362.464333
 21
234.335506
 31
0.0
  0
LINE
  5
94C
100
AcDbEntity
  8
0
  6
BYBLOCK
 62
     0
100
AcDbLine
 10
362.464333
 20
234.335506
 30
0.0
 11
357.892333
 21
234.335506
 31
0.0
  0
SOLID
  5
94D
100
AcDbEntity
  8
0
  6
BYBLOCK
 62
     0
100
AcDbTrace
 10
414.352348
 20
301.325902
 30
0.0
 11
415.548756
 21
300.381878
 31
0.0
 12
417.782625
 22
304.443117
 32
0.0
 13
417.782625
 23
304.443117
 33
0.0
  0
MTEXT
  5
94E
100
AcDbEntity
  8
0
  6
BYBLOCK
 62
     0
100
AcDbMText
 10
327.412333
 20
234.335506
 30
0.0
 40
4.572
 41
0.0
 71
     5
 72
     1
  1
\A1;{\U+22051.00mm[\U+22050.039"]}\P{8X}
  0
LINE
  5
94F
100
AcDbEntity
  8
0
  6
BYBLOCK
 62
     0
100
AcDbLine
 10
415.80658
 20
304.835938
 30
0.0
 11
420.37858
 21
304.835938
 31
0.0
  0
LINE
  5
950
100
AcDbEntity
  8
0
  6
BYBLOCK
 62
     0
100
AcDbLine
 10
418.09258
 20
302.549938
 30
0.0
 11
418.09258
 21
307.121938
 31
0.0
  0
POINT
  5
951
100
AcDbEntity
  8
DEFPOINTS
  6
BYBLOCK
 62
     0
100
AcDbPoint
 10
417.782625
 20
304.443117
 30
0.0
  0
POINT
  5
952
100
AcDbEntity
  8
DEFPOINTS
  6
BYBLOCK
 62
     0
100
AcDbPoint
 10
418.402534
 20
305.228758
 30
0.0
  0
ENDBLK
  5
953
100
AcDbEntity
  8
0
100
AcDbBlockEnd
  0
BLOCK
  5
62F
100
AcDbEntity
  8
0
100
AcDbBlockBegin
  2
*U8
 70
    65
 10
0.0
 20
0.0
 30
0.0
  3
*U8
  1
*TB
  0
CIRCLE
  5
628
100
AcDbEntity
  8
FOOT-2
100
AcDbCircle
 10
0.0
 20
0.0
 30
0.0
 40
0.046875
  0
LINE
  5
629
100
AcDbEntity
  8
CENTER
100
AcDbLine
 10
-0.015625
 20
0.0
 30
0.0
 11
0.015625
 21
0.0
 31
0.0
  0
LINE
  5
62A
100
AcDbEntity
  8
CENTER
100
AcDbLine
 10
0.0
 20
-0.015625
 30
0.0
 11
0.0
 21
0.015625
 31
0.0
  0
LINE
  5
62B
100
AcDbEntity
  8
CENTER
100
AcDbLine
 10
0.03125
 20
0.0
 30
0.0
 11
0.171875
 21
0.0
 31
0.0
  0
LINE
  5
62C
100
AcDbEntity
  8
CENTER
100
AcDbLine
 10
0.0
 20
0.03125
 30
0.0
 11
0.0
 21
0.171875
 31
0.0
  0
LINE
  5
62D
100
AcDbEntity
  8
CENTER
100
AcDbLine
 10
-0.03125
 20
0.0
 30
0.0
 11
-0.171875
 21
0.0
 31
0.0
  0
LINE
  5
62E
100
AcDbEntity
  8
CENTER
100
AcDbLine
 10
0.0
 20
-0.03125
 30
0.0
 11
0.0
 21
-0.171875
 31
0.0
  0
ENDBLK
  5
630
100
AcDbEntity
  8
0
100
AcDbBlockEnd
  0
BLOCK
  5
639
100
AcDbEntity
  8
0
100
AcDbBlockBegin
  2
*U9
 70
    65
 10
0.0
 20
0.0
 30
0.0
  3
*U9
  1
*TB
  0
CIRCLE
  5
632
100
AcDbEntity
  8
FOOT-2
100
AcDbCircle
 10
0.0
 20
0.0
 30
0.0
 40
0.058
  0
LINE
  5
633
100
AcDbEntity
  8
CENTER
100
AcDbLine
 10
-0.019333
 20
0.0
 30
0.0
 11
0.019333
 21
0.0
 31
0.0
  0
LINE
  5
634
100
AcDbEntity
  8
CENTER
100
AcDbLine
 10
0.0
 20
-0.019333
 30
0.0
 11
0.0
 21
0.019333
 31
0.0
  0
LINE
  5
635
100
AcDbEntity
  8
CENTER
100
AcDbLine
 10
0.038667
 20
0.0
 30
0.0
 11
0.183
 21
0.0
 31
0.0
  0
LINE
  5
636
100
AcDbEntity
  8
CENTER
100
AcDbLine
 10
0.0
 20
0.038667
 30
0.0
 11
0.0
 21
0.183
 31
0.0
  0
LINE
  5
637
100
AcDbEntity
  8
CENTER
100
AcDbLine
 10
-0.038667
 20
0.0
 30
0.0
 11
-0.183
 21
0.0
 31
0.0
  0
LINE
  5
638
100
AcDbEntity
  8
CENTER
100
AcDbLine
 10
0.0
 20
-0.038667
 30
0.0
 11
0.0
 21
-0.183
 31
0.0
  0
ENDBLK
  5
63A
100
AcDbEntity
  8
0
100
AcDbBlockEnd
  0
BLOCK
  5
64E
100
AcDbEntity
  8
0
100
AcDbBlockBegin
  2
*U10
 70
    65
 10
0.0
 20
0.0
 30
0.0
  3
*U10
  1
*TB
  0
POLYLINE
  5
63C
100
AcDbEntity
  8
FOOT-2
100
AcDb2dPolyline
 66
     1
 10
0.0
 20
0.0
 30
0.0
 70
     1
  0
VERTEX
  5
63D
100
AcDbEntity
  8
FOOT-2
100
AcDbVertex
100
AcDb2dVertex
 10
0.0
 20
0.063
 30
0.0
 42
1.0
  0
VERTEX
  5
63E
100
AcDbEntity
  8
FOOT-2
100
AcDbVertex
100
AcDb2dVertex
 10
0.0
 20
-0.063
 30
0.0
  0
VERTEX
  5
63F
100
AcDbEntity
  8
FOOT-2
100
AcDbVertex
100
AcDb2dVertex
 10
0.176
 20
-0.063
 30
0.0
 42
1.0
  0
VERTEX
  5
640
100
AcDbEntity
  8
FOOT-2
100
AcDbVertex
100
AcDb2dVertex
 10
0.176
 20
0.063
 30
0.0
  0
SEQEND
  5
641
100
AcDbEntity
  8
FOOT-2
  0
LINE
  5
642
100
AcDbEntity
  8
CENTER
100
AcDbLine
 10
-0.021
 20
0.0
 30
0.0
 11
0.021
 21
0.0
 31
0.0
  0
LINE
  5
643
100
AcDbEntity
  8
CENTER
100
AcDbLine
 10
0.0
 20
-0.021
 30
0.0
 11
0.0
 21
0.021
 31
0.0
  0
LINE
  5
644
100
AcDbEntity
  8
CENTER
100
AcDbLine
 10
0.042
 20
0.0
 30
0.0
 11
0.188
 21
0.0
 31
0.0
  0
LINE
  5
645
100
AcDbEntity
  8
CENTER
100
AcDbLine
 10
0.0
 20
0.042
 30
0.0
 11
0.0
 21
0.188
 31
0.0
  0
LINE
  5
646
100
AcDbEntity
  8
CENTER
100
AcDbLine
 10
-0.042
 20
0.0
 30
0.0
 11
-0.188
 21
0.0
 31
0.0
  0
LINE
  5
647
100
AcDbEntity
  8
CENTER
100
AcDbLine
 10
0.0
 20
-0.042
 30
0.0
 11
0.0
 21
-0.188
 31
0.0
  0
LINE
  5
648
100
AcDbEntity
  8
CENTER
100
AcDbLine
 10
0.155
 20
0.0
 30
0.0
 11
0.197
 21
0.0
 31
0.0
  0
LINE
  5
649
100
AcDbEntity
  8
CENTER
100
AcDbLine
 10
0.176
 20
-0.021
 30
0.0
 11
0.176
 21
0.021
 31
0.0
  0
LINE
  5
64A
100
AcDbEntity
  8
CENTER
100
AcDbLine
 10
0.218
 20
0.0
 30
0.0
 11
0.364
 21
0.0
 31
0.0
  0
LINE
  5
64B
100
AcDbEntity
  8
CENTER
100
AcDbLine
 10
0.176
 20
0.042
 30
0.0
 11
0.176
 21
0.188
 31
0.0
  0
LINE
  5
64C
100
AcDbEntity
  8
CENTER
100
AcDbLine
 10
0.134
 20
0.0
 30
0.0
 11
-0.012
 21
0.0
 31
0.0
  0
LINE
  5
64D
100
AcDbEntity
  8
CENTER
100
AcDbLine
 10
0.176
 20
-0.042
 30
0.0
 11
0.176
 21
-0.188
 31
0.0
  0
ENDBLK
  5
64F
100
AcDbEntity
  8
0
100
AcDbBlockEnd
  0
BLOCK
  5
6FA
100
AcDbEntity
  8
0
100
AcDbBlockBegin
  2
*D11
 70
    65
 10
0.0
 20
0.0
 30
0.0
  3
*D11
  1
*TB
  0
LINE
  5
6FB
100
AcDbEntity
  8
0
  6
BYBLOCK
 62
     0
100
AcDbLine
 10
302.358836
 20
100.587126
 30
0.0
 11
302.358836
 21
63.092412
 31
0.0
  0
LINE
  5
6FC
100
AcDbEntity
  8
0
  6
BYBLOCK
 62
     0
100
AcDbLine
 10
369.796311
 20
67.664412
 30
0.0
 11
374.368311
 21
67.664412
 31
0.0
  0
LINE
  5
6FD
100
AcDbEntity
  8
0
  6
BYBLOCK
 62
     0
100
AcDbLine
 10
297.786836
 20
67.664412
 30
0.0
 11
293.214836
 21
67.664412
 31
0.0
  0
SOLID
  5
6FE
100
AcDbEntity
  8
0
  6
BYBLOCK
 62
     0
100
AcDbTrace
 10
369.796311
 20
68.426412
 30
0.0
 11
369.796311
 21
66.902412
 31
0.0
 12
365.224311
 22
67.664412
 32
0.0
 13
365.224311
 23
67.664412
 33
0.0
  0
SOLID
  5
6FF
100
AcDbEntity
  8
0
  6
BYBLOCK
 62
     0
100
AcDbTrace
 10
297.786836
 20
68.426412
 30
0.0
 11
297.786836
 21
66.902412
 31
0.0
 12
302.358836
 22
67.664412
 32
0.0
 13
302.358836
 23
67.664412
 33
0.0
  0
MTEXT
  5
700
100
AcDbEntity
  8
0
  6
BYBLOCK
 62
     0
100
AcDbMText
 10
262.734836
 20
67.664412
 30
0.0
 40
4.572
 41
0.0
 71
     5
 72
     1
  1
\A1;62.87mm[2.475"]
  0
POINT
  5
701
100
AcDbEntity
  8
DEFPOINTS
  6
BYBLOCK
 62
     0
100
AcDbPoint
 10
365.224311
 20
40.231053
 30
0.0
  0
POINT
  5
702
100
AcDbEntity
  8
DEFPOINTS
  6
BYBLOCK
 62
     0
100
AcDbPoint
 10
302.358836
 20
102.174626
 30
0.0
  0
POINT
  5
703
100
AcDbEntity
  8
DEFPOINTS
  6
BYBLOCK
 62
     0
100
AcDbPoint
 10
302.358836
 20
67.664412
 30
0.0
  0
ENDBLK
  5
704
100
AcDbEntity
  8
0
100
AcDbBlockEnd
  0
BLOCK
  5
706
100
AcDbEntity
  8
0
100
AcDbBlockBegin
  2
*D12
 70
    65
 10
0.0
 20
0.0
 30
0.0
  3
*D12
  1
*TB
  0
LINE
  5
707
100
AcDbEntity
  8
0
  6
BYBLOCK
 62
     0
100
AcDbLine
 10
321.4076
 20
102.967171
 30
0.0
 11
321.4076
 21
51.735016
 31
0.0
  0
LINE
  5
708
100
AcDbEntity
  8
0
  6
BYBLOCK
 62
     0
100
AcDbLine
 10
369.796311
 20
56.307016
 30
0.0
 11
374.368311
 21
56.307016
 31
0.0
  0
LINE
  5
709
100
AcDbEntity
  8
0
  6
BYBLOCK
 62
     0
100
AcDbLine
 10
316.8356
 20
56.307016
 30
0.0
 11
312.2636
 21
56.307016
 31
0.0
  0
SOLID
  5
70A
100
AcDbEntity
  8
0
  6
BYBLOCK
 62
     0
100
AcDbTrace
 10
369.796311
 20
57.069016
 30
0.0
 11
369.796311
 21
55.545016
 31
0.0
 12
365.224311
 22
56.307016
 32
0.0
 13
365.224311
 23
56.307016
 33
0.0
  0
SOLID
  5
70B
100
AcDbEntity
  8
0
  6
BYBLOCK
 62
     0
100
AcDbTrace
 10
316.8356
 20
57.069016
 30
0.0
 11
316.8356
 21
55.545016
 31
0.0
 12
321.4076
 22
56.307016
 32
0.0
 13
321.4076
 23
56.307016
 33
0.0
  0
MTEXT
  5
70C
100
AcDbEntity
  8
0
  6
BYBLOCK
 62
     0
100
AcDbMText
 10
257.0186
 20
56.307016
 30
0.0
 40
4.572
 41
0.0
 71
     5
 72
     1
  1
\A1;43.82mm±0.03mm[1.725"±0.001"]
  0
POINT
  5
70D
100
AcDbEntity
  8
DEFPOINTS
  6
BYBLOCK
 62
     0
100
AcDbPoint
 10
365.224311
 20
40.231053
 30
0.0
  0
POINT
  5
70E
100
AcDbEntity
  8
DEFPOINTS
  6
BYBLOCK
 62
     0
100
AcDbPoint
 10
321.4076
 20
104.554671
 30
0.0
  0
POINT
  5
70F
100
AcDbEntity
  8
DEFPOINTS
  6
BYBLOCK
 62
     0
100
AcDbPoint
 10
321.4076
 20
56.307016
 30
0.0
  0
ENDBLK
  5
710
100
AcDbEntity
  8
0
100
AcDbBlockEnd
  0
BLOCK
  5
752
100
AcDbEntity
  8
0
100
AcDbBlockBegin
  2
*D13
 70
    65
 10
0.0
 20
0.0
 30
0.0
  3
*D13
  1
*TB
  0
LINE
  5
753
100
AcDbEntity
  8
0
  6
BYBLOCK
 62
     0
100
AcDbLine
 10
407.716513
 20
112.174606
 30
0.0
 11
339.988752
 21
112.174606
 31
0.0
  0
LINE
  5
754
100
AcDbEntity
  8
0
  6
BYBLOCK
 62
     0
100
AcDbLine
 10
344.560752
 20
105.038863
 30
0.0
 11
344.560752
 21
100.466863
 31
0.0
  0
LINE
  5
755
100
AcDbEntity
  8
0
  6
BYBLOCK
 62
     0
100
AcDbLine
 10
344.560752
 20
116.746606
 30
0.0
 11
344.560752
 21
121.318606
 31
0.0
  0
LINE
  5
756
100
AcDbEntity
  8
0
  6
BYBLOCK
 62
     0
100
AcDbLine
 10
344.560752
 20
121.318606
 30
0.0
 11
349.132752
 21
121.318606
 31
0.0
  0
SOLID
  5
757
100
AcDbEntity
  8
0
  6
BYBLOCK
 62
     0
100
AcDbTrace
 10
343.798752
 20
105.038863
 30
0.0
 11
345.322752
 21
105.038863
 31
0.0
 12
344.560752
 22
109.610863
 32
0.0
 13
344.560752
 23
109.610863
 33
0.0
  0
SOLID
  5
758
100
AcDbEntity
  8
0
  6
BYBLOCK
 62
     0
100
AcDbTrace
 10
343.798752
 20
116.746606
 30
0.0
 11
345.322752
 21
116.746606
 31
0.0
 12
344.560752
 22
112.174606
 32
0.0
 13
344.560752
 23
112.174606
 33
0.0
  0
MTEXT
  5
759
100
AcDbEntity
  8
0
  6
BYBLOCK
 62
     0
100
AcDbMText
 10
375.040752
 20
121.318606
 30
0.0
 40
4.572
 41
0.0
 71
     5
 72
     1
  1
\A1;2.56mm[0.101"]
  0
POINT
  5
75A
100
AcDbEntity
  8
DEFPOINTS
  6
BYBLOCK
 62
     0
100
AcDbPoint
 10
75.60452
 20
109.610863
 30
0.0
  0
POINT
  5
75B
100
AcDbEntity
  8
DEFPOINTS
  6
BYBLOCK
 62
     0
100
AcDbPoint
 10
409.304013
 20
112.174606
 30
0.0
  0
POINT
  5
75C
100
AcDbEntity
  8
DEFPOINTS
  6
BYBLOCK
 62
     0
100
AcDbPoint
 10
344.560752
 20
112.174606
 30
0.0
  0
ENDBLK
  5
75D
100
AcDbEntity
  8
0
100
AcDbBlockEnd
  0
BLOCK
  5
746
100
AcDbEntity
  8
0
100
AcDbBlockBegin
  2
*D14
 70
    65
 10
0.0
 20
0.0
 30
0.0
  3
*D14
  1
*TB
  0
LINE
  5
747
100
AcDbEntity
  8
0
  6
BYBLOCK
 62
     0
100
AcDbLine
 10
422.167822
 20
107.555616
 30
0.0
 11
223.166256
 21
107.555616
 31
0.0
  0
LINE
  5
748
100
AcDbEntity
  8
0
  6
BYBLOCK
 62
     0
100
AcDbLine
 10
227.738256
 20
102.983616
 30
0.0
 11
227.738256
 21
98.411616
 31
0.0
  0
LINE
  5
749
100
AcDbEntity
  8
0
  6
BYBLOCK
 62
     0
100
AcDbLine
 10
227.738256
 20
114.182863
 30
0.0
 11
227.738256
 21
118.754863
 31
0.0
  0
LINE
  5
74A
100
AcDbEntity
  8
0
  6
BYBLOCK
 62
     0
100
AcDbLine
 10
227.738256
 20
118.754863
 30
0.0
 11
232.310256
 21
118.754863
 31
0.0
  0
SOLID
  5
74B
100
AcDbEntity
  8
0
  6
BYBLOCK
 62
     0
100
AcDbTrace
 10
226.976256
 20
102.983616
 30
0.0
 11
228.500256
 21
102.983616
 31
0.0
 12
227.738256
 22
107.555616
 32
0.0
 13
227.738256
 23
107.555616
 33
0.0
  0
SOLID
  5
74C
100
AcDbEntity
  8
0
  6
BYBLOCK
 62
     0
100
AcDbTrace
 10
226.976256
 20
114.182863
 30
0.0
 11
228.500256
 21
114.182863
 31
0.0
 12
227.738256
 22
109.610863
 32
0.0
 13
227.738256
 23
109.610863
 33
0.0
  0
MTEXT
  5
74D
100
AcDbEntity
  8
0
  6
BYBLOCK
 62
     0
100
AcDbMText
 10
284.126256
 20
118.754863
 30
0.0
 40
4.572
 41
0.0
 71
     5
 72
     1
  1
\A1;2.06mm±0.03mm[0.081"±0.001"]
  0
POINT
  5
74E
100
AcDbEntity
  8
DEFPOINTS
  6
BYBLOCK
 62
     0
100
AcDbPoint
 10
423.755322
 20
107.555616
 30
0.0
  0
POINT
  5
74F
100
AcDbEntity
  8
DEFPOINTS
  6
BYBLOCK
 62
     0
100
AcDbPoint
 10
75.60452
 20
109.610863
 30
0.0
  0
POINT
  5
750
100
AcDbEntity
  8
DEFPOINTS
  6
BYBLOCK
 62
     0
100
AcDbPoint
 10
227.738256
 20
109.610863
 30
0.0
  0
ENDBLK
  5
751
100
AcDbEntity
  8
0
100
AcDbBlockEnd
  0
BLOCK
  5
75F
100
AcDbEntity
  8
0
100
AcDbBlockBegin
  2
*D15
 70
    65
 10
0.0
 20
0.0
 30
0.0
  3
*D15
  1
*TB
  0
LINE
  5
760
100
AcDbEntity
  8
0
  6
BYBLOCK
 62
     0
100
AcDbLine
 10
406.129013
 20
102.174626
 30
0.0
 11
95.884121
 21
102.174626
 31
0.0
  0
LINE
  5
761
100
AcDbEntity
  8
0
  6
BYBLOCK
 62
     0
100
AcDbLine
 10
100.456121
 20
97.602626
 30
0.0
 11
100.456121
 21
93.030626
 31
0.0
  0
LINE
  5
762
100
AcDbEntity
  8
0
  6
BYBLOCK
 62
     0
100
AcDbLine
 10
100.456121
 20
114.182863
 30
0.0
 11
100.456121
 21
118.754863
 31
0.0
  0
LINE
  5
763
100
AcDbEntity
  8
0
  6
BYBLOCK
 62
     0
100
AcDbLine
 10
100.456121
 20
118.754863
 30
0.0
 11
105.028121
 21
118.754863
 31
0.0
  0
SOLID
  5
764
100
AcDbEntity
  8
0
  6
BYBLOCK
 62
     0
100
AcDbTrace
 10
99.694121
 20
97.602626
 30
0.0
 11
101.218121
 21
97.602626
 31
0.0
 12
100.456121
 22
102.174626
 32
0.0
 13
100.456121
 23
102.174626
 33
0.0
  0
SOLID
  5
765
100
AcDbEntity
  8
0
  6
BYBLOCK
 62
     0
100
AcDbTrace
 10
99.694121
 20
114.182863
 30
0.0
 11
101.218121
 21
114.182863
 31
0.0
 12
100.456121
 22
109.610863
 32
0.0
 13
100.456121
 23
109.610863
 33
0.0
  0
MTEXT
  5
766
100
AcDbEntity
  8
0
  6
BYBLOCK
 62
     0
100
AcDbMText
 10
163.854521
 20
118.754863
 30
0.0
 40
4.572
 41
0.0
 71
     5
 72
     1
  1
\A1;7.44mm\S 0.00mm^ -0.05mm;{\o\l\H10.972800;[}0.293"\S 0.000"^ -0.002";{\o\l\H10.972800;]}
  0
POINT
  5
767
100
AcDbEntity
  8
DEFPOINTS
  6
BYBLOCK
 62
     0
100
AcDbPoint
 10
407.716513
 20
102.174626
 30
0.0
  0
POINT
  5
768
100
AcDbEntity
  8
DEFPOINTS
  6
BYBLOCK
 62
     0
100
AcDbPoint
 10
75.60452
 20
109.610863
 30
0.0
  0
POINT
  5
769
100
AcDbEntity
  8
DEFPOINTS
  6
BYBLOCK
 62
     0
100
AcDbPoint
 10
100.456121
 20
109.610863
 30
0.0
  0
ENDBLK
  5
76A
100
AcDbEntity
  8
0
100
AcDbBlockEnd
  0
BLOCK
  5
77A
100
AcDbEntity
  8
0
100
AcDbBlockBegin
  2
*D16
 70
    65
 10
0.0
 20
0.0
 30
0.0
  3
*D16
  1
*TB
  0
LINE
  5
77B
100
AcDbEntity
  8
0
  6
BYBLOCK
 62
     0
100
AcDbLine
 10
480.831192
 20
108.653588
 30
0.0
 11
500.631833
 21
69.792642
 31
0.0
  0
LINE
  5
77C
100
AcDbEntity
  8
0
  6
BYBLOCK
 62
     0
100
AcDbLine
 10
486.732965
 20
67.842091
 30
0.0
 11
482.659283
 21
65.766446
 31
0.0
  0
LINE
  5
77D
100
AcDbEntity
  8
0
  6
BYBLOCK
 62
     0
100
AcDbLine
 10
502.62987
 20
75.941969
 30
0.0
 11
506.703552
 21
78.017613
 31
0.0
  0
SOLID
  5
77E
100
AcDbEntity
  8
0
  6
BYBLOCK
 62
     0
100
AcDbTrace
 10
486.387024
 20
68.521038
 30
0.0
 11
487.078906
 21
67.163144
 31
0.0
 12
490.806647
 22
69.917735
 32
0.0
 13
490.806647
 23
69.917735
 33
0.0
  0
SOLID
  5
77F
100
AcDbEntity
  8
0
  6
BYBLOCK
 62
     0
100
AcDbTrace
 10
502.283929
 20
76.620916
 30
0.0
 11
502.975811
 21
75.263022
 31
0.0
 12
498.556188
 22
73.866324
 32
0.0
 13
498.556188
 23
73.866324
 33
0.0
  0
MTEXT
  5
780
100
AcDbEntity
  8
0
  6
BYBLOCK
 62
     0
100
AcDbMText
 10
531.145643
 20
90.471481
 30
0.0
 40
4.572
 41
0.0
 71
     5
 72
     1
  1
\A1;8.70mm[0.342"]
 11
0.891007
 21
0.45399
 31
0.0
  0
POINT
  5
781
100
AcDbEntity
  8
DEFPOINTS
  6
BYBLOCK
 62
     0
100
AcDbPoint
 10
502.267565
 20
47.424418
 30
0.0
 50
333.0
  0
POINT
  5
782
100
AcDbEntity
  8
DEFPOINTS
  6
BYBLOCK
 62
     0
100
AcDbPoint
 10
480.110482
 20
110.068061
 30
0.0
 50
333.0
  0
POINT
  5
783
100
AcDbEntity
  8
DEFPOINTS
  6
BYBLOCK
 62
     0
100
AcDbPoint
 10
498.556188
 20
73.866324
 30
0.0
 50
333.0
  0
ENDBLK
  5
784
100
AcDbEntity
  8
0
100
AcDbBlockEnd
  0
BLOCK
  5
787
100
AcDbEntity
  8
0
100
AcDbBlockBegin
  2
*D17
 70
    65
 10
0.0
 20
0.0
 30
0.0
  3
*D17
  1
*TB
  0
LINE
  5
788
100
AcDbEntity
  8
0
  6
BYBLOCK
 62
     0
100
AcDbLine
 10
465.339454
 20
100.760153
 30
0.0
 11
490.103604
 21
52.157771
 31
0.0
  0
LINE
  5
789
100
AcDbEntity
  8
0
  6
BYBLOCK
 62
     0
100
AcDbLine
 10
483.954278
 20
54.155808
 30
0.0
 11
479.880596
 21
52.080163
 31
0.0
  0
LINE
  5
78A
100
AcDbEntity
  8
0
  6
BYBLOCK
 62
     0
100
AcDbLine
 10
499.843839
 20
62.251943
 30
0.0
 11
503.91752
 21
64.327588
 31
0.0
  0
SOLID
  5
78B
100
AcDbEntity
  8
0
  6
BYBLOCK
 62
     0
100
AcDbTrace
 10
483.608337
 20
54.834755
 30
0.0
 11
484.300219
 21
53.476861
 31
0.0
 12
488.02796
 22
56.231452
 32
0.0
 13
488.02796
 23
56.231452
 33
0.0
  0
SOLID
  5
78C
100
AcDbEntity
  8
0
  6
BYBLOCK
 62
     0
100
AcDbTrace
 10
499.497898
 20
62.93089
 30
0.0
 11
500.189779
 21
61.572996
 31
0.0
 12
495.770157
 22
60.176299
 32
0.0
 13
495.770157
 23
60.176299
 33
0.0
  0
MTEXT
  5
78D
100
AcDbEntity
  8
0
  6
BYBLOCK
 62
     0
100
AcDbMText
 10
528.699085
 20
76.954426
 30
0.0
 40
4.572
 41
0.0
 71
     5
 72
     1
  1
\A1;8.69mm[0.342"]
 11
0.891007
 21
0.45399
 31
0.0
  0
POINT
  5
78E
100
AcDbEntity
  8
DEFPOINTS
  6
BYBLOCK
 62
     0
100
AcDbPoint
 10
464.618744
 20
102.174626
 30
0.0
 50
333.0
  0
POINT
  5
78F
100
AcDbEntity
  8
DEFPOINTS
  6
BYBLOCK
 62
     0
100
AcDbPoint
 10
502.267565
 20
47.424418
 30
0.0
 50
333.0
  0
POINT
  5
790
100
AcDbEntity
  8
DEFPOINTS
  6
BYBLOCK
 62
     0
100
AcDbPoint
 10
495.770157
 20
60.176299
 30
0.0
 50
333.0
  0
ENDBLK
  5
791
100
AcDbEntity
  8
0
100
AcDbBlockEnd
  0
BLOCK
  5
7BB
100
AcDbEntity
  8
0
100
AcDbBlockBegin
  2
*D18
 70
    65
 10
0.0
 20
0.0
 30
0.0
  3
*D18
  1
*TB
  0
LINE
  5
7BC
100
AcDbEntity
  8
0
  6
BYBLOCK
 62
     0
100
AcDbLine
 10
481.524955
 20
110.788771
 30
0.0
 11
555.033769
 21
148.243383
 31
0.0
  0
LINE
  5
7BD
100
AcDbEntity
  8
0
  6
BYBLOCK
 62
     0
100
AcDbLine
 10
553.035732
 20
142.094056
 30
0.0
 11
555.111376
 21
138.020374
 31
0.0
  0
LINE
  5
7BE
100
AcDbEntity
  8
0
  6
BYBLOCK
 62
     0
100
AcDbLine
 10
547.10549
 20
153.732811
 30
0.0
 11
545.029846
 21
157.806492
 31
0.0
  0
LINE
  5
7BF
100
AcDbEntity
  8
0
  6
BYBLOCK
 62
     0
100
AcDbLine
 10
545.029846
 20
157.806492
 30
0.0
 11
549.103527
 21
159.882137
 31
0.0
  0
SOLID
  5
7C0
100
AcDbEntity
  8
0
  6
BYBLOCK
 62
     0
100
AcDbTrace
 10
552.356785
 20
141.748115
 30
0.0
 11
553.714679
 21
142.439997
 31
0.0
 12
550.960087
 22
146.167738
 32
0.0
 13
550.960087
 23
146.167738
 33
0.0
  0
SOLID
  5
7C1
100
AcDbEntity
  8
0
  6
BYBLOCK
 62
     0
100
AcDbTrace
 10
546.426543
 20
153.38687
 30
0.0
 11
547.784437
 21
154.078751
 31
0.0
 12
549.181135
 22
149.659129
 32
0.0
 13
549.181135
 23
149.659129
 33
0.0
  0
MTEXT
  5
7C2
100
AcDbEntity
  8
0
  6
BYBLOCK
 62
     0
100
AcDbMText
 10
573.206145
 20
172.163034
 30
0.0
 40
4.572
 41
0.0
 71
     5
 72
     1
  1
\A1;3.92mm[0.154"]
 11
0.891007
 21
0.45399
 31
0.0
  0
POINT
  5
7C3
100
AcDbEntity
  8
DEFPOINTS
  6
BYBLOCK
 62
     0
100
AcDbPoint
 10
480.110482
 20
110.068061
 30
0.0
 50
333.0
  0
POINT
  5
7C4
100
AcDbEntity
  8
DEFPOINTS
  6
BYBLOCK
 62
     0
100
AcDbPoint
 10
609.411653
 20
180.348111
 30
0.0
 50
333.0
  0
POINT
  5
7C5
100
AcDbEntity
  8
DEFPOINTS
  6
BYBLOCK
 62
     0
100
AcDbPoint
 10
549.181135
 20
149.659129
 30
0.0
 50
333.0
  0
ENDBLK
  5
7C6
100
AcDbEntity
  8
0
100
AcDbBlockEnd
  0
BLOCK
  5
7AF
100
AcDbEntity
  8
0
100
AcDbBlockBegin
  2
*D19
 70
    65
 10
0.0
 20
0.0
 30
0.0
  3
*D19
  1
*TB
  0
LINE
  5
7B0
100
AcDbEntity
  8
0
  6
BYBLOCK
 62
     0
100
AcDbLine
 10
476.898518
 20
116.371895
 30
0.0
 11
494.093939
 21
125.1334
 31
0.0
  0
LINE
  5
7B1
100
AcDbEntity
  8
0
  6
BYBLOCK
 62
     0
100
AcDbLine
 10
493.528914
 20
116.17163
 30
0.0
 11
495.604558
 21
112.097948
 31
0.0
  0
LINE
  5
7B2
100
AcDbEntity
  8
0
  6
BYBLOCK
 62
     0
100
AcDbLine
 10
487.944613
 20
127.131438
 30
0.0
 11
485.868968
 21
131.205119
 31
0.0
  0
LINE
  5
7B3
100
AcDbEntity
  8
0
  6
BYBLOCK
 62
     0
100
AcDbLine
 10
485.868968
 20
131.205119
 30
0.0
 11
489.94265
 21
133.280764
 31
0.0
  0
SOLID
  5
7B4
100
AcDbEntity
  8
0
  6
BYBLOCK
 62
     0
100
AcDbTrace
 10
492.849967
 20
115.825689
 30
0.0
 11
494.207861
 21
116.517571
 31
0.0
 12
491.453269
 22
120.245312
 32
0.0
 13
491.453269
 23
120.245312
 33
0.0
  0
SOLID
  5
7B5
100
AcDbEntity
  8
0
  6
BYBLOCK
 62
     0
100
AcDbTrace
 10
487.265666
 20
126.785497
 30
0.0
 11
488.62356
 21
127.477378
 31
0.0
 12
490.020257
 22
123.057756
 32
0.0
 13
490.020257
 23
123.057756
 33
0.0
  0
MTEXT
  5
7B6
100
AcDbEntity
  8
0
  6
BYBLOCK
 62
     0
100
AcDbMText
 10
513.366321
 20
145.21572
 30
0.0
 40
4.572
 41
0.0
 71
     5
 72
     1
  1
\A1;3.16mm[0.124"]
 11
0.891007
 21
0.45399
 31
0.0
  0
POINT
  5
7B7
100
AcDbEntity
  8
DEFPOINTS
  6
BYBLOCK
 62
     0
100
AcDbPoint
 10
609.411653
 20
180.348111
 30
0.0
 50
333.0
  0
POINT
  5
7B8
100
AcDbEntity
  8
DEFPOINTS
  6
BYBLOCK
 62
     0
100
AcDbPoint
 10
475.484045
 20
115.651185
 30
0.0
 50
333.0
  0
POINT
  5
7B9
100
AcDbEntity
  8
DEFPOINTS
  6
BYBLOCK
 62
     0
100
AcDbPoint
 10
490.020257
 20
123.057756
 30
0.0
 50
333.0
  0
ENDBLK
  5
7BA
100
AcDbEntity
  8
0
100
AcDbBlockEnd
  0
BLOCK
  5
7C8
100
AcDbEntity
  8
0
100
AcDbBlockBegin
  2
*D20
 70
    65
 10
0.0
 20
0.0
 30
0.0
  3
*D20
  1
*TB
  0
LINE
  5
7C9
100
AcDbEntity
  8
0
  6
BYBLOCK
 62
     0
100
AcDbLine
 10
468.660874
 20
113.762106
 30
0.0
 11
468.660874
 21
133.780511
 31
0.0
  0
LINE
  5
7CA
100
AcDbEntity
  8
0
  6
BYBLOCK
 62
     0
100
AcDbLine
 10
475.153988
 20
129.208511
 30
0.0
 11
479.725988
 21
129.208511
 31
0.0
  0
LINE
  5
7CB
100
AcDbEntity
  8
0
  6
BYBLOCK
 62
     0
100
AcDbLine
 10
464.088874
 20
129.208511
 30
0.0
 11
459.516874
 21
129.208511
 31
0.0
  0
SOLID
  5
7CC
100
AcDbEntity
  8
0
  6
BYBLOCK
 62
     0
100
AcDbTrace
 10
475.153988
 20
129.970511
 30
0.0
 11
475.153988
 21
128.446511
 31
0.0
 12
470.581988
 22
129.208511
 32
0.0
 13
470.581988
 23
129.208511
 33
0.0
  0
SOLID
  5
7CD
100
AcDbEntity
  8
0
  6
BYBLOCK
 62
     0
100
AcDbTrace
 10
464.088874
 20
129.970511
 30
0.0
 11
464.088874
 21
128.446511
 31
0.0
 12
468.660874
 22
129.208511
 32
0.0
 13
468.660874
 23
129.208511
 33
0.0
  0
MTEXT
  5
7CE
100
AcDbEntity
  8
0
  6
BYBLOCK
 62
     0
100
AcDbMText
 10
432.846874
 20
129.208511
 30
0.0
 40
4.572
 41
0.0
 71
     5
 72
     1
  1
\A1;1.92mm[0.076"]
  0
POINT
  5
7CF
100
AcDbEntity
  8
DEFPOINTS
  6
BYBLOCK
 62
     0
100
AcDbPoint
 10
470.581988
 20
40.231053
 30
0.0
  0
POINT
  5
7D0
100
AcDbEntity
  8
DEFPOINTS
  6
BYBLOCK
 62
     0
100
AcDbPoint
 10
468.660874
 20
112.174606
 30
0.0
  0
POINT
  5
7D1
100
AcDbEntity
  8
DEFPOINTS
  6
BYBLOCK
 62
     0
100
AcDbPoint
 10
468.660874
 20
129.208511
 30
0.0
  0
ENDBLK
  5
7D2
100
AcDbEntity
  8
0
100
AcDbBlockEnd
  0
BLOCK
  5
806
100
AcDbEntity
  8
0
100
AcDbBlockBegin
  2
*D21
 70
    65
 10
0.0
 20
0.0
 30
0.0
  3
*D21
  1
*TB
  0
ARC
  5
807
100
AcDbEntity
  8
0
  6
BYBLOCK
 62
     0
100
AcDbCircle
 10
470.581988
 20
109.610863
 30
0.0
 40
131.980853
100
AcDbArc
 50
91.984905
 51
98.109671
  0
ARC
  5
808
100
AcDbEntity
  8
0
  6
BYBLOCK
 62
     0
100
AcDbCircle
 10
470.581988
 20
109.610863
 30
0.0
 40
131.980853
100
AcDbArc
 50
109.015407
 51
115.015095
  0
SOLID
  5
809
100
AcDbEntity
  8
0
  6
BYBLOCK
 62
     0
100
AcDbTrace
 10
465.997475
 20
242.274412
 30
0.0
 11
466.023872
 21
240.750641
 31
0.0
 12
470.581988
 22
241.591717
 32
0.0
 13
470.581988
 23
241.591717
 33
0.0
  0
SOLID
  5
80A
100
AcDbEntity
  8
0
  6
BYBLOCK
 62
     0
100
AcDbTrace
 10
415.107086
 20
228.526602
 30
0.0
 11
414.438828
 21
229.896276
 31
0.0
 12
410.663934
 22
227.206665
 32
0.0
 13
410.663934
 23
227.206665
 33
0.0
  0
MTEXT
  5
80B
100
AcDbEntity
  8
0
  6
BYBLOCK
 62
     0
100
AcDbMText
 10
439.77167
 20
237.945075
 30
0.0
 40
4.572
 41
0.0
 71
     5
 72
     1
  1
\A1;27.00°
  0
POINT
  5
80C
100
AcDbEntity
  8
DEFPOINTS
  6
BYBLOCK
 62
     0
100
AcDbPoint
 10
449.935634
 20
239.966813
 30
0.0
  0
POINT
  5
80D
100
AcDbEntity
  8
DEFPOINTS
  6
BYBLOCK
 62
     0
100
AcDbPoint
 10
502.267565
 20
47.424418
 30
0.0
  0
POINT
  5
80E
100
AcDbEntity
  8
DEFPOINTS
  6
BYBLOCK
 62
     0
100
AcDbPoint
 10
470.581988
 20
40.231053
 30
0.0
  0
POINT
  5
80F
100
AcDbEntity
  8
DEFPOINTS
  6
BYBLOCK
 62
     0
100
AcDbPoint
 10
470.581988
 20
484.277863
 30
0.0
  0
POINT
  5
810
100
AcDbEntity
  8
DEFPOINTS
  6
BYBLOCK
 62
     0
100
AcDbPoint
 10
407.545364
 20
233.327203
 30
0.0
  0
ENDBLK
  5
811
100
AcDbEntity
  8
0
100
AcDbBlockEnd
  0
BLOCK
  5
7EF
100
AcDbEntity
  8
0
100
AcDbBlockBegin
  2
*D22
 70
    65
 10
0.0
 20
0.0
 30
0.0
  3
*D22
  1
*TB
  0
LINE
  5
7F0
100
AcDbEntity
  8
0
  6
BYBLOCK
 62
     0
100
AcDbLine
 10
429.408781
 20
197.411371
 30
0.0
 11
418.171486
 21
219.465803
 31
0.0
  0
LINE
  5
7F1
100
AcDbEntity
  8
0
  6
BYBLOCK
 62
     0
100
AcDbLine
 10
424.320813
 20
217.467765
 30
0.0
 11
428.394495
 21
219.54341
 31
0.0
  0
LINE
  5
7F2
100
AcDbEntity
  8
0
  6
BYBLOCK
 62
     0
100
AcDbLine
 10
413.344503
 20
211.875056
 30
0.0
 11
409.270822
 21
209.799412
 31
0.0
  0
SOLID
  5
7F3
100
AcDbEntity
  8
0
  6
BYBLOCK
 62
     0
100
AcDbTrace
 10
423.974872
 20
218.146712
 30
0.0
 11
424.666754
 21
216.788818
 31
0.0
 12
420.247131
 22
215.392121
 32
0.0
 13
420.247131
 23
215.392121
 33
0.0
  0
SOLID
  5
7F4
100
AcDbEntity
  8
0
  6
BYBLOCK
 62
     0
100
AcDbTrace
 10
412.998563
 20
212.554003
 30
0.0
 11
413.690444
 21
211.196109
 31
0.0
 12
417.418185
 22
213.950701
 32
0.0
 13
417.418185
 23
213.950701
 33
0.0
  0
MTEXT
  5
7F5
100
AcDbEntity
  8
0
  6
BYBLOCK
 62
     0
100
AcDbMText
 10
363.102428
 20
186.27544
 30
0.0
 40
4.572
 41
0.0
 71
     5
 72
     1
  1
\A1;3.17mm±0.03mm[0.125"±0.001"]
 11
0.891007
 21
0.45399
 31
0.0
  0
POINT
  5
7F6
100
AcDbEntity
  8
DEFPOINTS
  6
BYBLOCK
 62
     0
100
AcDbPoint
 10
430.129491
 20
195.996898
 30
0.0
 50
333.0
  0
POINT
  5
7F7
100
AcDbEntity
  8
DEFPOINTS
  6
BYBLOCK
 62
     0
100
AcDbPoint
 10
407.545364
 20
233.327203
 30
0.0
 50
333.0
  0
POINT
  5
7F8
100
AcDbEntity
  8
DEFPOINTS
  6
BYBLOCK
 62
     0
100
AcDbPoint
 10
417.418185
 20
213.950701
 30
0.0
 50
333.0
  0
ENDBLK
  5
7F9
100
AcDbEntity
  8
0
100
AcDbBlockEnd
  0
BLOCK
  5
9FC
100
AcDbEntity
  8
0
100
AcDbBlockBegin
  2
*D23
 70
    65
 10
0.0
 20
0.0
 30
0.0
  3
*D23
  1

  0
LINE
  5
9FD
100
AcDbEntity
  8
0
  6
BYBLOCK
 62
     0
100
AcDbLine
 10
410.916876
 20
328.202745
 30
0.0
 11
410.916876
 21
361.397747
 31
0.0
  0
LINE
  5
9FE
100
AcDbEntity
  8
0
  6
BYBLOCK
 62
     0
100
AcDbLine
 10
475.153988
 20
356.825747
 30
0.0
 11
479.725988
 21
356.825747
 31
0.0
  0
LINE
  5
9FF
100
AcDbEntity
  8
0
  6
BYBLOCK
 62
     0
100
AcDbLine
 10
406.344876
 20
356.825747
 30
0.0
 11
401.772876
 21
356.825747
 31
0.0
  0
SOLID
  5
A00
100
AcDbEntity
  8
0
  6
BYBLOCK
 62
     0
100
AcDbTrace
 10
475.153988
 20
357.587747
 30
0.0
 11
475.153988
 21
356.063747
 31
0.0
 12
470.581988
 22
356.825747
 32
0.0
 13
470.581988
 23
356.825747
 33
0.0
  0
SOLID
  5
A01
100
AcDbEntity
  8
0
  6
BYBLOCK
 62
     0
100
AcDbTrace
 10
406.344876
 20
357.587747
 30
0.0
 11
406.344876
 21
356.063747
 31
0.0
 12
410.916876
 22
356.825747
 32
0.0
 13
410.916876
 23
356.825747
 33
0.0
  0
MTEXT
  5
A02
100
AcDbEntity
  8
0
  6
BYBLOCK
 62
     0
100
AcDbMText
 10
371.292876
 20
356.825747
 30
0.0
 40
4.572
 41
0.0
 71
     5
 72
     1
  1
\A1;59.67mm[2.349"]
  0
POINT
  5
A03
100
AcDbEntity
  8
DEFPOINTS
  6
BYBLOCK
 62
     0
100
AcDbPoint
 10
470.581988
 20
484.277863
 30
0.0
  0
POINT
  5
A04
100
AcDbEntity
  8
DEFPOINTS
  6
BYBLOCK
 62
     0
100
AcDbPoint
 10
410.916876
 20
326.615245
 30
0.0
  0
POINT
  5
A05
100
AcDbEntity
  8
DEFPOINTS
  6
BYBLOCK
 62
     0
100
AcDbPoint
 10
410.916876
 20
356.825747
 30
0.0
  0
ENDBLK
  5
A06
100
AcDbEntity
  8
0
100
AcDbBlockEnd
  0
BLOCK
  5
9F1
100
AcDbEntity
  8
0
100
AcDbBlockBegin
  2
*D24
 70
    65
 10
0.0
 20
0.0
 30
0.0
  3
*D24
  1

  0
LINE
  5
9F2
100
AcDbEntity
  8
0
  6
BYBLOCK
 62
     0
100
AcDbLine
 10
412.576953
 20
319.791496
 30
0.0
 11
412.576953
 21
371.330083
 31
0.0
  0
LINE
  5
9F3
100
AcDbEntity
  8
0
  6
BYBLOCK
 62
     0
100
AcDbLine
 10
475.153988
 20
366.758083
 30
0.0
 11
479.725988
 21
366.758083
 31
0.0
  0
LINE
  5
9F4
100
AcDbEntity
  8
0
  6
BYBLOCK
 62
     0
100
AcDbLine
 10
408.004953
 20
366.758083
 30
0.0
 11
403.432953
 21
366.758083
 31
0.0
  0
SOLID
  5
9F5
100
AcDbEntity
  8
0
  6
BYBLOCK
 62
     0
100
AcDbTrace
 10
475.153988
 20
367.520083
 30
0.0
 11
475.153988
 21
365.996083
 31
0.0
 12
470.581988
 22
366.758083
 32
0.0
 13
470.581988
 23
366.758083
 33
0.0
  0
SOLID
  5
9F6
100
AcDbEntity
  8
0
  6
BYBLOCK
 62
     0
100
AcDbTrace
 10
408.004953
 20
367.520083
 30
0.0
 11
408.004953
 21
365.996083
 31
0.0
 12
412.576953
 22
366.758083
 32
0.0
 13
412.576953
 23
366.758083
 33
0.0
  0
MTEXT
  5
9F7
100
AcDbEntity
  8
0
  6
BYBLOCK
 62
     0
100
AcDbMText
 10
348.568953
 20
366.758083
 30
0.0
 40
4.572
 41
0.0
 71
     5
 72
     1
  1
\A1;58.01mm±0.03mm[2.284"±0.001"]
  0
POINT
  5
9F8
100
AcDbEntity
  8
DEFPOINTS
  6
BYBLOCK
 62
     0
100
AcDbPoint
 10
470.581988
 20
484.277863
 30
0.0
  0
POINT
  5
9F9
100
AcDbEntity
  8
DEFPOINTS
  6
BYBLOCK
 62
     0
100
AcDbPoint
 10
412.576953
 20
318.203996
 30
0.0
  0
POINT
  5
9FA
100
AcDbEntity
  8
DEFPOINTS
  6
BYBLOCK
 62
     0
100
AcDbPoint
 10
412.576953
 20
366.758083
 30
0.0
  0
ENDBLK
  5
9FB
100
AcDbEntity
  8
0
100
AcDbBlockEnd
  0
BLOCK
  5
9E6
100
AcDbEntity
  8
0
100
AcDbBlockBegin
  2
*D25
 70
    65
 10
0.0
 20
0.0
 30
0.0
  3
*D25
  1

  0
LINE
  5
9E7
100
AcDbEntity
  8
0
  6
BYBLOCK
 62
     0
100
AcDbLine
 10
415.387276
 20
328.202745
 30
0.0
 11
415.387276
 21
382.113764
 31
0.0
  0
LINE
  5
9E8
100
AcDbEntity
  8
0
  6
BYBLOCK
 62
     0
100
AcDbLine
 10
475.153988
 20
377.541764
 30
0.0
 11
479.725988
 21
377.541764
 31
0.0
  0
LINE
  5
9E9
100
AcDbEntity
  8
0
  6
BYBLOCK
 62
     0
100
AcDbLine
 10
410.815276
 20
377.541764
 30
0.0
 11
406.243276
 21
377.541764
 31
0.0
  0
SOLID
  5
9EA
100
AcDbEntity
  8
0
  6
BYBLOCK
 62
     0
100
AcDbTrace
 10
475.153988
 20
378.303764
 30
0.0
 11
475.153988
 21
376.779764
 31
0.0
 12
470.581988
 22
377.541764
 32
0.0
 13
470.581988
 23
377.541764
 33
0.0
  0
SOLID
  5
9EB
100
AcDbEntity
  8
0
  6
BYBLOCK
 62
     0
100
AcDbTrace
 10
410.815276
 20
378.303764
 30
0.0
 11
410.815276
 21
376.779764
 31
0.0
 12
415.387276
 22
377.541764
 32
0.0
 13
415.387276
 23
377.541764
 33
0.0
  0
MTEXT
  5
9EC
100
AcDbEntity
  8
0
  6
BYBLOCK
 62
     0
100
AcDbMText
 10
377.287276
 20
377.541764
 30
0.0
 40
4.572
 41
0.0
 71
     5
 72
     1
  1
\A1;55.19mm[2.173"]
  0
POINT
  5
9ED
100
AcDbEntity
  8
DEFPOINTS
  6
BYBLOCK
 62
     0
100
AcDbPoint
 10
470.581988
 20
484.277863
 30
0.0
  0
POINT
  5
9EE
100
AcDbEntity
  8
DEFPOINTS
  6
BYBLOCK
 62
     0
100
AcDbPoint
 10
415.387276
 20
326.615245
 30
0.0
  0
POINT
  5
9EF
100
AcDbEntity
  8
DEFPOINTS
  6
BYBLOCK
 62
     0
100
AcDbPoint
 10
415.387276
 20
377.541764
 30
0.0
  0
ENDBLK
  5
9F0
100
AcDbEntity
  8
0
100
AcDbBlockEnd
  0
BLOCK
  5
9DB
100
AcDbEntity
  8
0
100
AcDbBlockBegin
  2
*D26
 70
    65
 10
0.0
 20
0.0
 30
0.0
  3
*D26
  1

  0
LINE
  5
9DC
100
AcDbEntity
  8
0
  6
BYBLOCK
 62
     0
100
AcDbLine
 10
417.5922
 20
324.428305
 30
0.0
 11
417.5922
 21
391.96412
 31
0.0
  0
LINE
  5
9DD
100
AcDbEntity
  8
0
  6
BYBLOCK
 62
     0
100
AcDbLine
 10
475.153988
 20
387.39212
 30
0.0
 11
479.725988
 21
387.39212
 31
0.0
  0
LINE
  5
9DE
100
AcDbEntity
  8
0
  6
BYBLOCK
 62
     0
100
AcDbLine
 10
413.0202
 20
387.39212
 30
0.0
 11
408.4482
 21
387.39212
 31
0.0
  0
SOLID
  5
9DF
100
AcDbEntity
  8
0
  6
BYBLOCK
 62
     0
100
AcDbTrace
 10
475.153988
 20
388.15412
 30
0.0
 11
475.153988
 21
386.63012
 31
0.0
 12
470.581988
 22
387.39212
 32
0.0
 13
470.581988
 23
387.39212
 33
0.0
  0
SOLID
  5
9E0
100
AcDbEntity
  8
0
  6
BYBLOCK
 62
     0
100
AcDbTrace
 10
413.0202
 20
388.15412
 30
0.0
 11
413.0202
 21
386.63012
 31
0.0
 12
417.5922
 22
387.39212
 32
0.0
 13
417.5922
 23
387.39212
 33
0.0
  0
MTEXT
  5
9E1
100
AcDbEntity
  8
0
  6
BYBLOCK
 62
     0
100
AcDbMText
 10
378.3492
 20
387.39212
 30
0.0
 40
4.572
 41
0.0
 71
     5
 72
     1
  1
\A1;52.99mm[2.086"]
  0
POINT
  5
9E2
100
AcDbEntity
  8
DEFPOINTS
  6
BYBLOCK
 62
     0
100
AcDbPoint
 10
470.581988
 20
484.277863
 30
0.0
  0
POINT
  5
9E3
100
AcDbEntity
  8
DEFPOINTS
  6
BYBLOCK
 62
     0
100
AcDbPoint
 10
417.5922
 20
322.840805
 30
0.0
  0
POINT
  5
9E4
100
AcDbEntity
  8
DEFPOINTS
  6
BYBLOCK
 62
     0
100
AcDbPoint
 10
417.5922
 20
387.39212
 30
0.0
  0
ENDBLK
  5
9E5
100
AcDbEntity
  8
0
100
AcDbBlockEnd
  0
BLOCK
  5
9D0
100
AcDbEntity
  8
0
100
AcDbBlockBegin
  2
*D27
 70
    65
 10
0.0
 20
0.0
 30
0.0
  3
*D27
  1

  0
LINE
  5
9D1
100
AcDbEntity
  8
0
  6
BYBLOCK
 62
     0
100
AcDbLine
 10
421.09232
 20
324.428305
 30
0.0
 11
421.09232
 21
401.91226
 31
0.0
  0
LINE
  5
9D2
100
AcDbEntity
  8
0
  6
BYBLOCK
 62
     0
100
AcDbLine
 10
475.153988
 20
397.34026
 30
0.0
 11
479.725988
 21
397.34026
 31
0.0
  0
LINE
  5
9D3
100
AcDbEntity
  8
0
  6
BYBLOCK
 62
     0
100
AcDbLine
 10
416.52032
 20
397.34026
 30
0.0
 11
411.94832
 21
397.34026
 31
0.0
  0
SOLID
  5
9D4
100
AcDbEntity
  8
0
  6
BYBLOCK
 62
     0
100
AcDbTrace
 10
475.153988
 20
398.10226
 30
0.0
 11
475.153988
 21
396.57826
 31
0.0
 12
470.581988
 22
397.34026
 32
0.0
 13
470.581988
 23
397.34026
 33
0.0
  0
SOLID
  5
9D5
100
AcDbEntity
  8
0
  6
BYBLOCK
 62
     0
100
AcDbTrace
 10
416.52032
 20
398.10226
 30
0.0
 11
416.52032
 21
396.57826
 31
0.0
 12
421.09232
 22
397.34026
 32
0.0
 13
421.09232
 23
397.34026
 33
0.0
  0
MTEXT
  5
9D6
100
AcDbEntity
  8
0
  6
BYBLOCK
 62
     0
100
AcDbMText
 10
382.23032
 20
397.34026
 30
0.0
 40
4.572
 41
0.0
 71
     5
 72
     1
  1
\A1;49.49mm[1.948"]
  0
POINT
  5
9D7
100
AcDbEntity
  8
DEFPOINTS
  6
BYBLOCK
 62
     0
100
AcDbPoint
 10
470.581988
 20
484.277863
 30
0.0
  0
POINT
  5
9D8
100
AcDbEntity
  8
DEFPOINTS
  6
BYBLOCK
 62
     0
100
AcDbPoint
 10
421.09232
 20
322.840805
 30
0.0
  0
POINT
  5
9D9
100
AcDbEntity
  8
DEFPOINTS
  6
BYBLOCK
 62
     0
100
AcDbPoint
 10
421.09232
 20
397.34026
 30
0.0
  0
ENDBLK
  5
9DA
100
AcDbEntity
  8
0
100
AcDbBlockEnd
  0
BLOCK
  5
9C5
100
AcDbEntity
  8
0
100
AcDbBlockBegin
  2
*D28
 70
    65
 10
0.0
 20
0.0
 30
0.0
  3
*D28
  1

  0
LINE
  5
9C6
100
AcDbEntity
  8
0
  6
BYBLOCK
 62
     0
100
AcDbLine
 10
448.991505
 20
320.074071
 30
0.0
 11
448.991505
 21
412.548954
 31
0.0
  0
LINE
  5
9C7
100
AcDbEntity
  8
0
  6
BYBLOCK
 62
     0
100
AcDbLine
 10
475.153988
 20
407.976954
 30
0.0
 11
479.725988
 21
407.976954
 31
0.0
  0
LINE
  5
9C8
100
AcDbEntity
  8
0
  6
BYBLOCK
 62
     0
100
AcDbLine
 10
444.419505
 20
407.976954
 30
0.0
 11
439.847505
 21
407.976954
 31
0.0
  0
SOLID
  5
9C9
100
AcDbEntity
  8
0
  6
BYBLOCK
 62
     0
100
AcDbTrace
 10
475.153988
 20
408.738954
 30
0.0
 11
475.153988
 21
407.214954
 31
0.0
 12
470.581988
 22
407.976954
 32
0.0
 13
470.581988
 23
407.976954
 33
0.0
  0
SOLID
  5
9CA
100
AcDbEntity
  8
0
  6
BYBLOCK
 62
     0
100
AcDbTrace
 10
444.419505
 20
408.738954
 30
0.0
 11
444.419505
 21
407.214954
 31
0.0
 12
448.991505
 22
407.976954
 32
0.0
 13
448.991505
 23
407.976954
 33
0.0
  0
MTEXT
  5
9CB
100
AcDbEntity
  8
0
  6
BYBLOCK
 62
     0
100
AcDbMText
 10
410.891505
 20
407.976954
 30
0.0
 40
4.572
 41
0.0
 71
     5
 72
     1
  1
\A1;21.59mm[0.850"]
  0
POINT
  5
9CC
100
AcDbEntity
  8
DEFPOINTS
  6
BYBLOCK
 62
     0
100
AcDbPoint
 10
470.581988
 20
484.277863
 30
0.0
  0
POINT
  5
9CD
100
AcDbEntity
  8
DEFPOINTS
  6
BYBLOCK
 62
     0
100
AcDbPoint
 10
448.991505
 20
318.486571
 30
0.0
  0
POINT
  5
9CE
100
AcDbEntity
  8
DEFPOINTS
  6
BYBLOCK
 62
     0
100
AcDbPoint
 10
448.991505
 20
407.976954
 30
0.0
  0
ENDBLK
  5
9CF
100
AcDbEntity
  8
0
100
AcDbBlockEnd
  0
BLOCK
  5
A9F
100
AcDbEntity
  8
0
100
AcDbBlockBegin
  2
*D29
 70
    65
 10
0.0
 20
0.0
 30
0.0
  3
*D29
  1

  0
LINE
  5
AA0
100
AcDbEntity
  8
0
  6
BYBLOCK
 62
     0
100
AcDbLine
 10
404.554176
 20
321.840045
 30
0.0
 11
318.637472
 21
321.840045
 31
0.0
  0
LINE
  5
AA1
100
AcDbEntity
  8
0
  6
BYBLOCK
 62
     0
100
AcDbLine
 10
406.129013
 20
327.551743
 30
0.0
 11
318.637472
 21
327.551743
 31
0.0
  0
LINE
  5
AA2
100
AcDbEntity
  8
0
  6
BYBLOCK
 62
     0
100
AcDbLine
 10
323.209472
 20
317.268045
 30
0.0
 11
323.209472
 21
312.696045
 31
0.0
  0
LINE
  5
AA3
100
AcDbEntity
  8
0
  6
BYBLOCK
 62
     0
100
AcDbLine
 10
323.209472
 20
332.123743
 30
0.0
 11
323.209472
 21
336.695743
 31
0.0
  0
LINE
  5
AA4
100
AcDbEntity
  8
0
  6
BYBLOCK
 62
     0
100
AcDbLine
 10
323.209472
 20
336.695743
 30
0.0
 11
327.781472
 21
336.695743
 31
0.0
  0
SOLID
  5
AA5
100
AcDbEntity
  8
0
  6
BYBLOCK
 62
     0
100
AcDbTrace
 10
322.447472
 20
317.268045
 30
0.0
 11
323.971472
 21
317.268045
 31
0.0
 12
323.209472
 22
321.840045
 32
0.0
 13
323.209472
 23
321.840045
 33
0.0
  0
SOLID
  5
AA6
100
AcDbEntity
  8
0
  6
BYBLOCK
 62
     0
100
AcDbTrace
 10
322.447472
 20
332.123743
 30
0.0
 11
323.971472
 21
332.123743
 31
0.0
 12
323.209472
 22
327.551743
 32
0.0
 13
323.209472
 23
327.551743
 33
0.0
  0
MTEXT
  5
AA7
100
AcDbEntity
  8
0
  6
BYBLOCK
 62
     0
100
AcDbMText
 10
354.832472
 20
336.695743
 30
0.0
 40
4.572
 41
0.0
 71
     5
 72
     1
  1
\A1;5.71mm[0.225"]
  0
POINT
  5
AA8
100
AcDbEntity
  8
DEFPOINTS
  6
BYBLOCK
 62
     0
100
AcDbPoint
 10
406.141676
 20
321.840045
 30
0.0
  0
POINT
  5
AA9
100
AcDbEntity
  8
DEFPOINTS
  6
BYBLOCK
 62
     0
100
AcDbPoint
 10
407.716513
 20
327.551743
 30
0.0
  0
POINT
  5
AAA
100
AcDbEntity
  8
DEFPOINTS
  6
BYBLOCK
 62
     0
100
AcDbPoint
 10
323.209472
 20
327.551743
 30
0.0
  0
ENDBLK
  5
AAB
100
AcDbEntity
  8
0
100
AcDbBlockEnd
  0
BLOCK
  5
A92
100
AcDbEntity
  8
0
100
AcDbBlockBegin
  2
*D30
 70
    65
 10
0.0
 20
0.0
 30
0.0
  3
*D30
  1

  0
LINE
  5
A93
100
AcDbEntity
  8
0
  6
BYBLOCK
 62
     0
100
AcDbLine
 10
406.623828
 20
313.838371
 30
0.0
 11
198.2227
 21
313.838371
 31
0.0
  0
LINE
  5
A94
100
AcDbEntity
  8
0
  6
BYBLOCK
 62
     0
100
AcDbLine
 10
406.129013
 20
327.551743
 30
0.0
 11
198.2227
 21
327.551743
 31
0.0
  0
LINE
  5
A95
100
AcDbEntity
  8
0
  6
BYBLOCK
 62
     0
100
AcDbLine
 10
202.7947
 20
309.266371
 30
0.0
 11
202.7947
 21
304.694371
 31
0.0
  0
LINE
  5
A96
100
AcDbEntity
  8
0
  6
BYBLOCK
 62
     0
100
AcDbLine
 10
202.7947
 20
332.123743
 30
0.0
 11
202.7947
 21
336.695743
 31
0.0
  0
LINE
  5
A97
100
AcDbEntity
  8
0
  6
BYBLOCK
 62
     0
100
AcDbLine
 10
202.7947
 20
336.695743
 30
0.0
 11
207.3667
 21
336.695743
 31
0.0
  0
SOLID
  5
A98
100
AcDbEntity
  8
0
  6
BYBLOCK
 62
     0
100
AcDbTrace
 10
202.0327
 20
309.266371
 30
0.0
 11
203.5567
 21
309.266371
 31
0.0
 12
202.7947
 22
313.838371
 32
0.0
 13
202.7947
 23
313.838371
 33
0.0
  0
SOLID
  5
A99
100
AcDbEntity
  8
0
  6
BYBLOCK
 62
     0
100
AcDbTrace
 10
202.0327
 20
332.123743
 30
0.0
 11
203.5567
 21
332.123743
 31
0.0
 12
202.7947
 22
327.551743
 32
0.0
 13
202.7947
 23
327.551743
 33
0.0
  0
MTEXT
  5
A9A
100
AcDbEntity
  8
0
  6
BYBLOCK
 62
     0
100
AcDbMText
 10
261.0877
 20
336.695743
 30
0.0
 40
4.572
 41
0.0
 71
     5
 72
     1
  1
\A1;13.71mm±0.03mm[0.540"±0.001"]
  0
POINT
  5
A9B
100
AcDbEntity
  8
DEFPOINTS
  6
BYBLOCK
 62
     0
100
AcDbPoint
 10
408.211328
 20
313.838371
 30
0.0
  0
POINT
  5
A9C
100
AcDbEntity
  8
DEFPOINTS
  6
BYBLOCK
 62
     0
100
AcDbPoint
 10
407.716513
 20
327.551743
 30
0.0
  0
POINT
  5
A9D
100
AcDbEntity
  8
DEFPOINTS
  6
BYBLOCK
 62
     0
100
AcDbPoint
 10
202.7947
 20
327.551743
 30
0.0
  0
ENDBLK
  5
A9E
100
AcDbEntity
  8
0
100
AcDbBlockEnd
  0
BLOCK
  5
A85
100
AcDbEntity
  8
0
100
AcDbBlockBegin
  2
*D31
 70
    65
 10
0.0
 20
0.0
 30
0.0
  3
*D31
  1

  0
LINE
  5
A86
100
AcDbEntity
  8
0
  6
BYBLOCK
 62
     0
100
AcDbLine
 10
404.554176
 20
305.836698
 30
0.0
 11
152.913735
 21
305.836698
 31
0.0
  0
LINE
  5
A87
100
AcDbEntity
  8
0
  6
BYBLOCK
 62
     0
100
AcDbLine
 10
406.129013
 20
327.551743
 30
0.0
 11
152.913735
 21
327.551743
 31
0.0
  0
LINE
  5
A88
100
AcDbEntity
  8
0
  6
BYBLOCK
 62
     0
100
AcDbLine
 10
157.485735
 20
301.264698
 30
0.0
 11
157.485735
 21
296.692698
 31
0.0
  0
LINE
  5
A89
100
AcDbEntity
  8
0
  6
BYBLOCK
 62
     0
100
AcDbLine
 10
157.485735
 20
332.123743
 30
0.0
 11
157.485735
 21
336.695743
 31
0.0
  0
LINE
  5
A8A
100
AcDbEntity
  8
0
  6
BYBLOCK
 62
     0
100
AcDbLine
 10
157.485735
 20
336.695743
 30
0.0
 11
162.057735
 21
336.695743
 31
0.0
  0
SOLID
  5
A8B
100
AcDbEntity
  8
0
  6
BYBLOCK
 62
     0
100
AcDbTrace
 10
156.723735
 20
301.264698
 30
0.0
 11
158.247735
 21
301.264698
 31
0.0
 12
157.485735
 22
305.836698
 32
0.0
 13
157.485735
 23
305.836698
 33
0.0
  0
SOLID
  5
A8C
100
AcDbEntity
  8
0
  6
BYBLOCK
 62
     0
100
AcDbTrace
 10
156.723735
 20
332.123743
 30
0.0
 11
158.247735
 21
332.123743
 31
0.0
 12
157.485735
 22
327.551743
 32
0.0
 13
157.485735
 23
327.551743
 33
0.0
  0
MTEXT
  5
A8D
100
AcDbEntity
  8
0
  6
BYBLOCK
 62
     0
100
AcDbMText
 10
191.394735
 20
336.695743
 30
0.0
 40
4.572
 41
0.0
 71
     5
 72
     1
  1
\A1;21.72mm[0.855"]
  0
POINT
  5
A8E
100
AcDbEntity
  8
DEFPOINTS
  6
BYBLOCK
 62
     0
100
AcDbPoint
 10
406.141676
 20
305.836698
 30
0.0
  0
POINT
  5
A8F
100
AcDbEntity
  8
DEFPOINTS
  6
BYBLOCK
 62
     0
100
AcDbPoint
 10
407.716513
 20
327.551743
 30
0.0
  0
POINT
  5
A90
100
AcDbEntity
  8
DEFPOINTS
  6
BYBLOCK
 62
     0
100
AcDbPoint
 10
157.485735
 20
327.551743
 30
0.0
  0
ENDBLK
  5
A91
100
AcDbEntity
  8
0
100
AcDbBlockEnd
  0
BLOCK
  5
ADF
100
AcDbEntity
  8
0
100
AcDbBlockBegin
  2
*D32
 70
    65
 10
0.0
 20
0.0
 30
0.0
  3
*D32
  1

  0
LINE
  5
AE0
100
AcDbEntity
  8
0
  6
BYBLOCK
 62
     0
100
AcDbLine
 10
406.129013
 20
300.125
 30
0.0
 11
59.560302
 21
300.125
 31
0.0
  0
LINE
  5
AE1
100
AcDbEntity
  8
0
  6
BYBLOCK
 62
     0
100
AcDbLine
 10
406.129013
 20
327.551743
 30
0.0
 11
59.560302
 21
327.551743
 31
0.0
  0
LINE
  5
AE2
100
AcDbEntity
  8
0
  6
BYBLOCK
 62
     0
100
AcDbLine
 10
64.132302
 20
304.697
 30
0.0
 11
64.132302
 21
309.266371
 31
0.0
  0
LINE
  5
AE3
100
AcDbEntity
  8
0
  6
BYBLOCK
 62
     0
100
AcDbLine
 10
64.132302
 20
322.979743
 30
0.0
 11
64.132302
 21
318.410371
 31
0.0
  0
SOLID
  5
AE4
100
AcDbEntity
  8
0
  6
BYBLOCK
 62
     0
100
AcDbTrace
 10
63.370302
 20
304.697
 30
0.0
 11
64.894302
 21
304.697
 31
0.0
 12
64.132302
 22
300.125
 32
0.0
 13
64.132302
 23
300.125
 33
0.0
  0
SOLID
  5
AE5
100
AcDbEntity
  8
0
  6
BYBLOCK
 62
     0
100
AcDbTrace
 10
63.370302
 20
322.979743
 30
0.0
 11
64.894302
 21
322.979743
 31
0.0
 12
64.132302
 22
327.551743
 32
0.0
 13
64.132302
 23
327.551743
 33
0.0
  0
MTEXT
  5
AE6
100
AcDbEntity
  8
0
  6
BYBLOCK
 62
     0
100
AcDbMText
 10
64.132302
 20
313.838371
 30
0.0
 40
4.572
 41
0.0
 71
     5
 72
     1
  1
\A1;27.43mm±0.03mm[1.080"±0.001"]
  0
POINT
  5
AE7
100
AcDbEntity
  8
DEFPOINTS
  6
BYBLOCK
 62
     0
100
AcDbPoint
 10
407.716513
 20
300.125
 30
0.0
  0
POINT
  5
AE8
100
AcDbEntity
  8
DEFPOINTS
  6
BYBLOCK
 62
     0
100
AcDbPoint
 10
407.716513
 20
327.551743
 30
0.0
  0
POINT
  5
AE9
100
AcDbEntity
  8
DEFPOINTS
  6
BYBLOCK
 62
     0
100
AcDbPoint
 10
64.132302
 20
327.551743
 30
0.0
  0
ENDBLK
  5
AEA
100
AcDbEntity
  8
0
100
AcDbBlockEnd
  0
BLOCK
  5
AD2
100
AcDbEntity
  8
0
100
AcDbBlockBegin
  2
*D33
 70
    65
 10
0.0
 20
0.0
 30
0.0
  3
*D33
  1

  0
LINE
  5
AD3
100
AcDbEntity
  8
0
  6
BYBLOCK
 62
     0
100
AcDbLine
 10
422.17944
 20
323.341185
 30
0.0
 11
507.41588
 21
323.341185
 31
0.0
  0
LINE
  5
AD4
100
AcDbEntity
  8
0
  6
BYBLOCK
 62
     0
100
AcDbLine
 10
481.697982
 20
327.551743
 30
0.0
 11
507.41588
 21
327.551743
 31
0.0
  0
LINE
  5
AD5
100
AcDbEntity
  8
0
  6
BYBLOCK
 62
     0
100
AcDbLine
 10
502.84388
 20
318.769185
 30
0.0
 11
502.84388
 21
314.197185
 31
0.0
  0
LINE
  5
AD6
100
AcDbEntity
  8
0
  6
BYBLOCK
 62
     0
100
AcDbLine
 10
502.84388
 20
332.123743
 30
0.0
 11
502.84388
 21
336.695743
 31
0.0
  0
LINE
  5
AD7
100
AcDbEntity
  8
0
  6
BYBLOCK
 62
     0
100
AcDbLine
 10
502.84388
 20
336.695743
 30
0.0
 11
507.41588
 21
336.695743
 31
0.0
  0
SOLID
  5
AD8
100
AcDbEntity
  8
0
  6
BYBLOCK
 62
     0
100
AcDbTrace
 10
502.08188
 20
318.769185
 30
0.0
 11
503.60588
 21
318.769185
 31
0.0
 12
502.84388
 22
323.341185
 32
0.0
 13
502.84388
 23
323.341185
 33
0.0
  0
SOLID
  5
AD9
100
AcDbEntity
  8
0
  6
BYBLOCK
 62
     0
100
AcDbTrace
 10
502.08188
 20
332.123743
 30
0.0
 11
503.60588
 21
332.123743
 31
0.0
 12
502.84388
 22
327.551743
 32
0.0
 13
502.84388
 23
327.551743
 33
0.0
  0
MTEXT
  5
ADA
100
AcDbEntity
  8
0
  6
BYBLOCK
 62
     0
100
AcDbMText
 10
533.70488
 20
336.695743
 30
0.0
 40
4.572
 41
0.0
 71
     5
 72
     1
  1
\A1;4.21mm[0.166"]
  0
POINT
  5
ADB
100
AcDbEntity
  8
DEFPOINTS
  6
BYBLOCK
 62
     0
100
AcDbPoint
 10
420.59194
 20
323.341185
 30
0.0
  0
POINT
  5
ADC
100
AcDbEntity
  8
DEFPOINTS
  6
BYBLOCK
 62
     0
100
AcDbPoint
 10
480.110482
 20
327.551743
 30
0.0
  0
POINT
  5
ADD
100
AcDbEntity
  8
DEFPOINTS
  6
BYBLOCK
 62
     0
100
AcDbPoint
 10
502.84388
 20
327.551743
 30
0.0
  0
ENDBLK
  5
ADE
100
AcDbEntity
  8
0
100
AcDbBlockEnd
  0
BLOCK
  5
AC5
100
AcDbEntity
  8
0
100
AcDbBlockBegin
  2
*D34
 70
    65
 10
0.0
 20
0.0
 30
0.0
  3
*D34
  1

  0
LINE
  5
AC6
100
AcDbEntity
  8
0
  6
BYBLOCK
 62
     0
100
AcDbLine
 10
422.17944
 20
320.338905
 30
0.0
 11
571.776717
 21
320.338905
 31
0.0
  0
LINE
  5
AC7
100
AcDbEntity
  8
0
  6
BYBLOCK
 62
     0
100
AcDbLine
 10
481.697982
 20
327.551743
 30
0.0
 11
571.776717
 21
327.551743
 31
0.0
  0
LINE
  5
AC8
100
AcDbEntity
  8
0
  6
BYBLOCK
 62
     0
100
AcDbLine
 10
567.204717
 20
315.766905
 30
0.0
 11
567.204717
 21
311.194905
 31
0.0
  0
LINE
  5
AC9
100
AcDbEntity
  8
0
  6
BYBLOCK
 62
     0
100
AcDbLine
 10
567.204717
 20
332.123743
 30
0.0
 11
567.204717
 21
336.695743
 31
0.0
  0
LINE
  5
ACA
100
AcDbEntity
  8
0
  6
BYBLOCK
 62
     0
100
AcDbLine
 10
567.204717
 20
336.695743
 30
0.0
 11
571.776717
 21
336.695743
 31
0.0
  0
SOLID
  5
ACB
100
AcDbEntity
  8
0
  6
BYBLOCK
 62
     0
100
AcDbTrace
 10
566.442717
 20
315.766905
 30
0.0
 11
567.966717
 21
315.766905
 31
0.0
 12
567.204717
 22
320.338905
 32
0.0
 13
567.204717
 23
320.338905
 33
0.0
  0
SOLID
  5
ACC
100
AcDbEntity
  8
0
  6
BYBLOCK
 62
     0
100
AcDbTrace
 10
566.442717
 20
332.123743
 30
0.0
 11
567.966717
 21
332.123743
 31
0.0
 12
567.204717
 22
327.551743
 32
0.0
 13
567.204717
 23
327.551743
 33
0.0
  0
MTEXT
  5
ACD
100
AcDbEntity
  8
0
  6
BYBLOCK
 62
     0
100
AcDbMText
 10
598.827717
 20
336.695743
 30
0.0
 40
4.572
 41
0.0
 71
     5
 72
     1
  1
\A1;7.21mm[0.284"]
  0
POINT
  5
ACE
100
AcDbEntity
  8
DEFPOINTS
  6
BYBLOCK
 62
     0
100
AcDbPoint
 10
420.59194
 20
320.338905
 30
0.0
  0
POINT
  5
ACF
100
AcDbEntity
  8
DEFPOINTS
  6
BYBLOCK
 62
     0
100
AcDbPoint
 10
480.110482
 20
327.551743
 30
0.0
  0
POINT
  5
AD0
100
AcDbEntity
  8
DEFPOINTS
  6
BYBLOCK
 62
     0
100
AcDbPoint
 10
567.204717
 20
327.551743
 30
0.0
  0
ENDBLK
  5
AD1
100
AcDbEntity
  8
0
100
AcDbBlockEnd
  0
BLOCK
  5
AB8
100
AcDbEntity
  8
0
100
AcDbBlockBegin
  2
*D35
 70
    65
 10
0.0
 20
0.0
 30
0.0
  3
*D35
  1

  0
LINE
  5
AB9
100
AcDbEntity
  8
0
  6
BYBLOCK
 62
     0
100
AcDbLine
 10
422.17944
 20
307.337838
 30
0.0
 11
635.9671
 21
307.337838
 31
0.0
  0
LINE
  5
ABA
100
AcDbEntity
  8
0
  6
BYBLOCK
 62
     0
100
AcDbLine
 10
481.697982
 20
327.551743
 30
0.0
 11
635.9671
 21
327.551743
 31
0.0
  0
LINE
  5
ABB
100
AcDbEntity
  8
0
  6
BYBLOCK
 62
     0
100
AcDbLine
 10
631.3951
 20
302.765838
 30
0.0
 11
631.3951
 21
298.193838
 31
0.0
  0
LINE
  5
ABC
100
AcDbEntity
  8
0
  6
BYBLOCK
 62
     0
100
AcDbLine
 10
631.3951
 20
332.123743
 30
0.0
 11
631.3951
 21
336.695743
 31
0.0
  0
LINE
  5
ABD
100
AcDbEntity
  8
0
  6
BYBLOCK
 62
     0
100
AcDbLine
 10
631.3951
 20
336.695743
 30
0.0
 11
635.9671
 21
336.695743
 31
0.0
  0
SOLID
  5
ABE
100
AcDbEntity
  8
0
  6
BYBLOCK
 62
     0
100
AcDbTrace
 10
630.6331
 20
302.765838
 30
0.0
 11
632.1571
 21
302.765838
 31
0.0
 12
631.3951
 22
307.337838
 32
0.0
 13
631.3951
 23
307.337838
 33
0.0
  0
SOLID
  5
ABF
100
AcDbEntity
  8
0
  6
BYBLOCK
 62
     0
100
AcDbTrace
 10
630.6331
 20
332.123743
 30
0.0
 11
632.1571
 21
332.123743
 31
0.0
 12
631.3951
 22
327.551743
 32
0.0
 13
631.3951
 23
327.551743
 33
0.0
  0
MTEXT
  5
AC0
100
AcDbEntity
  8
0
  6
BYBLOCK
 62
     0
100
AcDbMText
 10
664.9231
 20
336.695743
 30
0.0
 40
4.572
 41
0.0
 71
     5
 72
     1
  1
\A1;20.21mm[0.796"]
  0
POINT
  5
AC1
100
AcDbEntity
  8
DEFPOINTS
  6
BYBLOCK
 62
     0
100
AcDbPoint
 10
420.59194
 20
307.337838
 30
0.0
  0
POINT
  5
AC2
100
AcDbEntity
  8
DEFPOINTS
  6
BYBLOCK
 62
     0
100
AcDbPoint
 10
480.110482
 20
327.551743
 30
0.0
  0
POINT
  5
AC3
100
AcDbEntity
  8
DEFPOINTS
  6
BYBLOCK
 62
     0
100
AcDbPoint
 10
631.3951
 20
327.551743
 30
0.0
  0
ENDBLK
  5
AC4
100
AcDbEntity
  8
0
100
AcDbBlockEnd
  0
BLOCK
  5
AAC
100
AcDbEntity
  8
0
100
AcDbBlockBegin
  2
*D36
 70
    65
 10
0.0
 20
0.0
 30
0.0
  3
*D36
  1

  0
LINE
  5
AAD
100
AcDbEntity
  8
0
  6
BYBLOCK
 62
     0
100
AcDbLine
 10
422.17944
 20
304.335558
 30
0.0
 11
727.597496
 21
304.335558
 31
0.0
  0
LINE
  5
AAE
100
AcDbEntity
  8
0
  6
BYBLOCK
 62
     0
100
AcDbLine
 10
481.697982
 20
327.551743
 30
0.0
 11
727.597496
 21
327.551743
 31
0.0
  0
LINE
  5
AAF
100
AcDbEntity
  8
0
  6
BYBLOCK
 62
     0
100
AcDbLine
 10
723.025496
 20
308.907558
 30
0.0
 11
723.025496
 21
311.37165
 31
0.0
  0
LINE
  5
AB0
100
AcDbEntity
  8
0
  6
BYBLOCK
 62
     0
100
AcDbLine
 10
723.025496
 20
322.979743
 30
0.0
 11
723.025496
 21
320.51565
 31
0.0
  0
SOLID
  5
AB1
100
AcDbEntity
  8
0
  6
BYBLOCK
 62
     0
100
AcDbTrace
 10
722.263496
 20
308.907558
 30
0.0
 11
723.787496
 21
308.907558
 31
0.0
 12
723.025496
 22
304.335558
 32
0.0
 13
723.025496
 23
304.335558
 33
0.0
  0
SOLID
  5
AB2
100
AcDbEntity
  8
0
  6
BYBLOCK
 62
     0
100
AcDbTrace
 10
722.263496
 20
322.979743
 30
0.0
 11
723.787496
 21
322.979743
 31
0.0
 12
723.025496
 22
327.551743
 32
0.0
 13
723.025496
 23
327.551743
 33
0.0
  0
MTEXT
  5
AB3
100
AcDbEntity
  8
0
  6
BYBLOCK
 62
     0
100
AcDbMText
 10
723.025496
 20
315.94365
 30
0.0
 40
4.572
 41
0.0
 71
     5
 72
     1
  1
\A1;23.22mm[0.914"]
  0
POINT
  5
AB4
100
AcDbEntity
  8
DEFPOINTS
  6
BYBLOCK
 62
     0
100
AcDbPoint
 10
420.59194
 20
304.335558
 30
0.0
  0
POINT
  5
AB5
100
AcDbEntity
  8
DEFPOINTS
  6
BYBLOCK
 62
     0
100
AcDbPoint
 10
480.110482
 20
327.551743
 30
0.0
  0
POINT
  5
AB6
100
AcDbEntity
  8
DEFPOINTS
  6
BYBLOCK
 62
     0
100
AcDbPoint
 10
723.025496
 20
327.551743
 30
0.0
  0
ENDBLK
  5
AB7
100
AcDbEntity
  8
0
100
AcDbBlockEnd
  0
BLOCK
  5
977
100
AcDbEntity
  8
0
100
AcDbBlockBegin
  2
*X37
 70
    65
 10
0.0
 20
0.0
 30
0.0
  3
*X37
  1
*TB
  0
LINE
  5
979
100
AcDbEntity
  8
0
 62
     0
100
AcDbLine
 10
438.050347
 20
102.174626
 30
0.0
 11
438.812347
 21
102.936626
 31
0.0
  0
LINE
  5
97A
100
AcDbEntity
  8
0
 62
     0
100
AcDbLine
 10
436.28258
 20
102.174626
 30
0.0
 11
437.04458
 21
102.936626
 31
0.0
  0
LINE
  5
97B
100
AcDbEntity
  8
0
 62
     0
100
AcDbLine
 10
434.514813
 20
102.174626
 30
0.0
 11
435.276813
 21
102.936626
 31
0.0
  0
LINE
  5
97C
100
AcDbEntity
  8
0
 62
     0
100
AcDbLine
 10
432.747046
 20
102.174626
 30
0.0
 11
433.509046
 21
102.936626
 31
0.0
  0
LINE
  5
97D
100
AcDbEntity
  8
0
 62
     0
100
AcDbLine
 10
430.979279
 20
102.174626
 30
0.0
 11
431.741279
 21
102.936626
 31
0.0
  0
LINE
  5
97E
100
AcDbEntity
  8
0
 62
     0
100
AcDbLine
 10
429.211513
 20
102.174626
 30
0.0
 11
429.973513
 21
102.936626
 31
0.0
  0
LINE
  5
97F
100
AcDbEntity
  8
0
 62
     0
100
AcDbLine
 10
427.443746
 20
102.174626
 30
0.0
 11
428.205746
 21
102.936626
 31
0.0
  0
LINE
  5
980
100
AcDbEntity
  8
0
 62
     0
100
AcDbLine
 10
425.675979
 20
102.174626
 30
0.0
 11
426.437979
 21
102.936626
 31
0.0
  0
LINE
  5
981
100
AcDbEntity
  8
0
 62
     0
100
AcDbLine
 10
423.908212
 20
102.174626
 30
0.0
 11
424.670212
 21
102.936626
 31
0.0
  0
LINE
  5
982
100
AcDbEntity
  8
0
 62
     0
100
AcDbLine
 10
422.140445
 20
102.174626
 30
0.0
 11
422.902445
 21
102.936626
 31
0.0
  0
LINE
  5
983
100
AcDbEntity
  8
0
 62
     0
100
AcDbLine
 10
420.372678
 20
102.174626
 30
0.0
 11
421.134678
 21
102.936626
 31
0.0
  0
LINE
  5
984
100
AcDbEntity
  8
0
 62
     0
100
AcDbLine
 10
418.604911
 20
102.174626
 30
0.0
 11
419.366911
 21
102.936626
 31
0.0
  0
LINE
  5
985
100
AcDbEntity
  8
0
 62
     0
100
AcDbLine
 10
416.837144
 20
102.174626
 30
0.0
 11
417.599144
 21
102.936626
 31
0.0
  0
LINE
  5
986
100
AcDbEntity
  8
0
 62
     0
100
AcDbLine
 10
415.069377
 20
102.174626
 30
0.0
 11
415.831377
 21
102.936626
 31
0.0
  0
LINE
  5
987
100
AcDbEntity
  8
0
 62
     0
100
AcDbLine
 10
413.30161
 20
102.174626
 30
0.0
 11
414.06361
 21
102.936626
 31
0.0
  0
LINE
  5
988
100
AcDbEntity
  8
0
 62
     0
100
AcDbLine
 10
411.533843
 20
102.174626
 30
0.0
 11
412.295843
 21
102.936626
 31
0.0
  0
LINE
  5
989
100
AcDbEntity
  8
0
 62
     0
100
AcDbLine
 10
409.766076
 20
102.174626
 30
0.0
 11
410.528076
 21
102.936626
 31
0.0
  0
LINE
  5
98A
100
AcDbEntity
  8
0
 62
     0
100
AcDbLine
 10
407.998309
 20
102.174626
 30
0.0
 11
408.760309
 21
102.936626
 31
0.0
  0
LINE
  5
98B
100
AcDbEntity
  8
0
 62
     0
100
AcDbLine
 10
439.818114
 20
102.174626
 30
0.0
 11
440.580114
 21
102.936626
 31
0.0
  0
LINE
  5
98C
100
AcDbEntity
  8
0
 62
     0
100
AcDbLine
 10
441.585881
 20
102.174626
 30
0.0
 11
442.347881
 21
102.936626
 31
0.0
  0
LINE
  5
98D
100
AcDbEntity
  8
0
 62
     0
100
AcDbLine
 10
443.353648
 20
102.174626
 30
0.0
 11
444.115648
 21
102.936626
 31
0.0
  0
LINE
  5
98E
100
AcDbEntity
  8
0
 62
     0
100
AcDbLine
 10
445.121415
 20
102.174626
 30
0.0
 11
445.883415
 21
102.936626
 31
0.0
  0
LINE
  5
98F
100
AcDbEntity
  8
0
 62
     0
100
AcDbLine
 10
446.889182
 20
102.174626
 30
0.0
 11
447.651182
 21
102.936626
 31
0.0
  0
LINE
  5
990
100
AcDbEntity
  8
0
 62
     0
100
AcDbLine
 10
448.656949
 20
102.174626
 30
0.0
 11
449.418949
 21
102.936626
 31
0.0
  0
LINE
  5
991
100
AcDbEntity
  8
0
 62
     0
100
AcDbLine
 10
450.424716
 20
102.174626
 30
0.0
 11
451.186716
 21
102.936626
 31
0.0
  0
LINE
  5
992
100
AcDbEntity
  8
0
 62
     0
100
AcDbLine
 10
452.192483
 20
102.174626
 30
0.0
 11
452.954483
 21
102.936626
 31
0.0
  0
LINE
  5
993
100
AcDbEntity
  8
0
 62
     0
100
AcDbLine
 10
453.96025
 20
102.174626
 30
0.0
 11
454.72225
 21
102.936626
 31
0.0
  0
LINE
  5
994
100
AcDbEntity
  8
0
 62
     0
100
AcDbLine
 10
455.728017
 20
102.174626
 30
0.0
 11
456.490017
 21
102.936626
 31
0.0
  0
LINE
  5
995
100
AcDbEntity
  8
0
 62
     0
100
AcDbLine
 10
457.495784
 20
102.174626
 30
0.0
 11
458.257784
 21
102.936626
 31
0.0
  0
LINE
  5
996
100
AcDbEntity
  8
0
 62
     0
100
AcDbLine
 10
459.263551
 20
102.174626
 30
0.0
 11
460.025551
 21
102.936626
 31
0.0
  0
LINE
  5
997
100
AcDbEntity
  8
0
 62
     0
100
AcDbLine
 10
461.031318
 20
102.174626
 30
0.0
 11
461.793318
 21
102.936626
 31
0.0
  0
LINE
  5
998
100
AcDbEntity
  8
0
 62
     0
100
AcDbLine
 10
462.799085
 20
102.174626
 30
0.0
 11
463.561085
 21
102.936626
 31
0.0
  0
LINE
  5
999
100
AcDbEntity
  8
0
 62
     0
100
AcDbLine
 10
464.566852
 20
102.174626
 30
0.0
 11
466.256587
 21
103.864362
 31
0.0
  0
LINE
  5
99A
100
AcDbEntity
  8
0
 62
     0
100
AcDbLine
 10
468.117141
 20
103.957149
 30
0.0
 11
469.860784
 21
105.700792
 31
0.0
  0
LINE
  5
99B
100
AcDbEntity
  8
0
 62
     0
100
AcDbLine
 10
471.721338
 20
105.793579
 30
0.0
 11
473.464981
 21
107.537222
 31
0.0
  0
LINE
  5
99C
100
AcDbEntity
  8
0
 62
     0
100
AcDbLine
 10
475.325535
 20
107.630009
 30
0.0
 11
477.069178
 21
109.373652
 31
0.0
  0
LINE
  5
99D
100
AcDbEntity
  8
0
 62
     0
100
AcDbLine
 10
478.929732
 20
109.466439
 30
0.0
 11
479.915003
 21
110.45171
 31
0.0
  0
ENDBLK
  5
99E
100
AcDbEntity
  8
0
100
AcDbBlockEnd
  0
BLOCK
  5
AEB
100
AcDbEntity
  8
0
100
AcDbBlockBegin
  2
*D38
 70
    65
 10
0.0
 20
0.0
 30
0.0
  3
*D38
  1

  0
LINE
  5
AEC
100
AcDbEntity
  8
0
  6
BYBLOCK
 62
     0
100
AcDbLine
 10
481.352041
 20
300.887
 30
0.0
 11
608.398531
 21
300.887
 31
0.0
  0
LINE
  5
AED
100
AcDbEntity
  8
0
  6
BYBLOCK
 62
     0
100
AcDbLine
 10
481.697982
 20
300.125
 30
0.0
 11
608.398531
 21
300.125
 31
0.0
  0
LINE
  5
AEE
100
AcDbEntity
  8
0
  6
BYBLOCK
 62
     0
100
AcDbLine
 10
603.826531
 20
305.459
 30
0.0
 11
603.826531
 21
310.031
 31
0.0
  0
LINE
  5
AEF
100
AcDbEntity
  8
0
  6
BYBLOCK
 62
     0
100
AcDbLine
 10
603.826531
 20
295.553
 30
0.0
 11
603.826531
 21
290.981
 31
0.0
  0
LINE
  5
AF0
100
AcDbEntity
  8
0
  6
BYBLOCK
 62
     0
100
AcDbLine
 10
603.826531
 20
290.981
 30
0.0
 11
599.254531
 21
290.981
 31
0.0
  0
SOLID
  5
AF1
100
AcDbEntity
  8
0
  6
BYBLOCK
 62
     0
100
AcDbTrace
 10
603.064531
 20
305.459
 30
0.0
 11
604.588531
 21
305.459
 31
0.0
 12
603.826531
 22
300.887
 32
0.0
 13
603.826531
 23
300.887
 33
0.0
  0
SOLID
  5
AF2
100
AcDbEntity
  8
0
  6
BYBLOCK
 62
     0
100
AcDbTrace
 10
603.064531
 20
295.553
 30
0.0
 11
604.588531
 21
295.553
 31
0.0
 12
603.826531
 22
300.125
 32
0.0
 13
603.826531
 23
300.125
 33
0.0
  0
MTEXT
  5
AF3
100
AcDbEntity
  8
0
  6
BYBLOCK
 62
     0
100
AcDbMText
 10
547.057531
 20
290.981
 30
0.0
 40
4.572
 41
0.0
 71
     5
 72
     1
  1
\A1;{0.76mm±0.03mm[0.030"±0.001"]}\P{WALL THICKNESS}
  0
POINT
  5
AF4
100
AcDbEntity
  8
DEFPOINTS
  6
BYBLOCK
 62
     0
100
AcDbPoint
 10
479.764541
 20
300.887
 30
0.0
  0
POINT
  5
AF5
100
AcDbEntity
  8
DEFPOINTS
  6
BYBLOCK
 62
     0
100
AcDbPoint
 10
480.110482
 20
300.125
 30
0.0
  0
POINT
  5
AF6
100
AcDbEntity
  8
DEFPOINTS
  6
BYBLOCK
 62
     0
100
AcDbPoint
 10
603.826531
 20
300.125
 30
0.0
  0
ENDBLK
  5
AF7
100
AcDbEntity
  8
0
100
AcDbBlockEnd
  0
ENDSEC
  0
SECTION
  2
ENTITIES
  0
ACAD_ZOMBIE_ENTITY
  5
3D
100
AcDbEntity
  8
0
100
AcDbZombieEntity
 90
      498
 91
      515
 92
        8
310
0800000000000000
 93
       97
310
D2800000002029040000780288
330
3E
330
3F
330
40
330
41
330
3E
 94
        0
  0
INSERT
  5
E4
100
AcDbEntity
  8
0
100
AcDbBlockReference
  2
D-BORDER
 10
0.0
 20
0.0
 30
0.0
 41
25.4
 42
25.4
 43
25.4
  0
TEXT
  5
F1
100
AcDbEntity
  8
TEXT
100
AcDbText
 10
671.183782
 20
21.563091
 30
0.0
 40
1.5
  1
01-24-97
100
AcDbText
  0
TEXT
  5
F2
100
AcDbEntity
  8
TEXT
100
AcDbText
 10
646.433782
 20
21.563091
 30
0.0
 40
3.0
  1
S. KYRE
100
AcDbText
  0
TEXT
  5
F3
100
AcDbEntity
  8
TEXT
100
AcDbText
 10
746.183782
 20
13.188091
 30
0.0
 40
3.0
  1
L4-END02
100
AcDbText
  0
TEXT
  5
F4
100
AcDbEntity
  8
TEXT
100
AcDbText
 10
697.808782
 20
12.063091
 30
0.0
 40
3.0
  1
B-PARTS
100
AcDbText
  0
TEXT
  5
F5
100
AcDbEntity
  8
TEXT
100
AcDbText
 10
694.933782
 20
5.063091
 30
0.0
 40
3.0
  1
1=1
100
AcDbText
  0
TEXT
  5
F6
100
AcDbEntity
  8
TEXT
100
AcDbText
 10
783.924418
 20
12.061996
 30
0.0
 40
3.0
  1
02
100
AcDbText
  0
MTEXT
  5
F7
100
AcDbEntity
  8
TEXT
100
AcDbMText
 10
736.994556
 20
27.994029
 30
0.0
 40
3.0
 41
100.0
 71
     5
 72
     1
  1
{LAYER 4A BACKWARD ENDPIECE}
  0
TEXT
  5
10A
100
AcDbEntity
  8
TEXT
100
AcDbText
 10
678.0
 20
460.011785
 30
0.0
 40
2.5
  1
FIBER
100
AcDbText
  0
TEXT
  5
10B
100
AcDbEntity
  8
TEXT
100
AcDbText
 10
678.0
 20
464.297305
 30
0.0
 40
2.5
  1
CHANGE MATERIAL TO CARBON-
100
AcDbText
  0
TEXT
  5
10C
100
AcDbEntity
  8
TEXT
100
AcDbText
 10
678.0
 20
472.498146
 30
0.0
 40
2.5
  1
ABOVE SILICON
100
AcDbText
  0
TEXT
  5
10D
100
AcDbEntity
  8
TEXT
100
AcDbText
 10
678.0
 20
476.664812
 30
0.0
 40
2.5
  1
MOVE FRONT END UP TO 3mm
100
AcDbText
  0
TEXT
  5
10E
100
AcDbEntity
  8
TEXT
100
AcDbText
 10
678.0
 20
482.833333
 30
0.0
 40
2.5
  1
ADDED HOLES AND SLOTS
100
AcDbText
  0
TEXT
  5
10F
100
AcDbEntity
  8
TEXT
100
AcDbText
 10
678.0
 20
487.0
 30
0.0
 40
2.5
  1
UPDATED DESIGN,
100
AcDbText
  0
LINE
  5
110
100
AcDbEntity
  8
TEXT
100
AcDbLine
 10
673.056868
 20
492.122347
 30
0.0
 11
673.056868
 21
460.0
 31
0.0
  0
LINE
  5
111
100
AcDbEntity
  8
TEXT
100
AcDbLine
 10
663.144457
 20
492.122347
 30
0.0
 11
663.144457
 21
460.0
 31
0.0
  0
TEXT
  5
112
100
AcDbEntity
  8
TEXT
100
AcDbText
 10
665.0
 20
476.664812
 30
0.0
 40
2.5
  1
02
100
AcDbText
  0
TEXT
  5
113
100
AcDbEntity
  8
TEXT
100
AcDbText
 10
665.0
 20
487.0
 30
0.0
 40
2.5
  1
01
100
AcDbText
  0
TEXT
  5
114
100
AcDbEntity
  8
TEXT
100
AcDbText
 10
744.0
 20
476.664812
 30
0.0
 40
2.5
  1
01-06-97
100
AcDbText
  0
TEXT
  5
115
100
AcDbEntity
  8
TEXT
100
AcDbText
 10
744.0
 20
487.0
 30
0.0
 40
2.5
  1
05-06-96
100
AcDbText
  0
LINE
  5
116
100
AcDbEntity
  8
TEXT
100
AcDbLine
 10
742.652868
 20
492.122347
 30
0.0
 11
742.652868
 21
460.0
 31
0.0
  0
LINE
  5
117
100
AcDbEntity
  8
TEXT
100
AcDbLine
 10
765.004868
 20
492.122347
 30
0.0
 11
765.004868
 21
460.0
 31
0.0
  0
TEXT
  5
118
100
AcDbEntity
  8
TEXT
100
AcDbText
 10
678.0
 20
468.331479
 30
0.0
 40
2.5
  1
REDUCE WIDTH BY 5mm
100
AcDbText
  0
LINE
  5
1CF
100
AcDbEntity
  8
CENTER
100
AcDbLine
 10
75.60452
 20
109.610863
 30
0.0
 11
747.380048
 21
109.610863
 31
0.0
  0
LINE
  5
1D0
100
AcDbEntity
  8
CENTER
100
AcDbLine
 10
470.581988
 20
40.231053
 30
0.0
 11
470.581988
 21
484.277863
 31
0.0
  0
LINE
  5
246
100
AcDbEntity
  8
CENTER
100
AcDbLine
 10
235.787177
 20
450.389175
 30
0.0
 11
747.380048
 21
450.389175
 31
0.0
  0
DIMENSION
  5
482
100
AcDbEntity
  8
DIM
100
AcDbDimension
  2
*D2
 10
476.204755
 20
445.763326
 30
0.0
 11
528.010591
 21
424.325211
 31
0.0
 12
105.357677
 22
0.0
 32
0.0
 70
   164
  1
{<>}\P{2X}
  3
SU1$4
100
AcDbRadialDimension
 15
477.153956
 25
444.490858
 35
0.0
 40
0.0
1001
ACAD
1000
DSTYLE
1002
{
1070
    47
1040
0.03
1070
    48
1040
0.03
1070
   272
1070
     2
1070
    40
1040
25.4
1070
     3
1000
mm
1070
   271
1070
     2
1070
     4
1000
"
1070
   274
1070
     3
1070
   143
1040
0.03937
1070
   171
1070
     3
1070
   170
1070
     1
1002
}
  0
DIMENSION
  5
498
100
AcDbEntity
  8
DIM
100
AcDbDimension
  2
*D3
 10
469.914109
 20
451.375602
 30
0.0
 11
566.376996
 21
400.627592
 31
0.0
 12
105.357677
 22
0.0
 32
0.0
 70
   163
  1
{<>}\P{4X}
  3
SU1$3
100
AcDbDiametricDimension
 15
471.249867
 25
449.402748
 35
0.0
 40
0.0
1001
ACAD
1000
DSTYLE
1002
{
1070
    47
1040
0.03
1070
    71
1070
     1
1070
    48
1040
0.03
1070
   272
1070
     2
1070
    40
1040
25.4
1070
     3
1000
mm
1070
   271
1070
     2
1070
     4
1000
"
1070
   274
1070
     3
1070
   143
1040
0.03937
1070
   171
1070
     3
1070
   170
1070
     1
1002
}
  0
DIMENSION
  5
4AE
100
AcDbEntity
  8
DIM
100
AcDbDimension
  2
*D4
 10
413.348291
 20
314.745358
 30
0.0
 11
319.213751
 21
277.080683
 31
0.0
 70
   163
  1
{<>}\P{2X}
  3
SU1$3
100
AcDbDiametricDimension
 15
411.805615
 25
312.931384
 35
0.0
 40
0.0
1001
ACAD
1000
DSTYLE
1002
{
1070
    47
1040
0.03
1070
    71
1070
     1
1070
    48
1040
0.03
1070
   272
1070
     2
1070
    40
1040
25.4
1070
     3
1000
mm
1070
   271
1070
     2
1070
     4
1000
"
1070
   274
1070
     3
1070
   143
1040
0.03937
1070
   171
1070
     3
1070
   170
1070
     1
1002
}
  0
DIMENSION
  5
4C4
100
AcDbEntity
  8
DIM
100
AcDbDimension
  2
*D5
 10
411.956876
 20
307.052856
 30
0.0
 11
331.011484
 21
254.276947
 31
0.0
 70
   163
  1
{<>}\P{4X}
  3
SU1$3
100
AcDbDiametricDimension
 15
409.876877
 25
304.620539
 35
0.0
 40
0.0
1001
ACAD
1000
DSTYLE
1002
{
1070
    47
1040
0.03
1070
    48
1040
0.03
1070
   272
1070
     2
1070
    40
1040
25.4
1070
     3
1000
mm
1070
   271
1070
     2
1070
     4
1000
"
1070
   274
1070
     3
1070
   143
1040
0.03937
1070
   171
1070
     3
1070
   170
1070
     1
1002
}
  0
DIMENSION
  5
4DC
100
AcDbEntity
  8
DIM
100
AcDbDimension
  2
*D6
 10
448.056444
 20
314.976781
 30
0.0
 11
523.215147
 21
266.611909
 31
0.0
 12
-38.716145
 22
10.484918
 32
0.0
 70
   163
  3
SU1$3
100
AcDbDiametricDimension
 15
449.926567
 25
312.699961
 35
0.0
 40
0.0
1001
ACAD
1000
DSTYLE
1002
{
1070
    47
1040
0.03
1070
    48
1040
0.03
1070
   272
1070
     2
1070
    40
1040
25.4
1070
     3
1000
mm
1070
   271
1070
     2
1070
     4
1000
"
1070
   274
1070
     3
1070
   143
1040
0.03937
1070
   171
1070
     3
1070
   170
1070
     1
1002
}
  0
DIMENSION
  5
58E
100
AcDbEntity
  8
DIM
100
AcDbDimension
  2
*D7
 10
418.402534
 20
305.228758
 30
0.0
 11
327.412333
 21
234.335506
 31
0.0
 70
   163
  1
{<>}\P{8X}
  3
SU1$3
100
AcDbDiametricDimension
 15
417.782625
 25
304.443117
 35
0.0
 40
0.0
1001
ACAD
1000
DSTYLE
1002
{
1070
    47
1040
0.03
1070
    48
1040
0.03
1070
   272
1070
     2
1070
    40
1040
25.4
1070
     3
1000
mm
1070
   271
1070
     2
1070
     4
1000
"
1070
   274
1070
     3
1070
   143
1040
0.03937
1070
   171
1070
     3
1070
   170
1070
     1
1002
}
  0
MTEXT
  5
5A3
100
AcDbEntity
  8
TEXT
100
AcDbMText
 10
9.430612
 20
479.971855
 30
0.0
 40
4.0
 41
209.16366
 71
     1
 72
     1
  3
{MATERIAL: }\P{0.76mm [0.030"] thick carbon-fiber-epoxy-composite}\P\P{LAMINATE SCHEDULE:}\P{cloth:  - 1 layer Carbon-fiber (0.006" thick ea.)}\P{ xx oz/sq. yd. plain weave @ 90°}\P{ - 1 layer Carbon-fiber (0.001" thick ea.)}\P{ 0.4 oz/sq. yd. mat}\P
  3
{ - 1 layer Carbon-fiber (0.006" thick ea.)}\P{ xx oz/sq. yd. plain weave @ 45°}\P{ 1 layer Carbon-fiber (0.001" thick ea.)}\P{ 0.4 oz/sq. yd. mat}\P{ - 1 layer Carbon-fiber (0.006" thick ea.)}\P{ xx oz/sq. yd. plain weave @ 90°}\P{epoxy: heat resist
  1
ant laminating epoxy}\P{ Ciba-Geigy RP4005R/RP1500H}\P{cure: 24 hrs at room temp. @ 20psi}\P{ 2 hrs postcure at 66°C}\P\P{MACHINING:}\P{use fixture L4-END12}\P
  0
TEXT
  5
5F5
100
AcDbEntity
  8
TEXT
100
AcDbText
 10
458.668164
 20
30.723703
 30
0.0
 40
6.0
  1
A-A
100
AcDbText
  0
TEXT
  5
5F6
100
AcDbEntity
  8
TEXT
100
AcDbText
 10
424.668164
 20
30.723703
 30
0.0
 40
4.5
  1
SECTION
100
AcDbText
  0
LINE
  5
619
100
AcDbEntity
  8
FOOT-A
100
AcDbLine
 10
407.716513
 20
102.936626
 30
0.0
 11
464.435804
 21
102.936626
 31
0.0
1001
ACAD
1000
ASC_BOUNDS
1002
{
1070
    19
1005
0
1005
978
1002
}
  0
LINE
  5
61A
100
AcDbEntity
  8
FOOT-A
100
AcDbLine
 10
407.716513
 20
102.174626
 30
0.0
 11
407.716513
 21
110.587106
 31
0.0
1001
ACAD
1000
ASC_BOUNDS
1002
{
1070
    19
1005
0
1005
978
1002
}
  0
LINE
  5
61B
100
AcDbEntity
  8
FOOT-A
100
AcDbLine
 10
409.304013
 20
112.174606
 30
0.0
 11
468.660874
 21
112.174606
 31
0.0
  0
ARC
  5
61C
100
AcDbEntity
  8
FOOT-A
100
AcDbCircle
 10
409.304013
 20
110.587106
 30
0.0
 40
1.5875
100
AcDbArc
 50
90.0
 51
180.0
1001
ACAD
1000
ASC_BOUNDS
1002
{
1070
    19
1005
0
1002
}
  0
LINE
  5
61D
100
AcDbEntity
  8
CENTER
100
AcDbLine
 10
426.765276
 20
104.554671
 30
0.0
 11
426.765276
 21
111.022276
 31
0.0
  0
LINE
  5
61E
100
AcDbEntity
  8
CENTER
100
AcDbLine
 10
423.755322
 20
107.555616
 30
0.0
 11
430.237102
 21
107.555616
 31
0.0
  0
CIRCLE
  5
61F
100
AcDbEntity
  8
FOOT-A
100
AcDbCircle
 10
426.765276
 20
107.555616
 30
0.0
 40
1.19126
  0
LINE
  5
620
100
AcDbEntity
  8
FOOT-A
100
AcDbLine
 10
407.716513
 20
102.174626
 30
0.0
 11
464.618744
 21
102.174626
 31
0.0
1001
ACAD
1000
ASC_BOUNDS
1002
{
1070
    19
1005
0
1005
978
1002
}
  0
LINE
  5
621
100
AcDbEntity
  8
FOOT-A
100
AcDbLine
 10
464.435804
 20
102.936626
 30
0.0
 11
479.764541
 21
110.747008
 31
0.0
1001
ACAD
1000
ASC_BOUNDS
1002
{
1070
    19
1005
0
1005
978
1002
}
  0
LINE
  5
622
100
AcDbEntity
  8
FOOT-A
100
AcDbLine
 10
464.618744
 20
102.174626
 30
0.0
 11
480.110482
 21
110.068061
 31
0.0
1001
ACAD
1000
ASC_BOUNDS
1002
{
1070
    19
1005
0
1005
978
1002
}
  0
LINE
  5
623
100
AcDbEntity
  8
FOOT-A
100
AcDbLine
 10
480.110482
 20
110.068061
 30
0.0
 11
477.619228
 21
114.957423
 31
0.0
1001
ACAD
1000
ASC_BOUNDS
1002
{
1070
    19
1005
0
1005
978
1002
}
  0
LINE
  5
624
100
AcDbEntity
  8
FOOT-A
100
AcDbLine
 10
468.660874
 20
112.174606
 30
0.0
 11
475.484045
 21
115.651185
 31
0.0
1001
ACAD
1000
ASC_BOUNDS
1002
{
1070
    19
1002
}
  0
ARC
  5
625
100
AcDbEntity
  8
FOOT-A
100
AcDbCircle
 10
476.204755
 20
114.236713
 30
0.0
 40
1.5875
100
AcDbArc
 50
27.0
 51
117.0
1001
ACAD
1000
ASC_BOUNDS
1002
{
1070
    19
1002
}
  0
CIRCLE
  5
626
100
AcDbEntity
  8
FOOT-A
100
AcDbCircle
 10
470.581988
 20
109.610863
 30
0.0
 40
1.19126
  0
POLYLINE
  5
680
100
AcDbEntity
  8
FOOT-2
100
AcDb2dPolyline
 66
     1
 10
0.0
 20
0.0
 30
0.0
 70
     1
  0
VERTEX
  5
681
100
AcDbEntity
  8
FOOT-2
100
AcDbVertex
100
AcDb2dVertex
 10
407.716513
 20
300.125
 30
0.0
  0
VERTEX
  5
682
100
AcDbEntity
  8
FOOT-2
100
AcDbVertex
100
AcDb2dVertex
 10
407.716513
 20
327.551743
 30
0.0
  0
VERTEX
  5
683
100
AcDbEntity
  8
FOOT-2
100
AcDbVertex
100
AcDb2dVertex
 10
480.110482
 20
327.551743
 30
0.0
  0
VERTEX
  5
684
100
AcDbEntity
  8
FOOT-2
100
AcDbVertex
100
AcDb2dVertex
 10
480.110482
 20
300.125
 30
0.0
  0
SEQEND
  5
685
100
AcDbEntity
  8
FOOT-2
  0
LINE
  5
686
100
AcDbEntity
  8
FOOT-2
100
AcDbLine
 10
480.110482
 20
300.887
 30
0.0
 11
407.716513
 21
300.887
 31
0.0
  0
LINE
  5
687
100
AcDbEntity
  8
FOOT-2
100
AcDbLine
 10
480.110482
 20
326.789743
 30
0.0
 11
407.716513
 21
326.789743
 31
0.0
  0
LINE
  5
688
100
AcDbEntity
  8
FOOT-2
100
AcDbLine
 10
468.660874
 20
327.551743
 30
0.0
 11
468.660874
 21
326.789743
 31
0.0
  0
LINE
  5
689
100
AcDbEntity
  8
FOOT-2
100
AcDbLine
 10
464.435804
 20
300.887
 30
0.0
 11
464.435804
 21
326.789743
 31
0.0
  0
LINE
  5
68A
100
AcDbEntity
  8
FOOT-2
100
AcDbLine
 10
479.764541
 20
300.887
 30
0.0
 11
479.764541
 21
326.789743
 31
0.0
  0
LINE
  5
68B
100
AcDbEntity
  8
FOOT-2
100
AcDbLine
 10
468.660874
 20
300.125
 30
0.0
 11
468.660874
 21
300.887
 31
0.0
  0
INSERT
  5
68C
100
AcDbEntity
  8
FOOT-2
100
AcDbBlockReference
  2
*U8
 10
412.576953
 20
313.838371
 30
0.0
 41
25.4
 42
25.4
 43
25.4
1001
TB_S_MPD
1070
   100
1000
HOLE
1070
   101
1000
TOOLBOX 13.0 HOLE 2.0
1070
   112
1000
3/32 (.0938) DIAMETER HOLE
1070
   102
1000
Near side
1070
   103
1000
ANSI-Fraction
1070
   104
1000
hole
1070
   105
1000
_usf
1070
   304
1040
0.0
1070
   305
1040
0.0
1070
   306
1040
0.09375
1070
   302
1040
0.0
1070
   303
1040
0.0
1070
   307
1040
0.03
1070
   300
1040
0.125
1070
   110
1000
1
1070
   111
1000
3/32
1070
   116
1000
T
1070
   308
1040
0.03
  0
INSERT
  5
68D
100
AcDbEntity
  8
FOOT-2
100
AcDbBlockReference
  2
*U9
 10
448.991505
 20
313.838371
 30
0.0
 41
25.4
 42
25.4
 43
25.4
1001
TB_S_MPD
1070
   100
1000
HOLE
1070
   101
1000
TOOLBOX 13.0 HOLE 2.0
1070
   112
1000
#32 (.116) DIAMETER HOLE
1070
   102
1000
Near side
1070
   103
1000
ANSI-Number
1070
   104
1000
hole
1070
   105
1000
_usn
1070
   304
1040
0.0
1070
   305
1040
0.0
1070
   306
1040
0.116
1070
   302
1040
0.0
1070
   303
1040
0.0
1070
   307
1040
0.03
1070
   300
1040
0.125
1070
   110
1000
1
1070
   111
1000
#32
1070
   116
1000
T
1070
   308
1040
0.03
  0
LINE
  5
68E
100
AcDbEntity
  8
CENTER
100
AcDbLine
 10
471.005436
 20
313.838371
 30
0.0
 11
478.365515
 21
313.838371
 31
0.0
  0
LINE
  5
68F
100
AcDbEntity
  8
CENTER
100
AcDbLine
 10
474.843945
 20
309.174818
 30
0.0
 11
474.843945
 21
318.496171
 31
0.0
  0
INSERT
  5
692
100
AcDbEntity
  8
FOOT-2
100
AcDbBlockReference
  2
*U10
 10
410.916876
 20
321.840045
 30
0.0
 41
25.4
 42
25.4
 43
25.4
1001
TB_S_MPD
1070
   100
1000
SLOT
1070
   101
1000
TOOLBOX 13.0 SLOT 2.0
1070
   103
1000
STD
1070
   306
1040
0.126
1070
   307
1040
0.03
1070
   112
1000
SLOT
1070
   102
1000
Near side
1070
   116
1000
T
1070
   308
1040
0.03
1070
   309
1040
0.063
1070
   310
1040
0.176
1070
   311
1040
0.0
  0
INSERT
  5
693
100
AcDbEntity
  8
FOOT-2
100
AcDbBlockReference
  2
*U10
 10
410.916876
 20
305.836698
 30
0.0
 41
25.4
 42
25.4
 43
25.4
1001
TB_S_MPD
1070
   100
1000
SLOT
1070
   101
1000
TOOLBOX 13.0 SLOT 2.0
1070
   103
1000
STD
1070
   306
1040
0.126
1070
   307
1040
0.03
1070
   112
1000
SLOT
1070
   102
1000
Near side
1070
   116
1000
T
1070
   308
1040
0.03
1070
   309
1040
0.063
1070
   310
1040
0.176
1070
   311
1040
0.0
  0
POLYLINE
  5
694
100
AcDbEntity
  8
FOOT-2
100
AcDb2dPolyline
 66
     1
 10
0.0
 20
0.0
 30
0.0
 70
     1
  0
VERTEX
  5
695
100
AcDbEntity
  8
FOOT-2
100
AcDbVertex
100
AcDb2dVertex
 10
417.5922
 20
320.839285
 30
0.0
  0
VERTEX
  5
696
100
AcDbEntity
  8
FOOT-2
100
AcDbVertex
100
AcDb2dVertex
 10
417.5922
 20
322.840805
 30
0.0
 42
-0.414214
  0
VERTEX
  5
697
100
AcDbEntity
  8
FOOT-2
100
AcDbVertex
100
AcDb2dVertex
 10
418.09258
 20
323.341185
 30
0.0
  0
VERTEX
  5
698
100
AcDbEntity
  8
FOOT-2
100
AcDbVertex
100
AcDb2dVertex
 10
420.59194
 20
323.341185
 30
0.0
 42
-0.414214
  0
VERTEX
  5
699
100
AcDbEntity
  8
FOOT-2
100
AcDbVertex
100
AcDb2dVertex
 10
421.09232
 20
322.840805
 30
0.0
  0
VERTEX
  5
69A
100
AcDbEntity
  8
FOOT-2
100
AcDbVertex
100
AcDb2dVertex
 10
421.09232
 20
320.839285
 30
0.0
 42
-0.414214
  0
VERTEX
  5
69B
100
AcDbEntity
  8
FOOT-2
100
AcDbVertex
100
AcDb2dVertex
 10
420.59194
 20
320.338905
 30
0.0
  0
VERTEX
  5
69C
100
AcDbEntity
  8
FOOT-2
100
AcDbVertex
100
AcDb2dVertex
 10
418.09258
 20
320.338905
 30
0.0
 42
-0.414214
  0
SEQEND
  5
69D
100
AcDbEntity
  8
FOOT-2
  0
POLYLINE
  5
69E
100
AcDbEntity
  8
FOOT-2
100
AcDb2dPolyline
 66
     1
 10
0.0
 20
0.0
 30
0.0
 70
     1
  0
VERTEX
  5
69F
100
AcDbEntity
  8
FOOT-2
100
AcDbVertex
100
AcDb2dVertex
 10
417.5922
 20
304.835938
 30
0.0
  0
VERTEX
  5
6A0
100
AcDbEntity
  8
FOOT-2
100
AcDbVertex
100
AcDb2dVertex
 10
417.5922
 20
306.837458
 30
0.0
 42
-0.414214
  0
VERTEX
  5
6A1
100
AcDbEntity
  8
FOOT-2
100
AcDbVertex
100
AcDb2dVertex
 10
418.09258
 20
307.337838
 30
0.0
  0
VERTEX
  5
6A2
100
AcDbEntity
  8
FOOT-2
100
AcDbVertex
100
AcDb2dVertex
 10
420.59194
 20
307.337838
 30
0.0
 42
-0.414214
  0
VERTEX
  5
6A3
100
AcDbEntity
  8
FOOT-2
100
AcDbVertex
100
AcDb2dVertex
 10
421.09232
 20
306.837458
 30
0.0
  0
VERTEX
  5
6A4
100
AcDbEntity
  8
FOOT-2
100
AcDbVertex
100
AcDb2dVertex
 10
421.09232
 20
304.835938
 30
0.0
 42
-0.414214
  0
VERTEX
  5
6A5
100
AcDbEntity
  8
FOOT-2
100
AcDbVertex
100
AcDb2dVertex
 10
420.59194
 20
304.335558
 30
0.0
  0
VERTEX
  5
6A6
100
AcDbEntity
  8
FOOT-2
100
AcDbVertex
100
AcDb2dVertex
 10
418.09258
 20
304.335558
 30
0.0
 42
-0.414214
  0
SEQEND
  5
6A7
100
AcDbEntity
  8
FOOT-2
  0
LINE
  5
6A8
100
AcDbEntity
  8
CENTER
100
AcDbLine
 10
502.267565
 20
47.424418
 30
0.0
 11
407.545364
 21
233.327203
 31
0.0
  0
LINE
  5
6A9
100
AcDbEntity
  8
CENTER
100
AcDbLine
 10
431.85633
 20
89.879155
 30
0.0
 11
609.411653
 21
180.348111
 31
0.0
  0
LINE
  5
6B0
100
AcDbEntity
  8
FOOT-A
100
AcDbLine
 10
442.597678
 20
183.691083
 30
0.0
 11
430.146217
 21
208.128452
 31
0.0
  0
LINE
  5
6B1
100
AcDbEntity
  8
FOOT-A
100
AcDbLine
 10
430.146217
 20
208.128452
 30
0.0
 11
401.884727
 21
193.728503
 31
0.0
  0
LINE
  5
6B3
100
AcDbEntity
  8
FOOT-A
100
AcDbLine
 10
412.163795
 20
168.184245
 30
0.0
 11
442.597678
 21
183.691083
 31
0.0
  0
LINE
  5
6B4
100
AcDbEntity
  8
FOOT-A
100
AcDbLine
 10
430.492158
 20
207.449505
 30
0.0
 11
402.475088
 21
193.174095
 31
0.0
  0
LINE
  5
6B5
100
AcDbEntity
  8
FOOT-A
100
AcDbLine
 10
412.033393
 20
168.973014
 30
0.0
 11
442.251737
 21
184.37003
 31
0.0
  0
LINE
  5
6B6
100
AcDbEntity
  8
FOOT-A
100
AcDbLine
 10
426.923
 20
176.559648
 30
0.0
 11
415.16342
 21
199.639123
 31
0.0
  0
LINE
  5
6B7
100
AcDbEntity
  8
FOOT-A
100
AcDbLine
 10
434.360034
 20
179.493794
 30
0.0
 11
434.014094
 21
180.172741
 31
0.0
  0
LINE
  5
6B8
100
AcDbEntity
  8
FOOT-A
100
AcDbLine
 10
421.908573
 20
203.931163
 30
0.0
 11
422.254514
 21
203.252216
 31
0.0
  0
LINE
  5
6B9
100
AcDbEntity
  8
FOOT-A
100
AcDbLine
 10
401.884727
 20
193.728503
 30
0.0
 11
402.893223
 21
192.781426
 31
0.0
  0
LINE
  5
6BA
100
AcDbEntity
  8
FOOT-A
100
AcDbLine
 10
402.893223
 20
192.781426
 30
0.0
 11
403.484051
 21
188.593163
 31
0.0
  0
LINE
  5
6BB
100
AcDbEntity
  8
FOOT-A
100
AcDbLine
 10
403.484051
 20
188.593163
 30
0.0
 11
408.055243
 21
182.925727
 31
0.0
  0
LINE
  5
6BC
100
AcDbEntity
  8
FOOT-A
100
AcDbLine
 10
408.055243
 20
182.925727
 30
0.0
 11
408.339527
 21
174.933712
 31
0.0
  0
LINE
  5
6BD
100
AcDbEntity
  8
FOOT-A
100
AcDbLine
 10
408.339527
 20
174.933712
 30
0.0
 11
411.607618
 21
171.548419
 31
0.0
  0
LINE
  5
6BE
100
AcDbEntity
  8
FOOT-A
100
AcDbLine
 10
411.607618
 20
171.548419
 30
0.0
 11
412.163795
 21
168.184245
 31
0.0
  0
CIRCLE
  5
6BF
100
AcDbEntity
  8
FOOT-A
100
AcDbCircle
 10
431.451352
 20
193.402599
 30
0.0
 40
1.19065
  0
LINE
  5
6C0
100
AcDbEntity
  8
CENTER
100
AcDbLine
 10
432.626438
 20
191.096362
 30
0.0
 11
430.129491
 21
195.996898
 31
0.0
  0
LINE
  5
6C1
100
AcDbEntity
  8
CENTER
100
AcDbLine
 10
433.854854
 20
194.627244
 30
0.0
 11
429.17707
 21
192.243794
 31
0.0
  0
ELLIPSE
  5
6C7
100
AcDbEntity
  8
FOOT-A
100
AcDbEllipse
 10
474.843945
 20
313.838371
 30
0.0
 11
0.0
 21
1.190625000000011
 31
0.0
210
0.0
220
0.0
230
1.0
 40
0.891025
 41
0.0
 42
6.2831853071796
  0
ELLIPSE
  5
6C9
100
AcDbEntity
  8
FOOT-A
100
AcDbEllipse
 10
475.189886
 20
313.838371
 30
0.0
 11
0.0
 21
-1.190625000000011
 31
0.0
210
0.0
220
0.0
230
1.0
 40
0.891025
 41
-2.977816766965383
 42
-0.1637758866239713
  0
LINE
  5
6CA
100
AcDbEntity
  8
FOOT-A
100
AcDbLine
 10
407.716513
 20
457.825412
 30
0.0
 11
464.618744
 21
457.825412
 31
0.0
1001
ACAD
1000
ASC_BOUNDS
1002
{
1070
    19
1005
0
1002
}
  0
LINE
  5
6CB
100
AcDbEntity
  8
FOOT-A
100
AcDbLine
 10
409.304013
 20
447.825432
 30
0.0
 11
468.660874
 21
447.825432
 31
0.0
  0
LINE
  5
6CC
100
AcDbEntity
  8
FOOT-A
100
AcDbLine
 10
407.716513
 20
457.063412
 30
0.0
 11
464.435804
 21
457.063412
 31
0.0
1001
ACAD
1000
ASC_BOUNDS
1002
{
1070
    19
1005
0
1002
}
  0
CIRCLE
  5
6CD
100
AcDbEntity
  8
FOOT-A
100
AcDbCircle
 10
426.765276
 20
452.444422
 30
0.0
 40
1.19126
  0
LINE
  5
6CE
100
AcDbEntity
  8
CENTER
100
AcDbLine
 10
423.755322
 20
452.444422
 30
0.0
 11
430.237102
 21
452.444422
 31
0.0
  0
LINE
  5
6CF
100
AcDbEntity
  8
FOOT-A
100
AcDbLine
 10
407.716513
 20
457.825412
 30
0.0
 11
407.716513
 21
449.412932
 31
0.0
1001
ACAD
1000
ASC_BOUNDS
1002
{
1070
    19
1005
0
1002
}
  0
ARC
  5
6D0
100
AcDbEntity
  8
FOOT-A
100
AcDbCircle
 10
409.304013
 20
449.412932
 30
0.0
 40
1.5875
100
AcDbArc
 50
180.0
 51
270.0
1001
ACAD
1000
ASC_BOUNDS
1002
{
1070
    19
1005
0
1002
}
  0
LINE
  5
6D1
100
AcDbEntity
  8
CENTER
100
AcDbLine
 10
426.765276
 20
455.445367
 30
0.0
 11
426.765276
 21
448.977762
 31
0.0
  0
LINE
  5
6D2
100
AcDbEntity
  8
FOOT-A
100
AcDbLine
 10
468.660874
 20
447.825432
 30
0.0
 11
475.484045
 21
444.348853
 31
0.0
1001
ACAD
1000
ASC_BOUNDS
1002
{
1070
    19
1002
}
  0
LINE
  5
6D3
100
AcDbEntity
  8
FOOT-A
100
AcDbLine
 10
464.618744
 20
457.825412
 30
0.0
 11
480.110482
 21
449.931977
 31
0.0
1001
ACAD
1000
ASC_BOUNDS
1002
{
1070
    19
1005
0
1002
}
  0
LINE
  5
6D4
100
AcDbEntity
  8
FOOT-A
100
AcDbLine
 10
464.435804
 20
457.063412
 30
0.0
 11
479.764541
 21
449.25303
 31
0.0
1001
ACAD
1000
ASC_BOUNDS
1002
{
1070
    19
1005
0
1002
}
  0
CIRCLE
  5
6D5
100
AcDbEntity
  8
FOOT-A
100
AcDbCircle
 10
470.581988
 20
450.389175
 30
0.0
 40
1.19126
  0
LINE
  5
6D6
100
AcDbEntity
  8
FOOT-A
100
AcDbLine
 10
480.110482
 20
449.931977
 30
0.0
 11
477.619228
 21
445.042616
 31
0.0
1001
ACAD
1000
ASC_BOUNDS
1002
{
1070
    19
1005
0
1002
}
  0
ARC
  5
6D7
100
AcDbEntity
  8
FOOT-A
100
AcDbCircle
 10
476.204755
 20
445.763326
 30
0.0
 40
1.5875
100
AcDbArc
 50
243.0
 51
333.0
1001
ACAD
1000
ASC_BOUNDS
1002
{
1070
    19
1002
}
  0
DIMENSION
  5
6F9
100
AcDbEntity
  8
DIM
100
AcDbDimension
  2
*D11
 10
407.716513
 20
67.664412
 30
0.0
 11
368.092513
 21
67.664412
 31
0.0
 12
105.357677
 22
0.0
 32
0.0
 70
    32
  3
SU1
100
AcDbAlignedDimension
 13
470.581988
 23
40.231053
 33
0.0
 14
407.716513
 24
102.174626
 34
0.0
100
AcDbRotatedDimension
1001
ACAD
1000
DSTYLE
1002
{
1070
    47
1040
0.03
1070
    48
1040
0.03
1070
   272
1070
     2
1070
    75
1070
     1
1070
    40
1040
25.4
1070
     3
1000
mm
1070
   271
1070
     2
1070
     4
1000
"
1070
   274
1070
     3
1070
   143
1040
0.03937
1070
   171
1070
     3
1070
   170
1070
     1
1002
}
  0
DIMENSION
  5
711
100
AcDbEntity
  8
DIM
100
AcDbDimension
  2
*D12
 10
426.765276
 20
56.307016
 30
0.0
 11
362.376276
 21
56.307016
 31
0.0
 12
105.357677
 22
0.0
 32
0.0
 70
    32
  3
SU1
100
AcDbAlignedDimension
 13
470.581988
 23
40.231053
 33
0.0
 14
426.765276
 24
104.554671
 34
0.0
100
AcDbRotatedDimension
1001
ACAD
1000
DSTYLE
1002
{
1070
    47
1040
0.03
1070
    71
1070
     1
1070
    48
1040
0.03
1070
   272
1070
     2
1070
    75
1070
     1
1070
    40
1040
25.4
1070
     3
1000
mm
1070
   271
1070
     2
1070
     4
1000
"
1070
   274
1070
     3
1070
   143
1040
0.03937
1070
   171
1070
     3
1070
   170
1070
     1
1002
}
  0
DIMENSION
  5
71F
100
AcDbEntity
  8
DIM
100
AcDbDimension
  2
*D13
 10
344.560752
 20
112.174606
 30
0.0
 11
375.040752
 21
121.318606
 31
0.0
 70
    32
  3
SU1
100
AcDbAlignedDimension
 13
75.60452
 23
109.610863
 33
0.0
 14
409.304013
 24
112.174606
 34
0.0
 50
90.0
100
AcDbRotatedDimension
1001
ACAD
1000
DSTYLE
1002
{
1070
    47
1040
0.03
1070
    48
1040
0.03
1070
   272
1070
     2
1070
    75
1070
     1
1070
    40
1040
25.4
1070
     3
1000
mm
1070
   271
1070
     2
1070
     4
1000
"
1070
   274
1070
     3
1070
   143
1040
0.03937
1070
   171
1070
     3
1070
   170
1070
     1
1002
}
  0
DIMENSION
  5
72D
100
AcDbEntity
  8
DIM
100
AcDbDimension
  2
*D14
 10
227.738256
 20
109.610863
 30
0.0
 11
284.126256
 21
118.754863
 31
0.0
 70
    32
  3
SU1
100
AcDbAlignedDimension
 13
423.755322
 23
107.555616
 33
0.0
 14
75.60452
 24
109.610863
 34
0.0
 50
90.0
100
AcDbRotatedDimension
1001
ACAD
1000
DSTYLE
1002
{
1070
    47
1040
0.03
1070
    71
1070
     1
1070
    48
1040
0.03
1070
   272
1070
     2
1070
    76
1070
     1
1070
    40
1040
25.4
1070
     3
1000
mm
1070
   271
1070
     2
1070
     4
1000
"
1070
   274
1070
     3
1070
   143
1040
0.03937
1070
   171
1070
     3
1070
   170
1070
     1
1002
}
  0
DIMENSION
  5
76B
100
AcDbEntity
  8
DIM
100
AcDbDimension
  2
*D15
 10
100.456121
 20
109.610863
 30
0.0
 11
163.854521
 21
118.754863
 31
0.0
 70
    32
  3
SU1
100
AcDbAlignedDimension
 13
407.716513
 23
102.174626
 33
0.0
 14
75.60452
 24
109.610863
 34
0.0
 50
90.0
100
AcDbRotatedDimension
1001
ACAD
1000
DSTYLE
1002
{
1070
    47
1040
0.0
1070
    71
1070
     1
1070
    48
1040
0.05
1070
   272
1070
     2
1070
    76
1070
     1
1070
    40
1040
25.4
1070
     3
1000
mm
1070
   271
1070
     2
1070
     4
1000
"
1070
   274
1070
     3
1070
   143
1040
0.03937
1070
   171
1070
     3
1070
   170
1070
     1
1002
}
  0
DIMENSION
  5
785
100
AcDbEntity
  8
DIM
100
AcDbDimension
  2
*D16
 10
498.556188
 20
73.866324
 30
0.0
 11
531.145643
 21
90.471481
 31
0.0
 70
    32
 51
333.0
  3
SU1
100
AcDbAlignedDimension
 13
502.267565
 23
47.424418
 33
0.0
 14
480.110482
 24
110.068061
 34
0.0
 50
27.0
100
AcDbRotatedDimension
1001
ACAD
1000
DSTYLE
1002
{
1070
    47
1040
0.0
1070
    48
1040
0.05
1070
   272
1070
     2
1070
    75
1070
     1
1070
    40
1040
25.4
1070
     3
1000
mm
1070
   271
1070
     2
1070
     4
1000
"
1070
   274
1070
     3
1070
   143
1040
0.03937
1070
   171
1070
     3
1070
   170
1070
     1
1002
}
  0
DIMENSION
  5
792
100
AcDbEntity
  8
DIM
100
AcDbDimension
  2
*D17
 10
495.770157
 20
60.176299
 30
0.0
 11
528.699085
 21
76.954426
 31
0.0
 70
    32
 51
333.0
  3
SU1
100
AcDbAlignedDimension
 13
464.618744
 23
102.174626
 33
0.0
 14
502.267565
 24
47.424418
 34
0.0
 50
27.0
100
AcDbRotatedDimension
1001
ACAD
1000
DSTYLE
1002
{
1070
    47
1040
0.0
1070
    48
1040
0.05
1070
   272
1070
     2
1070
    76
1070
     1
1070
    40
1040
25.4
1070
     3
1000
mm
1070
   271
1070
     2
1070
     4
1000
"
1070
   274
1070
     3
1070
   143
1040
0.03937
1070
   171
1070
     3
1070
   170
1070
     1
1002
}
  0
DIMENSION
  5
7A0
100
AcDbEntity
  8
DIM
100
AcDbDimension
  2
*D18
 10
549.181135
 20
149.659129
 30
0.0
 11
573.206145
 21
172.163034
 31
0.0
 70
    32
 51
333.0
  3
SU1
100
AcDbAlignedDimension
 13
480.110482
 23
110.068061
 33
0.0
 14
609.411653
 24
180.348111
 34
0.0
 50
117.0
100
AcDbRotatedDimension
1001
ACAD
1000
DSTYLE
1002
{
1070
    47
1040
0.0
1070
    48
1040
0.05
1070
   272
1070
     2
1070
    76
1070
     1
1070
    40
1040
25.4
1070
     3
1000
mm
1070
   271
1070
     2
1070
     4
1000
"
1070
   274
1070
     3
1070
   143
1040
0.03937
1070
   171
1070
     3
1070
   170
1070
     1
1002
}
  0
DIMENSION
  5
7AE
100
AcDbEntity
  8
DIM
100
AcDbDimension
  2
*D19
 10
490.020257
 20
123.057756
 30
0.0
 11
513.366321
 21
145.21572
 31
0.0
 70
    32
 51
333.0
  3
SU1
100
AcDbAlignedDimension
 13
609.411653
 23
180.348111
 33
0.0
 14
475.484045
 24
115.651185
 34
0.0
 50
117.0
100
AcDbRotatedDimension
1001
ACAD
1000
DSTYLE
1002
{
1070
    47
1040
0.0
1070
    48
1040
0.05
1070
   272
1070
     2
1070
    75
1070
     1
1070
    40
1040
25.4
1070
     3
1000
mm
1070
   271
1070
     2
1070
     4
1000
"
1070
   274
1070
     3
1070
   143
1040
0.03937
1070
   171
1070
     3
1070
   170
1070
     1
1002
}
  0
DIMENSION
  5
7D3
100
AcDbEntity
  8
DIM
100
AcDbDimension
  2
*D20
 10
468.660874
 20
129.208511
 30
0.0
 11
432.846874
 21
129.208511
 31
0.0
 70
    32
  3
SU1
100
AcDbAlignedDimension
 13
470.581988
 23
40.231053
 33
0.0
 14
468.660874
 24
112.174606
 34
0.0
100
AcDbRotatedDimension
1001
ACAD
1000
DSTYLE
1002
{
1070
    47
1040
0.0
1070
    48
1040
0.05
1070
   272
1070
     2
1070
    75
1070
     1
1070
    40
1040
25.4
1070
     3
1000
mm
1070
   271
1070
     2
1070
     4
1000
"
1070
   274
1070
     3
1070
   143
1040
0.03937
1070
   171
1070
     3
1070
   170
1070
     1
1002
}
  0
DIMENSION
  5
7E1
100
AcDbEntity
  8
DIM
100
AcDbDimension
  2
*D21
 10
407.545364
 20
233.327203
 30
0.0
 11
439.77167
 21
237.945075
 31
0.0
 70
    34
  3
SU1$2
100
AcDb2LineAngularDimension
 13
470.581988
 23
40.231053
 33
0.0
 14
470.581988
 24
484.277863
 34
0.0
 15
502.267565
 25
47.424418
 35
0.0
 16
431.49122
 26
235.669808
 36
0.0
1001
ACAD
1000
DSTYLE
1002
{
1070
    47
1040
0.0
1070
    48
1040
0.05
1070
   272
1070
     2
1070
    75
1070
     1
1070
    40
1040
25.4
1070
   271
1070
     2
1070
     4
1000
"
1070
   274
1070
     3
1070
   143
1040
0.03937
1070
   171
1070
     3
1070
   170
1070
     1
1002
}
  0
DIMENSION
  5
7EE
100
AcDbEntity
  8
DIM
100
AcDbDimension
  2
*D22
 10
417.418185
 20
213.950701
 30
0.0
 11
363.102428
 21
186.27544
 31
0.0
 70
    32
 51
333.0
  3
SU1
100
AcDbAlignedDimension
 13
430.129491
 23
195.996898
 33
0.0
 14
407.545364
 24
233.327203
 34
0.0
 50
27.0
100
AcDbRotatedDimension
1001
ACAD
1000
DSTYLE
1002
{
1070
    47
1040
0.03
1070
    71
1070
     1
1070
    48
1040
0.03
1070
   272
1070
     2
1070
    76
1070
     1
1070
    40
1040
25.4
1070
     3
1000
mm
1070
   271
1070
     2
1070
     4
1000
"
1070
   274
1070
     3
1070
   143
1040
0.03937
1070
   171
1070
     3
1070
   170
1070
     1
1002
}
  0
DIMENSION
  5
81E
100
AcDbEntity
  8
DIM
100
AcDbDimension
  2
*D23
 10
410.916876
 20
356.825747
 30
0.0
 11
371.292876
 21
356.825747
 31
0.0
 70
    32
  3
SU1
100
AcDbAlignedDimension
 13
470.581988
 23
484.277863
 33
0.0
 14
410.916876
 24
326.615245
 34
0.0
100
AcDbRotatedDimension
1001
ACAD
1000
DSTYLE
1002
{
1070
    47
1040
0.03
1070
    48
1040
0.03
1070
   272
1070
     2
1070
    75
1070
     1
1070
    40
1040
25.4
1070
     3
1000
mm
1070
   271
1070
     2
1070
     4
1000
"
1070
   274
1070
     3
1070
   143
1040
0.03937
1070
   171
1070
     3
1070
   170
1070
     1
1002
}
  0
DIMENSION
  5
82B
100
AcDbEntity
  8
DIM
100
AcDbDimension
  2
*D24
 10
412.576953
 20
366.758083
 30
0.0
 11
348.568953
 21
366.758083
 31
0.0
 70
    32
  3
SU1
100
AcDbAlignedDimension
 13
470.581988
 23
484.277863
 33
0.0
 14
412.576953
 24
318.203996
 34
0.0
100
AcDbRotatedDimension
1001
ACAD
1000
DSTYLE
1002
{
1070
    47
1040
0.03
1070
    71
1070
     1
1070
    48
1040
0.03
1070
   272
1070
     2
1070
    75
1070
     1
1070
    40
1040
25.4
1070
     3
1000
mm
1070
   271
1070
     2
1070
     4
1000
"
1070
   274
1070
     3
1070
   143
1040
0.03937
1070
   171
1070
     3
1070
   170
1070
     1
1002
}
  0
DIMENSION
  5
838
100
AcDbEntity
  8
DIM
100
AcDbDimension
  2
*D25
 10
415.387276
 20
377.541764
 30
0.0
 11
377.287276
 21
377.541764
 31
0.0
 70
    32
  3
SU1
100
AcDbAlignedDimension
 13
470.581988
 23
484.277863
 33
0.0
 14
415.387276
 24
326.615245
 34
0.0
100
AcDbRotatedDimension
1001
ACAD
1000
DSTYLE
1002
{
1070
    47
1040
0.03
1070
    48
1040
0.03
1070
   272
1070
     2
1070
    75
1070
     1
1070
    40
1040
25.4
1070
     3
1000
mm
1070
   271
1070
     2
1070
     4
1000
"
1070
   274
1070
     3
1070
   143
1040
0.03937
1070
   171
1070
     3
1070
   170
1070
     1
1002
}
  0
DIMENSION
  5
845
100
AcDbEntity
  8
DIM
100
AcDbDimension
  2
*D26
 10
417.5922
 20
387.39212
 30
0.0
 11
378.3492
 21
387.39212
 31
0.0
 70
    32
  3
SU1
100
AcDbAlignedDimension
 13
470.581988
 23
484.277863
 33
0.0
 14
417.5922
 24
322.840805
 34
0.0
100
AcDbRotatedDimension
1001
ACAD
1000
DSTYLE
1002
{
1070
    47
1040
0.03
1070
    48
1040
0.03
1070
   272
1070
     2
1070
    75
1070
     1
1070
    40
1040
25.4
1070
     3
1000
mm
1070
   271
1070
     2
1070
     4
1000
"
1070
   274
1070
     3
1070
   143
1040
0.03937
1070
   171
1070
     3
1070
   170
1070
     1
1002
}
  0
DIMENSION
  5
852
100
AcDbEntity
  8
DIM
100
AcDbDimension
  2
*D27
 10
421.09232
 20
397.34026
 30
0.0
 11
382.23032
 21
397.34026
 31
0.0
 70
    32
  3
SU1
100
AcDbAlignedDimension
 13
470.581988
 23
484.277863
 33
0.0
 14
421.09232
 24
322.840805
 34
0.0
100
AcDbRotatedDimension
1001
ACAD
1000
DSTYLE
1002
{
1070
    47
1040
0.03
1070
    48
1040
0.03
1070
   272
1070
     2
1070
    75
1070
     1
1070
    40
1040
25.4
1070
     3
1000
mm
1070
   271
1070
     2
1070
     4
1000
"
1070
   274
1070
     3
1070
   143
1040
0.03937
1070
   171
1070
     3
1070
   170
1070
     1
1002
}
  0
DIMENSION
  5
85F
100
AcDbEntity
  8
DIM
100
AcDbDimension
  2
*D28
 10
448.991505
 20
407.976954
 30
0.0
 11
410.891505
 21
407.976954
 31
0.0
 70
    32
  3
SU1
100
AcDbAlignedDimension
 13
470.581988
 23
484.277863
 33
0.0
 14
448.991505
 24
318.486571
 34
0.0
100
AcDbRotatedDimension
1001
ACAD
1000
DSTYLE
1002
{
1070
    47
1040
0.03
1070
    48
1040
0.03
1070
   272
1070
     2
1070
    75
1070
     1
1070
    40
1040
25.4
1070
     3
1000
mm
1070
   271
1070
     2
1070
     4
1000
"
1070
   274
1070
     3
1070
   143
1040
0.03937
1070
   171
1070
     3
1070
   170
1070
     1
1002
}
  0
DIMENSION
  5
8BB
100
AcDbEntity
  8
DIM
100
AcDbDimension
  2
*D29
 10
323.209472
 20
327.551743
 30
0.0
 11
354.832472
 21
336.695743
 31
0.0
 70
    32
  3
SU1
100
AcDbAlignedDimension
 13
406.141676
 23
321.840045
 33
0.0
 14
407.716513
 24
327.551743
 34
0.0
 50
90.0
100
AcDbRotatedDimension
1001
ACAD
1000
DSTYLE
1002
{
1070
    47
1040
0.03
1070
    48
1040
0.03
1070
   272
1070
     2
1070
    40
1040
25.4
1070
     3
1000
mm
1070
   271
1070
     2
1070
     4
1000
"
1070
   274
1070
     3
1070
   143
1040
0.03937
1070
   171
1070
     3
1070
   170
1070
     1
1002
}
  0
DIMENSION
  5
8CA
100
AcDbEntity
  8
DIM
100
AcDbDimension
  2
*D30
 10
202.7947
 20
327.551743
 30
0.0
 11
261.0877
 21
336.695743
 31
0.0
 70
    32
  3
SU1
100
AcDbAlignedDimension
 13
408.211328
 23
313.838371
 33
0.0
 14
407.716513
 24
327.551743
 34
0.0
 50
90.0
100
AcDbRotatedDimension
1001
ACAD
1000
DSTYLE
1002
{
1070
    47
1040
0.03
1070
    71
1070
     1
1070
    48
1040
0.03
1070
   272
1070
     2
1070
    40
1040
25.4
1070
     3
1000
mm
1070
   271
1070
     2
1070
     4
1000
"
1070
   274
1070
     3
1070
   143
1040
0.03937
1070
   171
1070
     3
1070
   170
1070
     1
1002
}
  0
DIMENSION
  5
8D8
100
AcDbEntity
  8
DIM
100
AcDbDimension
  2
*D31
 10
157.485735
 20
327.551743
 30
0.0
 11
191.394735
 21
336.695743
 31
0.0
 70
    32
  3
SU1
100
AcDbAlignedDimension
 13
406.141676
 23
305.836698
 33
0.0
 14
407.716513
 24
327.551743
 34
0.0
 50
90.0
100
AcDbRotatedDimension
1001
ACAD
1000
DSTYLE
1002
{
1070
    47
1040
0.03
1070
    48
1040
0.03
1070
   272
1070
     2
1070
    40
1040
25.4
1070
     3
1000
mm
1070
   271
1070
     2
1070
     4
1000
"
1070
   274
1070
     3
1070
   143
1040
0.03937
1070
   171
1070
     3
1070
   170
1070
     1
1002
}
  0
DIMENSION
  5
8E6
100
AcDbEntity
  8
DIM
100
AcDbDimension
  2
*D32
 10
64.132302
 20
327.551743
 30
0.0
 11
64.132302
 21
313.838371
 31
0.0
 70
    32
  3
SU1
100
AcDbAlignedDimension
 13
407.716513
 23
300.125
 33
0.0
 14
407.716513
 24
327.551743
 34
0.0
 50
90.0
100
AcDbRotatedDimension
1001
ACAD
1000
DSTYLE
1002
{
1070
    47
1040
0.03
1070
    71
1070
     1
1070
    48
1040
0.03
1070
   272
1070
     2
1070
    40
1040
25.4
1070
     3
1000
mm
1070
   271
1070
     2
1070
     4
1000
"
1070
   274
1070
     3
1070
   143
1040
0.03937
1070
   171
1070
     3
1070
   170
1070
     1
1002
}
  0
DIMENSION
  5
8F5
100
AcDbEntity
  8
DIM
100
AcDbDimension
  2
*D33
 10
502.84388
 20
327.551743
 30
0.0
 11
533.70488
 21
336.695743
 31
0.0
 70
    32
  3
SU1
100
AcDbAlignedDimension
 13
420.59194
 23
323.341185
 33
0.0
 14
480.110482
 24
327.551743
 34
0.0
 50
90.0
100
AcDbRotatedDimension
1001
ACAD
1000
DSTYLE
1002
{
1070
    47
1040
0.03
1070
    48
1040
0.03
1070
   272
1070
     2
1070
    40
1040
25.4
1070
     3
1000
mm
1070
   271
1070
     2
1070
     4
1000
"
1070
   274
1070
     3
1070
   143
1040
0.03937
1070
   171
1070
     3
1070
   170
1070
     1
1002
}
  0
DIMENSION
  5
904
100
AcDbEntity
  8
DIM
100
AcDbDimension
  2
*D34
 10
567.204717
 20
327.551743
 30
0.0
 11
598.827717
 21
336.695743
 31
0.0
 70
    32
  3
SU1
100
AcDbAlignedDimension
 13
420.59194
 23
320.338905
 33
0.0
 14
480.110482
 24
327.551743
 34
0.0
 50
90.0
100
AcDbRotatedDimension
1001
ACAD
1000
DSTYLE
1002
{
1070
    47
1040
0.03
1070
    48
1040
0.03
1070
   272
1070
     2
1070
    40
1040
25.4
1070
     3
1000
mm
1070
   271
1070
     2
1070
     4
1000
"
1070
   274
1070
     3
1070
   143
1040
0.03937
1070
   171
1070
     3
1070
   170
1070
     1
1002
}
  0
DIMENSION
  5
913
100
AcDbEntity
  8
DIM
100
AcDbDimension
  2
*D35
 10
631.3951
 20
327.551743
 30
0.0
 11
664.9231
 21
336.695743
 31
0.0
 70
    32
  3
SU1
100
AcDbAlignedDimension
 13
420.59194
 23
307.337838
 33
0.0
 14
480.110482
 24
327.551743
 34
0.0
 50
90.0
100
AcDbRotatedDimension
1001
ACAD
1000
DSTYLE
1002
{
1070
    47
1040
0.03
1070
    48
1040
0.03
1070
   272
1070
     2
1070
    40
1040
25.4
1070
     3
1000
mm
1070
   271
1070
     2
1070
     4
1000
"
1070
   274
1070
     3
1070
   143
1040
0.03937
1070
   171
1070
     3
1070
   170
1070
     1
1002
}
  0
DIMENSION
  5
921
100
AcDbEntity
  8
DIM
100
AcDbDimension
  2
*D36
 10
723.025496
 20
327.551743
 30
0.0
 11
723.025496
 21
315.94365
 31
0.0
 70
    32
  3
SU1
100
AcDbAlignedDimension
 13
420.59194
 23
304.335558
 33
0.0
 14
480.110482
 24
327.551743
 34
0.0
 50
90.0
100
AcDbRotatedDimension
1001
ACAD
1000
DSTYLE
1002
{
1070
    47
1040
0.03
1070
    48
1040
0.03
1070
   272
1070
     2
1070
    40
1040
25.4
1070
     3
1000
mm
1070
   271
1070
     2
1070
     4
1000
"
1070
   274
1070
     3
1070
   143
1040
0.03937
1070
   171
1070
     3
1070
   170
1070
     1
1002
}
  0
INSERT
  5
978
100
AcDbEntity
  8
HATCH
100
AcDbBlockReference
  2
*X37
 10
0.0
 20
0.0
 30
0.0
1001
ACAD
1000
HATCH
1002
{
1070
    19
1000
ANSI31
1040
10.0
1040
0.0
1000
ASC_BOUNDS
1070
     1
1070
     1
1070
     6
1005
623
1005
621
1005
619
1005
61A
1005
620
1005
622
1000
ASC_SEEDPOINT
1011
474.82778
1021
107.815243
1031
0.0
1002
}
  0
DIMENSION
  5
9B2
100
AcDbEntity
  8
DIM
100
AcDbDimension
  2
*D38
 10
603.826531
 20
300.125
 30
0.0
 11
547.057531
 21
290.981
 31
0.0
 70
    32
  1
{<>}\P{WALL THICKNESS}
  3
SU1
100
AcDbAlignedDimension
 13
479.764541
 23
300.887
 33
0.0
 14
480.110482
 24
300.125
 34
0.0
 50
90.0
100
AcDbRotatedDimension
1001
ACAD
1000
DSTYLE
1002
{
1070
    47
1040
0.03
1070
    71
1070
     1
1070
    48
1040
0.03
1070
   272
1070
     2
1070
    40
1040
25.4
1070
     3
1000
mm
1070
   271
1070
     2
1070
     4
1000
"
1070
   274
1070
     3
1070
   143
1040
0.03937
1070
   171
1070
     3
1070
   170
1070
     1
1002
}
  0
LEADER
  5
A39
100
AcDbEntity
  8
TEXT
100
AcDbLeader
  3
SU1$7
 76
     3
 10
395.294497
 20
341.355057
 30
0.0
 10
395.294497
 20
316.257008
 30
0.0
 10
404.588601
 20
316.257008
 30
0.0
 77
   256
1001
ACAD
1000
DSTYLE
1002
{
1070
    47
1040
0.03
1070
    71
1070
     1
1070
    48
1040
0.03
1070
   272
1070
     2
1070
    40
1040
25.4
1070
     3
1000
mm
1070
   271
1070
     2
1070
     4
1000
"
1070
   274
1070
     3
1070
   143
1040
0.03937
1070
   171
1070
     3
1070
   170
1070
     1
1002
}
  0
TEXT
  5
A3A
100
AcDbEntity
  8
TEXT
100
AcDbText
 10
393.337844
 20
343.147774
 30
0.0
 40
6.0
  1
A
100
AcDbText
  0
LEADER
  5
A3B
100
AcDbEntity
  8
TEXT
100
AcDbLeader
  3
SU1$7
 76
     3
 10
492.532497
 20
341.355057
 30
0.0
 10
492.532497
 20
316.257008
 30
0.0
 10
483.238394
 20
316.257008
 30
0.0
 77
   256
211
-1.0
221
0.0
231
0.0
1001
ACAD
1000
DSTYLE
1002
{
1070
    47
1040
0.03
1070
    71
1070
     1
1070
    48
1040
0.03
1070
   272
1070
     2
1070
    40
1040
25.4
1070
     3
1000
mm
1070
   271
1070
     2
1070
     4
1000
"
1070
   274
1070
     3
1070
   143
1040
0.03937
1070
   171
1070
     3
1070
   170
1070
     1
1002
}
  0
TEXT
  5
A3C
100
AcDbEntity
  8
TEXT
100
AcDbText
 10
494.489151
 20
343.147774
 30
0.0
 40
6.0
  1
A
 71
     2
100
AcDbText
  0
ENDSEC
  0
SECTION
  2
OBJECTS
  0
DICTIONARY
  5
C
100
AcDbDictionary
  3
ACAD_GROUP
350
D
  3
ACAD_MLINESTYLE
350
E
  3
ACASAPPOBJECT
350
7B
  3
ACASGREF_MASTER
350
2D
  3
ACCELVIEW
350
86
  3
ACDMSYSVARMGR
350
49
  3
ACGREF_MASTER
350
2B
  3
ACME_COMMAND_HISTORY
350
29
  3
ACME_SCOPE_NAME
350
28
  3
AD_APPL
350
3C
  3
AD_DRAWMGR_NAME
350
5E
  3
AD_GREF_MODULE
350
44
  3
AD_HOLENOTE_REPOSITORY
350
43
  3
ADSYSVARMGR
350
32
  3
AMI_MASTER
350
2C
  3
AUTOCAD_ASSEMBLIES_PROJECT
350
6A
  3
DESIGNER_ASSEMBLIES_SYSVARS
350
65
  0
DICTIONARY
  5
D
102
{ACAD_REACTORS
330
C
102
}
100
AcDbDictionary
  0
DICTIONARY
  5
E
102
{ACAD_REACTORS
330
C
102
}
100
AcDbDictionary
  3
STANDARD
350
13
  0
ACAD_ZOMBIE_OBJECT
  5
7B
102
{ACAD_REACTORS
330
C
102
}
100
AcDbZombieObject
 90
      499
 91
      536
 93
        2
310
90
360
79
 94
        0
  0
ACAD_ZOMBIE_OBJECT
  5
2D
102
{ACAD_REACTORS
330
C
102
}
100
AcDbZombieObject
 90
      499
 91
      505
 93
       34
310
0100004076
 94
        0
  0
ACAD_ZOMBIE_OBJECT
  5
86
102
{ACAD_REACTORS
330
C
102
}
100
AcDbZombieObject
 90
      499
 91
      537
 93
       12
310
9014
330
3D
 94
        0
  0
ACAD_ZOMBIE_OBJECT
  5
49
102
{ACAD_REACTORS
330
C
102
}
100
AcDbZombieObject
 90
      499
 91
      510
 93
      176
310
4C5114810100000000000000000000000000000000004F
330
4A
330
4B
330
4C
330
4D
330
4E
330
50
330
52
330
53
330
54
330
55
330
56
330
57
330
58
330
59
330
5A
330
5B
330
5D
 94
        0
  0
ACAD_ZOMBIE_OBJECT
  5
2B
102
{ACAD_REACTORS
330
C
102
}
100
AcDbZombieObject
 90
      499
 91
      503
 93
      114
310
01000040C000000000000000000020
 94
        0
  0
ACAD_ZOMBIE_OBJECT
  5
29
102
{ACAD_REACTORS
330
C
102
}
100
AcDbZombieObject
 90
      499
 91
      501
 93
     3940
310
478050444494D3140405084E202D205341564501411112534C501014293880B4814D1551590548050444494D31404050A4E202D2053455456415201411112534C501014293880B4814D1551590548050444494D31404050A4E202D2053455456415201411112534C501014293880B4814D1551590548050444494D31404050
310
A4E202D2053455456415201411112534C501014213880B4814D055914050444494D31404050A4E202D2053455456415201411112534C501014293880B4814D1551590548050444494D31404050A4E202D2053455456415201411112534C501014293880B4814D1551590548050444494D31404050A4E202D20534554564152
310
01411112534C501014293880B4814D1551590548050444494D3140405084E202D205341564501411112534C5010142D3880B48149154D513D49140504554E444F80504554E444F805034E455780508554E444546494E4580508554E444546494E458050A4D454E55554E4C4F4144805084D454E554C4F41448050C41445F43
310
4F4E56455254523140805084E202D20554E444F014213880B4815539113C050C414D4C54595045434845434B40C05084E202D20554E444F014253880B481310565154805084E202D20554E444F01415310565154A01415310565154A014115539113E014115539113E014113D41153A0
 94
        0
  0
ACAD_ZOMBIE_OBJECT
  5
28
102
{ACAD_REACTORS
330
C
102
}
100
AcDbZombieObject
 90
      499
 91
      500
 93
      456
310
0101004093100000000000000000000000000000000000000000000000000000000000000000000000000000000000000000000000000901000F
360
2E
360
2F
360
30
360
31
360
33
360
34
360
35
360
36
360
37
360
38
360
39
360
3A
360
3B
360
3E
360
3F
360
40
360
41
360
42
360
45
360
46
360
47
360
48
360
4A
360
4B
360
4C
360
4D
360
4E
360
50
360
52
360
53
360
54
360
55
360
56
360
57
360
58
360
59
360
5A
360
5B
360
5D
360
66
360
67
360
68
360
69
360
6E
360
6F
360
70
360
71
360
72
360
76
330
3D
 94
        0
  0
ACAD_ZOMBIE_OBJECT
  5
3C
102
{ACAD_REACTORS
330
C
102
}
100
AcDbZombieObject
 90
      499
 91
      514
 93
       42
310
000100004340
330
2E
 94
        0
  0
ACAD_ZOMBIE_OBJECT
  5
5E
102
{ACAD_REACTORS
330
C
102
}
100
AcDbZombieObject
 90
      499
 91
      526
 93
       42
310
00010000443F
330
45
 94
        0
  0
ACAD_ZOMBIE_OBJECT
  5
44
102
{ACAD_REACTORS
330
C
102
}
100
AcDbZombieObject
 90
      499
 91
      521
 93
      114
310
000000428000000000000000000009
 94
        0
  0
ACAD_ZOMBIE_OBJECT
  5
43
102
{ACAD_REACTORS
330
C
102
}
100
AcDbZombieObject
 90
      499
 91
      520
 93
        8
310
0018
330
42
 94
        0
  0
ACAD_ZOMBIE_OBJECT
  5
32
102
{ACAD_REACTORS
330
C
102
}
100
AcDbZombieObject
 90
      499
 91
      510
 93
      104
310
9094410100000000000000000000
330
33
330
34
330
35
330
36
330
37
330
38
330
39
330
3A
330
3B
 94
        0
  0
ACAD_ZOMBIE_OBJECT
  5
2C
102
{ACAD_REACTORS
330
C
102
}
100
AcDbZombieObject
 90
      499
 91
      504
 93
       34
310
0100004040
 94
        0
  0
ACAD_ZOMBIE_OBJECT
  5
6A
102
{ACAD_REACTORS
330
C
102
}
100
AcDbZombieObject
 90
      499
 91
      527
 93
       58
310
0100004180000002
330
70
330
76
330
71
 94
        0
  0
ACAD_ZOMBIE_OBJECT
  5
65
102
{ACAD_REACTORS
330
C
102
}
100
AcDbZombieObject
 90
      499
 91
      510
 93
       64
310
904441010000000061
330
66
330
67
330
68
330
69
 94
        0
  0
MLINESTYLE
  5
13
102
{ACAD_REACTORS
330
E
102
}
100
AcDbMlineStyle
  2
STANDARD
 70
     0
  3

 62
     0
 51
90.0
 52
90.0
 71
     2
 49
0.5
 62
   256
  6
BYLAYER
 49
-0.5
 62
   256
  6
BYLAYER
  0
ACAD_ZOMBIE_OBJECT
  5
79
100
AcDbZombieObject
 90
      499
 91
      534
 93
      720
310
9064D2E312E313607014B7269BC41100000000000000E03F1EC52B91F85EA10FE1EC52B91F85EA10FD034153471EC52B91F85EA10FC000000FC83D797414650540C000000000000E03F3F2A7C749358940FC000000FC83D797414F
 94
        0
  0
ACAD_ZOMBIE_OBJECT
  5
2E
100
AcDbZombieObject
 90
      499
 91
      506
 93
      280
310
000000000000014119185D1940506462E312E3136014119185D1940506462E312E313600
330
28
330
2F
330
30
330
32
330
3D
 94
        0
  0
ACAD_ZOMBIE_OBJECT
  5
2F
100
AcDbZombieObject
 90
      499
 91
      507
 93
      120
310
00009024410100000092080002A6A600
330
28
330
3F
330
3E
330
0
 94
        0
  0
ACAD_ZOMBIE_OBJECT
  5
30
100
AcDbZombieObject
 90
      499
 91
      508
 93
       46
310
000000009208
330
28
330
0
330
31
 94
        0
  0
ACAD_ZOMBIE_OBJECT
  5
31
100
AcDbZombieObject
 90
      499
 91
      509
 93
       22
310
0000A8
330
28
 94
        0
  0
ACAD_ZOMBIE_OBJECT
  5
33
100
AcDbZombieObject
 90
      499
 91
      511
 93
      124
310
00000142905350D3D39114D414D69050
330
28
 94
        0
  0
ACAD_ZOMBIE_OBJECT
  5
34
100
AcDbZombieObject
 90
      499
 91
      511
 93
      124
310
000001429053549553115353D1115010
330
28
 94
        0
  0
ACAD_ZOMBIE_OBJECT
  5
35
100
AcDbZombieObject
 90
      499
 91
      511
 93
      108
310
00000142105354D2D353D1115010
330
28
 94
        0
  0
ACAD_ZOMBIE_OBJECT
  5
36
100
AcDbZombieObject
 90
      499
 91
      511
 93
      140
310
000001435053511253511254D41353D11160
330
28
 94
        0
  0
ACAD_ZOMBIE_OBJECT
  5
37
100
AcDbZombieObject
 90
      499
 91
      512
 93
      180
310
00000142905354D2D05391D513D3000000000000010400
330
28
 94
        0
  0
ACAD_ZOMBIE_OBJECT
  5
38
100
AcDbZombieObject
 90
      499
 91
      513
 93
      164
310
00000142505354D2D4D516531140505434F4E542A0
330
28
 94
        0
  0
ACAD_ZOMBIE_OBJECT
  5
39
100
AcDbZombieObject
 90
      499
 91
      511
 93
      108
310
00000142105350D3511112535010
330
28
 94
        0
  0
ACAD_ZOMBIE_OBJECT
  5
3A
100
AcDbZombieObject
 90
      499
 91
      513
 93
      116
310
000001425053541054919253114060
330
28
 94
        0
  0
ACAD_ZOMBIE_OBJECT
  5
3B
100
AcDbZombieObject
 90
      499
 91
      511
 93
      100
310
00000142105350D3D35414D5A0
330
28
 94
        0
  0
ACAD_ZOMBIE_OBJECT
  5
3E
100
AcDbZombieObject
 90
      499
 91
      516
 93
      164
310
000092090148200A00000440000FFFFFFFF0000000
330
28
330
3F
330
2F
330
3D
 94
        0
  0
ACAD_ZOMBIE_OBJECT
  5
3F
100
AcDbZombieObject
 90
      499
 91
      517
 93
       82
310
000040520802482A800000
330
28
330
3E
330
2F
330
3D
 94
        0
  0
ACAD_ZOMBIE_OBJECT
  5
40
100
AcDbZombieObject
 90
      499
 91
      509
 93
       22
310
0000A8
330
28
 94
        0
  0
ACAD_ZOMBIE_OBJECT
  5
41
100
AcDbZombieObject
 90
      499
 91
      518
 93
       38
310
000000920B
330
28
330
0
 94
        0
  0
ACAD_ZOMBIE_OBJECT
  5
42
100
AcDbZombieObject
 90
      499
 91
      519
 93
     3196
310
0000419208050A544852555F4452494C4C0142D09312539117D1149253130050A544852555F43424F52450142D09312539117D0D093D4914050A544852555F4353494E4B0142D09312539117D0D4D25392D0648201459EC94958C8094950535112504815121493D551D20B9F4051C7B252563202525414D444941205820252
310
5414D44455020444545507D014F5EC94958C8094950535112504815121493D551D20B9F57141ED0D093D49148094958C80949505350D112504816080949505350D091115408111151541F405437B252563202525414D4449412058202525414D44455020444545507D5C507B43424F524520252563202525414D4344494120
310
58202525414D434244455020444545507D014EDEC94958C8094950535112504815121493D551D20B9F57141ED0D4D25392C8094958C80949505350D112504816080949505350D4D05391C949591F405417B252563202525414D4449412058202525414D44455020444545507D5C507B4353494E4B20252563202525414D434
310
449412058202525414D4353414E472525647D4
330
28
 94
        0
  0
ACAD_ZOMBIE_OBJECT
  5
45
100
AcDbZombieObject
 90
      499
 91
      522
 93
      308
310
0000014119185D1940507442E312E313663014119185D1940507442E312E313663405010000004
330
28
330
46
330
48
330
49
 94
        0
  0
ACAD_ZOMBIE_OBJECT
  5
46
100
AcDbZombieObject
 90
      499
 91
      523
 93
       56
310
0000901441010000
330
28
330
47
 94
        0
  0
ACAD_ZOMBIE_OBJECT
  5
47
100
AcDbZombieObject
 90
      499
 91
      524
 93
       40
310
0000A4410154
330
28
 94
        0
  0
ACAD_ZOMBIE_OBJECT
  5
48
100
AcDbZombieObject
 90
      499
 91
      525
 93
       68
310
0000A44101920A4820
330
28
 94
        0
  0
ACAD_ZOMBIE_OBJECT
  5
4A
100
AcDbZombieObject
 90
      499
 91
      511
 93
      108
310
000001421053521310D05310D010
330
28
 94
        0
  0
ACAD_ZOMBIE_OBJECT
  5
4B
100
AcDbZombieObject
 90
      499
 91
      511
 93
      124
310
000001429053541493D2951654115013
330
28
 94
        0
  0
ACAD_ZOMBIE_OBJECT
  5
4C
100
AcDbZombieObject
 90
      499
 91
      511
 93
      124
310
00000142905354915554D15112535010
330
28
 94
        0
  0
ACAD_ZOMBIE_OBJECT
  5
4D
100
AcDbZombieObject
 90
      499
 91
      511
 93
      132
310
00000143105354D150D51253D391125366
330
28
 94
        0
  0
ACAD_ZOMBIE_OBJECT
  5
4E
100
AcDbZombieObject
 90
      499
 91
      511
 93
      124
310
00000142905355941093D49111549010
330
28
 94
        0
  0
ACAD_ZOMBIE_OBJECT
  5
50
100
AcDbZombieObject
 90
      499
 91
      513
 93
      180
310
00000142905352125113151654114050648494444454E1
330
28
 94
        0
  0
ACAD_ZOMBIE_OBJECT
  5
52
100
AcDbZombieObject
 90
      499
 91
      513
 93
      196
310
00000142905354D150D315165411405085048414E544F4D320
330
28
 94
        0
  0
ACAD_ZOMBIE_OBJECT
  5
53
100
AcDbZombieObject
 90
      499
 91
      511
 93
      108
310
00000142105354D51114D0D51021
330
28
 94
        0
  0
ACAD_ZOMBIE_OBJECT
  5
54
100
AcDbZombieObject
 90
      499
 91
      511
 93
      108
310
00000142105354D5111510541021
330
28
 94
        0
  0
ACAD_ZOMBIE_OBJECT
  5
55
100
AcDbZombieObject
 90
      499
 91
      511
 93
      108
310
00000142105354D5111115131021
330
28
 94
        0
  0
ACAD_ZOMBIE_OBJECT
  5
56
100
AcDbZombieObject
 90
      499
 91
      512
 93
      148
310
00000141905350D310D34295C8FC2F528BC3F4
330
28
 94
        0
  0
ACAD_ZOMBIE_OBJECT
  5
57
100
AcDbZombieObject
 90
      499
 91
      512
 93
      156
310
00000141D05350D311D05402B8716D9CEF7C33F4
330
28
 94
        0
  0
ACAD_ZOMBIE_OBJECT
  5
58
100
AcDbZombieObject
 90
      499
 91
      512
 93
      164
310
00000142105350D313D4D2150295C8FC2F528BC3F0
330
28
 94
        0
  0
ACAD_ZOMBIE_OBJECT
  5
59
100
AcDbZombieObject
 90
      499
 91
      511
 93
      100
310
00000141D05350D31410549018
330
28
 94
        0
  0
ACAD_ZOMBIE_OBJECT
  5
5A
100
AcDbZombieObject
 90
      499
 91
      511
 93
      100
310
0000014210535590539254D222
330
28
 94
        0
  0
ACAD_ZOMBIE_OBJECT
  5
5B
100
AcDbZombieObject
 90
      499
 91
      512
 93
      188
310
00000142D0535312539155121250D2C295C8FC2F5289C3F4
330
28
 94
        0
  0
ACAD_ZOMBIE_OBJECT
  5
5D
100
AcDbZombieObject
 90
      499
 91
      513
 93
      164
310
00000142105350D3151654114050643454E5445520
330
28
 94
        0
  0
ACAD_ZOMBIE_OBJECT
  5
66
100
AcDbZombieObject
 90
      499
 91
      511
 93
      132
310
00000142D05050555513D4D3D315915018
330
28
 94
        0
  0
ACAD_ZOMBIE_OBJECT
  5
67
100
AcDbZombieObject
 90
      499
 91
      511
 93
      156
310
00000143905050555513D054D4D1535093115010
330
28
 94
        0
  0
ACAD_ZOMBIE_OBJECT
  5
68
100
AcDbZombieObject
 90
      499
 91
      511
 93
      148
310
00000143505055925155D49154D513D4915019
330
28
 94
        0
  0
ACAD_ZOMBIE_OBJECT
  5
69
100
AcDbZombieObject
 90
      499
 91
      511
 93
      124
310
00000142D050525394D15495105094E0
330
28
 94
        0
  0
ACAD_ZOMBIE_OBJECT
  5
6E
100
AcDbZombieObject
 90
      499
 91
      528
 93
       32
310
0000000049
330
28
340
6B
330
6F
330
6B
 94
        0
  0
ACAD_ZOMBIE_OBJECT
  5
6F
100
AcDbZombieObject
 90
      499
 91
      529
 93
      111
310
000001411050D05110400522080D
330
28
330
6E
 94
        0
  0
ACAD_ZOMBIE_OBJECT
  5
70
100
AcDbZombieObject
 90
      499
 91
      530
 93
       72
310
000000A44101A4410100
330
28
330
6F
 94
        0
  0
ACAD_ZOMBIE_OBJECT
  5
71
100
AcDbZombieObject
 90
      499
 91
      531
 93
       80
310
0000901441010000000000
330
28
330
72
330
72
330
72
330
72
 94
        0
  0
ACAD_ZOMBIE_OBJECT
  5
72
100
AcDbZombieObject
 90
      499
 91
      532
 93
      173
310
00000000406AAAAAAAAAAAAAAAAA806A44101A441010
330
28
330
71
330
6F
 94
        0
  0
ACAD_ZOMBIE_OBJECT
  5
76
100
AcDbZombieObject
 90
      499
 91
      533
 93
       26
310
00008002
330
28
330
0
 94
        0
  0
ENDSEC
  0
EOF
