  0
SECTION
  2
HEADER
  9
$ACADVER
  1
AC1012
  9
$DWGCODEPAGE
  3
ansi_1252
  9
$INSBASE
 10
0.0
 20
0.0
 30
0.0
  9
$EXTMIN
 10
3.175
 20
3.175
 30
0.0
  9
$EXTMAX
 10
791.75407
 20
506.668925
 30
0.0
  9
$LIMMIN
 10
0.0
 20
0.0
  9
$LIMMAX
 10
838.0
 20
533.0
  9
$ORTHOMODE
 70
     0
  9
$REGENMODE
 70
     1
  9
$FILLMODE
 70
     1
  9
$QTEXTMODE
 70
     0
  9
$MIRRTEXT
 70
     1
  9
$DRAGMODE
 70
     2
  9
$LTSCALE
 40
10.0
  9
$OSMODE
 70
     0
  9
$ATTMODE
 70
     1
  9
$TEXTSIZE
 40
4.5
  9
$TRACEWID
 40
0.05
  9
$TEXTSTYLE
  7
STANDARD
  9
$CLAYER
  8
FOOT-A
  9
$CELTYPE
  6
BYLAYER
  9
$CECOLOR
 62
   256
  9
$CELTSCALE
 40
1.0
  9
$DELOBJ
 70
     1
  9
$DISPSILH
 70
     0
  9
$DIMSCALE
 40
25.4
  9
$DIMASZ
 40
0.18
  9
$DIMEXO
 40
0.0625
  9
$DIMDLI
 40
0.38
  9
$DIMRND
 40
0.0
  9
$DIMDLE
 40
0.0
  9
$DIMEXE
 40
0.18
  9
$DIMTP
 40
0.03
  9
$DIMTM
 40
0.03
  9
$DIMTXT
 40
0.18
  9
$DIMCEN
 40
0.09
  9
$DIMTSZ
 40
0.0
  9
$DIMTOL
 70
     0
  9
$DIMLIM
 70
     0
  9
$DIMTIH
 70
     1
  9
$DIMTOH
 70
     1
  9
$DIMSE1
 70
     0
  9
$DIMSE2
 70
     0
  9
$DIMTAD
 70
     0
  9
$DIMZIN
 70
     0
  9
$DIMBLK
  1

  9
$DIMASO
 70
     1
  9
$DIMSHO
 70
     1
  9
$DIMPOST
  1
mm
  9
$DIMAPOST
  1
"
  9
$DIMALT
 70
     1
  9
$DIMALTD
 70
     3
  9
$DIMALTF
 40
0.03937
  9
$DIMLFAC
 40
1.0
  9
$DIMTOFL
 70
     0
  9
$DIMTVP
 40
0.0
  9
$DIMTIX
 70
     0
  9
$DIMSOXD
 70
     0
  9
$DIMSAH
 70
     0
  9
$DIMBLK1
  1

  9
$DIMBLK2
  1

  9
$DIMSTYLE
  2
SU1
  9
$DIMCLRD
 70
     0
  9
$DIMCLRE
 70
     0
  9
$DIMCLRT
 70
     0
  9
$DIMTFAC
 40
1.0
  9
$DIMGAP
 40
0.09
  9
$DIMJUST
 70
     0
  9
$DIMSD1
 70
     0
  9
$DIMSD2
 70
     0
  9
$DIMTOLJ
 70
     1
  9
$DIMTZIN
 70
     0
  9
$DIMALTZ
 70
     0
  9
$DIMALTTZ
 70
     0
  9
$DIMFIT
 70
     0
  9
$DIMUPT
 70
     0
  9
$DIMUNIT
 70
     2
  9
$DIMDEC
 70
     2
  9
$DIMTDEC
 70
     2
  9
$DIMALTU
 70
     2
  9
$DIMALTTD
 70
     3
  9
$DIMTXSTY
  7
STANDARD
  9
$DIMAUNIT
 70
     0
  9
$LUNITS
 70
     2
  9
$LUPREC
 70
     4
  9
$SKETCHINC
 40
0.1
  9
$FILLETRAD
 40
1.5875
  9
$AUNITS
 70
     0
  9
$AUPREC
 70
     0
  9
$MENU
  1
acad
  9
$ELEVATION
 40
0.0
  9
$PELEVATION
 40
0.0
  9
$THICKNESS
 40
0.0
  9
$LIMCHECK
 70
     0
  9
$BLIPMODE
 70
     1
  9
$CHAMFERA
 40
0.0
  9
$CHAMFERB
 40
0.0
  9
$CHAMFERC
 40
0.0
  9
$CHAMFERD
 40
0.0
  9
$SKPOLY
 70
     0
  9
$TDCREATE
 40
2450480.640983657
  9
$TDUPDATE
 40
2450487.444110856
  9
$TDINDWG
 40
0.1279694213
  9
$TDUSRTIMER
 40
0.1279694213
  9
$USRTIMER
 70
     1
  9
$ANGBASE
 50
0.0
  9
$ANGDIR
 70
     0
  9
$PDMODE
 70
     0
  9
$PDSIZE
 40
0.0
  9
$PLINEWID
 40
0.0
  9
$COORDS
 70
     1
  9
$SPLFRAME
 70
     0
  9
$SPLINETYPE
 70
     6
  9
$SPLINESEGS
 70
     8
  9
$ATTDIA
 70
     0
  9
$ATTREQ
 70
     1
  9
$HANDLING
 70
     1
  9
$HANDSEED
  5
68D
  9
$SURFTAB1
 70
     6
  9
$SURFTAB2
 70
     6
  9
$SURFTYPE
 70
     6
  9
$SURFU
 70
     6
  9
$SURFV
 70
     6
  9
$UCSNAME
  2

  9
$UCSORG
 10
0.0
 20
0.0
 30
0.0
  9
$UCSXDIR
 10
1.0
 20
0.0
 30
0.0
  9
$UCSYDIR
 10
0.0
 20
1.0
 30
0.0
  9
$PUCSNAME
  2

  9
$PUCSORG
 10
0.0
 20
0.0
 30
0.0
  9
$PUCSXDIR
 10
1.0
 20
0.0
 30
0.0
  9
$PUCSYDIR
 10
0.0
 20
1.0
 30
0.0
  9
$USERI1
 70
     0
  9
$USERI2
 70
     0
  9
$USERI3
 70
     0
  9
$USERI4
 70
     0
  9
$USERI5
 70
     0
  9
$USERR1
 40
0.0
  9
$USERR2
 40
0.0
  9
$USERR3
 40
0.0
  9
$USERR4
 40
0.0
  9
$USERR5
 40
0.0
  9
$WORLDVIEW
 70
     1
  9
$SHADEDGE
 70
     3
  9
$SHADEDIF
 70
    70
  9
$TILEMODE
 70
     1
  9
$MAXACTVP
 70
    16
  9
$PINSBASE
 10
0.0
 20
0.0
 30
0.0
  9
$PLIMCHECK
 70
     0
  9
$PEXTMIN
 10
1.000000E+20
 20
1.000000E+20
 30
1.000000E+20
  9
$PEXTMAX
 10
-1.000000E+20
 20
-1.000000E+20
 30
-1.000000E+20
  9
$PLIMMIN
 10
0.0
 20
0.0
  9
$PLIMMAX
 10
12.0
 20
9.0
  9
$UNITMODE
 70
     0
  9
$VISRETAIN
 70
     0
  9
$PLINEGEN
 70
     0
  9
$PSLTSCALE
 70
     1
  9
$TREEDEPTH
 70
  3020
  9
$PICKSTYLE
 70
     1
  9
$CMLSTYLE
  2
STANDARD
  9
$CMLJUST
 70
     0
  9
$CMLSCALE
 40
1.0
  9
$SAVEIMAGES
 70
     0
  0
ENDSEC
  0
SECTION
  2
CLASSES
  0
CLASS
  1
ACMESCOPE
  2
AcMeScope
  3
ACME_MODULE_NAME
 90
        0
280
     0
281
     0
  0
CLASS
  1
ACMECOMMANDHISTORY
  2
AcMeCommandHistory
  3
ACME_MODULE_NAME
 90
        0
280
     0
281
     0
  0
CLASS
  1
AcRfInsAdjusterMgr
  2
AcRfInsAdjusterMgr
  3
ACME_MODULE_NAME
 90
        0
280
     0
281
     0
  0
CLASS
  1
ACGREFMASTER
  2
AcGrefMaster
  3
"AcadRfServer"
 90
        0
280
     0
281
     0
  0
CLASS
  1
AmiMaster
  2
AmiMaster
  3
"AmiServices"
 90
        0
280
     0
281
     0
  0
CLASS
  1
ACASGREFMASTER
  2
AcAsGrefMaster
  3
"AutoSurfResolver"
 90
        0
280
     0
281
     0
  0
CLASS
  1
ADAPPL
  2
AcAdAppl
  3
"DesignerServices"
 90
        0
280
     0
281
     0
  0
CLASS
  1
DEPMGR
  2
AcAdDepMgr
  3
"DesignerServices"
 90
        0
280
     0
281
     0
  0
CLASS
  1
PARAMMGR
  2
AcAdParamMgr
  3
"DesignerServices"
 90
        0
280
     0
281
     0
  0
CLASS
  1
PARAMSCOPE
  2
AcAdParamScope
  3
"DesignerServices"
 90
        0
280
     0
281
     0
  0
CLASS
  1
"IM_SYSVAR_MAN"
  2
AcImSysVarManager
  3
"ADAM"
 90
        0
280
     0
281
     0
  0
CLASS
  1
SYSTEM_VAR_INT
  2
AcImIntSysVar
  3
"ADAM"
 90
        0
280
     0
281
     0
  0
CLASS
  1
SYSTEM_VAR_REAL
  2
AcImRealSysVar
  3
"ADAM"
 90
        0
280
     0
281
     0
  0
CLASS
  1
SYSTEM_VAR_STR
  2
AcImStrSysVar
  3
"ADAM"
 90
        0
280
     0
281
     0
  0
CLASS
  1
NAMEDAPPL
  2
AcAdNamedAppl
  3
"DesignerServices"
 90
        0
280
     0
281
     0
  0
CLASS
  1
ADPART
  2
AcAdPart
  3
"DesignerServices"
 90
        0
280
     0
281
     1
  0
CLASS
  1
ADBASE
  2
AcAdBase
  3
"DesignerServices"
 90
        0
280
     0
281
     0
  0
CLASS
  1
BODYID
  2
AcAdBodyId
  3
"DesignerServices"
 90
        0
280
     0
281
     0
  0
CLASS
  1
WORKPLANEDISPLAYMGR
  2
AcAdDisplayMgr
  3
"DesignerServices"
 90
        0
280
     0
281
     0
  0
CLASS
  1
ADHNTMPLT
  2
AdHoleNoteTemplateMgr
  3
"DesignerServices"
 90
        0
280
     0
281
     0
  0
CLASS
  1
AM_HNTEMPLATE_MGR_NAME
  2
AdHoleNoteTemplateMgrName
  3
"DesignerServices"
 90
        0
280
     0
281
     0
  0
CLASS
  1
AcAdGrefModule
  2
AcAdGrefModule
  3
AD_GREF_SERVICES_NSTR
 90
        0
280
     0
281
     0
  0
CLASS
  1
AM_DRAWING_MGR
  2
AcDmDwgMgr
  3
"Designer_Drawing_Mgmt"
 90
        0
280
     0
281
     0
  0
CLASS
  1
AM_DWG_DOCUMENT
  2
AcDmDwgDocument
  3
"Designer_Drawing_Mgmt"
 90
        0
280
     0
281
     0
  0
CLASS
  1
AM_DWG_SHEET
  2
AcDmSheet
  3
"Designer_Drawing_Mgmt"
 90
        0
280
     0
281
     0
  0
CLASS
  1
AM_VIEWDIMPARMAP
  2
AcDmViewDimParMap
  3
"Designer_Drawing_Mgmt"
 90
        0
280
     0
281
     0
  0
CLASS
  1
AM_DWGMGR_NAME
  2
AcDmDwgMgrName
  3
"Designer_Drawing_Mgmt"
 90
        0
280
     0
281
     0
  0
CLASS
  1
ACAMPROJECT
  2
AcAmProject
  3
"DesignerAssemblies"
 90
        0
280
     0
281
     0
  0
CLASS
  1
ACAMGRCOMPDEF
  2
AcAmGrCompDef
  3
"DesignerAssemblies"
 90
        0
280
     0
281
     0
  0
CLASS
  1
ACAMCOMPDEF
  2
AcAmCompDef
  3
"DesignerAssemblies"
 90
        0
280
     0
281
     0
  0
CLASS
  1
ACAMCOMPDEFMGR
  2
AcAmCompDefMgr
  3
"DesignerAssemblies"
 90
        0
280
     0
281
     0
  0
CLASS
  1
AMCONTEXTMGR
  2
AcAmContextMgr
  3
"DesignerAssemblies"
 90
        0
280
     0
281
     0
  0
CLASS
  1
AcAmContextModeler
  2
AcAmContextModeler
  3
"DesignerAssemblies"
 90
        0
280
     0
281
     0
  0
CLASS
  1
ACAMDRAWINGMAN
  2
AcAmDrawingMan
  3
"DesignerAssemblies"
 90
        0
280
     0
281
     0
  0
CLASS
  1
ASSYSVARS
  2
AcAsSysVars
  3
"AutoSurf"
 90
        0
280
     0
281
     0
  0
CLASS
  1
ASSTATICVARS
  2
AcAsStaticVars
  3
"AutoSurf"
 90
        0
280
     0
281
     0
  0
CLASS
  1
ASAPP
  2
AcAsAppObject
  3
"AutoSurf"
 90
        0
280
     0
281
     0
  0
CLASS
  1
AGDICTIONARY
  2
AgDictionary
  3
"AccelView"
 90
        1
280
     0
281
     0
  0
ENDSEC
  0
SECTION
  2
TABLES
  0
TABLE
  2
VPORT
  5
8
100
AcDbSymbolTable
 70
     2
  0
VPORT
  5
68C
100
AcDbSymbolTableRecord
100
AcDbViewportTableRecord
  2
*ACTIVE
 70
     0
 10
0.0
 20
0.0
 11
1.0
 21
1.0
 12
406.497359
 22
254.921963
 13
0.0
 23
0.0
 14
0.125
 24
0.125
 15
10.0
 25
10.0
 16
0.0
 26
0.0
 36
1.0
 17
0.0
 27
0.0
 37
0.0
 40
503.493925
 41
1.602094
 42
50.0
 43
0.0
 44
0.0
 50
0.0
 51
0.0
 71
     0
 72
   100
 73
     1
 74
     0
 75
     1
 76
     1
 77
     0
 78
     0
  0
ENDTAB
  0
TABLE
  2
LTYPE
  5
5
100
AcDbSymbolTable
 70
     6
  0
LTYPE
  5
14
100
AcDbSymbolTableRecord
100
AcDbLinetypeTableRecord
  2
BYBLOCK
 70
     0
  3

 72
    65
 73
     0
 40
0.0
  0
LTYPE
  5
15
100
AcDbSymbolTableRecord
100
AcDbLinetypeTableRecord
  2
BYLAYER
 70
     0
  3

 72
    65
 73
     0
 40
0.0
  0
LTYPE
  5
16
100
AcDbSymbolTableRecord
100
AcDbLinetypeTableRecord
  2
CONTINUOUS
 70
    64
  3
Solid line
 72
    65
 73
     0
 40
0.0
  0
LTYPE
  5
4F
100
AcDbSymbolTableRecord
100
AcDbLinetypeTableRecord
  2
HIDDEN
 70
    64
  3
__ __ __ __ __ __ __ __ __ __ __ __ __ __ __ __
 72
    65
 73
     2
 40
0.375
 49
0.25
 74
     0
 49
-0.125
 74
     0
  0
LTYPE
  5
51
100
AcDbSymbolTableRecord
100
AcDbLinetypeTableRecord
  2
PHANTOM2
 70
     0
  3
___ _ _ ___ _ _ ___ _ _ ___ _ _ ___ _ _ ___ _ _
 72
    65
 73
     6
 40
1.25
 49
0.625
 74
     0
 49
-0.125
 74
     0
 49
0.125
 74
     0
 49
-0.125
 74
     0
 49
0.125
 74
     0
 49
-0.125
 74
     0
  0
LTYPE
  5
5C
100
AcDbSymbolTableRecord
100
AcDbLinetypeTableRecord
  2
CENTER
 70
    64
  3
____ _ ____ _ ____ _ ____ _ ____ _ ____ _ ____ 
 72
    65
 73
     4
 40
2.0
 49
1.25
 74
     0
 49
-0.25
 74
     0
 49
0.25
 74
     0
 49
-0.25
 74
     0
  0
LTYPE
  5
7C
100
AcDbSymbolTableRecord
100
AcDbLinetypeTableRecord
  2
ASULTYPE
 70
     0
  3
Solid line
 72
    65
 73
     2
 40
3.0
 49
2.5
 74
     0
 49
0.5
 74
     0
  0
LTYPE
  5
7D
100
AcDbSymbolTableRecord
100
AcDbLinetypeTableRecord
  2
ASVLTYPE
 70
     0
  3
__ __ __ __ __ __ __ __ __ __ __ __ __ __ __ __ __ __ __ __ __
 72
    65
 73
     2
 40
0.75
 49
0.5
 74
     0
 49
-0.25
 74
     0
  0
ENDTAB
  0
TABLE
  2
LAYER
  5
2
100
AcDbSymbolTable
 70
    19
  0
LAYER
  5
F
100
AcDbSymbolTableRecord
100
AcDbLayerTableRecord
  2
0
 70
     0
 62
     7
  6
CONTINUOUS
  0
LAYER
  5
60
100
AcDbSymbolTableRecord
100
AcDbLayerTableRecord
  2
AM_VIEWS
 70
     0
 62
    -7
  6
CONTINUOUS
  0
LAYER
  5
61
100
AcDbSymbolTableRecord
100
AcDbLayerTableRecord
  2
AM_PARDIM
 70
     0
 62
     3
  6
CONTINUOUS
  0
LAYER
  5
62
100
AcDbSymbolTableRecord
100
AcDbLayerTableRecord
  2
AM_REFDIM
 70
     0
 62
     4
  6
CONTINUOUS
  0
LAYER
  5
63
100
AcDbSymbolTableRecord
100
AcDbLayerTableRecord
  2
AM_VIS
 70
     0
 62
     7
  6
CONTINUOUS
  0
LAYER
  5
64
100
AcDbSymbolTableRecord
100
AcDbLayerTableRecord
  2
AM_HID
 70
    64
 62
     7
  6
HIDDEN
  0
LAYER
  5
73
100
AcDbSymbolTableRecord
100
AcDbLayerTableRecord
  2
AM_TR
 70
     0
 62
     7
  6
CONTINUOUS
  0
LAYER
  5
74
100
AcDbSymbolTableRecord
100
AcDbLayerTableRecord
  2
AM_BM
 70
     0
 62
     7
  6
CONTINUOUS
  0
LAYER
  5
75
100
AcDbSymbolTableRecord
100
AcDbLayerTableRecord
  2
AM_BL
 70
     0
 62
     7
  6
CONTINUOUS
  0
LAYER
  5
7F
100
AcDbSymbolTableRecord
100
AcDbLayerTableRecord
  2
CENTER
 70
    64
 62
     1
  6
CENTER
  0
LAYER
  5
80
100
AcDbSymbolTableRecord
100
AcDbLayerTableRecord
  2
DIM
 70
    64
 62
     3
  6
CONTINUOUS
  0
LAYER
  5
81
100
AcDbSymbolTableRecord
100
AcDbLayerTableRecord
  2
TEXT
 70
    64
 62
     7
  6
CONTINUOUS
  0
LAYER
  5
83
100
AcDbSymbolTableRecord
100
AcDbLayerTableRecord
  2
HIDDEN
 70
    64
 62
     7
  6
HIDDEN
  0
LAYER
  5
9C
100
AcDbSymbolTableRecord
100
AcDbLayerTableRecord
  2
BORDER
 70
    64
 62
     6
  6
CONTINUOUS
  0
LAYER
  5
E5
100
AcDbSymbolTableRecord
100
AcDbLayerTableRecord
  2
FOOT-A
 70
    64
 62
     7
  6
CONTINUOUS
  0
LAYER
  5
12A
100
AcDbSymbolTableRecord
100
AcDbLayerTableRecord
  2
SPACE_FRAME
 70
    64
 62
     5
  6
CONTINUOUS
  0
LAYER
  5
165
100
AcDbSymbolTableRecord
100
AcDbLayerTableRecord
  2
FOOT-2
 70
    64
 62
     7
  6
CONTINUOUS
  0
LAYER
  5
1E5
100
AcDbSymbolTableRecord
100
AcDbLayerTableRecord
  2
HATCH
 70
    64
 62
     7
  6
CONTINUOUS
  0
LAYER
  5
24F
100
AcDbSymbolTableRecord
100
AcDbLayerTableRecord
  2
DEFPOINTS
 70
    64
 62
     7
  6
CONTINUOUS
  0
ENDTAB
  0
TABLE
  2
STYLE
  5
3
100
AcDbSymbolTable
 70
     3
  0
STYLE
  5
10
100
AcDbSymbolTableRecord
100
AcDbTextStyleTableRecord
  2
STANDARD
 70
    64
 40
0.0
 41
1.0
 50
0.0
 71
     0
 42
4.5
  3
txt
  4

  0
STYLE
  5
85
100
AcDbSymbolTableRecord
100
AcDbTextStyleTableRecord
  2
CIM_TB
 70
    64
 40
0.0
 41
1.0
 50
0.0
 71
     0
 42
0.2
  3
romans
  4

  0
STYLE
  5
9D
100
AcDbSymbolTableRecord
100
AcDbTextStyleTableRecord
  2
ADESK2
 70
    64
 40
0.0
 41
1.0
 50
0.0
 71
     0
 42
0.065
  3
romans
  4

  0
ENDTAB
  0
TABLE
  2
VIEW
  5
6
100
AcDbSymbolTable
 70
     0
  0
ENDTAB
  0
TABLE
  2
UCS
  5
7
100
AcDbSymbolTable
 70
     0
  0
ENDTAB
  0
TABLE
  2
APPID
  5
9
100
AcDbSymbolTable
 70
     6
  0
APPID
  5
11
100
AcDbSymbolTableRecord
100
AcDbRegAppTableRecord
  2
ACAD
 70
     0
  0
APPID
  5
5F
100
AcDbSymbolTableRecord
100
AcDbRegAppTableRecord
  2
AD_DRAW
 70
     0
  0
APPID
  5
77
100
AcDbSymbolTableRecord
100
AcDbRegAppTableRecord
  2
DESIGNERASSEMBLIES
 70
     0
  0
APPID
  5
78
100
AcDbSymbolTableRecord
100
AcDbRegAppTableRecord
  2
MCAD_NO_VIS
 70
     0
  0
APPID
  5
7E
100
AcDbSymbolTableRecord
100
AcDbRegAppTableRecord
  2
ASURF_PCURVE_APPNAME
 70
     0
  0
APPID
  5
82
100
AcDbSymbolTableRecord
100
AcDbRegAppTableRecord
  2
TB_S_MPD
 70
     0
  0
ENDTAB
  0
TABLE
  2
DIMSTYLE
  5
A
100
AcDbSymbolTable
 70
     6
  0
DIMSTYLE
105
1D
100
AcDbSymbolTableRecord
100
AcDbDimStyleTableRecord
  2
STANDARD
 70
     0
  3

  4

  5

  6

  7

 40
1.0
 41
0.18
 42
0.0625
 43
0.38
 44
0.18
 45
0.0
 46
0.0
 47
0.0
 48
0.0
140
0.18
141
0.09
142
0.0
143
25.4
144
1.0
145
0.0
146
1.0
147
0.09
 71
     0
 72
     0
 73
     1
 74
     1
 75
     0
 76
     0
 77
     0
 78
     0
170
     0
171
     2
172
     0
173
     0
174
     0
175
     0
176
     0
177
     0
178
     0
270
     2
271
     4
272
     4
273
     2
274
     2
340
10
275
     0
280
     0
281
     0
282
     0
283
     1
284
     0
285
     0
286
     0
287
     3
288
     0
  0
DIMSTYLE
105
8D
100
AcDbSymbolTableRecord
100
AcDbDimStyleTableRecord
  2
SU1
 70
     0
  3

  4

  5

  6

  7

 40
1.0
 41
0.18
 42
0.0625
 43
0.38
 44
0.18
 45
0.0
 46
0.0
 47
0.001
 48
0.0
140
0.18
141
0.09
142
0.0
143
25.4
144
1.0
145
0.0
146
1.0
147
0.09
 71
     0
 72
     0
 73
     1
 74
     1
 75
     0
 76
     0
 77
     0
 78
     0
170
     0
171
     2
172
     0
173
     0
174
     0
175
     0
176
     0
177
     0
178
     0
270
     2
271
     3
272
     3
273
     2
274
     2
340
10
275
     0
280
     0
281
     0
282
     0
283
     1
284
     0
285
     0
286
     0
287
     0
288
     0
  0
DIMSTYLE
105
8E
100
AcDbSymbolTableRecord
100
AcDbDimStyleTableRecord
  2
SU1$4
 70
     0
  3

  4

  5

  6

  7

 40
1.0
 41
0.18
 42
0.0625
 43
0.38
 44
0.18
 45
0.0
 46
0.0
 47
0.001
 48
0.0
140
0.18
141
0.09
142
0.0
143
25.4
144
1.0
145
0.0
146
1.0
147
0.09
 71
     0
 72
     0
 73
     1
 74
     1
 75
     0
 76
     0
 77
     0
 78
     0
170
     0
171
     2
172
     0
173
     0
174
     0
175
     0
176
     0
177
     0
178
     0
270
     2
271
     3
272
     3
273
     2
274
     2
340
10
275
     0
280
     0
281
     0
282
     0
283
     1
284
     0
285
     0
286
     0
287
     0
288
     1
  0
DIMSTYLE
105
8F
100
AcDbSymbolTableRecord
100
AcDbDimStyleTableRecord
  2
SU1$2
 70
     0
  3

  4

  5

  6

  7

 40
1.0
 41
0.18
 42
0.0625
 43
0.38
 44
0.18
 45
0.0
 46
0.0
 47
0.001
 48
0.0
140
0.18
141
0.09
142
0.0
143
25.4
144
1.0
145
0.0
146
1.0
147
0.09
 71
     0
 72
     0
 73
     1
 74
     1
 75
     0
 76
     0
 77
     0
 78
     0
170
     0
171
     2
172
     0
173
     0
174
     0
175
     0
176
     0
177
     0
178
     0
270
     2
271
     1
272
     3
273
     2
274
     2
340
10
275
     0
280
     0
281
     0
282
     0
283
     1
284
     0
285
     0
286
     0
287
     0
288
     0
  0
DIMSTYLE
105
90
100
AcDbSymbolTableRecord
100
AcDbDimStyleTableRecord
  2
SU1$3
 70
     0
  3

  4

  5

  6

  7

 40
1.0
 41
0.18
 42
0.0625
 43
0.38
 44
0.18
 45
0.0
 46
0.0
 47
0.001
 48
0.0
140
0.18
141
0.09
142
0.0
143
25.4
144
1.0
145
0.0
146
1.0
147
0.09
 71
     0
 72
     0
 73
     1
 74
     1
 75
     0
 76
     0
 77
     0
 78
     0
170
     0
171
     2
172
     0
173
     0
174
     0
175
     0
176
     0
177
     0
178
     0
270
     2
271
     3
272
     3
273
     2
274
     2
340
10
275
     0
280
     0
281
     0
282
     0
283
     1
284
     0
285
     0
286
     0
287
     0
288
     1
  0
DIMSTYLE
105
91
100
AcDbSymbolTableRecord
100
AcDbDimStyleTableRecord
  2
SU1$7
 70
     0
  3

  4

  5

  6

  7

 40
1.0
 41
0.18
 42
0.0625
 43
0.38
 44
0.18
 45
0.0
 46
0.0
 47
0.001
 48
0.0
140
0.18
141
0.09
142
0.0
143
25.4
144
1.0
145
0.0
146
1.0
147
0.09
 71
     0
 72
     0
 73
     1
 74
     1
 75
     0
 76
     0
 77
     0
 78
     0
170
     0
171
     2
172
     0
173
     0
174
     0
175
     0
176
     0
177
     0
178
     0
270
     2
271
     3
272
     3
273
     2
274
     2
340
10
275
     0
280
     0
281
     0
282
     0
283
     1
284
     0
285
     0
286
     0
287
     0
288
     1
  0
ENDTAB
  0
TABLE
  2
BLOCK_RECORD
  5
1
100
AcDbSymbolTable
 70
    43
  0
BLOCK_RECORD
  5
1A
100
AcDbSymbolTableRecord
100
AcDbBlockTableRecord
  2
*MODEL_SPACE
  0
BLOCK_RECORD
  5
17
100
AcDbSymbolTableRecord
100
AcDbBlockTableRecord
  2
*PAPER_SPACE
  0
BLOCK_RECORD
  5
6B
100
AcDbSymbolTableRecord
100
AcDbBlockTableRecord
  2
*U0
  0
BLOCK_RECORD
  5
9E
100
AcDbSymbolTableRecord
100
AcDbBlockTableRecord
  2
D-BORDER
  0
BLOCK_RECORD
  5
E6
100
AcDbSymbolTableRecord
100
AcDbBlockTableRecord
  2
A$C2E
  0
BLOCK_RECORD
  5
F8
100
AcDbSymbolTableRecord
100
AcDbBlockTableRecord
  2
A$C2F
  0
BLOCK_RECORD
  5
12B
100
AcDbSymbolTableRecord
100
AcDbBlockTableRecord
  2
FT-L4A-F
  0
BLOCK_RECORD
  5
13C
100
AcDbSymbolTableRecord
100
AcDbBlockTableRecord
  2
*U5
  0
BLOCK_RECORD
  5
146
100
AcDbSymbolTableRecord
100
AcDbBlockTableRecord
  2
*U6
  0
BLOCK_RECORD
  5
150
100
AcDbSymbolTableRecord
100
AcDbBlockTableRecord
  2
*U7
  0
BLOCK_RECORD
  5
166
100
AcDbSymbolTableRecord
100
AcDbBlockTableRecord
  2
F-L4A-FT
  0
BLOCK_RECORD
  5
1F4
100
AcDbSymbolTableRecord
100
AcDbBlockTableRecord
  2
*X9
  0
BLOCK_RECORD
  5
247
100
AcDbSymbolTableRecord
100
AcDbBlockTableRecord
  2
*D10
  0
BLOCK_RECORD
  5
255
100
AcDbSymbolTableRecord
100
AcDbBlockTableRecord
  2
*D11
  0
BLOCK_RECORD
  5
262
100
AcDbSymbolTableRecord
100
AcDbBlockTableRecord
  2
*D12
  0
BLOCK_RECORD
  5
270
100
AcDbSymbolTableRecord
100
AcDbBlockTableRecord
  2
*D13
  0
BLOCK_RECORD
  5
28A
100
AcDbSymbolTableRecord
100
AcDbBlockTableRecord
  2
*D14
  0
BLOCK_RECORD
  5
298
100
AcDbSymbolTableRecord
100
AcDbBlockTableRecord
  2
*D15
  0
BLOCK_RECORD
  5
2A5
100
AcDbSymbolTableRecord
100
AcDbBlockTableRecord
  2
*D16
  0
BLOCK_RECORD
  5
2B2
100
AcDbSymbolTableRecord
100
AcDbBlockTableRecord
  2
*D17
  0
BLOCK_RECORD
  5
2CA
100
AcDbSymbolTableRecord
100
AcDbBlockTableRecord
  2
*D18
  0
BLOCK_RECORD
  5
2D7
100
AcDbSymbolTableRecord
100
AcDbBlockTableRecord
  2
*D19
  0
BLOCK_RECORD
  5
2E5
100
AcDbSymbolTableRecord
100
AcDbBlockTableRecord
  2
*D20
  0
BLOCK_RECORD
  5
34D
100
AcDbSymbolTableRecord
100
AcDbBlockTableRecord
  2
*D21
  0
BLOCK_RECORD
  5
35B
100
AcDbSymbolTableRecord
100
AcDbBlockTableRecord
  2
*D22
  0
BLOCK_RECORD
  5
368
100
AcDbSymbolTableRecord
100
AcDbBlockTableRecord
  2
*D23
  0
BLOCK_RECORD
  5
375
100
AcDbSymbolTableRecord
100
AcDbBlockTableRecord
  2
*D24
  0
BLOCK_RECORD
  5
382
100
AcDbSymbolTableRecord
100
AcDbBlockTableRecord
  2
*D25
  0
BLOCK_RECORD
  5
38F
100
AcDbSymbolTableRecord
100
AcDbBlockTableRecord
  2
*D26
  0
BLOCK_RECORD
  5
39C
100
AcDbSymbolTableRecord
100
AcDbBlockTableRecord
  2
*D27
  0
BLOCK_RECORD
  5
3BF
100
AcDbSymbolTableRecord
100
AcDbBlockTableRecord
  2
*D28
  0
BLOCK_RECORD
  5
3CE
100
AcDbSymbolTableRecord
100
AcDbBlockTableRecord
  2
*D29
  0
BLOCK_RECORD
  5
3DD
100
AcDbSymbolTableRecord
100
AcDbBlockTableRecord
  2
*D30
  0
BLOCK_RECORD
  5
3EB
100
AcDbSymbolTableRecord
100
AcDbBlockTableRecord
  2
*D31
  0
BLOCK_RECORD
  5
3F9
100
AcDbSymbolTableRecord
100
AcDbBlockTableRecord
  2
*D32
  0
BLOCK_RECORD
  5
408
100
AcDbSymbolTableRecord
100
AcDbBlockTableRecord
  2
*D33
  0
BLOCK_RECORD
  5
417
100
AcDbSymbolTableRecord
100
AcDbBlockTableRecord
  2
*D34
  0
BLOCK_RECORD
  5
426
100
AcDbSymbolTableRecord
100
AcDbBlockTableRecord
  2
*D35
  0
BLOCK_RECORD
  5
459
100
AcDbSymbolTableRecord
100
AcDbBlockTableRecord
  2
*D36
  0
BLOCK_RECORD
  5
477
100
AcDbSymbolTableRecord
100
AcDbBlockTableRecord
  2
*D37
  0
BLOCK_RECORD
  5
48D
100
AcDbSymbolTableRecord
100
AcDbBlockTableRecord
  2
*D38
  0
BLOCK_RECORD
  5
4A3
100
AcDbSymbolTableRecord
100
AcDbBlockTableRecord
  2
*D39
  0
BLOCK_RECORD
  5
4B9
100
AcDbSymbolTableRecord
100
AcDbBlockTableRecord
  2
*D40
  0
BLOCK_RECORD
  5
4D1
100
AcDbSymbolTableRecord
100
AcDbBlockTableRecord
  2
*D41
  0
BLOCK_RECORD
  5
583
100
AcDbSymbolTableRecord
100
AcDbBlockTableRecord
  2
*D42
  0
ENDTAB
  0
ENDSEC
  0
SECTION
  2
BLOCKS
  0
BLOCK
  5
1B
100
AcDbEntity
  8
0
100
AcDbBlockBegin
  2
*MODEL_SPACE
 70
     0
 10
0.0
 20
0.0
 30
0.0
  3
*MODEL_SPACE
  1

  0
ENDBLK
  5
1C
100
AcDbEntity
  8
0
100
AcDbBlockEnd
  0
BLOCK
  5
18
100
AcDbEntity
 67
     1
  8
0
100
AcDbBlockBegin
  2
*PAPER_SPACE
 70
     0
 10
0.0
 20
0.0
 30
0.0
  3
*PAPER_SPACE
  1

  0
ENDBLK
  5
19
100
AcDbEntity
 67
     1
  8
0
100
AcDbBlockEnd
  0
BLOCK
  5
6C
100
AcDbEntity
  8
0
100
AcDbBlockBegin
  2
*U0
 70
     1
 10
0.0
 20
0.0
 30
0.0
  3
*U0
  1

  0
ENDBLK
  5
6D
100
AcDbEntity
  8
0
100
AcDbBlockEnd
  0
BLOCK
  5
E1
100
AcDbEntity
  8
0
100
AcDbBlockBegin
  2
D-BORDER
 70
     0
 10
0.0
 20
0.0
 30
0.0
  3
D-BORDER
  1

  0
LINE
  5
9F
100
AcDbEntity
  8
TEXT
100
AcDbLine
 10
0.125
 20
19.447595
 30
0.0
 11
2.6875
 21
19.447595
 31
0.0
  0
LINE
  5
A0
100
AcDbEntity
  8
TEXT
100
AcDbLine
 10
2.6875
 20
19.447595
 30
0.0
 11
2.6875
 21
19.947595
 31
0.0
  0
CIRCLE
  5
A1
100
AcDbEntity
  8
TEXT
100
AcDbCircle
 10
0.802871
 20
19.684056
 30
0.0
 40
0.1875
  0
CIRCLE
  5
A2
100
AcDbEntity
  8
TEXT
100
AcDbCircle
 10
0.802871
 20
19.684056
 30
0.0
 40
0.09375
  0
LINE
  5
A3
100
AcDbEntity
  8
TEXT
  6
CENTER
100
AcDbLine
 10
0.568951
 20
19.684056
 30
0.0
 11
2.021621
 21
19.684056
 31
0.0
  0
LINE
  5
A4
100
AcDbEntity
  8
TEXT
  6
CENTER
100
AcDbLine
 10
0.802871
 20
19.455375
 30
0.0
 11
0.802871
 21
19.923251
 31
0.0
  0
LINE
  5
A5
100
AcDbEntity
  8
TEXT
100
AcDbLine
 10
1.271621
 20
19.777806
 30
0.0
 11
1.756263
 21
19.871556
 31
0.0
  0
LINE
  5
A6
100
AcDbEntity
  8
TEXT
100
AcDbLine
 10
1.271621
 20
19.590306
 30
0.0
 11
1.756263
 21
19.496556
 31
0.0
  0
LINE
  5
A7
100
AcDbEntity
  8
TEXT
100
AcDbLine
 10
1.271621
 20
19.590306
 30
0.0
 11
1.271621
 21
19.777806
 31
0.0
  0
LINE
  5
A8
100
AcDbEntity
  8
TEXT
100
AcDbLine
 10
1.756263
 20
19.871556
 30
0.0
 11
1.756263
 21
19.496556
 31
0.0
  0
TEXT
  5
A9
100
AcDbEntity
  8
TEXT
100
AcDbText
 10
0.3125
 20
19.262423
 30
0.0
 40
0.1
  1
THIRD ANGLE PROJECTION
100
AcDbText
  0
LINE
  5
AA
100
AcDbEntity
  8
TEXT
100
AcDbLine
 10
2.6875
 20
19.447595
 30
0.0
 11
2.6875
 21
19.197595
 31
0.0
  0
LINE
  5
AB
100
AcDbEntity
  8
TEXT
100
AcDbLine
 10
2.6875
 20
19.197595
 30
0.0
 11
0.125
 21
19.197595
 31
0.0
  0
TEXT
  5
AC
100
AcDbEntity
  8
TEXT
100
AcDbText
 10
30.260292
 20
0.244377
 30
0.0
 40
0.065
  1
OF
  7
ADESK2
100
AcDbText
  0
TEXT
  5
AD
100
AcDbEntity
  8
TEXT
100
AcDbText
 10
26.500724
 20
0.974951
 30
0.0
 40
0.065
  1
DATE
  7
ADESK2
100
AcDbText
  0
LINE
  5
AE
100
AcDbEntity
  8
TEXT
100
AcDbLine
 10
26.377305
 20
1.091501
 30
0.0
 11
26.377305
 21
0.125
 31
0.0
  0
TEXT
  5
AF
100
AcDbEntity
  8
TEXT
100
AcDbText
 10
24.957321
 20
0.356501
 30
0.0
 40
0.065
  1
DESIGN
  7
ADESK2
100
AcDbText
  0
TEXT
  5
B0
100
AcDbEntity
  8
TEXT
100
AcDbText
 10
24.957321
 20
0.671501
 30
0.0
 40
0.065
  1
CHECKED
  7
ADESK2
100
AcDbText
  0
LINE
  5
B1
100
AcDbEntity
  8
TEXT
100
AcDbLine
 10
24.877321
 20
1.091501
 30
0.0
 11
26.877321
 21
1.091501
 31
0.0
  0
TEXT
  5
B2
100
AcDbEntity
  8
TEXT
100
AcDbText
 10
30.359702
 20
19.465196
 30
0.0
 40
0.065
  1
APPROVED
  7
ADESK2
100
AcDbText
  0
TEXT
  5
B3
100
AcDbEntity
  8
TEXT
100
AcDbText
 10
29.566002
 20
19.465196
 30
0.0
 40
0.065
  1
DATE
  7
ADESK2
100
AcDbText
  0
TEXT
  5
B4
100
AcDbEntity
  8
TEXT
100
AcDbText
 10
27.500302
 20
19.465196
 30
0.0
 40
0.065
  1
DESCRIPTION
  7
ADESK2
100
AcDbText
  0
TEXT
  5
B5
100
AcDbEntity
  8
TEXT
100
AcDbText
 10
26.198402
 20
19.465196
 30
0.0
 40
0.065
  1
REV
  7
ADESK2
100
AcDbText
  0
TEXT
  5
B6
100
AcDbEntity
  8
TEXT
100
AcDbText
 10
28.328502
 20
19.707396
 30
0.0
 40
0.065
  1
REVISIONS
  7
ADESK2
100
AcDbText
  0
LINE
  5
B7
100
AcDbEntity
  8
TEXT
100
AcDbLine
 10
30.118302
 20
19.374896
 30
0.0
 11
30.118302
 21
19.624896
 31
0.0
  0
LINE
  5
B8
100
AcDbEntity
  8
TEXT
100
AcDbLine
 10
29.238302
 20
19.374896
 30
0.0
 11
29.238302
 21
19.624896
 31
0.0
  0
LINE
  5
B9
100
AcDbEntity
  8
TEXT
100
AcDbLine
 10
26.498302
 20
19.374896
 30
0.0
 11
26.498302
 21
19.624896
 31
0.0
  0
LINE
  5
BA
100
AcDbEntity
  8
TEXT
100
AcDbLine
 10
26.108049
 20
19.934959
 30
0.0
 11
26.108049
 21
19.374896
 31
0.0
  0
LINE
  5
BB
100
AcDbEntity
  8
TEXT
100
AcDbLine
 10
26.108049
 20
19.374896
 30
0.0
 11
31.162356
 21
19.374896
 31
0.0
  0
LINE
  5
BC
100
AcDbEntity
  8
TEXT
100
AcDbLine
 10
26.108049
 20
19.624896
 30
0.0
 11
31.162356
 21
19.624896
 31
0.0
  0
TEXT
  5
BD
100
AcDbEntity
  8
TEXT
100
AcDbText
 10
30.827821
 20
0.667401
 30
0.0
 40
0.065
  1
REV
  7
ADESK2
100
AcDbText
  0
TEXT
  5
BE
100
AcDbEntity
  8
TEXT
100
AcDbText
 10
28.448321
 20
0.667401
 30
0.0
 40
0.065
  1
DWG NO.
  7
ADESK2
100
AcDbText
  0
TEXT
  5
BF
100
AcDbEntity
  8
TEXT
100
AcDbText
 10
26.965221
 20
0.667401
 30
0.0
 40
0.065
  1
SIZE
  7
ADESK2
100
AcDbText
  0
TEXT
  5
C0
100
AcDbEntity
  8
TEXT
100
AcDbText
 10
29.430121
 20
0.244001
 30
0.0
 40
0.065
  1
SHEET
  7
ADESK2
100
AcDbText
  0
TEXT
  5
C1
100
AcDbEntity
  8
TEXT
100
AcDbText
 10
26.929621
 20
0.244001
 30
0.0
 40
0.065
  1
SCALE
  7
ADESK2
100
AcDbText
  0
LINE
  5
C2
100
AcDbEntity
  8
TEXT
100
AcDbLine
 10
30.747321
 20
0.401501
 30
0.0
 11
30.747321
 21
0.781501
 31
0.0
  0
LINE
  5
C3
100
AcDbEntity
  8
TEXT
100
AcDbLine
 10
28.377321
 20
0.401501
 30
0.0
 11
28.377321
 21
0.781501
 31
0.0
  0
LINE
  5
C4
100
AcDbEntity
  8
TEXT
100
AcDbLine
 10
27.257321
 20
0.401501
 30
0.0
 11
27.257321
 21
0.781501
 31
0.0
  0
LINE
  5
C5
100
AcDbEntity
  8
TEXT
100
AcDbLine
 10
29.377321
 20
0.125
 30
0.0
 11
29.377321
 21
0.401501
 31
0.0
  0
LINE
  5
C6
100
AcDbEntity
  8
TEXT
100
AcDbLine
 10
27.877321
 20
0.125
 30
0.0
 11
27.877321
 21
0.401501
 31
0.0
  0
LINE
  5
C7
100
AcDbEntity
  8
BORDER
100
AcDbLine
 10
26.877321
 20
0.125
 30
0.0
 11
26.877321
 21
1.901501
 31
0.0
  0
LINE
  5
C8
100
AcDbEntity
  8
BORDER
100
AcDbLine
 10
26.877321
 20
1.401501
 30
0.0
 11
31.149118
 21
1.401501
 31
0.0
  0
LINE
  5
C9
100
AcDbEntity
  8
TEXT
100
AcDbLine
 10
26.877321
 20
0.401501
 30
0.0
 11
31.149118
 21
0.401501
 31
0.0
  0
LINE
  5
CA
100
AcDbEntity
  8
TEXT
100
AcDbLine
 10
24.877321
 20
0.781501
 30
0.0
 11
31.149118
 21
0.781501
 31
0.0
  0
LINE
  5
CB
100
AcDbEntity
  8
TEXT
100
AcDbLine
 10
24.877321
 20
0.466501
 30
0.0
 11
26.877321
 21
0.466501
 31
0.0
  0
LINE
  5
CC
100
AcDbEntity
  8
BORDER
100
AcDbLine
 10
24.877321
 20
1.901501
 30
0.0
 11
31.149118
 21
1.901501
 31
0.0
  0
LINE
  5
CD
100
AcDbEntity
  8
BORDER
100
AcDbLine
 10
24.877321
 20
0.125
 30
0.0
 11
24.877321
 21
2.324147
 31
0.0
  0
TEXT
  5
CE
100
AcDbEntity
  8
TEXT
100
AcDbText
 10
24.945631
 20
0.979964
 30
0.0
 40
0.065
  1
DRAWN
  7
ADESK2
100
AcDbText
  0
TEXT
  5
CF
100
AcDbEntity
  8
BORDER
100
AcDbText
 10
25.055285
 20
2.049228
 30
0.0
 40
0.15
  1
UNIVERSITY OF CALIFORNIA @ SANTA BARBARA
100
AcDbText
  0
LINE
  5
D0
100
AcDbEntity
  8
BORDER
100
AcDbLine
 10
24.87628
 20
2.324147
 30
0.0
 11
31.149118
 21
2.324147
 31
0.0
  0
LINE
  5
D1
100
AcDbEntity
  8
BORDER
100
AcDbLine
 10
31.17142
 20
0.125
 30
0.0
 11
31.17142
 21
19.947595
 31
0.0
  0
LINE
  5
D2
100
AcDbEntity
  8
BORDER
100
AcDbLine
 10
0.125
 20
19.947595
 30
0.0
 11
0.125
 21
0.125
 31
0.0
  0
LINE
  5
D3
100
AcDbEntity
  8
BORDER
100
AcDbLine
 10
0.125
 20
0.125
 30
0.0
 11
31.17142
 21
0.125
 31
0.0
  0
TEXT
  5
D4
100
AcDbEntity
  8
TEXT
100
AcDbText
 10
27.328393
 20
0.665354
 30
0.0
 40
0.075
  1
DIRECTORY
100
AcDbText
  0
LINE
  5
D5
100
AcDbEntity
  8
BORDER
100
AcDbLine
 10
0.125
 20
19.947595
 30
0.0
 11
31.17142
 21
19.947595
 31
0.0
  0
TEXT
  5
D6
100
AcDbEntity
  8
BORDER
100
AcDbText
 10
27.564864
 20
1.575566
 30
0.0
 40
0.15
  1
HIGH ENERGY PHYSICS
100
AcDbText
  0
TEXT
  5
D7
100
AcDbEntity
  8
BORDER
100
AcDbText
 10
27.001167
 20
0.434778
 30
0.0
 40
0.2
  1
D
100
AcDbText
  0
TEXT
  5
D8
100
AcDbEntity
  8
TEXT
100
AcDbText
 10
25.106606
 20
1.785089
 30
0.0
 40
0.065
  1
UNLESS OTHERWISE SPECIFIED:
  7
ADESK2
 72
     1
 11
25.877321
 21
1.785089
 31
0.0
100
AcDbText
  0
TEXT
  5
D9
100
AcDbEntity
  8
TEXT
100
AcDbText
 10
25.180892
 20
1.679851
 30
0.0
 40
0.065
  1
DIMENSIONS ARE IN INCHES
  7
ADESK2
 72
     1
 11
25.877321
 21
1.679851
 31
0.0
100
AcDbText
  0
TEXT
  5
DA
100
AcDbEntity
  8
TEXT
100
AcDbText
 10
25.57863
 20
1.574613
 30
0.0
 40
0.065
  1
TOLERANCES
  7
ADESK2
 72
     1
 11
25.877321
 21
1.574613
 31
0.0
100
AcDbText
  0
TEXT
  5
DB
100
AcDbEntity
  8
TEXT
100
AcDbText
 10
25.192279
 20
1.466743
 30
0.0
 40
0.065
  1
DECIMALS
  7
ADESK2
100
AcDbText
  0
TEXT
  5
DC
100
AcDbEntity
  8
TEXT
100
AcDbText
 10
25.192279
 20
1.361505
 30
0.0
 40
0.065
  1
.XX  %%P .05
  7
ADESK2
100
AcDbText
  0
TEXT
  5
DD
100
AcDbEntity
  8
TEXT
100
AcDbText
 10
25.192279
 20
1.256267
 30
0.0
 40
0.065
  1
.XXX %%P .005
  7
ADESK2
100
AcDbText
  0
TEXT
  5
DE
100
AcDbEntity
  8
TEXT
100
AcDbText
 10
25.262916
 20
1.153744
 30
0.0
 40
0.065
  1
DO NOT SCALE DRAWING
  7
ADESK2
 72
     1
 11
25.877321
 21
1.153744
 31
0.0
100
AcDbText
  0
TEXT
  5
DF
100
AcDbEntity
  8
TEXT
100
AcDbText
 10
26.056176
 20
1.466743
 30
0.0
 40
0.065
  1
ANGULAR
  7
ADESK2
100
AcDbText
  0
TEXT
  5
E0
100
AcDbEntity
  8
TEXT
100
AcDbText
 10
26.056176
 20
1.361505
 30
0.0
 40
0.065
  1
  %%P 0.5%%D
  7
ADESK2
100
AcDbText
  0
ENDBLK
  5
E2
100
AcDbEntity
  8
0
100
AcDbBlockEnd
  0
BLOCK
  5
EE
100
AcDbEntity
  8
0
100
AcDbBlockBegin
  2
A$C2E
 70
     0
 10
0.0
 20
0.0
 30
0.0
  3
A$C2E
  1

  0
TEXT
  5
E7
100
AcDbEntity
  8
TEXT
100
AcDbText
 10
24.933782
 20
16.688091
 30
0.0
 40
1.5
  1
01-24-97
100
AcDbText
  0
TEXT
  5
E8
100
AcDbEntity
  8
TEXT
100
AcDbText
 10
0.183782
 20
16.688091
 30
0.0
 40
3.0
  1
S. KYRE
100
AcDbText
  0
TEXT
  5
E9
100
AcDbEntity
  8
TEXT
100
AcDbText
 10
99.933782
 20
8.313091
 30
0.0
 40
3.0
  1
L5-END01
100
AcDbText
  0
TEXT
  5
EA
100
AcDbEntity
  8
TEXT
100
AcDbText
 10
51.558782
 20
7.188091
 30
0.0
 40
3.0
  1
B-PARTS
100
AcDbText
  0
TEXT
  5
EB
100
AcDbEntity
  8
TEXT
100
AcDbText
 10
48.683782
 20
0.188091
 30
0.0
 40
3.0
  1
1=1
100
AcDbText
  0
TEXT
  5
EC
100
AcDbEntity
  8
TEXT
100
AcDbText
 10
137.674418
 20
7.186996
 30
0.0
 40
3.0
  1
02
100
AcDbText
  0
MTEXT
  5
ED
100
AcDbEntity
  8
TEXT
100
AcDbMText
 10
90.744556
 20
23.287215
 30
0.0
 40
3.0
 41
100.0
 71
     5
 72
     1
  1
{LAYER 5A FORWARD ENDPIECE}
  0
ENDBLK
  5
EF
100
AcDbEntity
  8
0
100
AcDbBlockEnd
  0
BLOCK
  5
107
100
AcDbEntity
  8
0
100
AcDbBlockBegin
  2
A$C2F
 70
     0
 10
0.0
 20
0.0
 30
0.0
  3
A$C2F
  1

  0
TEXT
  5
F9
100
AcDbEntity
  8
TEXT
100
AcDbText
 10
15.002367
 20
4.280234
 30
0.0
 40
2.5
  1
FIBER
100
AcDbText
  0
TEXT
  5
FA
100
AcDbEntity
  8
TEXT
100
AcDbText
 10
15.002367
 20
8.565754
 30
0.0
 40
2.5
  1
CHANGE MATERIAL TO CARBON-
100
AcDbText
  0
TEXT
  5
FB
100
AcDbEntity
  8
TEXT
100
AcDbText
 10
15.002367
 20
12.599927
 30
0.0
 40
2.5
  1
ABOVE SILICON
100
AcDbText
  0
TEXT
  5
FC
100
AcDbEntity
  8
TEXT
100
AcDbText
 10
15.002367
 20
16.766594
 30
0.0
 40
2.5
  1
MOVE FRONT END UP TO 3mm
100
AcDbText
  0
TEXT
  5
FD
100
AcDbEntity
  8
TEXT
100
AcDbText
 10
15.002367
 20
22.935115
 30
0.0
 40
2.5
  1
ADDED HOLES AND SLOTS
100
AcDbText
  0
TEXT
  5
FE
100
AcDbEntity
  8
TEXT
100
AcDbText
 10
15.002367
 20
27.101782
 30
0.0
 40
2.5
  1
UPDATED DESIGN,
100
AcDbText
  0
LINE
  5
FF
100
AcDbEntity
  8
TEXT
100
AcDbLine
 10
10.059235
 20
32.224129
 30
0.0
 11
10.059235
 21
0.101782
 31
0.0
  0
LINE
  5
100
100
AcDbEntity
  8
TEXT
100
AcDbLine
 10
0.146824
 20
32.224129
 30
0.0
 11
0.146824
 21
0.101782
 31
0.0
  0
TEXT
  5
101
100
AcDbEntity
  8
TEXT
100
AcDbText
 10
2.002367
 20
16.766594
 30
0.0
 40
2.5
  1
02
100
AcDbText
  0
TEXT
  5
102
100
AcDbEntity
  8
TEXT
100
AcDbText
 10
2.002367
 20
27.101782
 30
0.0
 40
2.5
  1
01
100
AcDbText
  0
TEXT
  5
103
100
AcDbEntity
  8
TEXT
100
AcDbText
 10
81.002367
 20
16.766594
 30
0.0
 40
2.5
  1
01-27-97
100
AcDbText
  0
TEXT
  5
104
100
AcDbEntity
  8
TEXT
100
AcDbText
 10
81.002367
 20
27.101782
 30
0.0
 40
2.5
  1
05-06-96
100
AcDbText
  0
LINE
  5
105
100
AcDbEntity
  8
TEXT
100
AcDbLine
 10
79.655235
 20
32.224129
 30
0.0
 11
79.655235
 21
0.101782
 31
0.0
  0
LINE
  5
106
100
AcDbEntity
  8
TEXT
100
AcDbLine
 10
102.007235
 20
32.224129
 30
0.0
 11
102.007235
 21
0.101782
 31
0.0
  0
ENDBLK
  5
108
100
AcDbEntity
  8
0
100
AcDbBlockEnd
  0
BLOCK
  5
139
100
AcDbEntity
  8
FOOT-A
100
AcDbBlockBegin
  2
FT-L4A-F
 70
     0
 10
0.0
 20
0.0
 30
0.0
  3
FT-L4A-F
  1

  0
ARC
  5
12C
100
AcDbEntity
  8
FOOT-A
100
AcDbCircle
 10
-1.999996
 20
7.999984
 30
0.0
 40
1.999996
100
AcDbArc
 50
360.0
 51
90.0
  0
LINE
  5
12D
100
AcDbEntity
  8
FOOT-A
100
AcDbLine
 10
-1.999996
 20
9.99998
 30
0.0
 11
-44.812084
 21
9.99998
 31
0.0
  0
LINE
  5
12E
100
AcDbEntity
  8
FOOT-A
100
AcDbLine
 10
0.0
 20
0.0
 30
0.0
 11
0.0
 21
7.999984
 31
0.0
1001
ACAD
1000
ASC_BOUNDS
1002
{
1070
    19
1005
0
1002
}
  0
LINE
  5
12F
100
AcDbEntity
  8
CENTER
100
AcDbLine
 10
-19.050015
 20
7.545296
 30
0.0
 11
-19.050015
 21
3.255248
 31
0.0
  0
LINE
  5
130
100
AcDbEntity
  8
CENTER
100
AcDbLine
 10
-16.937977
 20
5.38099
 30
0.0
 11
-21.185885
 21
5.38099
 31
0.0
  0
CIRCLE
  5
131
100
AcDbEntity
  8
FOOT-A
100
AcDbCircle
 10
-19.050015
 20
5.38099
 30
0.0
 40
1.19126
  0
LINE
  5
132
100
AcDbEntity
  8
FOOT-A
100
AcDbLine
 10
0.0
 20
0.762
 30
0.0
 11
-50.763169
 21
0.762
 31
0.0
1001
ACAD
1000
ASC_BOUNDS
1002
{
1070
    19
1005
0
1002
}
  0
LINE
  5
133
100
AcDbEntity
  8
FOOT-A
100
AcDbLine
 10
0.0
 20
0.0
 30
0.0
 11
-51.102831
 21
0.0
 31
0.0
1001
ACAD
1000
ASC_BOUNDS
1002
{
1070
    19
1005
0
1002
}
  0
LINE
  5
134
100
AcDbEntity
  8
FOOT-A
100
AcDbLine
 10
-50.763169
 20
0.762
 30
0.0
 11
-68.547198
 21
20.547861
 31
0.0
1001
ACAD
1000
ASC_BOUNDS
1002
{
1070
    19
1005
0
1002
}
  0
LINE
  5
135
100
AcDbEntity
  8
FOOT-A
100
AcDbLine
 10
-51.102831
 20
0.0
 30
0.0
 11
-69.113919
 21
20.038478
 31
0.0
1001
ACAD
1000
ASC_BOUNDS
1002
{
1070
    19
1005
0
1002
}
  0
CIRCLE
  5
136
100
AcDbEntity
  8
FOOT-A
100
AcDbCircle
 10
-58.400689
 20
14.008744
 30
0.0
 40
1.19126
  0
LINE
  5
137
100
AcDbEntity
  8
FOOT-A
100
AcDbLine
 10
-69.113919
 20
20.038478
 30
0.0
 11
-66.876639
 21
22.049401
 31
0.0
1001
ACAD
1000
ASC_BOUNDS
1002
{
1070
    19
1005
0
1002
}
  0
LINE
  5
138
100
AcDbEntity
  8
FOOT-A
100
AcDbLine
 10
-44.812084
 20
9.99998
 30
0.0
 11
-66.876639
 21
22.049401
 31
0.0
  0
ENDBLK
  5
13A
100
AcDbEntity
  8
FOOT-A
100
AcDbBlockEnd
  0
BLOCK
  5
144
100
AcDbEntity
  8
0
100
AcDbBlockBegin
  2
*U5
 70
    65
 10
0.0
 20
0.0
 30
0.0
  3
*U5
  1
*TB
  0
CIRCLE
  5
13D
100
AcDbEntity
  8
FOOT-2
100
AcDbCircle
 10
0.0
 20
0.0
 30
0.0
 40
0.058
  0
LINE
  5
13E
100
AcDbEntity
  8
CENTER
100
AcDbLine
 10
-0.019333
 20
0.0
 30
0.0
 11
0.019333
 21
0.0
 31
0.0
  0
LINE
  5
13F
100
AcDbEntity
  8
CENTER
100
AcDbLine
 10
0.0
 20
-0.019333
 30
0.0
 11
0.0
 21
0.019333
 31
0.0
  0
LINE
  5
140
100
AcDbEntity
  8
CENTER
100
AcDbLine
 10
0.038667
 20
0.0
 30
0.0
 11
0.183
 21
0.0
 31
0.0
  0
LINE
  5
141
100
AcDbEntity
  8
CENTER
100
AcDbLine
 10
0.0
 20
0.038667
 30
0.0
 11
0.0
 21
0.183
 31
0.0
  0
LINE
  5
142
100
AcDbEntity
  8
CENTER
100
AcDbLine
 10
-0.038667
 20
0.0
 30
0.0
 11
-0.183
 21
0.0
 31
0.0
  0
LINE
  5
143
100
AcDbEntity
  8
CENTER
100
AcDbLine
 10
0.0
 20
-0.038667
 30
0.0
 11
0.0
 21
-0.183
 31
0.0
  0
ENDBLK
  5
145
100
AcDbEntity
  8
0
100
AcDbBlockEnd
  0
BLOCK
  5
14E
100
AcDbEntity
  8
0
100
AcDbBlockBegin
  2
*U6
 70
    65
 10
0.0
 20
0.0
 30
0.0
  3
*U6
  1
*TB
  0
CIRCLE
  5
147
100
AcDbEntity
  8
FOOT-2
100
AcDbCircle
 10
0.0
 20
0.0
 30
0.0
 40
0.046875
  0
LINE
  5
148
100
AcDbEntity
  8
CENTER
100
AcDbLine
 10
-0.015625
 20
0.0
 30
0.0
 11
0.015625
 21
0.0
 31
0.0
  0
LINE
  5
149
100
AcDbEntity
  8
CENTER
100
AcDbLine
 10
0.0
 20
-0.015625
 30
0.0
 11
0.0
 21
0.015625
 31
0.0
  0
LINE
  5
14A
100
AcDbEntity
  8
CENTER
100
AcDbLine
 10
0.03125
 20
0.0
 30
0.0
 11
0.171875
 21
0.0
 31
0.0
  0
LINE
  5
14B
100
AcDbEntity
  8
CENTER
100
AcDbLine
 10
0.0
 20
0.03125
 30
0.0
 11
0.0
 21
0.171875
 31
0.0
  0
LINE
  5
14C
100
AcDbEntity
  8
CENTER
100
AcDbLine
 10
-0.03125
 20
0.0
 30
0.0
 11
-0.171875
 21
0.0
 31
0.0
  0
LINE
  5
14D
100
AcDbEntity
  8
CENTER
100
AcDbLine
 10
0.0
 20
-0.03125
 30
0.0
 11
0.0
 21
-0.171875
 31
0.0
  0
ENDBLK
  5
14F
100
AcDbEntity
  8
0
100
AcDbBlockEnd
  0
BLOCK
  5
163
100
AcDbEntity
  8
0
100
AcDbBlockBegin
  2
*U7
 70
    65
 10
0.0
 20
0.0
 30
0.0
  3
*U7
  1
*TB
  0
POLYLINE
  5
151
100
AcDbEntity
  8
FOOT-2
100
AcDb2dPolyline
 66
     1
 10
0.0
 20
0.0
 30
0.0
 70
     1
  0
VERTEX
  5
152
100
AcDbEntity
  8
FOOT-2
100
AcDbVertex
100
AcDb2dVertex
 10
-0.176
 20
0.063
 30
0.0
 42
1.0
  0
VERTEX
  5
153
100
AcDbEntity
  8
FOOT-2
100
AcDbVertex
100
AcDb2dVertex
 10
-0.176
 20
-0.063
 30
0.0
  0
VERTEX
  5
154
100
AcDbEntity
  8
FOOT-2
100
AcDbVertex
100
AcDb2dVertex
 10
0.0
 20
-0.063
 30
0.0
 42
1.0
  0
VERTEX
  5
155
100
AcDbEntity
  8
FOOT-2
100
AcDbVertex
100
AcDb2dVertex
 10
0.0
 20
0.063
 30
0.0
  0
SEQEND
  5
156
100
AcDbEntity
  8
FOOT-2
  0
LINE
  5
157
100
AcDbEntity
  8
CENTER
100
AcDbLine
 10
-0.197
 20
0.0
 30
0.0
 11
-0.155
 21
0.0
 31
0.0
  0
LINE
  5
158
100
AcDbEntity
  8
CENTER
100
AcDbLine
 10
-0.176
 20
-0.021
 30
0.0
 11
-0.176
 21
0.021
 31
0.0
  0
LINE
  5
159
100
AcDbEntity
  8
CENTER
100
AcDbLine
 10
-0.134
 20
0.0
 30
0.0
 11
0.012
 21
0.0
 31
0.0
  0
LINE
  5
15A
100
AcDbEntity
  8
CENTER
100
AcDbLine
 10
-0.176
 20
0.042
 30
0.0
 11
-0.176
 21
0.188
 31
0.0
  0
LINE
  5
15B
100
AcDbEntity
  8
CENTER
100
AcDbLine
 10
-0.218
 20
0.0
 30
0.0
 11
-0.364
 21
0.0
 31
0.0
  0
LINE
  5
15C
100
AcDbEntity
  8
CENTER
100
AcDbLine
 10
-0.176
 20
-0.042
 30
0.0
 11
-0.176
 21
-0.188
 31
0.0
  0
LINE
  5
15D
100
AcDbEntity
  8
CENTER
100
AcDbLine
 10
-0.021
 20
0.0
 30
0.0
 11
0.021
 21
0.0
 31
0.0
  0
LINE
  5
15E
100
AcDbEntity
  8
CENTER
100
AcDbLine
 10
0.0
 20
-0.021
 30
0.0
 11
0.0
 21
0.021
 31
0.0
  0
LINE
  5
15F
100
AcDbEntity
  8
CENTER
100
AcDbLine
 10
0.042
 20
0.0
 30
0.0
 11
0.188
 21
0.0
 31
0.0
  0
LINE
  5
160
100
AcDbEntity
  8
CENTER
100
AcDbLine
 10
0.0
 20
0.042
 30
0.0
 11
0.0
 21
0.188
 31
0.0
  0
LINE
  5
161
100
AcDbEntity
  8
CENTER
100
AcDbLine
 10
-0.042
 20
0.0
 30
0.0
 11
-0.188
 21
0.0
 31
0.0
  0
LINE
  5
162
100
AcDbEntity
  8
CENTER
100
AcDbLine
 10
0.0
 20
-0.042
 30
0.0
 11
0.0
 21
-0.188
 31
0.0
  0
ENDBLK
  5
164
100
AcDbEntity
  8
0
100
AcDbBlockEnd
  0
BLOCK
  5
192
100
AcDbEntity
  8
FOOT-A
100
AcDbBlockBegin
  2
F-L4A-FT
 70
     0
 10
0.0
 20
0.0
 30
0.0
  3
F-L4A-FT
  1

  0
POLYLINE
  5
167
100
AcDbEntity
  8
FOOT-2
100
AcDb2dPolyline
 66
     1
 10
0.0
 20
0.0
 30
0.0
 70
     1
  0
VERTEX
  5
168
100
AcDbEntity
  8
FOOT-2
100
AcDbVertex
100
AcDb2dVertex
 10
0.0
 20
0.0
 30
0.0
  0
VERTEX
  5
169
100
AcDbEntity
  8
FOOT-2
100
AcDbVertex
100
AcDb2dVertex
 10
0.0
 20
1.276643
 30
0.0
  0
VERTEX
  5
16A
100
AcDbEntity
  8
FOOT-2
100
AcDbVertex
100
AcDb2dVertex
 10
-2.806391
 20
1.276643
 30
0.0
  0
VERTEX
  5
16B
100
AcDbEntity
  8
FOOT-2
100
AcDbVertex
100
AcDb2dVertex
 10
-2.806391
 20
0.0
 30
0.0
  0
SEQEND
  5
16C
100
AcDbEntity
  8
FOOT-2
  0
LINE
  5
16D
100
AcDbEntity
  8
FOOT-2
100
AcDbLine
 10
-2.806391
 20
0.03
 30
0.0
 11
0.0
 21
0.03
 31
0.0
  0
LINE
  5
16E
100
AcDbEntity
  8
FOOT-2
100
AcDbLine
 10
-2.806391
 20
1.246643
 30
0.0
 11
0.0
 21
1.246643
 31
0.0
  0
LINE
  5
16F
100
AcDbEntity
  8
FOOT-2
100
AcDbLine
 10
-2.718549
 20
0.0
 30
0.0
 11
-2.718549
 21
0.03
 31
0.0
  0
LINE
  5
170
100
AcDbEntity
  8
FOOT-2
100
AcDbLine
 10
-1.990773
 20
0.0
 30
0.0
 11
-1.990773
 21
0.03
 31
0.0
  0
LINE
  5
171
100
AcDbEntity
  8
FOOT-2
100
AcDbLine
 10
-2.718549
 20
1.276643
 30
0.0
 11
-2.718549
 21
1.246643
 31
0.0
  0
LINE
  5
172
100
AcDbEntity
  8
FOOT-2
100
AcDbLine
 10
-1.990773
 20
1.276643
 30
0.0
 11
-1.990773
 21
1.246643
 31
0.0
  0
LINE
  5
173
100
AcDbEntity
  8
FOOT-2
100
AcDbLine
 10
-1.994082
 20
0.03
 30
0.0
 11
-1.994082
 21
1.246643
 31
0.0
  0
LINE
  5
174
100
AcDbEntity
  8
FOOT-2
100
AcDbLine
 10
-2.409362
 20
0.03
 30
0.0
 11
-2.409362
 21
1.246643
 31
0.0
  0
INSERT
  5
175
100
AcDbEntity
  8
FOOT-2
100
AcDbBlockReference
  2
*U5
 10
-1.620379
 20
0.638322
 30
0.0
1001
TB_S_MPD
1070
   100
1000
HOLE
1070
   101
1000
TOOLBOX 13.0 HOLE 2.0
1070
   112
1000
#32 (.116) DIAMETER HOLE
1070
   102
1000
Near side
1070
   103
1000
ANSI-Number
1070
   104
1000
hole
1070
   105
1000
_usn
1070
   304
1040
0.0
1070
   305
1040
0.0
1070
   306
1040
0.116
1070
   302
1040
0.0
1070
   303
1040
0.0
1070
   307
1040
0.03
1070
   300
1040
0.125
1070
   110
1000
1
1070
   111
1000
#32
1070
   116
1000
T
1070
   308
1040
0.03
  0
INSERT
  5
176
100
AcDbEntity
  8
FOOT-2
100
AcDbBlockReference
  2
*U6
 10
-0.232202
 20
0.638322
 30
0.0
1001
TB_S_MPD
1070
   100
1000
HOLE
1070
   101
1000
TOOLBOX 13.0 HOLE 2.0
1070
   112
1000
3/32 (.0938) DIAMETER HOLE
1070
   102
1000
Near side
1070
   103
1000
ANSI-Fraction
1070
   104
1000
hole
1070
   105
1000
_usf
1070
   304
1040
0.0
1070
   305
1040
0.0
1070
   306
1040
0.09375
1070
   302
1040
0.0
1070
   303
1040
0.0
1070
   307
1040
0.03
1070
   300
1040
0.125
1070
   110
1000
1
1070
   111
1000
3/32
1070
   116
1000
T
1070
   308
1040
0.03
  0
LINE
  5
177
100
AcDbEntity
  8
CENTER
100
AcDbLine
 10
-2.47762
 20
0.638322
 30
0.0
 11
-2.712539
 21
0.638322
 31
0.0
  0
LINE
  5
178
100
AcDbEntity
  8
CENTER
100
AcDbLine
 10
-2.577538
 20
0.454539
 30
0.0
 11
-2.577538
 21
0.820011
 31
0.0
  0
INSERT
  5
179
100
AcDbEntity
  8
FOOT-2
100
AcDbBlockReference
  2
*U7
 10
-0.12601
 20
0.323322
 30
0.0
1001
TB_S_MPD
1070
   100
1000
SLOT
1070
   101
1000
TOOLBOX 13.0 SLOT 2.0
1070
   103
1000
STD
1070
   306
1040
0.126
1070
   307
1040
0.03
1070
   112
1000
SLOT
1070
   102
1000
Near side
1070
   116
1000
T
1070
   308
1040
0.03
1070
   309
1040
0.063
1070
   310
1040
0.176
1070
   311
1040
0.0
  0
INSERT
  5
17A
100
AcDbEntity
  8
FOOT-2
100
AcDbBlockReference
  2
*U7
 10
-0.12601
 20
0.953322
 30
0.0
1001
TB_S_MPD
1070
   100
1000
SLOT
1070
   101
1000
TOOLBOX 13.0 SLOT 2.0
1070
   103
1000
STD
1070
   306
1040
0.126
1070
   307
1040
0.03
1070
   112
1000
SLOT
1070
   102
1000
Near side
1070
   116
1000
T
1070
   308
1040
0.03
1070
   309
1040
0.063
1070
   310
1040
0.176
1070
   311
1040
0.0
  0
POLYLINE
  5
17B
100
AcDbEntity
  8
FOOT-2
100
AcDb2dPolyline
 66
     1
 10
0.0
 20
0.0
 30
0.0
 70
     1
  0
VERTEX
  5
17C
100
AcDbEntity
  8
FOOT-2
100
AcDbVertex
100
AcDb2dVertex
 10
-0.526616
 20
0.913922
 30
0.0
  0
VERTEX
  5
17D
100
AcDbEntity
  8
FOOT-2
100
AcDbVertex
100
AcDb2dVertex
 10
-0.526616
 20
0.992722
 30
0.0
 42
-0.414214
  0
VERTEX
  5
17E
100
AcDbEntity
  8
FOOT-2
100
AcDbVertex
100
AcDb2dVertex
 10
-0.506916
 20
1.012422
 30
0.0
  0
VERTEX
  5
17F
100
AcDbEntity
  8
FOOT-2
100
AcDbVertex
100
AcDb2dVertex
 10
-0.408516
 20
1.012422
 30
0.0
 42
-0.414214
  0
VERTEX
  5
180
100
AcDbEntity
  8
FOOT-2
100
AcDbVertex
100
AcDb2dVertex
 10
-0.388816
 20
0.992722
 30
0.0
  0
VERTEX
  5
181
100
AcDbEntity
  8
FOOT-2
100
AcDbVertex
100
AcDb2dVertex
 10
-0.388816
 20
0.913922
 30
0.0
 42
-0.414214
  0
VERTEX
  5
182
100
AcDbEntity
  8
FOOT-2
100
AcDbVertex
100
AcDb2dVertex
 10
-0.408516
 20
0.894222
 30
0.0
  0
VERTEX
  5
183
100
AcDbEntity
  8
FOOT-2
100
AcDbVertex
100
AcDb2dVertex
 10
-0.506916
 20
0.894222
 30
0.0
 42
-0.414214
  0
SEQEND
  5
184
100
AcDbEntity
  8
FOOT-2
  0
POLYLINE
  5
185
100
AcDbEntity
  8
FOOT-2
100
AcDb2dPolyline
 66
     1
 10
0.0
 20
0.0
 30
0.0
 70
     1
  0
VERTEX
  5
186
100
AcDbEntity
  8
FOOT-2
100
AcDbVertex
100
AcDb2dVertex
 10
-0.526616
 20
0.283922
 30
0.0
  0
VERTEX
  5
187
100
AcDbEntity
  8
FOOT-2
100
AcDbVertex
100
AcDb2dVertex
 10
-0.526616
 20
0.362722
 30
0.0
 42
-0.414214
  0
VERTEX
  5
188
100
AcDbEntity
  8
FOOT-2
100
AcDbVertex
100
AcDb2dVertex
 10
-0.506916
 20
0.382422
 30
0.0
  0
VERTEX
  5
189
100
AcDbEntity
  8
FOOT-2
100
AcDbVertex
100
AcDb2dVertex
 10
-0.408516
 20
0.382422
 30
0.0
 42
-0.414214
  0
VERTEX
  5
18A
100
AcDbEntity
  8
FOOT-2
100
AcDbVertex
100
AcDb2dVertex
 10
-0.388816
 20
0.362722
 30
0.0
  0
VERTEX
  5
18B
100
AcDbEntity
  8
FOOT-2
100
AcDbVertex
100
AcDb2dVertex
 10
-0.388816
 20
0.283922
 30
0.0
 42
-0.414214
  0
VERTEX
  5
18C
100
AcDbEntity
  8
FOOT-2
100
AcDbVertex
100
AcDb2dVertex
 10
-0.408516
 20
0.264222
 30
0.0
  0
VERTEX
  5
18D
100
AcDbEntity
  8
FOOT-2
100
AcDbVertex
100
AcDb2dVertex
 10
-0.506916
 20
0.264222
 30
0.0
 42
-0.414214
  0
SEQEND
  5
18E
100
AcDbEntity
  8
FOOT-2
  0
LINE
  5
18F
100
AcDbEntity
  8
FOOT-A
100
AcDbLine
 10
-2.784079
 20
0.03
 30
0.0
 11
-2.784079
 21
1.246643
 31
0.0
  0
ELLIPSE
  5
190
100
AcDbEntity
  8
FOOT-A
100
AcDbEllipse
 10
-2.577538
 20
0.638322
 30
0.0
 11
0.0
 21
0.046875
 31
0.0
210
0.0
220
0.0
230
1.0
 40
0.668838
 41
0.0
 42
6.2831853071796
  0
ELLIPSE
  5
191
100
AcDbEntity
  8
FOOT-A
100
AcDbEllipse
 10
-2.59985
 20
0.638322
 30
0.0
 11
0.0
 21
0.046875
 31
0.0
210
0.0
220
0.0
230
1.0
 40
0.668838
 41
-2.777790038218989
 42
-0.3638026153709249
  0
ENDBLK
  5
193
100
AcDbEntity
  8
FOOT-A
100
AcDbBlockEnd
  0
BLOCK
  5
1F5
100
AcDbEntity
  8
0
100
AcDbBlockBegin
  2
*X9
 70
    65
 10
0.0
 20
0.0
 30
0.0
  3
*X9
  1
*TB
  0
LINE
  5
1F7
100
AcDbEntity
  8
0
 62
     0
100
AcDbLine
 10
378.78226
 20
110.081683
 30
0.0
 11
379.54426
 21
110.843683
 31
0.0
  0
LINE
  5
1F8
100
AcDbEntity
  8
0
 62
     0
100
AcDbLine
 10
377.014493
 20
110.081683
 30
0.0
 11
377.776493
 21
110.843683
 31
0.0
  0
LINE
  5
1F9
100
AcDbEntity
  8
0
 62
     0
100
AcDbLine
 10
375.246726
 20
110.081683
 30
0.0
 11
376.008726
 21
110.843683
 31
0.0
  0
LINE
  5
1FA
100
AcDbEntity
  8
0
 62
     0
100
AcDbLine
 10
373.478959
 20
110.081683
 30
0.0
 11
374.240959
 21
110.843683
 31
0.0
  0
LINE
  5
1FB
100
AcDbEntity
  8
0
 62
     0
100
AcDbLine
 10
372.138286
 20
110.508777
 30
0.0
 11
372.677866
 21
111.048357
 31
0.0
  0
LINE
  5
1FC
100
AcDbEntity
  8
0
 62
     0
100
AcDbLine
 10
371.301498
 20
111.439756
 30
0.0
 11
371.841078
 21
111.979336
 31
0.0
  0
LINE
  5
1FD
100
AcDbEntity
  8
0
 62
     0
100
AcDbLine
 10
370.464711
 20
112.370736
 30
0.0
 11
371.00429
 21
112.910315
 31
0.0
  0
LINE
  5
1FE
100
AcDbEntity
  8
0
 62
     0
100
AcDbLine
 10
369.627923
 20
113.301715
 30
0.0
 11
370.167503
 21
113.841295
 31
0.0
  0
LINE
  5
1FF
100
AcDbEntity
  8
0
 62
     0
100
AcDbLine
 10
368.791136
 20
114.232694
 30
0.0
 11
369.330715
 21
114.772274
 31
0.0
  0
LINE
  5
200
100
AcDbEntity
  8
0
 62
     0
100
AcDbLine
 10
367.954348
 20
115.163674
 30
0.0
 11
368.493928
 21
115.703253
 31
0.0
  0
LINE
  5
201
100
AcDbEntity
  8
0
 62
     0
100
AcDbLine
 10
367.11756
 20
116.094653
 30
0.0
 11
367.65714
 21
116.634233
 31
0.0
  0
LINE
  5
202
100
AcDbEntity
  8
0
 62
     0
100
AcDbLine
 10
366.280773
 20
117.025632
 30
0.0
 11
366.820352
 21
117.565212
 31
0.0
  0
LINE
  5
203
100
AcDbEntity
  8
0
 62
     0
100
AcDbLine
 10
365.443985
 20
117.956612
 30
0.0
 11
365.983565
 21
118.496191
 31
0.0
  0
LINE
  5
204
100
AcDbEntity
  8
0
 62
     0
100
AcDbLine
 10
364.607197
 20
118.887591
 30
0.0
 11
365.146777
 21
119.427171
 31
0.0
  0
LINE
  5
205
100
AcDbEntity
  8
0
 62
     0
100
AcDbLine
 10
363.77041
 20
119.81857
 30
0.0
 11
364.309989
 21
120.35815
 31
0.0
  0
LINE
  5
206
100
AcDbEntity
  8
0
 62
     0
100
AcDbLine
 10
362.933622
 20
120.74955
 30
0.0
 11
363.473202
 21
121.289129
 31
0.0
  0
LINE
  5
207
100
AcDbEntity
  8
0
 62
     0
100
AcDbLine
 10
362.096835
 20
121.680529
 30
0.0
 11
362.636414
 21
122.220109
 31
0.0
  0
LINE
  5
208
100
AcDbEntity
  8
0
 62
     0
100
AcDbLine
 10
361.260047
 20
122.611508
 30
0.0
 11
361.799627
 21
123.151088
 31
0.0
  0
LINE
  5
209
100
AcDbEntity
  8
0
 62
     0
100
AcDbLine
 10
360.423259
 20
123.542488
 30
0.0
 11
360.962839
 21
124.082067
 31
0.0
  0
LINE
  5
20A
100
AcDbEntity
  8
0
 62
     0
100
AcDbLine
 10
359.586472
 20
124.473467
 30
0.0
 11
360.126051
 21
125.013047
 31
0.0
  0
LINE
  5
20B
100
AcDbEntity
  8
0
 62
     0
100
AcDbLine
 10
358.749684
 20
125.404446
 30
0.0
 11
359.289264
 21
125.944026
 31
0.0
  0
LINE
  5
20C
100
AcDbEntity
  8
0
 62
     0
100
AcDbLine
 10
357.912896
 20
126.335426
 30
0.0
 11
358.452476
 21
126.875005
 31
0.0
  0
LINE
  5
20D
100
AcDbEntity
  8
0
 62
     0
100
AcDbLine
 10
357.076109
 20
127.266405
 30
0.0
 11
357.615689
 21
127.805985
 31
0.0
  0
LINE
  5
20E
100
AcDbEntity
  8
0
 62
     0
100
AcDbLine
 10
356.239321
 20
128.197384
 30
0.0
 11
356.778901
 21
128.736964
 31
0.0
  0
LINE
  5
20F
100
AcDbEntity
  8
0
 62
     0
100
AcDbLine
 10
355.402534
 20
129.128364
 30
0.0
 11
355.942113
 21
129.667943
 31
0.0
  0
LINE
  5
210
100
AcDbEntity
  8
0
 62
     0
100
AcDbLine
 10
354.565746
 20
130.059343
 30
0.0
 11
355.105326
 21
130.598923
 31
0.0
  0
LINE
  5
211
100
AcDbEntity
  8
0
 62
     0
100
AcDbLine
 10
380.550027
 20
110.081683
 30
0.0
 11
381.312027
 21
110.843683
 31
0.0
  0
LINE
  5
212
100
AcDbEntity
  8
0
 62
     0
100
AcDbLine
 10
382.317794
 20
110.081683
 30
0.0
 11
383.079794
 21
110.843683
 31
0.0
  0
LINE
  5
213
100
AcDbEntity
  8
0
 62
     0
100
AcDbLine
 10
384.085561
 20
110.081683
 30
0.0
 11
384.847561
 21
110.843683
 31
0.0
  0
LINE
  5
214
100
AcDbEntity
  8
0
 62
     0
100
AcDbLine
 10
385.853328
 20
110.081683
 30
0.0
 11
386.615328
 21
110.843683
 31
0.0
  0
LINE
  5
215
100
AcDbEntity
  8
0
 62
     0
100
AcDbLine
 10
387.621095
 20
110.081683
 30
0.0
 11
388.383095
 21
110.843683
 31
0.0
  0
LINE
  5
216
100
AcDbEntity
  8
0
 62
     0
100
AcDbLine
 10
389.388862
 20
110.081683
 30
0.0
 11
390.150862
 21
110.843683
 31
0.0
  0
LINE
  5
217
100
AcDbEntity
  8
0
 62
     0
100
AcDbLine
 10
391.156629
 20
110.081683
 30
0.0
 11
391.918629
 21
110.843683
 31
0.0
  0
LINE
  5
218
100
AcDbEntity
  8
0
 62
     0
100
AcDbLine
 10
392.924396
 20
110.081683
 30
0.0
 11
393.686396
 21
110.843683
 31
0.0
  0
LINE
  5
219
100
AcDbEntity
  8
0
 62
     0
100
AcDbLine
 10
394.692162
 20
110.081683
 30
0.0
 11
395.454162
 21
110.843683
 31
0.0
  0
LINE
  5
21A
100
AcDbEntity
  8
0
 62
     0
100
AcDbLine
 10
396.459929
 20
110.081683
 30
0.0
 11
397.221929
 21
110.843683
 31
0.0
  0
LINE
  5
21B
100
AcDbEntity
  8
0
 62
     0
100
AcDbLine
 10
398.227696
 20
110.081683
 30
0.0
 11
398.989696
 21
110.843683
 31
0.0
  0
LINE
  5
21C
100
AcDbEntity
  8
0
 62
     0
100
AcDbLine
 10
399.995463
 20
110.081683
 30
0.0
 11
400.757463
 21
110.843683
 31
0.0
  0
LINE
  5
21D
100
AcDbEntity
  8
0
 62
     0
100
AcDbLine
 10
401.76323
 20
110.081683
 30
0.0
 11
402.52523
 21
110.843683
 31
0.0
  0
LINE
  5
21E
100
AcDbEntity
  8
0
 62
     0
100
AcDbLine
 10
403.530997
 20
110.081683
 30
0.0
 11
404.292997
 21
110.843683
 31
0.0
  0
LINE
  5
21F
100
AcDbEntity
  8
0
 62
     0
100
AcDbLine
 10
405.298764
 20
110.081683
 30
0.0
 11
406.060764
 21
110.843683
 31
0.0
  0
LINE
  5
220
100
AcDbEntity
  8
0
 62
     0
100
AcDbLine
 10
407.066531
 20
110.081683
 30
0.0
 11
407.828531
 21
110.843683
 31
0.0
  0
LINE
  5
221
100
AcDbEntity
  8
0
 62
     0
100
AcDbLine
 10
408.834298
 20
110.081683
 30
0.0
 11
409.596298
 21
110.843683
 31
0.0
  0
LINE
  5
222
100
AcDbEntity
  8
0
 62
     0
100
AcDbLine
 10
410.602065
 20
110.081683
 30
0.0
 11
411.364065
 21
110.843683
 31
0.0
  0
LINE
  5
223
100
AcDbEntity
  8
0
 62
     0
100
AcDbLine
 10
412.369832
 20
110.081683
 30
0.0
 11
413.131832
 21
110.843683
 31
0.0
  0
LINE
  5
224
100
AcDbEntity
  8
0
 62
     0
100
AcDbLine
 10
414.137599
 20
110.081683
 30
0.0
 11
414.899599
 21
110.843683
 31
0.0
  0
LINE
  5
225
100
AcDbEntity
  8
0
 62
     0
100
AcDbLine
 10
415.905366
 20
110.081683
 30
0.0
 11
416.667366
 21
110.843683
 31
0.0
  0
LINE
  5
226
100
AcDbEntity
  8
0
 62
     0
100
AcDbLine
 10
417.673133
 20
110.081683
 30
0.0
 11
418.435133
 21
110.843683
 31
0.0
  0
LINE
  5
227
100
AcDbEntity
  8
0
 62
     0
100
AcDbLine
 10
419.4409
 20
110.081683
 30
0.0
 11
420.2029
 21
110.843683
 31
0.0
  0
LINE
  5
228
100
AcDbEntity
  8
0
 62
     0
100
AcDbLine
 10
421.208667
 20
110.081683
 30
0.0
 11
421.970667
 21
110.843683
 31
0.0
  0
LINE
  5
229
100
AcDbEntity
  8
0
 62
     0
100
AcDbLine
 10
422.976434
 20
110.081683
 30
0.0
 11
423.625
 21
110.730249
 31
0.0
  0
ENDBLK
  5
22A
100
AcDbEntity
  8
0
100
AcDbBlockEnd
  0
BLOCK
  5
337
100
AcDbEntity
  8
0
100
AcDbBlockBegin
  2
*D10
 70
    65
 10
0.0
 20
0.0
 30
0.0
  3
*D10
  1
*TB
  0
LINE
  5
338
100
AcDbEntity
  8
0
  6
BYBLOCK
 62
     0
100
AcDbLine
 10
423.625
 20
108.494183
 30
0.0
 11
423.625
 21
86.085466
 31
0.0
  0
LINE
  5
339
100
AcDbEntity
  8
0
  6
BYBLOCK
 62
     0
100
AcDbLine
 10
360.652311
 20
90.657466
 30
0.0
 11
356.080311
 21
90.657466
 31
0.0
  0
LINE
  5
33A
100
AcDbEntity
  8
0
  6
BYBLOCK
 62
     0
100
AcDbLine
 10
428.197
 20
90.657466
 30
0.0
 11
432.769
 21
90.657466
 31
0.0
  0
SOLID
  5
33B
100
AcDbEntity
  8
0
  6
BYBLOCK
 62
     0
100
AcDbTrace
 10
360.652311
 20
91.419466
 30
0.0
 11
360.652311
 21
89.895466
 31
0.0
 12
365.224311
 22
90.657466
 32
0.0
 13
365.224311
 23
90.657466
 33
0.0
  0
SOLID
  5
33C
100
AcDbEntity
  8
0
  6
BYBLOCK
 62
     0
100
AcDbTrace
 10
428.197
 20
91.419466
 30
0.0
 11
428.197
 21
89.895466
 31
0.0
 12
423.625
 22
90.657466
 32
0.0
 13
423.625
 23
90.657466
 33
0.0
  0
MTEXT
  5
33D
100
AcDbEntity
  8
0
  6
BYBLOCK
 62
     0
100
AcDbMText
 10
462.868
 20
90.657466
 30
0.0
 40
4.572
 41
0.0
 71
     5
 72
     1
  1
\A1;58.40mm[2.299"]
  0
POINT
  5
33E
100
AcDbEntity
  8
DEFPOINTS
  6
BYBLOCK
 62
     0
100
AcDbPoint
 10
365.224311
 20
70.873066
 30
0.0
  0
POINT
  5
33F
100
AcDbEntity
  8
DEFPOINTS
  6
BYBLOCK
 62
     0
100
AcDbPoint
 10
423.625
 20
110.081683
 30
0.0
  0
POINT
  5
340
100
AcDbEntity
  8
DEFPOINTS
  6
BYBLOCK
 62
     0
100
AcDbPoint
 10
423.625
 20
90.657466
 30
0.0
  0
ENDBLK
  5
341
100
AcDbEntity
  8
0
100
AcDbBlockEnd
  0
BLOCK
  5
342
100
AcDbEntity
  8
0
100
AcDbBlockBegin
  2
*D11
 70
    65
 10
0.0
 20
0.0
 30
0.0
  3
*D11
  1
*TB
  0
LINE
  5
343
100
AcDbEntity
  8
0
  6
BYBLOCK
 62
     0
100
AcDbLine
 10
404.574985
 20
111.749431
 30
0.0
 11
404.574985
 21
73.724321
 31
0.0
  0
LINE
  5
344
100
AcDbEntity
  8
0
  6
BYBLOCK
 62
     0
100
AcDbLine
 10
360.652311
 20
78.296321
 30
0.0
 11
356.080311
 21
78.296321
 31
0.0
  0
LINE
  5
345
100
AcDbEntity
  8
0
  6
BYBLOCK
 62
     0
100
AcDbLine
 10
409.146985
 20
78.296321
 30
0.0
 11
413.718985
 21
78.296321
 31
0.0
  0
SOLID
  5
346
100
AcDbEntity
  8
0
  6
BYBLOCK
 62
     0
100
AcDbTrace
 10
360.652311
 20
79.058321
 30
0.0
 11
360.652311
 21
77.534321
 31
0.0
 12
365.224311
 22
78.296321
 32
0.0
 13
365.224311
 23
78.296321
 33
0.0
  0
SOLID
  5
347
100
AcDbEntity
  8
0
  6
BYBLOCK
 62
     0
100
AcDbTrace
 10
409.146985
 20
79.058321
 30
0.0
 11
409.146985
 21
77.534321
 31
0.0
 12
404.574985
 22
78.296321
 32
0.0
 13
404.574985
 23
78.296321
 33
0.0
  0
MTEXT
  5
348
100
AcDbEntity
  8
0
  6
BYBLOCK
 62
     0
100
AcDbMText
 10
468.963985
 20
78.296321
 30
0.0
 40
4.572
 41
0.0
 71
     5
 72
     1
  1
\A1;39.35mm±0.03mm[1.549"±0.001"]
  0
POINT
  5
349
100
AcDbEntity
  8
DEFPOINTS
  6
BYBLOCK
 62
     0
100
AcDbPoint
 10
365.224311
 20
70.873066
 30
0.0
  0
POINT
  5
34A
100
AcDbEntity
  8
DEFPOINTS
  6
BYBLOCK
 62
     0
100
AcDbPoint
 10
404.574985
 20
113.336931
 30
0.0
  0
POINT
  5
34B
100
AcDbEntity
  8
DEFPOINTS
  6
BYBLOCK
 62
     0
100
AcDbPoint
 10
404.574985
 20
78.296321
 30
0.0
  0
ENDBLK
  5
34C
100
AcDbEntity
  8
0
100
AcDbBlockEnd
  0
BLOCK
  5
27E
100
AcDbEntity
  8
0
100
AcDbBlockBegin
  2
*D12
 70
    65
 10
0.0
 20
0.0
 30
0.0
  3
*D12
  1
*TB
  0
LINE
  5
27F
100
AcDbEntity
  8
0
  6
BYBLOCK
 62
     0
100
AcDbLine
 10
408.274523
 20
115.462673
 30
0.0
 11
514.964678
 21
115.462673
 31
0.0
  0
LINE
  5
280
100
AcDbEntity
  8
0
  6
BYBLOCK
 62
     0
100
AcDbLine
 10
510.392678
 20
110.890673
 30
0.0
 11
510.392678
 21
106.318673
 31
0.0
  0
LINE
  5
281
100
AcDbEntity
  8
0
  6
BYBLOCK
 62
     0
100
AcDbLine
 10
510.392678
 20
128.662427
 30
0.0
 11
510.392678
 21
133.234427
 31
0.0
  0
LINE
  5
282
100
AcDbEntity
  8
0
  6
BYBLOCK
 62
     0
100
AcDbLine
 10
510.392678
 20
133.234427
 30
0.0
 11
514.964678
 21
133.234427
 31
0.0
  0
SOLID
  5
283
100
AcDbEntity
  8
0
  6
BYBLOCK
 62
     0
100
AcDbTrace
 10
509.630678
 20
110.890673
 30
0.0
 11
511.154678
 21
110.890673
 31
0.0
 12
510.392678
 22
115.462673
 32
0.0
 13
510.392678
 23
115.462673
 33
0.0
  0
SOLID
  5
284
100
AcDbEntity
  8
0
  6
BYBLOCK
 62
     0
100
AcDbTrace
 10
509.630678
 20
128.662427
 30
0.0
 11
511.154678
 21
128.662427
 31
0.0
 12
510.392678
 22
124.090427
 32
0.0
 13
510.392678
 23
124.090427
 33
0.0
  0
MTEXT
  5
285
100
AcDbEntity
  8
0
  6
BYBLOCK
 62
     0
100
AcDbMText
 10
567.923678
 20
133.234427
 30
0.0
 40
4.572
 41
0.0
 71
     5
 72
     1
  1
\A1;8.63mm±0.03mm[0.340"±0.001"]
  0
POINT
  5
286
100
AcDbEntity
  8
DEFPOINTS
  6
BYBLOCK
 62
     0
100
AcDbPoint
 10
406.687023
 20
115.462673
 30
0.0
  0
POINT
  5
287
100
AcDbEntity
  8
DEFPOINTS
  6
BYBLOCK
 62
     0
100
AcDbPoint
 10
642.022371
 20
124.090427
 30
0.0
  0
POINT
  5
288
100
AcDbEntity
  8
DEFPOINTS
  6
BYBLOCK
 62
     0
100
AcDbPoint
 10
510.392678
 20
124.090427
 30
0.0
  0
ENDBLK
  5
289
100
AcDbEntity
  8
0
100
AcDbBlockEnd
  0
BLOCK
  5
271
100
AcDbEntity
  8
0
100
AcDbBlockBegin
  2
*D13
 70
    65
 10
0.0
 20
0.0
 30
0.0
  3
*D13
  1
*TB
  0
LINE
  5
272
100
AcDbEntity
  8
0
  6
BYBLOCK
 62
     0
100
AcDbLine
 10
423.212504
 20
120.081663
 30
0.0
 11
446.90528
 21
120.081663
 31
0.0
  0
LINE
  5
273
100
AcDbEntity
  8
0
  6
BYBLOCK
 62
     0
100
AcDbLine
 10
442.33328
 20
115.509663
 30
0.0
 11
442.33328
 21
110.937663
 31
0.0
  0
LINE
  5
274
100
AcDbEntity
  8
0
  6
BYBLOCK
 62
     0
100
AcDbLine
 10
442.33328
 20
128.662427
 30
0.0
 11
442.33328
 21
133.234427
 31
0.0
  0
LINE
  5
275
100
AcDbEntity
  8
0
  6
BYBLOCK
 62
     0
100
AcDbLine
 10
442.33328
 20
133.234427
 30
0.0
 11
446.90528
 21
133.234427
 31
0.0
  0
SOLID
  5
276
100
AcDbEntity
  8
0
  6
BYBLOCK
 62
     0
100
AcDbTrace
 10
441.57128
 20
115.509663
 30
0.0
 11
443.09528
 21
115.509663
 31
0.0
 12
442.33328
 22
120.081663
 32
0.0
 13
442.33328
 23
120.081663
 33
0.0
  0
SOLID
  5
277
100
AcDbEntity
  8
0
  6
BYBLOCK
 62
     0
100
AcDbTrace
 10
441.57128
 20
128.662427
 30
0.0
 11
443.09528
 21
128.662427
 31
0.0
 12
442.33328
 22
124.090427
 32
0.0
 13
442.33328
 23
124.090427
 33
0.0
  0
MTEXT
  5
278
100
AcDbEntity
  8
0
  6
BYBLOCK
 62
     0
100
AcDbMText
 10
472.81328
 20
133.234427
 30
0.0
 40
4.572
 41
0.0
 71
     5
 72
     1
  1
\A1;4.01mm[0.158"]
  0
POINT
  5
279
100
AcDbEntity
  8
DEFPOINTS
  6
BYBLOCK
 62
     0
100
AcDbPoint
 10
421.625004
 20
120.081663
 30
0.0
  0
POINT
  5
27A
100
AcDbEntity
  8
DEFPOINTS
  6
BYBLOCK
 62
     0
100
AcDbPoint
 10
642.022371
 20
124.090427
 30
0.0
  0
POINT
  5
27B
100
AcDbEntity
  8
DEFPOINTS
  6
BYBLOCK
 62
     0
100
AcDbPoint
 10
442.33328
 20
124.090427
 30
0.0
  0
ENDBLK
  5
27C
100
AcDbEntity
  8
0
100
AcDbBlockEnd
  0
BLOCK
  5
28B
100
AcDbEntity
  8
0
100
AcDbBlockBegin
  2
*D14
 70
    65
 10
0.0
 20
0.0
 30
0.0
  3
*D14
  1
*TB
  0
LINE
  5
28C
100
AcDbEntity
  8
0
  6
BYBLOCK
 62
     0
100
AcDbLine
 10
425.2125
 20
110.081683
 30
0.0
 11
632.236258
 21
110.081683
 31
0.0
  0
LINE
  5
28D
100
AcDbEntity
  8
0
  6
BYBLOCK
 62
     0
100
AcDbLine
 10
627.664258
 20
105.509683
 30
0.0
 11
627.664258
 21
100.937683
 31
0.0
  0
LINE
  5
28E
100
AcDbEntity
  8
0
  6
BYBLOCK
 62
     0
100
AcDbLine
 10
627.664258
 20
128.662427
 30
0.0
 11
627.664258
 21
133.234427
 31
0.0
  0
LINE
  5
28F
100
AcDbEntity
  8
0
  6
BYBLOCK
 62
     0
100
AcDbLine
 10
627.664258
 20
133.234427
 30
0.0
 11
632.236258
 21
133.234427
 31
0.0
  0
SOLID
  5
290
100
AcDbEntity
  8
0
  6
BYBLOCK
 62
     0
100
AcDbTrace
 10
626.902258
 20
105.509683
 30
0.0
 11
628.426258
 21
105.509683
 31
0.0
 12
627.664258
 22
110.081683
 32
0.0
 13
627.664258
 23
110.081683
 33
0.0
  0
SOLID
  5
291
100
AcDbEntity
  8
0
  6
BYBLOCK
 62
     0
100
AcDbTrace
 10
626.902258
 20
128.662427
 30
0.0
 11
628.426258
 21
128.662427
 31
0.0
 12
627.664258
 22
124.090427
 32
0.0
 13
627.664258
 23
124.090427
 33
0.0
  0
MTEXT
  5
292
100
AcDbEntity
  8
0
  6
BYBLOCK
 62
     0
100
AcDbMText
 10
691.443658
 20
133.234427
 30
0.0
 40
4.572
 41
0.0
 71
     5
 72
     1
  1
\A1;14.01mm\S 0.00mm^ -0.05mm;{\o\l\H10.972800;[}0.552"\S 0.000"^ -0.002";{\o\l\H10.972800;]}
  0
POINT
  5
293
100
AcDbEntity
  8
DEFPOINTS
  6
BYBLOCK
 62
     0
100
AcDbPoint
 10
423.625
 20
110.081683
 30
0.0
  0
POINT
  5
294
100
AcDbEntity
  8
DEFPOINTS
  6
BYBLOCK
 62
     0
100
AcDbPoint
 10
642.022371
 20
124.090427
 30
0.0
  0
POINT
  5
295
100
AcDbEntity
  8
DEFPOINTS
  6
BYBLOCK
 62
     0
100
AcDbPoint
 10
627.664258
 20
124.090427
 30
0.0
  0
ENDBLK
  5
296
100
AcDbEntity
  8
0
100
AcDbBlockEnd
  0
BLOCK
  5
314
100
AcDbEntity
  8
0
100
AcDbBlockBegin
  2
*D15
 70
    65
 10
0.0
 20
0.0
 30
0.0
  3
*D15
  1
*TB
  0
LINE
  5
315
100
AcDbEntity
  8
0
  6
BYBLOCK
 62
     0
100
AcDbLine
 10
378.812916
 20
121.669163
 30
0.0
 11
378.812916
 21
160.27946
 31
0.0
  0
LINE
  5
316
100
AcDbEntity
  8
0
  6
BYBLOCK
 62
     0
100
AcDbLine
 10
360.652311
 20
155.70746
 30
0.0
 11
356.080311
 21
155.70746
 31
0.0
  0
LINE
  5
317
100
AcDbEntity
  8
0
  6
BYBLOCK
 62
     0
100
AcDbLine
 10
383.384916
 20
155.70746
 30
0.0
 11
387.956916
 21
155.70746
 31
0.0
  0
SOLID
  5
318
100
AcDbEntity
  8
0
  6
BYBLOCK
 62
     0
100
AcDbTrace
 10
360.652311
 20
156.46946
 30
0.0
 11
360.652311
 21
154.94546
 31
0.0
 12
365.224311
 22
155.70746
 32
0.0
 13
365.224311
 23
155.70746
 33
0.0
  0
SOLID
  5
319
100
AcDbEntity
  8
0
  6
BYBLOCK
 62
     0
100
AcDbTrace
 10
383.384916
 20
156.46946
 30
0.0
 11
383.384916
 21
154.94546
 31
0.0
 12
378.812916
 22
155.70746
 32
0.0
 13
378.812916
 23
155.70746
 33
0.0
  0
MTEXT
  5
31A
100
AcDbEntity
  8
0
  6
BYBLOCK
 62
     0
100
AcDbMText
 10
417.293916
 20
155.70746
 30
0.0
 40
4.572
 41
0.0
 71
     5
 72
     1
  1
\A1;13.59mm[0.535"]
  0
POINT
  5
31B
100
AcDbEntity
  8
DEFPOINTS
  6
BYBLOCK
 62
     0
100
AcDbPoint
 10
365.224311
 20
70.873066
 30
0.0
  0
POINT
  5
31C
100
AcDbEntity
  8
DEFPOINTS
  6
BYBLOCK
 62
     0
100
AcDbPoint
 10
378.812916
 20
120.081663
 30
0.0
  0
POINT
  5
31D
100
AcDbEntity
  8
DEFPOINTS
  6
BYBLOCK
 62
     0
100
AcDbPoint
 10
378.812916
 20
155.70746
 30
0.0
  0
ENDBLK
  5
31E
100
AcDbEntity
  8
0
100
AcDbBlockEnd
  0
BLOCK
  5
2A6
100
AcDbEntity
  8
0
100
AcDbBlockBegin
  2
*D16
 70
    65
 10
0.0
 20
0.0
 30
0.0
  3
*D16
  1
*TB
  0
LINE
  5
2A7
100
AcDbEntity
  8
0
  6
BYBLOCK
 62
     0
100
AcDbLine
 10
452.811389
 20
207.084925
 30
0.0
 11
471.757994
 21
224.11461
 31
0.0
  0
LINE
  5
2A8
100
AcDbEntity
  8
0
  6
BYBLOCK
 62
     0
100
AcDbLine
 10
465.301369
 20
224.458637
 30
0.0
 11
462.24507
 21
227.858964
 31
0.0
  0
LINE
  5
2A9
100
AcDbEntity
  8
0
  6
BYBLOCK
 62
     0
100
AcDbLine
 10
473.536397
 20
215.296646
 30
0.0
 11
476.592696
 21
211.89632
 31
0.0
  0
SOLID
  5
2AA
100
AcDbEntity
  8
0
  6
BYBLOCK
 62
     0
100
AcDbTrace
 10
465.86809
 20
224.96802
 30
0.0
 11
464.734648
 21
223.949254
 31
0.0
 12
468.357668
 22
221.058311
 32
0.0
 13
468.357668
 23
221.058311
 33
0.0
  0
SOLID
  5
2AB
100
AcDbEntity
  8
0
  6
BYBLOCK
 62
     0
100
AcDbTrace
 10
474.103118
 20
215.806029
 30
0.0
 11
472.969676
 21
214.787263
 31
0.0
 12
470.480098
 22
218.696973
 32
0.0
 13
470.480098
 23
218.696973
 33
0.0
  0
MTEXT
  5
2AC
100
AcDbEntity
  8
0
  6
BYBLOCK
 62
     0
100
AcDbMText
 10
511.23075
 20
173.359285
 30
0.0
 40
4.572
 41
0.0
 71
     5
 72
     1
  1
\A1;3.18mm±0.03mm[0.125"±0.001"]
 11
0.668482
 21
-0.743728
 31
0.0
  0
POINT
  5
2AD
100
AcDbEntity
  8
DEFPOINTS
  6
BYBLOCK
 62
     0
100
AcDbPoint
 10
451.63072
 20
206.02371
 30
0.0
 50
48.05
  0
POINT
  5
2AE
100
AcDbEntity
  8
DEFPOINTS
  6
BYBLOCK
 62
     0
100
AcDbPoint
 10
476.231074
 20
223.866095
 30
0.0
 50
48.05
  0
POINT
  5
2AF
100
AcDbEntity
  8
DEFPOINTS
  6
BYBLOCK
 62
     0
100
AcDbPoint
 10
470.480098
 20
218.696973
 30
0.0
 50
48.05
  0
ENDBLK
  5
2B0
100
AcDbEntity
  8
0
100
AcDbBlockEnd
  0
BLOCK
  5
2BF
100
AcDbEntity
  8
0
100
AcDbBlockBegin
  2
*D17
 70
    65
 10
0.0
 20
0.0
 30
0.0
  3
*D17
  1
*TB
  0
LINE
  5
2C0
100
AcDbEntity
  8
0
  6
BYBLOCK
 62
     0
100
AcDbLine
 10
353.330412
 20
129.058946
 30
0.0
 11
303.457865
 21
84.232247
 31
0.0
  0
LINE
  5
2C1
100
AcDbEntity
  8
0
  6
BYBLOCK
 62
     0
100
AcDbLine
 10
303.801893
 20
90.688873
 30
0.0
 11
300.745594
 21
94.089199
 31
0.0
  0
LINE
  5
2C2
100
AcDbEntity
  8
0
  6
BYBLOCK
 62
     0
100
AcDbLine
 10
317.699686
 20
75.226695
 30
0.0
 11
320.755985
 21
71.826369
 31
0.0
  0
SOLID
  5
2C3
100
AcDbEntity
  8
0
  6
BYBLOCK
 62
     0
100
AcDbTrace
 10
304.368614
 20
91.198256
 30
0.0
 11
303.235171
 21
90.17949
 31
0.0
 12
306.858191
 22
87.288546
 32
0.0
 13
306.858191
 23
87.288546
 33
0.0
  0
SOLID
  5
2C4
100
AcDbEntity
  8
0
  6
BYBLOCK
 62
     0
100
AcDbTrace
 10
318.266407
 20
75.736078
 30
0.0
 11
317.132965
 21
74.717312
 31
0.0
 12
314.643387
 22
78.627022
 32
0.0
 13
314.643387
 23
78.627022
 33
0.0
  0
MTEXT
  5
2C5
100
AcDbEntity
  8
0
  6
BYBLOCK
 62
     0
100
AcDbMText
 10
339.857854
 20
50.574328
 30
0.0
 40
4.572
 41
0.0
 71
     5
 72
     1
  1
\A1;11.65mm[0.459"]
 11
0.668482
 21
-0.743728
 31
0.0
  0
POINT
  5
2C6
100
AcDbEntity
  8
DEFPOINTS
  6
BYBLOCK
 62
     0
100
AcDbPoint
 10
354.511081
 20
130.120161
 30
0.0
 50
48.05
  0
POINT
  5
2C7
100
AcDbEntity
  8
DEFPOINTS
  6
BYBLOCK
 62
     0
100
AcDbPoint
 10
309.524387
 20
74.025936
 30
0.0
 50
48.05
  0
POINT
  5
2C8
100
AcDbEntity
  8
DEFPOINTS
  6
BYBLOCK
 62
     0
100
AcDbPoint
 10
314.643387
 20
78.627022
 30
0.0
 50
48.05
  0
ENDBLK
  5
2C9
100
AcDbEntity
  8
0
100
AcDbBlockEnd
  0
BLOCK
  5
2CB
100
AcDbEntity
  8
0
100
AcDbBlockBegin
  2
*D18
 70
    65
 10
0.0
 20
0.0
 30
0.0
  3
*D18
  1
*TB
  0
LINE
  5
2CC
100
AcDbEntity
  8
0
  6
BYBLOCK
 62
     0
100
AcDbLine
 10
371.3415
 20
109.020468
 30
0.0
 11
332.323465
 21
73.950078
 31
0.0
  0
LINE
  5
2CD
100
AcDbEntity
  8
0
  6
BYBLOCK
 62
     0
100
AcDbLine
 10
322.441601
 20
91.783657
 30
0.0
 11
319.385302
 21
95.183984
 31
0.0
  0
LINE
  5
2CE
100
AcDbEntity
  8
0
  6
BYBLOCK
 62
     0
100
AcDbLine
 10
338.78009
 20
73.60605
 30
0.0
 11
341.836389
 21
70.205724
 31
0.0
  0
SOLID
  5
2CF
100
AcDbEntity
  8
0
  6
BYBLOCK
 62
     0
100
AcDbTrace
 10
323.008322
 20
92.29304
 30
0.0
 11
321.87488
 21
91.274274
 31
0.0
 12
325.4979
 22
88.38333
 32
0.0
 13
325.4979
 23
88.38333
 33
0.0
  0
SOLID
  5
2D0
100
AcDbEntity
  8
0
  6
BYBLOCK
 62
     0
100
AcDbTrace
 10
339.346812
 20
74.115434
 30
0.0
 11
338.213369
 21
73.096667
 31
0.0
 12
335.723792
 22
77.006377
 32
0.0
 13
335.723792
 23
77.006377
 33
0.0
  0
MTEXT
  5
2D1
100
AcDbEntity
  8
0
  6
BYBLOCK
 62
     0
100
AcDbMText
 10
360.938258
 20
48.953683
 30
0.0
 40
4.572
 41
0.0
 71
     5
 72
     1
  1
\A1;15.30mm[0.602"]
 11
0.668482
 21
-0.743728
 31
0.0
  0
POINT
  5
2D2
100
AcDbEntity
  8
DEFPOINTS
  6
BYBLOCK
 62
     0
100
AcDbPoint
 10
309.524387
 20
74.025936
 30
0.0
 50
48.05
  0
POINT
  5
2D3
100
AcDbEntity
  8
DEFPOINTS
  6
BYBLOCK
 62
     0
100
AcDbPoint
 10
372.522169
 20
110.081683
 30
0.0
 50
48.05
  0
POINT
  5
2D4
100
AcDbEntity
  8
DEFPOINTS
  6
BYBLOCK
 62
     0
100
AcDbPoint
 10
335.723792
 20
77.006377
 30
0.0
 50
48.05
  0
ENDBLK
  5
2D5
100
AcDbEntity
  8
0
100
AcDbBlockEnd
  0
BLOCK
  5
545
100
AcDbEntity
  8
0
100
AcDbBlockBegin
  2
*D19
 70
    65
 10
0.0
 20
0.0
 30
0.0
  3
*D19
  1
*TB
  0
LINE
  5
546
100
AcDbEntity
  8
0
  6
BYBLOCK
 62
     0
100
AcDbLine
 10
355.687146
 20
118.832189
 30
0.0
 11
306.339553
 21
173.734518
 31
0.0
  0
LINE
  5
547
100
AcDbEntity
  8
0
  6
BYBLOCK
 62
     0
100
AcDbLine
 10
313.486934
 20
174.011358
 30
0.0
 11
316.88726
 21
177.067656
 31
0.0
  0
LINE
  5
548
100
AcDbEntity
  8
0
  6
BYBLOCK
 62
     0
100
AcDbLine
 10
305.995526
 20
167.277892
 30
0.0
 11
302.595199
 21
164.221593
 31
0.0
  0
LINE
  5
549
100
AcDbEntity
  8
0
  6
BYBLOCK
 62
     0
100
AcDbLine
 10
302.595199
 20
164.221593
 30
0.0
 11
299.5389
 21
167.62192
 31
0.0
  0
SOLID
  5
54A
100
AcDbEntity
  8
0
  6
BYBLOCK
 62
     0
100
AcDbTrace
 10
312.97755
 20
174.578079
 30
0.0
 11
313.996317
 21
173.444636
 31
0.0
 12
310.086607
 22
170.955059
 32
0.0
 13
310.086607
 23
170.955059
 33
0.0
  0
SOLID
  5
54B
100
AcDbEntity
  8
0
  6
BYBLOCK
 62
     0
100
AcDbTrace
 10
305.486143
 20
167.844613
 30
0.0
 11
306.504909
 21
166.711171
 31
0.0
 12
309.395852
 22
170.334191
 32
0.0
 13
309.395852
 23
170.334191
 33
0.0
  0
MTEXT
  5
54C
100
AcDbEntity
  8
0
  6
BYBLOCK
 62
     0
100
AcDbMText
 10
281.455798
 20
187.740518
 30
0.0
 40
4.572
 41
0.0
 71
     5
 72
     1
  1
\A1;0.93mm[0.037"]
 11
0.668482
 21
-0.743728
 31
0.0
  0
POINT
  5
54D
100
AcDbEntity
  8
DEFPOINTS
  6
BYBLOCK
 62
     0
100
AcDbPoint
 10
262.168147
 20
224.267387
 30
0.0
 50
48.05
  0
POINT
  5
54E
100
AcDbEntity
  8
DEFPOINTS
  6
BYBLOCK
 62
     0
100
AcDbPoint
 10
356.748361
 20
117.65152
 30
0.0
 50
48.05
  0
POINT
  5
54F
100
AcDbEntity
  8
DEFPOINTS
  6
BYBLOCK
 62
     0
100
AcDbPoint
 10
309.395852
 20
170.334191
 30
0.0
 50
48.05
  0
ENDBLK
  5
550
100
AcDbEntity
  8
0
100
AcDbBlockEnd
  0
BLOCK
  5
539
100
AcDbEntity
  8
0
100
AcDbBlockBegin
  2
*D20
 70
    65
 10
0.0
 20
0.0
 30
0.0
  3
*D20
  1
*TB
  0
LINE
  5
53A
100
AcDbEntity
  8
0
  6
BYBLOCK
 62
     0
100
AcDbLine
 10
353.449866
 20
116.821266
 30
0.0
 11
344.014522
 21
127.318686
 31
0.0
  0
LINE
  5
53B
100
AcDbEntity
  8
0
  6
BYBLOCK
 62
     0
100
AcDbLine
 10
353.399181
 20
129.606449
 30
0.0
 11
356.799508
 21
132.662748
 31
0.0
  0
LINE
  5
53C
100
AcDbEntity
  8
0
  6
BYBLOCK
 62
     0
100
AcDbLine
 10
343.670494
 20
120.86206
 30
0.0
 11
340.270167
 21
117.805761
 31
0.0
  0
LINE
  5
53D
100
AcDbEntity
  8
0
  6
BYBLOCK
 62
     0
100
AcDbLine
 10
340.270167
 20
117.805761
 30
0.0
 11
337.213868
 21
121.206088
 31
0.0
  0
SOLID
  5
53E
100
AcDbEntity
  8
0
  6
BYBLOCK
 62
     0
100
AcDbTrace
 10
352.889798
 20
130.17317
 30
0.0
 11
353.908564
 21
129.039728
 31
0.0
 12
349.998855
 22
126.55015
 32
0.0
 13
349.998855
 23
126.55015
 33
0.0
  0
SOLID
  5
53F
100
AcDbEntity
  8
0
  6
BYBLOCK
 62
     0
100
AcDbTrace
 10
343.161111
 20
121.428781
 30
0.0
 11
344.179877
 21
120.295339
 31
0.0
 12
347.07082
 22
123.918359
 32
0.0
 13
347.07082
 23
123.918359
 33
0.0
  0
MTEXT
  5
540
100
AcDbEntity
  8
0
  6
BYBLOCK
 62
     0
100
AcDbMText
 10
319.130766
 20
141.324687
 30
0.0
 40
4.572
 41
0.0
 71
     5
 72
     1
  1
\A1;3.94mm[0.155"]
 11
0.668482
 21
-0.743728
 31
0.0
  0
POINT
  5
541
100
AcDbEntity
  8
DEFPOINTS
  6
BYBLOCK
 62
     0
100
AcDbPoint
 10
262.168147
 20
224.267387
 30
0.0
 50
48.05
  0
POINT
  5
542
100
AcDbEntity
  8
DEFPOINTS
  6
BYBLOCK
 62
     0
100
AcDbPoint
 10
354.511081
 20
115.640597
 30
0.0
 50
48.05
  0
POINT
  5
543
100
AcDbEntity
  8
DEFPOINTS
  6
BYBLOCK
 62
     0
100
AcDbPoint
 10
347.07082
 20
123.918359
 30
0.0
 50
48.05
  0
ENDBLK
  5
544
100
AcDbEntity
  8
0
100
AcDbBlockEnd
  0
BLOCK
  5
52D
100
AcDbEntity
  8
0
100
AcDbBlockBegin
  2
*D21
 70
    65
 10
0.0
 20
0.0
 30
0.0
  3
*D21
  1
*TB
  0
ARC
  5
52E
100
AcDbEntity
  8
0
  6
BYBLOCK
 62
     0
100
AcDbCircle
 10
365.224311
 20
109.610863
 30
0.0
 40
98.79702
100
AcDbArc
 50
92.651696
 51
103.565454
  0
ARC
  5
52F
100
AcDbEntity
  8
0
  6
BYBLOCK
 62
     0
100
AcDbCircle
 10
365.224311
 20
109.610863
 30
0.0
 40
98.79702
100
AcDbArc
 50
117.444213
 51
129.298304
  0
SOLID
  5
530
100
AcDbEntity
  8
0
  6
BYBLOCK
 62
     0
100
AcDbTrace
 10
360.635904
 20
209.063891
 30
0.0
 11
360.671167
 21
207.540299
 31
0.0
 12
365.224311
 22
208.407883
 32
0.0
 13
365.224311
 23
208.407883
 33
0.0
  0
SOLID
  5
531
100
AcDbEntity
  8
0
  6
BYBLOCK
 62
     0
100
AcDbTrace
 10
303.146566
 20
185.487467
 30
0.0
 11
302.154298
 21
186.644178
 31
0.0
 12
299.180298
 22
183.08902
 32
0.0
 13
299.180298
 23
183.08902
 33
0.0
  0
MTEXT
  5
532
100
AcDbEntity
  8
0
  6
BYBLOCK
 62
     0
100
AcDbMText
 10
329.858874
 20
201.861267
 30
0.0
 40
4.572
 41
0.0
 71
     5
 72
     1
  1
\A1;41.95°
  0
POINT
  5
533
100
AcDbEntity
  8
DEFPOINTS
  6
BYBLOCK
 62
     0
100
AcDbPoint
 10
341.351035
 20
205.480138
 30
0.0
  0
POINT
  5
534
100
AcDbEntity
  8
DEFPOINTS
  6
BYBLOCK
 62
     0
100
AcDbPoint
 10
389.905654
 20
82.151302
 30
0.0
  0
POINT
  5
535
100
AcDbEntity
  8
DEFPOINTS
  6
BYBLOCK
 62
     0
100
AcDbPoint
 10
365.224311
 20
56.393502
 30
0.0
  0
POINT
  5
536
100
AcDbEntity
  8
DEFPOINTS
  6
BYBLOCK
 62
     0
100
AcDbPoint
 10
365.224311
 20
484.277863
 30
0.0
  0
POINT
  5
537
100
AcDbEntity
  8
DEFPOINTS
  6
BYBLOCK
 62
     0
100
AcDbPoint
 10
262.168147
 20
224.267387
 30
0.0
  0
ENDBLK
  5
538
100
AcDbEntity
  8
0
100
AcDbBlockEnd
  0
BLOCK
  5
5EA
100
AcDbEntity
  8
0
100
AcDbBlockBegin
  2
*D22
 70
    65
 10
0.0
 20
0.0
 30
0.0
  3
*D22
  1
*TB
  0
LINE
  5
5EB
100
AcDbEntity
  8
0
  6
BYBLOCK
 62
     0
100
AcDbLine
 10
420.42434
 20
317.717154
 30
0.0
 11
420.42434
 21
349.122332
 31
0.0
  0
LINE
  5
5EC
100
AcDbEntity
  8
0
  6
BYBLOCK
 62
     0
100
AcDbLine
 10
360.652311
 20
344.550332
 30
0.0
 11
356.080311
 21
344.550332
 31
0.0
  0
LINE
  5
5ED
100
AcDbEntity
  8
0
  6
BYBLOCK
 62
     0
100
AcDbLine
 10
424.99634
 20
344.550332
 30
0.0
 11
429.56834
 21
344.550332
 31
0.0
  0
SOLID
  5
5EE
100
AcDbEntity
  8
0
  6
BYBLOCK
 62
     0
100
AcDbTrace
 10
360.652311
 20
345.312332
 30
0.0
 11
360.652311
 21
343.788332
 31
0.0
 12
365.224311
 22
344.550332
 32
0.0
 13
365.224311
 23
344.550332
 33
0.0
  0
SOLID
  5
5EF
100
AcDbEntity
  8
0
  6
BYBLOCK
 62
     0
100
AcDbTrace
 10
424.99634
 20
345.312332
 30
0.0
 11
424.99634
 21
343.788332
 31
0.0
 12
420.42434
 22
344.550332
 32
0.0
 13
420.42434
 23
344.550332
 33
0.0
  0
MTEXT
  5
5F0
100
AcDbEntity
  8
0
  6
BYBLOCK
 62
     0
100
AcDbMText
 10
458.90534
 20
344.550332
 30
0.0
 40
4.572
 41
0.0
 71
     5
 72
     1
  1
\A1;55.20mm[2.173"]
  0
POINT
  5
5F1
100
AcDbEntity
  8
DEFPOINTS
  6
BYBLOCK
 62
     0
100
AcDbPoint
 10
365.224311
 20
484.277863
 30
0.0
  0
POINT
  5
5F2
100
AcDbEntity
  8
DEFPOINTS
  6
BYBLOCK
 62
     0
100
AcDbPoint
 10
420.42434
 20
316.129654
 30
0.0
  0
POINT
  5
5F3
100
AcDbEntity
  8
DEFPOINTS
  6
BYBLOCK
 62
     0
100
AcDbPoint
 10
420.42434
 20
344.550332
 30
0.0
  0
ENDBLK
  5
5F4
100
AcDbEntity
  8
0
100
AcDbBlockEnd
  0
BLOCK
  5
5BE
100
AcDbEntity
  8
0
100
AcDbBlockBegin
  2
*D23
 70
    65
 10
0.0
 20
0.0
 30
0.0
  3
*D23
  1
*TB
  0
LINE
  5
5BF
100
AcDbEntity
  8
0
  6
BYBLOCK
 62
     0
100
AcDbLine
 10
417.727081
 20
309.306579
 30
0.0
 11
417.727081
 21
360.609819
 31
0.0
  0
LINE
  5
5C0
100
AcDbEntity
  8
0
  6
BYBLOCK
 62
     0
100
AcDbLine
 10
360.652311
 20
356.037819
 30
0.0
 11
356.080311
 21
356.037819
 31
0.0
  0
LINE
  5
5C1
100
AcDbEntity
  8
0
  6
BYBLOCK
 62
     0
100
AcDbLine
 10
422.299081
 20
356.037819
 30
0.0
 11
426.871081
 21
356.037819
 31
0.0
  0
SOLID
  5
5C2
100
AcDbEntity
  8
0
  6
BYBLOCK
 62
     0
100
AcDbTrace
 10
360.652311
 20
356.799819
 30
0.0
 11
360.652311
 21
355.275819
 31
0.0
 12
365.224311
 22
356.037819
 32
0.0
 13
365.224311
 23
356.037819
 33
0.0
  0
SOLID
  5
5C3
100
AcDbEntity
  8
0
  6
BYBLOCK
 62
     0
100
AcDbTrace
 10
422.299081
 20
356.799819
 30
0.0
 11
422.299081
 21
355.275819
 31
0.0
 12
417.727081
 22
356.037819
 32
0.0
 13
417.727081
 23
356.037819
 33
0.0
  0
MTEXT
  5
5C4
100
AcDbEntity
  8
0
  6
BYBLOCK
 62
     0
100
AcDbMText
 10
482.116081
 20
356.037819
 30
0.0
 40
4.572
 41
0.0
 71
     5
 72
     1
  1
\A1;52.50mm±0.03mm[2.067"±0.001"]
  0
POINT
  5
5C5
100
AcDbEntity
  8
DEFPOINTS
  6
BYBLOCK
 62
     0
100
AcDbPoint
 10
365.224311
 20
484.277863
 30
0.0
  0
POINT
  5
5C6
100
AcDbEntity
  8
DEFPOINTS
  6
BYBLOCK
 62
     0
100
AcDbPoint
 10
417.727081
 20
307.719079
 30
0.0
  0
POINT
  5
5C7
100
AcDbEntity
  8
DEFPOINTS
  6
BYBLOCK
 62
     0
100
AcDbPoint
 10
417.727081
 20
356.037819
 30
0.0
  0
ENDBLK
  5
5C8
100
AcDbEntity
  8
0
100
AcDbBlockEnd
  0
BLOCK
  5
5DF
100
AcDbEntity
  8
0
100
AcDbBlockBegin
  2
*D24
 70
    65
 10
0.0
 20
0.0
 30
0.0
  3
*D24
  1
*TB
  0
LINE
  5
5E0
100
AcDbEntity
  8
0
  6
BYBLOCK
 62
     0
100
AcDbLine
 10
415.95394
 20
317.717154
 30
0.0
 11
415.95394
 21
372.507573
 31
0.0
  0
LINE
  5
5E1
100
AcDbEntity
  8
0
  6
BYBLOCK
 62
     0
100
AcDbLine
 10
360.652311
 20
367.935573
 30
0.0
 11
356.080311
 21
367.935573
 31
0.0
  0
LINE
  5
5E2
100
AcDbEntity
  8
0
  6
BYBLOCK
 62
     0
100
AcDbLine
 10
420.52594
 20
367.935573
 30
0.0
 11
425.09794
 21
367.935573
 31
0.0
  0
SOLID
  5
5E3
100
AcDbEntity
  8
0
  6
BYBLOCK
 62
     0
100
AcDbTrace
 10
360.652311
 20
368.697573
 30
0.0
 11
360.652311
 21
367.173573
 31
0.0
 12
365.224311
 22
367.935573
 32
0.0
 13
365.224311
 23
367.935573
 33
0.0
  0
SOLID
  5
5E4
100
AcDbEntity
  8
0
  6
BYBLOCK
 62
     0
100
AcDbTrace
 10
420.52594
 20
368.697573
 30
0.0
 11
420.52594
 21
367.173573
 31
0.0
 12
415.95394
 22
367.935573
 32
0.0
 13
415.95394
 23
367.935573
 33
0.0
  0
MTEXT
  5
5E5
100
AcDbEntity
  8
0
  6
BYBLOCK
 62
     0
100
AcDbMText
 10
454.43494
 20
367.935573
 30
0.0
 40
4.572
 41
0.0
 71
     5
 72
     1
  1
\A1;50.73mm[1.997"]
  0
POINT
  5
5E6
100
AcDbEntity
  8
DEFPOINTS
  6
BYBLOCK
 62
     0
100
AcDbPoint
 10
365.224311
 20
484.277863
 30
0.0
  0
POINT
  5
5E7
100
AcDbEntity
  8
DEFPOINTS
  6
BYBLOCK
 62
     0
100
AcDbPoint
 10
415.95394
 20
316.129654
 30
0.0
  0
POINT
  5
5E8
100
AcDbEntity
  8
DEFPOINTS
  6
BYBLOCK
 62
     0
100
AcDbPoint
 10
415.95394
 20
367.935573
 30
0.0
  0
ENDBLK
  5
5E9
100
AcDbEntity
  8
0
100
AcDbBlockEnd
  0
BLOCK
  5
5D4
100
AcDbEntity
  8
0
100
AcDbBlockBegin
  2
*D25
 70
    65
 10
0.0
 20
0.0
 30
0.0
  3
*D25
  1
*TB
  0
LINE
  5
5D5
100
AcDbEntity
  8
0
  6
BYBLOCK
 62
     0
100
AcDbLine
 10
413.749063
 20
313.942714
 30
0.0
 11
413.749063
 21
383.756141
 31
0.0
  0
LINE
  5
5D6
100
AcDbEntity
  8
0
  6
BYBLOCK
 62
     0
100
AcDbLine
 10
360.652311
 20
379.184141
 30
0.0
 11
356.080311
 21
379.184141
 31
0.0
  0
LINE
  5
5D7
100
AcDbEntity
  8
0
  6
BYBLOCK
 62
     0
100
AcDbLine
 10
418.321063
 20
379.184141
 30
0.0
 11
422.893063
 21
379.184141
 31
0.0
  0
SOLID
  5
5D8
100
AcDbEntity
  8
0
  6
BYBLOCK
 62
     0
100
AcDbTrace
 10
360.652311
 20
379.946141
 30
0.0
 11
360.652311
 21
378.422141
 31
0.0
 12
365.224311
 22
379.184141
 32
0.0
 13
365.224311
 23
379.184141
 33
0.0
  0
SOLID
  5
5D9
100
AcDbEntity
  8
0
  6
BYBLOCK
 62
     0
100
AcDbTrace
 10
418.321063
 20
379.946141
 30
0.0
 11
418.321063
 21
378.422141
 31
0.0
 12
413.749063
 22
379.184141
 32
0.0
 13
413.749063
 23
379.184141
 33
0.0
  0
MTEXT
  5
5DA
100
AcDbEntity
  8
0
  6
BYBLOCK
 62
     0
100
AcDbMText
 10
451.468063
 20
379.184141
 30
0.0
 40
4.572
 41
0.0
 71
     5
 72
     1
  1
\A1;48.52mm[1.910"]
  0
POINT
  5
5DB
100
AcDbEntity
  8
DEFPOINTS
  6
BYBLOCK
 62
     0
100
AcDbPoint
 10
365.224311
 20
484.277863
 30
0.0
  0
POINT
  5
5DC
100
AcDbEntity
  8
DEFPOINTS
  6
BYBLOCK
 62
     0
100
AcDbPoint
 10
413.749063
 20
312.355214
 30
0.0
  0
POINT
  5
5DD
100
AcDbEntity
  8
DEFPOINTS
  6
BYBLOCK
 62
     0
100
AcDbPoint
 10
413.749063
 20
379.184141
 30
0.0
  0
ENDBLK
  5
5DE
100
AcDbEntity
  8
0
100
AcDbBlockEnd
  0
BLOCK
  5
5C9
100
AcDbEntity
  8
0
100
AcDbBlockBegin
  2
*D26
 70
    65
 10
0.0
 20
0.0
 30
0.0
  3
*D26
  1
*TB
  0
LINE
  5
5CA
100
AcDbEntity
  8
0
  6
BYBLOCK
 62
     0
100
AcDbLine
 10
410.248943
 20
313.942714
 30
0.0
 11
410.248943
 21
394.590419
 31
0.0
  0
LINE
  5
5CB
100
AcDbEntity
  8
0
  6
BYBLOCK
 62
     0
100
AcDbLine
 10
360.652311
 20
390.018419
 30
0.0
 11
356.080311
 21
390.018419
 31
0.0
  0
LINE
  5
5CC
100
AcDbEntity
  8
0
  6
BYBLOCK
 62
     0
100
AcDbLine
 10
414.820943
 20
390.018419
 30
0.0
 11
419.392943
 21
390.018419
 31
0.0
  0
SOLID
  5
5CD
100
AcDbEntity
  8
0
  6
BYBLOCK
 62
     0
100
AcDbTrace
 10
360.652311
 20
390.780419
 30
0.0
 11
360.652311
 21
389.256419
 31
0.0
 12
365.224311
 22
390.018419
 32
0.0
 13
365.224311
 23
390.018419
 33
0.0
  0
SOLID
  5
5CE
100
AcDbEntity
  8
0
  6
BYBLOCK
 62
     0
100
AcDbTrace
 10
414.820943
 20
390.780419
 30
0.0
 11
414.820943
 21
389.256419
 31
0.0
 12
410.248943
 22
390.018419
 32
0.0
 13
410.248943
 23
390.018419
 33
0.0
  0
MTEXT
  5
5CF
100
AcDbEntity
  8
0
  6
BYBLOCK
 62
     0
100
AcDbMText
 10
448.729943
 20
390.018419
 30
0.0
 40
4.572
 41
0.0
 71
     5
 72
     1
  1
\A1;45.02mm[1.773"]
  0
POINT
  5
5D0
100
AcDbEntity
  8
DEFPOINTS
  6
BYBLOCK
 62
     0
100
AcDbPoint
 10
365.224311
 20
484.277863
 30
0.0
  0
POINT
  5
5D1
100
AcDbEntity
  8
DEFPOINTS
  6
BYBLOCK
 62
     0
100
AcDbPoint
 10
410.248943
 20
312.355214
 30
0.0
  0
POINT
  5
5D2
100
AcDbEntity
  8
DEFPOINTS
  6
BYBLOCK
 62
     0
100
AcDbPoint
 10
410.248943
 20
390.018419
 30
0.0
  0
ENDBLK
  5
5D3
100
AcDbEntity
  8
0
100
AcDbBlockEnd
  0
BLOCK
  5
5B3
100
AcDbEntity
  8
0
100
AcDbBlockBegin
  2
*D27
 70
    65
 10
0.0
 20
0.0
 30
0.0
  3
*D27
  1
*TB
  0
LINE
  5
5B4
100
AcDbEntity
  8
0
  6
BYBLOCK
 62
     0
100
AcDbLine
 10
382.349974
 20
309.589154
 30
0.0
 11
382.349974
 21
406.492099
 31
0.0
  0
LINE
  5
5B5
100
AcDbEntity
  8
0
  6
BYBLOCK
 62
     0
100
AcDbLine
 10
360.652311
 20
401.920099
 30
0.0
 11
356.080311
 21
401.920099
 31
0.0
  0
LINE
  5
5B6
100
AcDbEntity
  8
0
  6
BYBLOCK
 62
     0
100
AcDbLine
 10
386.921974
 20
401.920099
 30
0.0
 11
391.493974
 21
401.920099
 31
0.0
  0
SOLID
  5
5B7
100
AcDbEntity
  8
0
  6
BYBLOCK
 62
     0
100
AcDbTrace
 10
360.652311
 20
402.682099
 30
0.0
 11
360.652311
 21
401.158099
 31
0.0
 12
365.224311
 22
401.920099
 32
0.0
 13
365.224311
 23
401.920099
 33
0.0
  0
SOLID
  5
5B8
100
AcDbEntity
  8
0
  6
BYBLOCK
 62
     0
100
AcDbTrace
 10
386.921974
 20
402.682099
 30
0.0
 11
386.921974
 21
401.158099
 31
0.0
 12
382.349974
 22
401.920099
 32
0.0
 13
382.349974
 23
401.920099
 33
0.0
  0
MTEXT
  5
5B9
100
AcDbEntity
  8
0
  6
BYBLOCK
 62
     0
100
AcDbMText
 10
420.068974
 20
401.920099
 30
0.0
 40
4.572
 41
0.0
 71
     5
 72
     1
  1
\A1;17.13mm[0.674"]
  0
POINT
  5
5BA
100
AcDbEntity
  8
DEFPOINTS
  6
BYBLOCK
 62
     0
100
AcDbPoint
 10
365.224311
 20
484.277863
 30
0.0
  0
POINT
  5
5BB
100
AcDbEntity
  8
DEFPOINTS
  6
BYBLOCK
 62
     0
100
AcDbPoint
 10
382.349974
 20
308.001654
 30
0.0
  0
POINT
  5
5BC
100
AcDbEntity
  8
DEFPOINTS
  6
BYBLOCK
 62
     0
100
AcDbPoint
 10
382.349974
 20
401.920099
 30
0.0
  0
ENDBLK
  5
5BD
100
AcDbEntity
  8
0
100
AcDbBlockEnd
  0
BLOCK
  5
671
100
AcDbEntity
  8
0
100
AcDbBlockBegin
  2
*D28
 70
    65
 10
0.0
 20
0.0
 30
0.0
  3
*D28
  1

  0
LINE
  5
672
100
AcDbEntity
  8
0
  6
BYBLOCK
 62
     0
100
AcDbLine
 10
426.78704
 20
311.354454
 30
0.0
 11
454.017683
 21
311.354454
 31
0.0
  0
LINE
  5
673
100
AcDbEntity
  8
0
  6
BYBLOCK
 62
     0
100
AcDbLine
 10
425.2125
 20
317.066825
 30
0.0
 11
454.017683
 21
317.066825
 31
0.0
  0
LINE
  5
674
100
AcDbEntity
  8
0
  6
BYBLOCK
 62
     0
100
AcDbLine
 10
449.445683
 20
306.782454
 30
0.0
 11
449.445683
 21
302.210454
 31
0.0
  0
LINE
  5
675
100
AcDbEntity
  8
0
  6
BYBLOCK
 62
     0
100
AcDbLine
 10
449.445683
 20
321.638825
 30
0.0
 11
449.445683
 21
326.210825
 31
0.0
  0
LINE
  5
676
100
AcDbEntity
  8
0
  6
BYBLOCK
 62
     0
100
AcDbLine
 10
449.445683
 20
326.210825
 30
0.0
 11
454.017683
 21
326.210825
 31
0.0
  0
SOLID
  5
677
100
AcDbEntity
  8
0
  6
BYBLOCK
 62
     0
100
AcDbTrace
 10
448.683683
 20
306.782454
 30
0.0
 11
450.207683
 21
306.782454
 31
0.0
 12
449.445683
 22
311.354454
 32
0.0
 13
449.445683
 23
311.354454
 33
0.0
  0
SOLID
  5
678
100
AcDbEntity
  8
0
  6
BYBLOCK
 62
     0
100
AcDbTrace
 10
448.683683
 20
321.638825
 30
0.0
 11
450.207683
 21
321.638825
 31
0.0
 12
449.445683
 22
317.066825
 32
0.0
 13
449.445683
 23
317.066825
 33
0.0
  0
MTEXT
  5
679
100
AcDbEntity
  8
0
  6
BYBLOCK
 62
     0
100
AcDbMText
 10
481.068683
 20
326.210825
 30
0.0
 40
4.572
 41
0.0
 71
     5
 72
     1
  1
\A1;5.71mm[0.225"]
  0
POINT
  5
67A
100
AcDbEntity
  8
DEFPOINTS
  6
BYBLOCK
 62
     0
100
AcDbPoint
 10
425.19954
 20
311.354454
 30
0.0
  0
POINT
  5
67B
100
AcDbEntity
  8
DEFPOINTS
  6
BYBLOCK
 62
     0
100
AcDbPoint
 10
423.625
 20
317.066825
 30
0.0
  0
POINT
  5
67C
100
AcDbEntity
  8
DEFPOINTS
  6
BYBLOCK
 62
     0
100
AcDbPoint
 10
449.445683
 20
317.066825
 30
0.0
  0
ENDBLK
  5
67D
100
AcDbEntity
  8
0
100
AcDbBlockEnd
  0
BLOCK
  5
664
100
AcDbEntity
  8
0
100
AcDbBlockBegin
  2
*D29
 70
    65
 10
0.0
 20
0.0
 30
0.0
  3
*D29
  1

  0
LINE
  5
665
100
AcDbEntity
  8
0
  6
BYBLOCK
 62
     0
100
AcDbLine
 10
423.680206
 20
303.353454
 30
0.0
 11
517.306546
 21
303.353454
 31
0.0
  0
LINE
  5
666
100
AcDbEntity
  8
0
  6
BYBLOCK
 62
     0
100
AcDbLine
 10
425.2125
 20
317.066825
 30
0.0
 11
517.306546
 21
317.066825
 31
0.0
  0
LINE
  5
667
100
AcDbEntity
  8
0
  6
BYBLOCK
 62
     0
100
AcDbLine
 10
512.734546
 20
298.781454
 30
0.0
 11
512.734546
 21
294.209454
 31
0.0
  0
LINE
  5
668
100
AcDbEntity
  8
0
  6
BYBLOCK
 62
     0
100
AcDbLine
 10
512.734546
 20
321.638825
 30
0.0
 11
512.734546
 21
326.210825
 31
0.0
  0
LINE
  5
669
100
AcDbEntity
  8
0
  6
BYBLOCK
 62
     0
100
AcDbLine
 10
512.734546
 20
326.210825
 30
0.0
 11
517.306546
 21
326.210825
 31
0.0
  0
SOLID
  5
66A
100
AcDbEntity
  8
0
  6
BYBLOCK
 62
     0
100
AcDbTrace
 10
511.972546
 20
298.781454
 30
0.0
 11
513.496546
 21
298.781454
 31
0.0
 12
512.734546
 22
303.353454
 32
0.0
 13
512.734546
 23
303.353454
 33
0.0
  0
SOLID
  5
66B
100
AcDbEntity
  8
0
  6
BYBLOCK
 62
     0
100
AcDbTrace
 10
511.972546
 20
321.638825
 30
0.0
 11
513.496546
 21
321.638825
 31
0.0
 12
512.734546
 22
317.066825
 32
0.0
 13
512.734546
 23
317.066825
 33
0.0
  0
MTEXT
  5
66C
100
AcDbEntity
  8
0
  6
BYBLOCK
 62
     0
100
AcDbMText
 10
571.027546
 20
326.210825
 30
0.0
 40
4.572
 41
0.0
 71
     5
 72
     1
  1
\A1;13.71mm±0.03mm[0.540"±0.001"]
  0
POINT
  5
66D
100
AcDbEntity
  8
DEFPOINTS
  6
BYBLOCK
 62
     0
100
AcDbPoint
 10
422.092706
 20
303.353454
 30
0.0
  0
POINT
  5
66E
100
AcDbEntity
  8
DEFPOINTS
  6
BYBLOCK
 62
     0
100
AcDbPoint
 10
423.625
 20
317.066825
 30
0.0
  0
POINT
  5
66F
100
AcDbEntity
  8
DEFPOINTS
  6
BYBLOCK
 62
     0
100
AcDbPoint
 10
512.734546
 20
317.066825
 30
0.0
  0
ENDBLK
  5
670
100
AcDbEntity
  8
0
100
AcDbBlockEnd
  0
BLOCK
  5
657
100
AcDbEntity
  8
0
100
AcDbBlockBegin
  2
*D30
 70
    65
 10
0.0
 20
0.0
 30
0.0
  3
*D30
  1

  0
LINE
  5
658
100
AcDbEntity
  8
0
  6
BYBLOCK
 62
     0
100
AcDbLine
 10
426.78704
 20
295.352454
 30
0.0
 11
635.933711
 21
295.352454
 31
0.0
  0
LINE
  5
659
100
AcDbEntity
  8
0
  6
BYBLOCK
 62
     0
100
AcDbLine
 10
425.2125
 20
317.066825
 30
0.0
 11
635.933711
 21
317.066825
 31
0.0
  0
LINE
  5
65A
100
AcDbEntity
  8
0
  6
BYBLOCK
 62
     0
100
AcDbLine
 10
631.361711
 20
290.780454
 30
0.0
 11
631.361711
 21
286.208454
 31
0.0
  0
LINE
  5
65B
100
AcDbEntity
  8
0
  6
BYBLOCK
 62
     0
100
AcDbLine
 10
631.361711
 20
321.638825
 30
0.0
 11
631.361711
 21
326.210825
 31
0.0
  0
LINE
  5
65C
100
AcDbEntity
  8
0
  6
BYBLOCK
 62
     0
100
AcDbLine
 10
631.361711
 20
326.210825
 30
0.0
 11
635.933711
 21
326.210825
 31
0.0
  0
SOLID
  5
65D
100
AcDbEntity
  8
0
  6
BYBLOCK
 62
     0
100
AcDbTrace
 10
630.599711
 20
290.780454
 30
0.0
 11
632.123711
 21
290.780454
 31
0.0
 12
631.361711
 22
295.352454
 32
0.0
 13
631.361711
 23
295.352454
 33
0.0
  0
SOLID
  5
65E
100
AcDbEntity
  8
0
  6
BYBLOCK
 62
     0
100
AcDbTrace
 10
630.599711
 20
321.638825
 30
0.0
 11
632.123711
 21
321.638825
 31
0.0
 12
631.361711
 22
317.066825
 32
0.0
 13
631.361711
 23
317.066825
 33
0.0
  0
MTEXT
  5
65F
100
AcDbEntity
  8
0
  6
BYBLOCK
 62
     0
100
AcDbMText
 10
664.508711
 20
326.210825
 30
0.0
 40
4.572
 41
0.0
 71
     5
 72
     1
  1
\A1;21.71mm[0.855"]
  0
POINT
  5
660
100
AcDbEntity
  8
DEFPOINTS
  6
BYBLOCK
 62
     0
100
AcDbPoint
 10
425.19954
 20
295.352454
 30
0.0
  0
POINT
  5
661
100
AcDbEntity
  8
DEFPOINTS
  6
BYBLOCK
 62
     0
100
AcDbPoint
 10
423.625
 20
317.066825
 30
0.0
  0
POINT
  5
662
100
AcDbEntity
  8
DEFPOINTS
  6
BYBLOCK
 62
     0
100
AcDbPoint
 10
631.361711
 20
317.066825
 30
0.0
  0
ENDBLK
  5
663
100
AcDbEntity
  8
0
100
AcDbBlockEnd
  0
BLOCK
  5
64B
100
AcDbEntity
  8
0
100
AcDbBlockBegin
  2
*D31
 70
    65
 10
0.0
 20
0.0
 30
0.0
  3
*D31
  1

  0
LINE
  5
64C
100
AcDbEntity
  8
0
  6
BYBLOCK
 62
     0
100
AcDbLine
 10
425.2125
 20
289.640082
 30
0.0
 11
726.590121
 21
289.640082
 31
0.0
  0
LINE
  5
64D
100
AcDbEntity
  8
0
  6
BYBLOCK
 62
     0
100
AcDbLine
 10
425.2125
 20
317.066825
 30
0.0
 11
726.590121
 21
317.066825
 31
0.0
  0
LINE
  5
64E
100
AcDbEntity
  8
0
  6
BYBLOCK
 62
     0
100
AcDbLine
 10
722.018121
 20
294.212082
 30
0.0
 11
722.018121
 21
298.781454
 31
0.0
  0
LINE
  5
64F
100
AcDbEntity
  8
0
  6
BYBLOCK
 62
     0
100
AcDbLine
 10
722.018121
 20
312.494825
 30
0.0
 11
722.018121
 21
307.925454
 31
0.0
  0
SOLID
  5
650
100
AcDbEntity
  8
0
  6
BYBLOCK
 62
     0
100
AcDbTrace
 10
721.256121
 20
294.212082
 30
0.0
 11
722.780121
 21
294.212082
 31
0.0
 12
722.018121
 22
289.640082
 32
0.0
 13
722.018121
 23
289.640082
 33
0.0
  0
SOLID
  5
651
100
AcDbEntity
  8
0
  6
BYBLOCK
 62
     0
100
AcDbTrace
 10
721.256121
 20
312.494825
 30
0.0
 11
722.780121
 21
312.494825
 31
0.0
 12
722.018121
 22
317.066825
 32
0.0
 13
722.018121
 23
317.066825
 33
0.0
  0
MTEXT
  5
652
100
AcDbEntity
  8
0
  6
BYBLOCK
 62
     0
100
AcDbMText
 10
722.018121
 20
303.353454
 30
0.0
 40
4.572
 41
0.0
 71
     5
 72
     1
  1
\A1;27.43mm±0.03mm[1.080"±0.001"]
  0
POINT
  5
653
100
AcDbEntity
  8
DEFPOINTS
  6
BYBLOCK
 62
     0
100
AcDbPoint
 10
423.625
 20
289.640082
 30
0.0
  0
POINT
  5
654
100
AcDbEntity
  8
DEFPOINTS
  6
BYBLOCK
 62
     0
100
AcDbPoint
 10
423.625
 20
317.066825
 30
0.0
  0
POINT
  5
655
100
AcDbEntity
  8
DEFPOINTS
  6
BYBLOCK
 62
     0
100
AcDbPoint
 10
722.018121
 20
317.066825
 30
0.0
  0
ENDBLK
  5
656
100
AcDbEntity
  8
0
100
AcDbBlockEnd
  0
BLOCK
  5
63E
100
AcDbEntity
  8
0
100
AcDbBlockBegin
  2
*D32
 70
    65
 10
0.0
 20
0.0
 30
0.0
  3
*D32
  1

  0
LINE
  5
63F
100
AcDbEntity
  8
0
  6
BYBLOCK
 62
     0
100
AcDbLine
 10
409.161823
 20
312.855594
 30
0.0
 11
274.030116
 21
312.855594
 31
0.0
  0
LINE
  5
640
100
AcDbEntity
  8
0
  6
BYBLOCK
 62
     0
100
AcDbLine
 10
352.923581
 20
317.066825
 30
0.0
 11
274.030116
 21
317.066825
 31
0.0
  0
LINE
  5
641
100
AcDbEntity
  8
0
  6
BYBLOCK
 62
     0
100
AcDbLine
 10
278.602116
 20
308.283594
 30
0.0
 11
278.602116
 21
303.711594
 31
0.0
  0
LINE
  5
642
100
AcDbEntity
  8
0
  6
BYBLOCK
 62
     0
100
AcDbLine
 10
278.602116
 20
321.638825
 30
0.0
 11
278.602116
 21
326.210825
 31
0.0
  0
LINE
  5
643
100
AcDbEntity
  8
0
  6
BYBLOCK
 62
     0
100
AcDbLine
 10
278.602116
 20
326.210825
 30
0.0
 11
283.174116
 21
326.210825
 31
0.0
  0
SOLID
  5
644
100
AcDbEntity
  8
0
  6
BYBLOCK
 62
     0
100
AcDbTrace
 10
277.840116
 20
308.283594
 30
0.0
 11
279.364116
 21
308.283594
 31
0.0
 12
278.602116
 22
312.855594
 32
0.0
 13
278.602116
 23
312.855594
 33
0.0
  0
SOLID
  5
645
100
AcDbEntity
  8
0
  6
BYBLOCK
 62
     0
100
AcDbTrace
 10
277.840116
 20
321.638825
 30
0.0
 11
279.364116
 21
321.638825
 31
0.0
 12
278.602116
 22
317.066825
 32
0.0
 13
278.602116
 23
317.066825
 33
0.0
  0
MTEXT
  5
646
100
AcDbEntity
  8
0
  6
BYBLOCK
 62
     0
100
AcDbMText
 10
309.463116
 20
326.210825
 30
0.0
 40
4.572
 41
0.0
 71
     5
 72
     1
  1
\A1;4.21mm[0.166"]
  0
POINT
  5
647
100
AcDbEntity
  8
DEFPOINTS
  6
BYBLOCK
 62
     0
100
AcDbPoint
 10
410.749323
 20
312.855594
 30
0.0
  0
POINT
  5
648
100
AcDbEntity
  8
DEFPOINTS
  6
BYBLOCK
 62
     0
100
AcDbPoint
 10
354.511081
 20
317.066825
 30
0.0
  0
POINT
  5
649
100
AcDbEntity
  8
DEFPOINTS
  6
BYBLOCK
 62
     0
100
AcDbPoint
 10
278.602116
 20
317.066825
 30
0.0
  0
ENDBLK
  5
64A
100
AcDbEntity
  8
0
100
AcDbBlockEnd
  0
BLOCK
  5
631
100
AcDbEntity
  8
0
100
AcDbBlockBegin
  2
*D33
 70
    65
 10
0.0
 20
0.0
 30
0.0
  3
*D33
  1

  0
LINE
  5
632
100
AcDbEntity
  8
0
  6
BYBLOCK
 62
     0
100
AcDbLine
 10
409.161823
 20
309.853314
 30
0.0
 11
209.268064
 21
309.853314
 31
0.0
  0
LINE
  5
633
100
AcDbEntity
  8
0
  6
BYBLOCK
 62
     0
100
AcDbLine
 10
352.923581
 20
317.066825
 30
0.0
 11
209.268064
 21
317.066825
 31
0.0
  0
LINE
  5
634
100
AcDbEntity
  8
0
  6
BYBLOCK
 62
     0
100
AcDbLine
 10
213.840064
 20
305.281314
 30
0.0
 11
213.840064
 21
300.709314
 31
0.0
  0
LINE
  5
635
100
AcDbEntity
  8
0
  6
BYBLOCK
 62
     0
100
AcDbLine
 10
213.840064
 20
321.638825
 30
0.0
 11
213.840064
 21
326.210825
 31
0.0
  0
LINE
  5
636
100
AcDbEntity
  8
0
  6
BYBLOCK
 62
     0
100
AcDbLine
 10
213.840064
 20
326.210825
 30
0.0
 11
218.412064
 21
326.210825
 31
0.0
  0
SOLID
  5
637
100
AcDbEntity
  8
0
  6
BYBLOCK
 62
     0
100
AcDbTrace
 10
213.078064
 20
305.281314
 30
0.0
 11
214.602064
 21
305.281314
 31
0.0
 12
213.840064
 22
309.853314
 32
0.0
 13
213.840064
 23
309.853314
 33
0.0
  0
SOLID
  5
638
100
AcDbEntity
  8
0
  6
BYBLOCK
 62
     0
100
AcDbTrace
 10
213.078064
 20
321.638825
 30
0.0
 11
214.602064
 21
321.638825
 31
0.0
 12
213.840064
 22
317.066825
 32
0.0
 13
213.840064
 23
317.066825
 33
0.0
  0
MTEXT
  5
639
100
AcDbEntity
  8
0
  6
BYBLOCK
 62
     0
100
AcDbMText
 10
245.463064
 20
326.210825
 30
0.0
 40
4.572
 41
0.0
 71
     5
 72
     1
  1
\A1;7.21mm[0.284"]
  0
POINT
  5
63A
100
AcDbEntity
  8
DEFPOINTS
  6
BYBLOCK
 62
     0
100
AcDbPoint
 10
410.749323
 20
309.853314
 30
0.0
  0
POINT
  5
63B
100
AcDbEntity
  8
DEFPOINTS
  6
BYBLOCK
 62
     0
100
AcDbPoint
 10
354.511081
 20
317.066825
 30
0.0
  0
POINT
  5
63C
100
AcDbEntity
  8
DEFPOINTS
  6
BYBLOCK
 62
     0
100
AcDbPoint
 10
213.840064
 20
317.066825
 30
0.0
  0
ENDBLK
  5
63D
100
AcDbEntity
  8
0
100
AcDbBlockEnd
  0
BLOCK
  5
624
100
AcDbEntity
  8
0
100
AcDbBlockBegin
  2
*D34
 70
    65
 10
0.0
 20
0.0
 30
0.0
  3
*D34
  1

  0
LINE
  5
625
100
AcDbEntity
  8
0
  6
BYBLOCK
 62
     0
100
AcDbLine
 10
409.161823
 20
296.853594
 30
0.0
 11
140.596733
 21
296.853594
 31
0.0
  0
LINE
  5
626
100
AcDbEntity
  8
0
  6
BYBLOCK
 62
     0
100
AcDbLine
 10
352.923581
 20
317.066825
 30
0.0
 11
140.596733
 21
317.066825
 31
0.0
  0
LINE
  5
627
100
AcDbEntity
  8
0
  6
BYBLOCK
 62
     0
100
AcDbLine
 10
145.168733
 20
292.281594
 30
0.0
 11
145.168733
 21
287.709594
 31
0.0
  0
LINE
  5
628
100
AcDbEntity
  8
0
  6
BYBLOCK
 62
     0
100
AcDbLine
 10
145.168733
 20
321.638825
 30
0.0
 11
145.168733
 21
326.210825
 31
0.0
  0
LINE
  5
629
100
AcDbEntity
  8
0
  6
BYBLOCK
 62
     0
100
AcDbLine
 10
145.168733
 20
326.210825
 30
0.0
 11
149.740733
 21
326.210825
 31
0.0
  0
SOLID
  5
62A
100
AcDbEntity
  8
0
  6
BYBLOCK
 62
     0
100
AcDbTrace
 10
144.406733
 20
292.281594
 30
0.0
 11
145.930733
 21
292.281594
 31
0.0
 12
145.168733
 22
296.853594
 32
0.0
 13
145.168733
 23
296.853594
 33
0.0
  0
SOLID
  5
62B
100
AcDbEntity
  8
0
  6
BYBLOCK
 62
     0
100
AcDbTrace
 10
144.406733
 20
321.638825
 30
0.0
 11
145.930733
 21
321.638825
 31
0.0
 12
145.168733
 22
317.066825
 32
0.0
 13
145.168733
 23
317.066825
 33
0.0
  0
MTEXT
  5
62C
100
AcDbEntity
  8
0
  6
BYBLOCK
 62
     0
100
AcDbMText
 10
178.696733
 20
326.210825
 30
0.0
 40
4.572
 41
0.0
 71
     5
 72
     1
  1
\A1;20.21mm[0.796"]
  0
POINT
  5
62D
100
AcDbEntity
  8
DEFPOINTS
  6
BYBLOCK
 62
     0
100
AcDbPoint
 10
410.749323
 20
296.853594
 30
0.0
  0
POINT
  5
62E
100
AcDbEntity
  8
DEFPOINTS
  6
BYBLOCK
 62
     0
100
AcDbPoint
 10
354.511081
 20
317.066825
 30
0.0
  0
POINT
  5
62F
100
AcDbEntity
  8
DEFPOINTS
  6
BYBLOCK
 62
     0
100
AcDbPoint
 10
145.168733
 20
317.066825
 30
0.0
  0
ENDBLK
  5
630
100
AcDbEntity
  8
0
100
AcDbBlockEnd
  0
BLOCK
  5
618
100
AcDbEntity
  8
0
100
AcDbBlockBegin
  2
*D35
 70
    65
 10
0.0
 20
0.0
 30
0.0
  3
*D35
  1

  0
LINE
  5
619
100
AcDbEntity
  8
0
  6
BYBLOCK
 62
     0
100
AcDbLine
 10
409.161823
 20
293.851314
 30
0.0
 11
101.39293
 21
293.851314
 31
0.0
  0
LINE
  5
61A
100
AcDbEntity
  8
0
  6
BYBLOCK
 62
     0
100
AcDbLine
 10
352.923581
 20
317.066825
 30
0.0
 11
101.39293
 21
317.066825
 31
0.0
  0
LINE
  5
61B
100
AcDbEntity
  8
0
  6
BYBLOCK
 62
     0
100
AcDbLine
 10
105.96493
 20
298.423314
 30
0.0
 11
105.96493
 21
300.887069
 31
0.0
  0
LINE
  5
61C
100
AcDbEntity
  8
0
  6
BYBLOCK
 62
     0
100
AcDbLine
 10
105.96493
 20
312.494825
 30
0.0
 11
105.96493
 21
310.031069
 31
0.0
  0
SOLID
  5
61D
100
AcDbEntity
  8
0
  6
BYBLOCK
 62
     0
100
AcDbTrace
 10
105.20293
 20
298.423314
 30
0.0
 11
106.72693
 21
298.423314
 31
0.0
 12
105.96493
 22
293.851314
 32
0.0
 13
105.96493
 23
293.851314
 33
0.0
  0
SOLID
  5
61E
100
AcDbEntity
  8
0
  6
BYBLOCK
 62
     0
100
AcDbTrace
 10
105.20293
 20
312.494825
 30
0.0
 11
106.72693
 21
312.494825
 31
0.0
 12
105.96493
 22
317.066825
 32
0.0
 13
105.96493
 23
317.066825
 33
0.0
  0
MTEXT
  5
61F
100
AcDbEntity
  8
0
  6
BYBLOCK
 62
     0
100
AcDbMText
 10
105.96493
 20
305.459069
 30
0.0
 40
4.572
 41
0.0
 71
     5
 72
     1
  1
\A1;23.22mm[0.914"]
  0
POINT
  5
620
100
AcDbEntity
  8
DEFPOINTS
  6
BYBLOCK
 62
     0
100
AcDbPoint
 10
410.749323
 20
293.851314
 30
0.0
  0
POINT
  5
621
100
AcDbEntity
  8
DEFPOINTS
  6
BYBLOCK
 62
     0
100
AcDbPoint
 10
354.511081
 20
317.066825
 30
0.0
  0
POINT
  5
622
100
AcDbEntity
  8
DEFPOINTS
  6
BYBLOCK
 62
     0
100
AcDbPoint
 10
105.96493
 20
317.066825
 30
0.0
  0
ENDBLK
  5
623
100
AcDbEntity
  8
0
100
AcDbBlockEnd
  0
BLOCK
  5
5FF
100
AcDbEntity
  8
0
100
AcDbBlockBegin
  2
*D36
 70
    65
 10
0.0
 20
0.0
 30
0.0
  3
*D36
  1

  0
LINE
  5
600
100
AcDbEntity
  8
0
  6
BYBLOCK
 62
     0
100
AcDbLine
 10
352.923581
 20
290.402082
 30
0.0
 11
339.56518
 21
290.402082
 31
0.0
  0
LINE
  5
601
100
AcDbEntity
  8
0
  6
BYBLOCK
 62
     0
100
AcDbLine
 10
352.923581
 20
289.640082
 30
0.0
 11
339.56518
 21
289.640082
 31
0.0
  0
LINE
  5
602
100
AcDbEntity
  8
0
  6
BYBLOCK
 62
     0
100
AcDbLine
 10
344.13718
 20
294.974082
 30
0.0
 11
344.13718
 21
299.546082
 31
0.0
  0
LINE
  5
603
100
AcDbEntity
  8
0
  6
BYBLOCK
 62
     0
100
AcDbLine
 10
344.13718
 20
285.068082
 30
0.0
 11
344.13718
 21
280.496082
 31
0.0
  0
LINE
  5
604
100
AcDbEntity
  8
0
  6
BYBLOCK
 62
     0
100
AcDbLine
 10
344.13718
 20
280.496082
 30
0.0
 11
339.56518
 21
280.496082
 31
0.0
  0
SOLID
  5
605
100
AcDbEntity
  8
0
  6
BYBLOCK
 62
     0
100
AcDbTrace
 10
343.37518
 20
294.974082
 30
0.0
 11
344.89918
 21
294.974082
 31
0.0
 12
344.13718
 22
290.402082
 32
0.0
 13
344.13718
 23
290.402082
 33
0.0
  0
SOLID
  5
606
100
AcDbEntity
  8
0
  6
BYBLOCK
 62
     0
100
AcDbTrace
 10
343.37518
 20
285.068082
 30
0.0
 11
344.89918
 21
285.068082
 31
0.0
 12
344.13718
 22
289.640082
 32
0.0
 13
344.13718
 23
289.640082
 33
0.0
  0
MTEXT
  5
607
100
AcDbEntity
  8
0
  6
BYBLOCK
 62
     0
100
AcDbMText
 10
287.36818
 20
280.496082
 30
0.0
 40
4.572
 41
0.0
 71
     5
 72
     1
  1
\A1;{0.76mm±0.03mm[0.030"±0.001"]}\P{WALL THICKNESS}
  0
POINT
  5
608
100
AcDbEntity
  8
DEFPOINTS
  6
BYBLOCK
 62
     0
100
AcDbPoint
 10
354.511081
 20
290.402082
 30
0.0
  0
POINT
  5
609
100
AcDbEntity
  8
DEFPOINTS
  6
BYBLOCK
 62
     0
100
AcDbPoint
 10
354.511081
 20
289.640082
 30
0.0
  0
POINT
  5
60A
100
AcDbEntity
  8
DEFPOINTS
  6
BYBLOCK
 62
     0
100
AcDbPoint
 10
344.13718
 20
289.640082
 30
0.0
  0
ENDBLK
  5
60B
100
AcDbEntity
  8
0
100
AcDbBlockEnd
  0
BLOCK
  5
483
100
AcDbEntity
  8
0
100
AcDbBlockBegin
  2
*D37
 70
    65
 10
0.0
 20
0.0
 30
0.0
  3
*D37
  1
*TB
  0
LINE
  5
484
100
AcDbEntity
  8
0
  6
BYBLOCK
 62
     0
100
AcDbLine
 10
426.543706
 20
451.786207
 30
0.0
 11
445.042793
 21
434.547325
 31
0.0
  0
LINE
  5
485
100
AcDbEntity
  8
0
  6
BYBLOCK
 62
     0
100
AcDbLine
 10
445.042793
 20
434.547325
 30
0.0
 11
449.614793
 21
434.547325
 31
0.0
  0
SOLID
  5
486
100
AcDbEntity
  8
0
  6
BYBLOCK
 62
     0
100
AcDbTrace
 10
427.063199
 20
452.343676
 30
0.0
 11
426.024213
 21
451.228739
 31
0.0
 12
423.198893
 22
454.903163
 32
0.0
 13
423.198893
 23
454.903163
 33
0.0
  0
MTEXT
  5
487
100
AcDbEntity
  8
0
  6
BYBLOCK
 62
     0
100
AcDbMText
 10
480.856793
 20
434.547325
 30
0.0
 40
4.572
 41
0.0
 71
     5
 72
     1
  1
\A1;{R1.59mm[R0.062"]}\P{2X}
  0
LINE
  5
488
100
AcDbEntity
  8
0
  6
BYBLOCK
 62
     0
100
AcDbLine
 10
419.7515
 20
455.985439
 30
0.0
 11
424.3235
 21
455.985439
 31
0.0
  0
LINE
  5
489
100
AcDbEntity
  8
0
  6
BYBLOCK
 62
     0
100
AcDbLine
 10
422.0375
 20
453.699439
 30
0.0
 11
422.0375
 21
458.271439
 31
0.0
  0
POINT
  5
48A
100
AcDbEntity
  8
DEFPOINTS
  6
BYBLOCK
 62
     0
100
AcDbPoint
 10
423.198893
 20
454.903163
 30
0.0
  0
POINT
  5
48B
100
AcDbEntity
  8
DEFPOINTS
  6
BYBLOCK
 62
     0
100
AcDbPoint
 10
422.0375
 20
455.985439
 30
0.0
  0
ENDBLK
  5
48C
100
AcDbEntity
  8
0
100
AcDbBlockEnd
  0
BLOCK
  5
499
100
AcDbEntity
  8
0
100
AcDbBlockBegin
  2
*D38
 70
    65
 10
0.0
 20
0.0
 30
0.0
  3
*D38
  1
*TB
  0
LINE
  5
49A
100
AcDbEntity
  8
0
  6
BYBLOCK
 62
     0
100
AcDbLine
 10
408.713391
 20
455.005849
 30
0.0
 11
445.670085
 21
419.186197
 31
0.0
  0
LINE
  5
49B
100
AcDbEntity
  8
0
  6
BYBLOCK
 62
     0
100
AcDbLine
 10
445.670085
 20
419.186197
 30
0.0
 11
450.242085
 21
419.186197
 31
0.0
  0
SOLID
  5
49C
100
AcDbEntity
  8
0
  6
BYBLOCK
 62
     0
100
AcDbTrace
 10
409.243723
 20
455.553016
 30
0.0
 11
408.183058
 21
454.458682
 31
0.0
 12
405.430389
 22
458.187843
 32
0.0
 13
405.430389
 23
458.187843
 33
0.0
  0
MTEXT
  5
49D
100
AcDbEntity
  8
0
  6
BYBLOCK
 62
     0
100
AcDbMText
 10
507.773085
 20
419.186197
 30
0.0
 40
4.572
 41
0.0
 71
     5
 72
     1
  1
\A1;{\U+22052.38mm±0.03mm[\U+22050.094"±0.001"]}\P{4X}
  0
LINE
  5
49E
100
AcDbEntity
  8
0
  6
BYBLOCK
 62
     0
100
AcDbLine
 10
402.288985
 20
459.016929
 30
0.0
 11
406.860985
 21
459.016929
 31
0.0
  0
LINE
  5
49F
100
AcDbEntity
  8
0
  6
BYBLOCK
 62
     0
100
AcDbLine
 10
404.574985
 20
456.730929
 30
0.0
 11
404.574985
 21
461.302929
 31
0.0
  0
POINT
  5
4A0
100
AcDbEntity
  8
DEFPOINTS
  6
BYBLOCK
 62
     0
100
AcDbPoint
 10
405.430389
 20
458.187843
 30
0.0
  0
POINT
  5
4A1
100
AcDbEntity
  8
DEFPOINTS
  6
BYBLOCK
 62
     0
100
AcDbPoint
 10
403.719581
 20
459.846015
 30
0.0
  0
ENDBLK
  5
4A2
100
AcDbEntity
  8
0
100
AcDbBlockEnd
  0
BLOCK
  5
56F
100
AcDbEntity
  8
0
100
AcDbBlockBegin
  2
*D39
 70
    65
 10
0.0
 20
0.0
 30
0.0
  3
*D39
  1
*TB
  0
LINE
  5
570
100
AcDbEntity
  8
0
  6
BYBLOCK
 62
     0
100
AcDbLine
 10
421.750516
 20
299.227946
 30
0.0
 11
447.673227
 21
272.647584
 31
0.0
  0
LINE
  5
571
100
AcDbEntity
  8
0
  6
BYBLOCK
 62
     0
100
AcDbLine
 10
447.673227
 20
272.647584
 30
0.0
 11
452.245227
 21
272.647584
 31
0.0
  0
SOLID
  5
572
100
AcDbEntity
  8
0
  6
BYBLOCK
 62
     0
100
AcDbTrace
 10
422.296038
 20
299.75997
 30
0.0
 11
421.204994
 21
298.695921
 31
0.0
 12
418.558369
 22
302.501076
 32
0.0
 13
418.558369
 23
302.501076
 33
0.0
  0
MTEXT
  5
573
100
AcDbEntity
  8
0
  6
BYBLOCK
 62
     0
100
AcDbMText
 10
509.776227
 20
272.647584
 30
0.0
 40
4.572
 41
0.0
 71
     5
 72
     1
  1
\A1;{\U+22052.38mm±0.03mm[\U+22050.094"±0.001"]}\P{2X}
  0
LINE
  5
574
100
AcDbEntity
  8
0
  6
BYBLOCK
 62
     0
100
AcDbLine
 10
415.441081
 20
303.353454
 30
0.0
 11
420.013081
 21
303.353454
 31
0.0
  0
LINE
  5
575
100
AcDbEntity
  8
0
  6
BYBLOCK
 62
     0
100
AcDbLine
 10
417.727081
 20
301.067454
 30
0.0
 11
417.727081
 21
305.639454
 31
0.0
  0
POINT
  5
576
100
AcDbEntity
  8
DEFPOINTS
  6
BYBLOCK
 62
     0
100
AcDbPoint
 10
418.558369
 20
302.501076
 30
0.0
  0
POINT
  5
577
100
AcDbEntity
  8
DEFPOINTS
  6
BYBLOCK
 62
     0
100
AcDbPoint
 10
416.895793
 20
304.205831
 30
0.0
  0
ENDBLK
  5
578
100
AcDbEntity
  8
0
100
AcDbBlockEnd
  0
BLOCK
  5
579
100
AcDbEntity
  8
0
100
AcDbBlockBegin
  2
*D40
 70
    65
 10
0.0
 20
0.0
 30
0.0
  3
*D40
  1
*TB
  0
LINE
  5
57A
100
AcDbEntity
  8
0
  6
BYBLOCK
 62
     0
100
AcDbLine
 10
424.654491
 20
290.857803
 30
0.0
 11
461.75537
 21
251.437106
 31
0.0
  0
LINE
  5
57B
100
AcDbEntity
  8
0
  6
BYBLOCK
 62
     0
100
AcDbLine
 10
461.75537
 20
251.437106
 30
0.0
 11
466.32737
 21
251.437106
 31
0.0
  0
SOLID
  5
57C
100
AcDbEntity
  8
0
  6
BYBLOCK
 62
     0
100
AcDbTrace
 10
425.209386
 20
291.380044
 30
0.0
 11
424.099596
 21
290.335563
 31
0.0
 12
421.521046
 22
294.187174
 32
0.0
 13
421.521046
 23
294.187174
 33
0.0
  0
MTEXT
  5
57D
100
AcDbEntity
  8
0
  6
BYBLOCK
 62
     0
100
AcDbMText
 10
497.56937
 20
251.437106
 30
0.0
 40
4.572
 41
0.0
 71
     5
 72
     1
  1
\A1;{\U+22053.20mm[\U+22050.126"]}\P{4X}
  0
LINE
  5
57E
100
AcDbEntity
  8
0
  6
BYBLOCK
 62
     0
100
AcDbLine
 10
418.13834
 20
295.352454
 30
0.0
 11
422.71034
 21
295.352454
 31
0.0
  0
LINE
  5
57F
100
AcDbEntity
  8
0
  6
BYBLOCK
 62
     0
100
AcDbLine
 10
420.42434
 20
293.066454
 30
0.0
 11
420.42434
 21
297.638454
 31
0.0
  0
POINT
  5
580
100
AcDbEntity
  8
DEFPOINTS
  6
BYBLOCK
 62
     0
100
AcDbPoint
 10
421.521046
 20
294.187174
 30
0.0
  0
POINT
  5
581
100
AcDbEntity
  8
DEFPOINTS
  6
BYBLOCK
 62
     0
100
AcDbPoint
 10
419.327635
 20
296.517733
 30
0.0
  0
ENDBLK
  5
582
100
AcDbEntity
  8
0
100
AcDbBlockEnd
  0
BLOCK
  5
4D2
100
AcDbEntity
  8
0
100
AcDbBlockBegin
  2
*D41
 70
    65
 10
0.0
 20
0.0
 30
0.0
  3
*D41
  1
*TB
  0
LINE
  5
4D3
100
AcDbEntity
  8
0
  6
BYBLOCK
 62
     0
100
AcDbLine
 10
378.870398
 20
298.410075
 30
0.0
 11
349.107922
 21
256.126991
 31
0.0
  0
LINE
  5
4D4
100
AcDbEntity
  8
0
  6
BYBLOCK
 62
     0
100
AcDbLine
 10
349.107922
 20
256.126991
 30
0.0
 11
344.535922
 21
256.126991
 31
0.0
  0
SOLID
  5
4D5
100
AcDbEntity
  8
0
  6
BYBLOCK
 62
     0
100
AcDbTrace
 10
378.247283
 20
298.848677
 30
0.0
 11
379.493513
 21
297.971473
 31
0.0
 12
381.50201
 22
302.148765
 32
0.0
 13
381.50201
 23
302.148765
 33
0.0
  0
MTEXT
  5
4D6
100
AcDbEntity
  8
0
  6
BYBLOCK
 62
     0
100
AcDbMText
 10
313.674922
 20
256.126991
 30
0.0
 40
4.572
 41
0.0
 71
     5
 72
     1
  1
\A1;\U+22052.95mm[\U+22050.116"]
  0
LINE
  5
4D7
100
AcDbEntity
  8
0
  6
BYBLOCK
 62
     0
100
AcDbLine
 10
380.063974
 20
303.353454
 30
0.0
 11
384.635974
 21
303.353454
 31
0.0
  0
LINE
  5
4D8
100
AcDbEntity
  8
0
  6
BYBLOCK
 62
     0
100
AcDbLine
 10
382.349974
 20
301.067454
 30
0.0
 11
382.349974
 21
305.639454
 31
0.0
  0
POINT
  5
4D9
100
AcDbEntity
  8
DEFPOINTS
  6
BYBLOCK
 62
     0
100
AcDbPoint
 10
381.50201
 20
302.148765
 30
0.0
  0
POINT
  5
4DA
100
AcDbEntity
  8
DEFPOINTS
  6
BYBLOCK
 62
     0
100
AcDbPoint
 10
383.197938
 20
304.558143
 30
0.0
  0
ENDBLK
  5
4DB
100
AcDbEntity
  8
0
100
AcDbBlockEnd
  0
BLOCK
  5
599
100
AcDbEntity
  8
0
100
AcDbBlockBegin
  2
*D42
 70
    65
 10
0.0
 20
0.0
 30
0.0
  3
*D42
  1
*TB
  0
LINE
  5
59A
100
AcDbEntity
  8
0
  6
BYBLOCK
 62
     0
100
AcDbLine
 10
416.633841
 20
290.574163
 30
0.0
 11
468.148684
 21
233.088248
 31
0.0
  0
LINE
  5
59B
100
AcDbEntity
  8
0
  6
BYBLOCK
 62
     0
100
AcDbLine
 10
468.148684
 20
233.088248
 30
0.0
 11
472.720684
 21
233.088248
 31
0.0
  0
SOLID
  5
59C
100
AcDbEntity
  8
0
  6
BYBLOCK
 62
     0
100
AcDbTrace
 10
417.201322
 20
291.082699
 30
0.0
 11
416.066361
 21
290.065626
 31
0.0
 12
413.582622
 22
293.979048
 32
0.0
 13
413.582622
 23
293.979048
 33
0.0
  0
MTEXT
  5
59D
100
AcDbEntity
  8
0
  6
BYBLOCK
 62
     0
100
AcDbMText
 10
503.200684
 20
233.088248
 30
0.0
 40
4.572
 41
0.0
 71
     5
 72
     1
  1
\A1;{\U+22051.00mm[\U+22050.039"]}\P{8X}
  0
LINE
  5
59E
100
AcDbEntity
  8
0
  6
BYBLOCK
 62
     0
100
AcDbLine
 10
410.962683
 20
294.351694
 30
0.0
 11
415.534683
 21
294.351694
 31
0.0
  0
LINE
  5
59F
100
AcDbEntity
  8
0
  6
BYBLOCK
 62
     0
100
AcDbLine
 10
413.248683
 20
292.065694
 30
0.0
 11
413.248683
 21
296.637694
 31
0.0
  0
POINT
  5
5A0
100
AcDbEntity
  8
DEFPOINTS
  6
BYBLOCK
 62
     0
100
AcDbPoint
 10
413.582622
 20
293.979048
 30
0.0
  0
POINT
  5
5A1
100
AcDbEntity
  8
DEFPOINTS
  6
BYBLOCK
 62
     0
100
AcDbPoint
 10
412.914744
 20
294.724339
 30
0.0
  0
ENDBLK
  5
5A2
100
AcDbEntity
  8
0
100
AcDbBlockEnd
  0
ENDSEC
  0
SECTION
  2
ENTITIES
  0
ACAD_ZOMBIE_ENTITY
  5
3D
100
AcDbEntity
  8
0
100
AcDbZombieEntity
 90
      498
 91
      515
 92
        8
310
0800000000000000
 93
       97
310
D2800000002029040000780288
330
3E
330
3F
330
40
330
41
330
3E
 94
        0
  0
INSERT
  5
E4
100
AcDbEntity
  8
0
100
AcDbBlockReference
  2
D-BORDER
 10
0.0
 20
0.0
 30
0.0
 41
25.4
 42
25.4
 43
25.4
  0
TEXT
  5
F1
100
AcDbEntity
  8
TEXT
100
AcDbText
 10
671.183782
 20
21.563091
 30
0.0
 40
1.5
  1
01-24-97
100
AcDbText
  0
TEXT
  5
F2
100
AcDbEntity
  8
TEXT
100
AcDbText
 10
646.433782
 20
21.563091
 30
0.0
 40
3.0
  1
S. KYRE
100
AcDbText
  0
TEXT
  5
F3
100
AcDbEntity
  8
TEXT
100
AcDbText
 10
746.183782
 20
13.188091
 30
0.0
 40
3.0
  1
L4-END01
100
AcDbText
  0
TEXT
  5
F4
100
AcDbEntity
  8
TEXT
100
AcDbText
 10
697.808782
 20
12.063091
 30
0.0
 40
3.0
  1
B-PARTS
100
AcDbText
  0
TEXT
  5
F5
100
AcDbEntity
  8
TEXT
100
AcDbText
 10
694.933782
 20
5.063091
 30
0.0
 40
3.0
  1
1=1
100
AcDbText
  0
TEXT
  5
F6
100
AcDbEntity
  8
TEXT
100
AcDbText
 10
783.924418
 20
12.061996
 30
0.0
 40
3.0
  1
02
100
AcDbText
  0
MTEXT
  5
F7
100
AcDbEntity
  8
TEXT
100
AcDbMText
 10
736.994556
 20
27.994029
 30
0.0
 40
3.0
 41
100.0
 71
     5
 72
     1
  1
{LAYER 4A FORWARD ENDPIECE}
  0
TEXT
  5
10A
100
AcDbEntity
  8
TEXT
100
AcDbText
 10
678.0
 20
460.011785
 30
0.0
 40
2.5
  1
FIBER
100
AcDbText
  0
TEXT
  5
10B
100
AcDbEntity
  8
TEXT
100
AcDbText
 10
678.0
 20
464.297305
 30
0.0
 40
2.5
  1
CHANGE MATERIAL TO CARBON-
100
AcDbText
  0
TEXT
  5
10C
100
AcDbEntity
  8
TEXT
100
AcDbText
 10
678.0
 20
472.498146
 30
0.0
 40
2.5
  1
ABOVE SILICON
100
AcDbText
  0
TEXT
  5
10D
100
AcDbEntity
  8
TEXT
100
AcDbText
 10
678.0
 20
476.664812
 30
0.0
 40
2.5
  1
MOVE FRONT END UP TO 3mm
100
AcDbText
  0
TEXT
  5
10E
100
AcDbEntity
  8
TEXT
100
AcDbText
 10
678.0
 20
482.833333
 30
0.0
 40
2.5
  1
ADDED HOLES AND SLOTS
100
AcDbText
  0
TEXT
  5
10F
100
AcDbEntity
  8
TEXT
100
AcDbText
 10
678.0
 20
487.0
 30
0.0
 40
2.5
  1
UPDATED DESIGN,
100
AcDbText
  0
LINE
  5
110
100
AcDbEntity
  8
TEXT
100
AcDbLine
 10
673.056868
 20
492.122347
 30
0.0
 11
673.056868
 21
460.0
 31
0.0
  0
LINE
  5
111
100
AcDbEntity
  8
TEXT
100
AcDbLine
 10
663.144457
 20
492.122347
 30
0.0
 11
663.144457
 21
460.0
 31
0.0
  0
TEXT
  5
112
100
AcDbEntity
  8
TEXT
100
AcDbText
 10
665.0
 20
476.664812
 30
0.0
 40
2.5
  1
02
100
AcDbText
  0
TEXT
  5
113
100
AcDbEntity
  8
TEXT
100
AcDbText
 10
665.0
 20
487.0
 30
0.0
 40
2.5
  1
01
100
AcDbText
  0
TEXT
  5
114
100
AcDbEntity
  8
TEXT
100
AcDbText
 10
744.0
 20
476.664812
 30
0.0
 40
2.5
  1
01-06-97
100
AcDbText
  0
TEXT
  5
115
100
AcDbEntity
  8
TEXT
100
AcDbText
 10
744.0
 20
487.0
 30
0.0
 40
2.5
  1
05-06-96
100
AcDbText
  0
LINE
  5
116
100
AcDbEntity
  8
TEXT
100
AcDbLine
 10
742.652868
 20
492.122347
 30
0.0
 11
742.652868
 21
460.0
 31
0.0
  0
LINE
  5
117
100
AcDbEntity
  8
TEXT
100
AcDbLine
 10
765.004868
 20
492.122347
 30
0.0
 11
765.004868
 21
460.0
 31
0.0
  0
TEXT
  5
118
100
AcDbEntity
  8
TEXT
100
AcDbText
 10
678.0
 20
468.331479
 30
0.0
 40
2.5
  1
REDUCE WIDTH BY 5mm
100
AcDbText
  0
POLYLINE
  5
195
100
AcDbEntity
  8
FOOT-2
100
AcDb2dPolyline
 66
     1
 10
0.0
 20
0.0
 30
0.0
 70
     1
  0
VERTEX
  5
196
100
AcDbEntity
  8
FOOT-2
100
AcDbVertex
100
AcDb2dVertex
 10
423.625
 20
289.640082
 30
0.0
  0
VERTEX
  5
197
100
AcDbEntity
  8
FOOT-2
100
AcDbVertex
100
AcDb2dVertex
 10
423.625
 20
317.066825
 30
0.0
  0
VERTEX
  5
198
100
AcDbEntity
  8
FOOT-2
100
AcDbVertex
100
AcDb2dVertex
 10
354.511081
 20
317.066825
 30
0.0
  0
VERTEX
  5
199
100
AcDbEntity
  8
FOOT-2
100
AcDbVertex
100
AcDb2dVertex
 10
354.511081
 20
289.640082
 30
0.0
  0
SEQEND
  5
19A
100
AcDbEntity
  8
FOOT-2
  0
LINE
  5
19B
100
AcDbEntity
  8
FOOT-2
100
AcDbLine
 10
354.511081
 20
290.402082
 30
0.0
 11
423.625
 21
290.402082
 31
0.0
  0
LINE
  5
19C
100
AcDbEntity
  8
FOOT-2
100
AcDbLine
 10
354.511081
 20
316.304825
 30
0.0
 11
423.625
 21
316.304825
 31
0.0
  0
LINE
  5
19D
100
AcDbEntity
  8
FOOT-2
100
AcDbLine
 10
356.748361
 20
289.640082
 30
0.0
 11
356.748361
 21
290.402082
 31
0.0
  0
LINE
  5
19E
100
AcDbEntity
  8
FOOT-2
100
AcDbLine
 10
378.812916
 20
289.640082
 30
0.0
 11
378.812916
 21
290.402082
 31
0.0
  0
LINE
  5
19F
100
AcDbEntity
  8
FOOT-2
100
AcDbLine
 10
356.748361
 20
317.066825
 30
0.0
 11
356.748361
 21
316.304825
 31
0.0
  0
LINE
  5
1A0
100
AcDbEntity
  8
FOOT-2
100
AcDbLine
 10
378.812916
 20
317.066825
 30
0.0
 11
378.812916
 21
316.304825
 31
0.0
  0
LINE
  5
1A1
100
AcDbEntity
  8
FOOT-2
100
AcDbLine
 10
372.861831
 20
290.402082
 30
0.0
 11
372.861831
 21
316.304825
 31
0.0
  0
INSERT
  5
1A3
100
AcDbEntity
  8
FOOT-2
100
AcDbBlockReference
  2
*U5
 10
382.349974
 20
303.353454
 30
0.0
 41
25.4
 42
25.4
 43
25.4
1001
TB_S_MPD
1070
   100
1000
HOLE
1070
   101
1000
TOOLBOX 13.0 HOLE 2.0
1070
   112
1000
#32 (.116) DIAMETER HOLE
1070
   102
1000
Near side
1070
   103
1000
ANSI-Number
1070
   104
1000
hole
1070
   105
1000
_usn
1070
   304
1040
0.0
1070
   305
1040
0.0
1070
   306
1040
0.116
1070
   302
1040
0.0
1070
   303
1040
0.0
1070
   307
1040
0.03
1070
   300
1040
0.125
1070
   110
1000
1
1070
   111
1000
#32
1070
   116
1000
T
1070
   308
1040
0.03
  0
INSERT
  5
1A4
100
AcDbEntity
  8
FOOT-2
100
AcDbBlockReference
  2
*U6
 10
417.727081
 20
303.353454
 30
0.0
 41
25.4
 42
25.4
 43
25.4
1001
TB_S_MPD
1070
   100
1000
HOLE
1070
   101
1000
TOOLBOX 13.0 HOLE 2.0
1070
   112
1000
3/32 (.0938) DIAMETER HOLE
1070
   102
1000
Near side
1070
   103
1000
ANSI-Fraction
1070
   104
1000
hole
1070
   105
1000
_usf
1070
   304
1040
0.0
1070
   305
1040
0.0
1070
   306
1040
0.09375
1070
   302
1040
0.0
1070
   303
1040
0.0
1070
   307
1040
0.03
1070
   300
1040
0.125
1070
   110
1000
1
1070
   111
1000
3/32
1070
   116
1000
T
1070
   308
1040
0.03
  0
LINE
  5
1A5
100
AcDbEntity
  8
CENTER
100
AcDbLine
 10
363.27848
 20
303.353454
 30
0.0
 11
357.311544
 21
303.353454
 31
0.0
  0
LINE
  5
1A6
100
AcDbEntity
  8
CENTER
100
AcDbLine
 10
360.740568
 20
298.685366
 30
0.0
 11
360.740568
 21
307.96837
 31
0.0
  0
INSERT
  5
1A7
100
AcDbEntity
  8
FOOT-2
100
AcDbBlockReference
  2
*U7
 10
420.42434
 20
295.352454
 30
0.0
 41
25.4
 42
25.4
 43
25.4
1001
TB_S_MPD
1070
   100
1000
SLOT
1070
   101
1000
TOOLBOX 13.0 SLOT 2.0
1070
   103
1000
STD
1070
   306
1040
0.126
1070
   307
1040
0.03
1070
   112
1000
SLOT
1070
   102
1000
Near side
1070
   116
1000
T
1070
   308
1040
0.03
1070
   309
1040
0.063
1070
   310
1040
0.176
1070
   311
1040
0.0
  0
INSERT
  5
1A8
100
AcDbEntity
  8
FOOT-2
100
AcDbBlockReference
  2
*U7
 10
420.42434
 20
311.354454
 30
0.0
 41
25.4
 42
25.4
 43
25.4
1001
TB_S_MPD
1070
   100
1000
SLOT
1070
   101
1000
TOOLBOX 13.0 SLOT 2.0
1070
   103
1000
STD
1070
   306
1040
0.126
1070
   307
1040
0.03
1070
   112
1000
SLOT
1070
   102
1000
Near side
1070
   116
1000
T
1070
   308
1040
0.03
1070
   309
1040
0.063
1070
   310
1040
0.176
1070
   311
1040
0.0
  0
POLYLINE
  5
1A9
100
AcDbEntity
  8
FOOT-2
100
AcDb2dPolyline
 66
     1
 10
0.0
 20
0.0
 30
0.0
 70
     1
  0
VERTEX
  5
1AA
100
AcDbEntity
  8
FOOT-2
100
AcDbVertex
100
AcDb2dVertex
 10
410.248943
 20
310.353694
 30
0.0
  0
VERTEX
  5
1AB
100
AcDbEntity
  8
FOOT-2
100
AcDbVertex
100
AcDb2dVertex
 10
410.248943
 20
312.355214
 30
0.0
 42
-0.414214
  0
VERTEX
  5
1AC
100
AcDbEntity
  8
FOOT-2
100
AcDbVertex
100
AcDb2dVertex
 10
410.749323
 20
312.855594
 30
0.0
  0
VERTEX
  5
1AD
100
AcDbEntity
  8
FOOT-2
100
AcDbVertex
100
AcDb2dVertex
 10
413.248683
 20
312.855594
 30
0.0
 42
-0.414214
  0
VERTEX
  5
1AE
100
AcDbEntity
  8
FOOT-2
100
AcDbVertex
100
AcDb2dVertex
 10
413.749063
 20
312.355214
 30
0.0
  0
VERTEX
  5
1AF
100
AcDbEntity
  8
FOOT-2
100
AcDbVertex
100
AcDb2dVertex
 10
413.749063
 20
310.353694
 30
0.0
 42
-0.414214
  0
VERTEX
  5
1B0
100
AcDbEntity
  8
FOOT-2
100
AcDbVertex
100
AcDb2dVertex
 10
413.248683
 20
309.853314
 30
0.0
  0
VERTEX
  5
1B1
100
AcDbEntity
  8
FOOT-2
100
AcDbVertex
100
AcDb2dVertex
 10
410.749323
 20
309.853314
 30
0.0
 42
-0.414214
  0
SEQEND
  5
1B2
100
AcDbEntity
  8
FOOT-2
  0
POLYLINE
  5
1B3
100
AcDbEntity
  8
FOOT-2
100
AcDb2dPolyline
 66
     1
 10
0.0
 20
0.0
 30
0.0
 70
     1
  0
VERTEX
  5
1B4
100
AcDbEntity
  8
FOOT-2
100
AcDbVertex
100
AcDb2dVertex
 10
410.248943
 20
294.351694
 30
0.0
  0
VERTEX
  5
1B5
100
AcDbEntity
  8
FOOT-2
100
AcDbVertex
100
AcDb2dVertex
 10
410.248943
 20
296.353214
 30
0.0
 42
-0.414214
  0
VERTEX
  5
1B6
100
AcDbEntity
  8
FOOT-2
100
AcDbVertex
100
AcDb2dVertex
 10
410.749323
 20
296.853594
 30
0.0
  0
VERTEX
  5
1B7
100
AcDbEntity
  8
FOOT-2
100
AcDbVertex
100
AcDb2dVertex
 10
413.248683
 20
296.853594
 30
0.0
 42
-0.414214
  0
VERTEX
  5
1B8
100
AcDbEntity
  8
FOOT-2
100
AcDbVertex
100
AcDb2dVertex
 10
413.749063
 20
296.353214
 30
0.0
  0
VERTEX
  5
1B9
100
AcDbEntity
  8
FOOT-2
100
AcDbVertex
100
AcDb2dVertex
 10
413.749063
 20
294.351694
 30
0.0
 42
-0.414214
  0
VERTEX
  5
1BA
100
AcDbEntity
  8
FOOT-2
100
AcDbVertex
100
AcDb2dVertex
 10
413.248683
 20
293.851314
 30
0.0
  0
VERTEX
  5
1BB
100
AcDbEntity
  8
FOOT-2
100
AcDbVertex
100
AcDb2dVertex
 10
410.749323
 20
293.851314
 30
0.0
 42
-0.414214
  0
SEQEND
  5
1BC
100
AcDbEntity
  8
FOOT-2
  0
LINE
  5
1BD
100
AcDbEntity
  8
FOOT-A
100
AcDbLine
 10
355.077802
 20
290.402082
 30
0.0
 11
355.077802
 21
316.304825
 31
0.0
  0
LINE
  5
1C1
100
AcDbEntity
  8
FOOT-A
100
AcDbLine
 10
422.0375
 20
105.602099
 30
0.0
 11
378.812916
 21
105.602099
 31
0.0
  0
LINE
  5
1C2
100
AcDbEntity
  8
FOOT-A
100
AcDbLine
 10
423.625
 20
95.602119
 30
0.0
 11
423.625
 21
104.014599
 31
0.0
1001
ACAD
1000
ASC_BOUNDS
1002
{
1070
    19
1005
0
1002
}
  0
LINE
  5
1C3
100
AcDbEntity
  8
CENTER
100
AcDbLine
 10
404.574985
 20
103.147416
 30
0.0
 11
404.574985
 21
98.857367
 31
0.0
  0
LINE
  5
1C4
100
AcDbEntity
  8
CENTER
100
AcDbLine
 10
406.687023
 20
100.983109
 30
0.0
 11
402.439115
 21
100.983109
 31
0.0
  0
CIRCLE
  5
1C5
100
AcDbEntity
  8
FOOT-A
100
AcDbCircle
 10
404.574985
 20
100.983109
 30
0.0
 40
1.19126
  0
LINE
  5
1C6
100
AcDbEntity
  8
FOOT-A
100
AcDbLine
 10
423.625
 20
96.364119
 30
0.0
 11
372.861831
 21
96.364119
 31
0.0
1001
ACAD
1000
ASC_BOUNDS
1002
{
1070
    19
1005
0
1002
}
  0
LINE
  5
1C7
100
AcDbEntity
  8
FOOT-A
100
AcDbLine
 10
423.625
 20
95.602119
 30
0.0
 11
372.522169
 21
95.602119
 31
0.0
1001
ACAD
1000
ASC_BOUNDS
1002
{
1070
    19
1005
0
1002
}
  0
LINE
  5
1C8
100
AcDbEntity
  8
FOOT-A
100
AcDbLine
 10
372.861831
 20
96.364119
 30
0.0
 11
355.077802
 21
116.14998
 31
0.0
1001
ACAD
1000
ASC_BOUNDS
1002
{
1070
    19
1005
0
1002
}
  0
LINE
  5
1C9
100
AcDbEntity
  8
FOOT-A
100
AcDbLine
 10
372.522169
 20
95.602119
 30
0.0
 11
354.511081
 21
115.640597
 31
0.0
1001
ACAD
1000
ASC_BOUNDS
1002
{
1070
    19
1005
0
1002
}
  0
CIRCLE
  5
1CA
100
AcDbEntity
  8
FOOT-A
100
AcDbCircle
 10
365.224311
 20
109.610863
 30
0.0
 40
1.19126
  0
LINE
  5
1CB
100
AcDbEntity
  8
FOOT-A
100
AcDbLine
 10
354.511081
 20
115.640597
 30
0.0
 11
356.748361
 21
117.65152
 31
0.0
1001
ACAD
1000
ASC_BOUNDS
1002
{
1070
    19
1005
0
1002
}
  0
LINE
  5
1CC
100
AcDbEntity
  8
FOOT-A
100
AcDbLine
 10
378.812916
 20
105.602099
 30
0.0
 11
356.748361
 21
117.65152
 31
0.0
  0
LINE
  5
1CD
100
AcDbEntity
  8
CENTER
100
AcDbLine
 10
365.224311
 20
107.607405
 30
0.0
 11
365.224311
 21
111.677306
 31
0.0
  0
LINE
  5
1CE
100
AcDbEntity
  8
CENTER
100
AcDbLine
 10
367.393899
 20
109.610863
 30
0.0
 11
362.878282
 21
109.610863
 31
0.0
  0
LINE
  5
1CF
100
AcDbEntity
  8
CENTER
100
AcDbLine
 10
273.32085
 20
109.610863
 30
0.0
 11
642.022371
 21
109.610863
 31
0.0
  0
LINE
  5
1D0
100
AcDbEntity
  8
CENTER
100
AcDbLine
 10
365.224311
 20
56.393502
 30
0.0
 11
365.224311
 21
484.277863
 31
0.0
  0
LINE
  5
1D1
100
AcDbEntity
  8
CENTER
100
AcDbLine
 10
309.524387
 20
59.546372
 30
0.0
 11
482.917531
 21
215.396487
 31
0.0
  0
LINE
  5
1D2
100
AcDbEntity
  8
CENTER
100
AcDbLine
 10
389.905654
 20
82.151302
 30
0.0
 11
262.168147
 21
224.267387
 31
0.0
  0
LINE
  5
1D9
100
AcDbEntity
  8
FOOT-A
100
AcDbLine
 10
440.212305
 20
192.67101
 30
0.0
 11
460.610323
 21
211.005261
 31
0.0
  0
LINE
  5
1DA
100
AcDbEntity
  8
FOOT-A
100
AcDbLine
 10
460.610323
 20
211.005261
 30
0.0
 11
482.348206
 21
186.820486
 31
0.0
  0
LINE
  5
1DC
100
AcDbEntity
  8
FOOT-A
100
AcDbLine
 10
462.182929
 20
168.227297
 30
0.0
 11
440.212305
 21
192.67101
 31
0.0
  0
LINE
  5
1DD
100
AcDbEntity
  8
FOOT-A
100
AcDbLine
 10
462.533613
 20
168.977035
 30
0.0
 11
440.779026
 21
193.180394
 31
0.0
  0
LINE
  5
1DE
100
AcDbEntity
  8
FOOT-A
100
AcDbLine
 10
460.043602
 20
210.495878
 30
0.0
 11
481.550157
 21
186.568471
 31
0.0
  0
LINE
  5
1DF
100
AcDbEntity
  8
FOOT-A
100
AcDbLine
 10
456.062847
 20
175.036277
 30
0.0
 11
456.629568
 21
175.54566
 31
0.0
  0
LINE
  5
1E0
100
AcDbEntity
  8
FOOT-A
100
AcDbLine
 10
476.460864
 20
193.370528
 30
0.0
 11
475.894143
 21
192.861145
 31
0.0
  0
LINE
  5
1E1
100
AcDbEntity
  8
FOOT-A
100
AcDbLine
 10
458.563055
 20
173.394533
 30
0.0
 11
477.827631
 21
190.710017
 31
0.0
  0
CIRCLE
  5
1E2
100
AcDbEntity
  8
FOOT-A
100
AcDbCircle
 10
456.07408
 20
195.537949
 30
0.0
 40
1.19065
  0
LINE
  5
1E3
100
AcDbEntity
  8
CENTER
100
AcDbLine
 10
453.859989
 20
193.547869
 30
0.0
 11
458.317177
 21
197.554102
 31
0.0
  0
LINE
  5
1E4
100
AcDbEntity
  8
CENTER
100
AcDbLine
 10
457.948776
 20
193.452232
 30
0.0
 11
454.351281
 21
197.454672
 31
0.0
  0
INSERT
  5
1F6
100
AcDbEntity
  8
HATCH
100
AcDbBlockReference
  2
*X9
 10
0.0
 20
-14.479564
 30
0.0
1001
ACAD
1000
HATCH
1002
{
1070
    19
1000
ANSI31
1040
10.0
1040
0.0
1002
}
  0
ELLIPSE
  5
234
100
AcDbEntity
  8
FOOT-A
100
AcDbEllipse
 10
360.740568
 20
303.353454
 30
0.0
 11
0.0
 21
1.190625000000011
 31
0.0
210
0.0
220
0.0
230
1.0
 40
0.668496
 41
0.0
 42
6.2831853071796
  0
ELLIPSE
  5
236
100
AcDbEntity
  8
FOOT-A
100
AcDbEllipse
 10
360.173847
 20
303.353454
 30
0.0
 11
0.0
 21
1.190625000000011
 31
0.0
210
0.0
220
0.0
230
1.0
 40
0.668496
 41
-2.777594962916288
 42
-0.363997690673522
  0
LINE
  5
237
100
AcDbEntity
  8
FOOT-A
100
AcDbLine
 10
423.625
 20
464.397919
 30
0.0
 11
372.522169
 21
464.397919
 31
0.0
1001
ACAD
1000
ASC_BOUNDS
1002
{
1070
    19
1005
0
1002
}
  0
LINE
  5
239
100
AcDbEntity
  8
FOOT-A
100
AcDbLine
 10
422.0375
 20
454.397939
 30
0.0
 11
378.812916
 21
454.397939
 31
0.0
  0
LINE
  5
23A
100
AcDbEntity
  8
FOOT-A
100
AcDbLine
 10
378.812916
 20
454.397939
 30
0.0
 11
356.748361
 21
442.348518
 31
0.0
  0
LINE
  5
23B
100
AcDbEntity
  8
FOOT-A
100
AcDbLine
 10
372.522169
 20
464.397919
 30
0.0
 11
354.511081
 21
444.359441
 31
0.0
1001
ACAD
1000
ASC_BOUNDS
1002
{
1070
    19
1005
0
1002
}
  0
LINE
  5
23D
100
AcDbEntity
  8
FOOT-A
100
AcDbLine
 10
354.511081
 20
444.359441
 30
0.0
 11
356.748361
 21
442.348518
 31
0.0
1001
ACAD
1000
ASC_BOUNDS
1002
{
1070
    19
1005
0
1002
}
  0
LINE
  5
23E
100
AcDbEntity
  8
CENTER
100
AcDbLine
 10
367.393899
 20
450.389175
 30
0.0
 11
362.878282
 21
450.389175
 31
0.0
  0
LINE
  5
23F
100
AcDbEntity
  8
CENTER
100
AcDbLine
 10
365.224311
 20
452.392633
 30
0.0
 11
365.224311
 21
448.322732
 31
0.0
  0
CIRCLE
  5
240
100
AcDbEntity
  8
FOOT-A
100
AcDbCircle
 10
365.224311
 20
450.389175
 30
0.0
 40
1.19126
  0
LINE
  5
241
100
AcDbEntity
  8
CENTER
100
AcDbLine
 10
406.687023
 20
459.016929
 30
0.0
 11
402.439115
 21
459.016929
 31
0.0
  0
CIRCLE
  5
242
100
AcDbEntity
  8
FOOT-A
100
AcDbCircle
 10
404.574985
 20
459.016929
 30
0.0
 40
1.19126
  0
LINE
  5
243
100
AcDbEntity
  8
CENTER
100
AcDbLine
 10
404.574985
 20
456.852623
 30
0.0
 11
404.574985
 21
461.142671
 31
0.0
  0
LINE
  5
244
100
AcDbEntity
  8
FOOT-A
100
AcDbLine
 10
423.625
 20
464.397919
 30
0.0
 11
423.625
 21
455.985439
 31
0.0
1001
ACAD
1000
ASC_BOUNDS
1002
{
1070
    19
1005
0
1002
}
  0
LINE
  5
246
100
AcDbEntity
  8
CENTER
100
AcDbLine
 10
130.4295
 20
450.389175
 30
0.0
 11
642.022371
 21
450.389175
 31
0.0
  0
DIMENSION
  5
254
100
AcDbEntity
  8
DIM
100
AcDbDimension
  2
*D10
 10
423.625
 20
76.177902
 30
0.0
 11
462.868
 21
90.657466
 31
0.0
 12
0.0
 22
-14.479564
 32
0.0
 70
    32
  3
SU1
100
AcDbAlignedDimension
 13
365.224311
 23
56.393502
 33
0.0
 14
423.625
 24
95.602119
 34
0.0
100
AcDbRotatedDimension
1001
ACAD
1000
DSTYLE
1002
{
1070
   272
1070
     2
1070
    75
1070
     1
1070
    40
1040
25.4
1070
     3
1000
mm
1070
   271
1070
     2
1070
     4
1000
"
1070
   274
1070
     3
1070
   143
1040
0.03937
1070
   171
1070
     3
1070
   170
1070
     1
1002
}
  0
DIMENSION
  5
261
100
AcDbEntity
  8
DIM
100
AcDbDimension
  2
*D11
 10
404.574985
 20
63.816757
 30
0.0
 11
468.963985
 21
78.296321
 31
0.0
 12
0.0
 22
-14.479564
 32
0.0
 70
    32
  3
SU1
100
AcDbAlignedDimension
 13
365.224311
 23
56.393502
 33
0.0
 14
404.574985
 24
98.857367
 34
0.0
100
AcDbRotatedDimension
1001
ACAD
1000
DSTYLE
1002
{
1070
    47
1040
0.03
1070
    71
1070
     1
1070
    48
1040
0.03
1070
   272
1070
     2
1070
    75
1070
     1
1070
    40
1040
25.4
1070
     3
1000
mm
1070
   271
1070
     2
1070
     4
1000
"
1070
   274
1070
     3
1070
   143
1040
0.03937
1070
   171
1070
     3
1070
   170
1070
     1
1002
}
  0
DIMENSION
  5
26F
100
AcDbEntity
  8
DIM
100
AcDbDimension
  2
*D12
 10
510.392678
 20
109.610863
 30
0.0
 11
567.923678
 21
133.234427
 31
0.0
 12
0.0
 22
-14.479564
 32
0.0
 70
    32
  3
SU1
100
AcDbAlignedDimension
 13
406.687023
 23
100.983109
 33
0.0
 14
642.022371
 24
109.610863
 34
0.0
 50
90.0
100
AcDbRotatedDimension
1001
ACAD
1000
DSTYLE
1002
{
1070
    47
1040
0.03
1070
    71
1070
     1
1070
    48
1040
0.03
1070
   272
1070
     2
1070
    76
1070
     1
1070
    40
1040
25.4
1070
     3
1000
mm
1070
   271
1070
     2
1070
     4
1000
"
1070
   274
1070
     3
1070
   143
1040
0.03937
1070
   171
1070
     3
1070
   170
1070
     1
1002
}
  0
DIMENSION
  5
27D
100
AcDbEntity
  8
DIM
100
AcDbDimension
  2
*D13
 10
442.33328
 20
109.610863
 30
0.0
 11
472.81328
 21
133.234427
 31
0.0
 12
0.0
 22
-14.479564
 32
0.0
 70
    32
  3
SU1
100
AcDbAlignedDimension
 13
421.625004
 23
105.602099
 33
0.0
 14
642.022371
 24
109.610863
 34
0.0
 50
90.0
100
AcDbRotatedDimension
1001
ACAD
1000
DSTYLE
1002
{
1070
    47
1040
0.03
1070
    48
1040
0.03
1070
   272
1070
     2
1070
    76
1070
     1
1070
    40
1040
25.4
1070
     3
1000
mm
1070
   271
1070
     2
1070
     4
1000
"
1070
   274
1070
     3
1070
   143
1040
0.03937
1070
   171
1070
     3
1070
   170
1070
     1
1002
}
  0
DIMENSION
  5
297
100
AcDbEntity
  8
DIM
100
AcDbDimension
  2
*D14
 10
627.664258
 20
109.610863
 30
0.0
 11
691.443658
 21
133.234427
 31
0.0
 12
0.0
 22
-14.479564
 32
0.0
 70
    32
  3
SU1
100
AcDbAlignedDimension
 13
423.625
 23
95.602119
 33
0.0
 14
642.022371
 24
109.610863
 34
0.0
 50
90.0
100
AcDbRotatedDimension
1001
ACAD
1000
DSTYLE
1002
{
1070
    47
1040
0.0
1070
    71
1070
     1
1070
    48
1040
0.05
1070
   272
1070
     2
1070
    76
1070
     1
1070
    40
1040
25.4
1070
     3
1000
mm
1070
   271
1070
     2
1070
     4
1000
"
1070
   274
1070
     3
1070
   143
1040
0.03937
1070
   171
1070
     3
1070
   170
1070
     1
1002
}
  0
DIMENSION
  5
2A4
100
AcDbEntity
  8
DIM
100
AcDbDimension
  2
*D15
 10
378.812916
 20
141.227896
 30
0.0
 11
417.293916
 21
155.70746
 31
0.0
 12
0.0
 22
-14.479564
 32
0.0
 70
    32
  3
SU1
100
AcDbAlignedDimension
 13
365.224311
 23
56.393502
 33
0.0
 14
378.812916
 24
105.602099
 34
0.0
100
AcDbRotatedDimension
1001
ACAD
1000
DSTYLE
1002
{
1070
    47
1040
0.0
1070
    48
1040
0.05
1070
   272
1070
     2
1070
    75
1070
     1
1070
    40
1040
25.4
1070
     3
1000
mm
1070
   271
1070
     2
1070
     4
1000
"
1070
   274
1070
     3
1070
   143
1040
0.03937
1070
   171
1070
     3
1070
   170
1070
     1
1002
}
  0
DIMENSION
  5
2B1
100
AcDbEntity
  8
DIM
100
AcDbDimension
  2
*D16
 10
477.166555
 20
210.227365
 30
0.0
 11
511.23075
 21
173.359285
 31
0.0
 12
6.686457
 22
-8.469608
 32
0.0
 70
    32
 51
48.05
  3
SU1
100
AcDbAlignedDimension
 13
458.317177
 23
197.554102
 33
0.0
 14
482.917531
 24
215.396487
 34
0.0
 50
311.95
100
AcDbRotatedDimension
1001
ACAD
1000
DSTYLE
1002
{
1070
    47
1040
0.03
1070
    71
1070
     1
1070
    48
1040
0.03
1070
   272
1070
     2
1070
    76
1070
     1
1070
    40
1040
25.4
1070
     3
1000
mm
1070
   271
1070
     2
1070
     4
1000
"
1070
   274
1070
     3
1070
   143
1040
0.03937
1070
   171
1070
     3
1070
   170
1070
     1
1002
}
  0
DIMENSION
  5
2BE
100
AcDbEntity
  8
DIM
100
AcDbDimension
  2
*D17
 10
314.643387
 20
64.147458
 30
0.0
 11
339.857854
 21
50.574328
 31
0.0
 12
0.0
 22
-14.479564
 32
0.0
 70
    32
 51
48.05
  3
SU1
100
AcDbAlignedDimension
 13
354.511081
 23
115.640597
 33
0.0
 14
309.524387
 24
59.546372
 34
0.0
 50
311.95
100
AcDbRotatedDimension
1001
ACAD
1000
DSTYLE
1002
{
1070
    47
1040
0.03
1070
    48
1040
0.03
1070
   272
1070
     2
1070
    76
1070
     1
1070
    40
1040
25.4
1070
     3
1000
mm
1070
   271
1070
     2
1070
     4
1000
"
1070
   274
1070
     3
1070
   143
1040
0.03937
1070
   171
1070
     3
1070
   170
1070
     1
1002
}
  0
DIMENSION
  5
2D6
100
AcDbEntity
  8
DIM
100
AcDbDimension
  2
*D18
 10
335.723792
 20
62.526813
 30
0.0
 11
360.938258
 21
48.953683
 31
0.0
 12
0.0
 22
-14.479564
 32
0.0
 70
    32
 51
48.05
  3
SU1
100
AcDbAlignedDimension
 13
309.524387
 23
59.546372
 33
0.0
 14
372.522169
 24
95.602119
 34
0.0
 50
311.95
100
AcDbRotatedDimension
1001
ACAD
1000
DSTYLE
1002
{
1070
    47
1040
0.03
1070
    48
1040
0.03
1070
   272
1070
     2
1070
    75
1070
     1
1070
    40
1040
25.4
1070
     3
1000
mm
1070
   271
1070
     2
1070
     4
1000
"
1070
   274
1070
     3
1070
   143
1040
0.03937
1070
   171
1070
     3
1070
   170
1070
     1
1002
}
  0
DIMENSION
  5
2E4
100
AcDbEntity
  8
DIM
100
AcDbDimension
  2
*D19
 10
309.395852
 20
170.334191
 30
0.0
 11
281.455798
 21
187.740518
 31
0.0
 70
    32
 51
48.05
  3
SU1
100
AcDbAlignedDimension
 13
262.168147
 23
224.267387
 33
0.0
 14
356.748361
 24
117.65152
 34
0.0
 50
41.95
100
AcDbRotatedDimension
1001
ACAD
1000
DSTYLE
1002
{
1070
    47
1040
0.03
1070
    48
1040
0.03
1070
   272
1070
     2
1070
    75
1070
     1
1070
    40
1040
25.4
1070
     3
1000
mm
1070
   271
1070
     2
1070
     4
1000
"
1070
   274
1070
     3
1070
   143
1040
0.03937
1070
   171
1070
     3
1070
   170
1070
     1
1002
}
  0
DIMENSION
  5
2F2
100
AcDbEntity
  8
DIM
100
AcDbDimension
  2
*D20
 10
347.07082
 20
123.918359
 30
0.0
 11
319.130766
 21
141.324687
 31
0.0
 70
    32
 51
48.05
  3
SU1
100
AcDbAlignedDimension
 13
262.168147
 23
224.267387
 33
0.0
 14
354.511081
 24
115.640597
 34
0.0
 50
41.95
100
AcDbRotatedDimension
1001
ACAD
1000
DSTYLE
1002
{
1070
    47
1040
0.03
1070
    48
1040
0.03
1070
   272
1070
     2
1070
    75
1070
     1
1070
    40
1040
25.4
1070
     3
1000
mm
1070
   271
1070
     2
1070
     4
1000
"
1070
   274
1070
     3
1070
   143
1040
0.03937
1070
   171
1070
     3
1070
   170
1070
     1
1002
}
  0
DIMENSION
  5
35A
100
AcDbEntity
  8
DIM
100
AcDbDimension
  2
*D21
 10
262.168147
 20
224.267387
 30
0.0
 11
329.858874
 21
201.861267
 31
0.0
 70
    34
  3
SU1$2
100
AcDb2LineAngularDimension
 13
365.224311
 23
56.393502
 33
0.0
 14
365.224311
 24
484.277863
 34
0.0
 15
389.905654
 25
82.151302
 35
0.0
 16
321.85611
 26
198.380511
 36
0.0
1001
ACAD
1000
DSTYLE
1002
{
1070
    47
1040
0.03
1070
    48
1040
0.03
1070
   272
1070
     2
1070
    75
1070
     1
1070
    40
1040
25.4
1070
   271
1070
     2
1070
     4
1000
"
1070
   274
1070
     3
1070
   143
1040
0.03937
1070
   171
1070
     3
1070
   170
1070
     1
1002
}
  0
DIMENSION
  5
367
100
AcDbEntity
  8
DIM
100
AcDbDimension
  2
*D22
 10
420.42434
 20
344.550332
 30
0.0
 11
458.90534
 21
344.550332
 31
0.0
 70
    32
  3
SU1
100
AcDbAlignedDimension
 13
365.224311
 23
484.277863
 33
0.0
 14
420.42434
 24
316.129654
 34
0.0
100
AcDbRotatedDimension
1001
ACAD
1000
DSTYLE
1002
{
1070
    47
1040
0.03
1070
    48
1040
0.03
1070
   272
1070
     2
1070
    75
1070
     1
1070
    40
1040
25.4
1070
     3
1000
mm
1070
   271
1070
     2
1070
     4
1000
"
1070
   274
1070
     3
1070
   143
1040
0.03937
1070
   171
1070
     3
1070
   170
1070
     1
1002
}
  0
DIMENSION
  5
374
100
AcDbEntity
  8
DIM
100
AcDbDimension
  2
*D23
 10
417.727081
 20
356.037819
 30
0.0
 11
482.116081
 21
356.037819
 31
0.0
 70
    32
  3
SU1
100
AcDbAlignedDimension
 13
365.224311
 23
484.277863
 33
0.0
 14
417.727081
 24
307.719079
 34
0.0
100
AcDbRotatedDimension
1001
ACAD
1000
DSTYLE
1002
{
1070
    47
1040
0.03
1070
    71
1070
     1
1070
    48
1040
0.03
1070
   272
1070
     2
1070
    75
1070
     1
1070
    40
1040
25.4
1070
     3
1000
mm
1070
   271
1070
     2
1070
     4
1000
"
1070
   274
1070
     3
1070
   143
1040
0.03937
1070
   171
1070
     3
1070
   170
1070
     1
1002
}
  0
DIMENSION
  5
381
100
AcDbEntity
  8
DIM
100
AcDbDimension
  2
*D24
 10
415.95394
 20
367.935573
 30
0.0
 11
454.43494
 21
367.935573
 31
0.0
 70
    32
  3
SU1
100
AcDbAlignedDimension
 13
365.224311
 23
484.277863
 33
0.0
 14
415.95394
 24
316.129654
 34
0.0
100
AcDbRotatedDimension
1001
ACAD
1000
DSTYLE
1002
{
1070
    47
1040
0.03
1070
    48
1040
0.03
1070
   272
1070
     2
1070
    75
1070
     1
1070
    40
1040
25.4
1070
     3
1000
mm
1070
   271
1070
     2
1070
     4
1000
"
1070
   274
1070
     3
1070
   143
1040
0.03937
1070
   171
1070
     3
1070
   170
1070
     1
1002
}
  0
DIMENSION
  5
38E
100
AcDbEntity
  8
DIM
100
AcDbDimension
  2
*D25
 10
413.749063
 20
379.184141
 30
0.0
 11
451.468063
 21
379.184141
 31
0.0
 70
    32
  3
SU1
100
AcDbAlignedDimension
 13
365.224311
 23
484.277863
 33
0.0
 14
413.749063
 24
312.355214
 34
0.0
100
AcDbRotatedDimension
1001
ACAD
1000
DSTYLE
1002
{
1070
    47
1040
0.03
1070
    48
1040
0.03
1070
   272
1070
     2
1070
    75
1070
     1
1070
    40
1040
25.4
1070
     3
1000
mm
1070
   271
1070
     2
1070
     4
1000
"
1070
   274
1070
     3
1070
   143
1040
0.03937
1070
   171
1070
     3
1070
   170
1070
     1
1002
}
  0
DIMENSION
  5
39B
100
AcDbEntity
  8
DIM
100
AcDbDimension
  2
*D26
 10
410.248943
 20
390.018419
 30
0.0
 11
448.729943
 21
390.018419
 31
0.0
 70
    32
  3
SU1
100
AcDbAlignedDimension
 13
365.224311
 23
484.277863
 33
0.0
 14
410.248943
 24
312.355214
 34
0.0
100
AcDbRotatedDimension
1001
ACAD
1000
DSTYLE
1002
{
1070
    47
1040
0.03
1070
    48
1040
0.03
1070
   272
1070
     2
1070
    75
1070
     1
1070
    40
1040
25.4
1070
     3
1000
mm
1070
   271
1070
     2
1070
     4
1000
"
1070
   274
1070
     3
1070
   143
1040
0.03937
1070
   171
1070
     3
1070
   170
1070
     1
1002
}
  0
DIMENSION
  5
3A8
100
AcDbEntity
  8
DIM
100
AcDbDimension
  2
*D27
 10
382.349974
 20
401.920099
 30
0.0
 11
420.068974
 21
401.920099
 31
0.0
 70
    32
  3
SU1
100
AcDbAlignedDimension
 13
365.224311
 23
484.277863
 33
0.0
 14
382.349974
 24
308.001654
 34
0.0
100
AcDbRotatedDimension
1001
ACAD
1000
DSTYLE
1002
{
1070
    47
1040
0.03
1070
    48
1040
0.03
1070
   272
1070
     2
1070
    75
1070
     1
1070
    40
1040
25.4
1070
     3
1000
mm
1070
   271
1070
     2
1070
     4
1000
"
1070
   274
1070
     3
1070
   143
1040
0.03937
1070
   171
1070
     3
1070
   170
1070
     1
1002
}
  0
DIMENSION
  5
3CD
100
AcDbEntity
  8
DIM
100
AcDbDimension
  2
*D28
 10
449.445683
 20
317.066825
 30
0.0
 11
481.068683
 21
326.210825
 31
0.0
 70
    32
  3
SU1
100
AcDbAlignedDimension
 13
425.19954
 23
311.354454
 33
0.0
 14
423.625
 24
317.066825
 34
0.0
 50
90.0
100
AcDbRotatedDimension
1001
ACAD
1000
DSTYLE
1002
{
1070
    47
1040
0.03
1070
    48
1040
0.03
1070
   272
1070
     2
1070
    40
1040
25.4
1070
     3
1000
mm
1070
   271
1070
     2
1070
     4
1000
"
1070
   274
1070
     3
1070
   143
1040
0.03937
1070
   171
1070
     3
1070
   170
1070
     1
1002
}
  0
DIMENSION
  5
3DC
100
AcDbEntity
  8
DIM
100
AcDbDimension
  2
*D29
 10
512.734546
 20
317.066825
 30
0.0
 11
571.027546
 21
326.210825
 31
0.0
 70
    32
  3
SU1
100
AcDbAlignedDimension
 13
422.092706
 23
303.353454
 33
0.0
 14
423.625
 24
317.066825
 34
0.0
 50
90.0
100
AcDbRotatedDimension
1001
ACAD
1000
DSTYLE
1002
{
1070
    47
1040
0.03
1070
    71
1070
     1
1070
    48
1040
0.03
1070
   272
1070
     2
1070
    40
1040
25.4
1070
     3
1000
mm
1070
   271
1070
     2
1070
     4
1000
"
1070
   274
1070
     3
1070
   143
1040
0.03937
1070
   171
1070
     3
1070
   170
1070
     1
1002
}
  0
DIMENSION
  5
3EA
100
AcDbEntity
  8
DIM
100
AcDbDimension
  2
*D30
 10
631.361711
 20
317.066825
 30
0.0
 11
664.508711
 21
326.210825
 31
0.0
 70
    32
  3
SU1
100
AcDbAlignedDimension
 13
425.19954
 23
295.352454
 33
0.0
 14
423.625
 24
317.066825
 34
0.0
 50
90.0
100
AcDbRotatedDimension
1001
ACAD
1000
DSTYLE
1002
{
1070
    47
1040
0.03
1070
    48
1040
0.03
1070
   272
1070
     2
1070
    40
1040
25.4
1070
     3
1000
mm
1070
   271
1070
     2
1070
     4
1000
"
1070
   274
1070
     3
1070
   143
1040
0.03937
1070
   171
1070
     3
1070
   170
1070
     1
1002
}
  0
DIMENSION
  5
3F8
100
AcDbEntity
  8
DIM
100
AcDbDimension
  2
*D31
 10
722.018121
 20
317.066825
 30
0.0
 11
722.018121
 21
303.353454
 31
0.0
 70
    32
  3
SU1
100
AcDbAlignedDimension
 13
423.625
 23
289.640082
 33
0.0
 14
423.625
 24
317.066825
 34
0.0
 50
90.0
100
AcDbRotatedDimension
1001
ACAD
1000
DSTYLE
1002
{
1070
    47
1040
0.03
1070
    71
1070
     1
1070
    48
1040
0.03
1070
   272
1070
     2
1070
    40
1040
25.4
1070
     3
1000
mm
1070
   271
1070
     2
1070
     4
1000
"
1070
   274
1070
     3
1070
   143
1040
0.03937
1070
   171
1070
     3
1070
   170
1070
     1
1002
}
  0
DIMENSION
  5
407
100
AcDbEntity
  8
DIM
100
AcDbDimension
  2
*D32
 10
278.602116
 20
317.066825
 30
0.0
 11
309.463116
 21
326.210825
 31
0.0
 70
    32
  3
SU1
100
AcDbAlignedDimension
 13
410.749323
 23
312.855594
 33
0.0
 14
354.511081
 24
317.066825
 34
0.0
 50
90.0
100
AcDbRotatedDimension
1001
ACAD
1000
DSTYLE
1002
{
1070
    47
1040
0.03
1070
    48
1040
0.03
1070
   272
1070
     2
1070
    40
1040
25.4
1070
     3
1000
mm
1070
   271
1070
     2
1070
     4
1000
"
1070
   274
1070
     3
1070
   143
1040
0.03937
1070
   171
1070
     3
1070
   170
1070
     1
1002
}
  0
DIMENSION
  5
416
100
AcDbEntity
  8
DIM
100
AcDbDimension
  2
*D33
 10
213.840064
 20
317.066825
 30
0.0
 11
245.463064
 21
326.210825
 31
0.0
 70
    32
  3
SU1
100
AcDbAlignedDimension
 13
410.749323
 23
309.853314
 33
0.0
 14
354.511081
 24
317.066825
 34
0.0
 50
90.0
100
AcDbRotatedDimension
1001
ACAD
1000
DSTYLE
1002
{
1070
    47
1040
0.03
1070
    48
1040
0.03
1070
   272
1070
     2
1070
    40
1040
25.4
1070
     3
1000
mm
1070
   271
1070
     2
1070
     4
1000
"
1070
   274
1070
     3
1070
   143
1040
0.03937
1070
   171
1070
     3
1070
   170
1070
     1
1002
}
  0
DIMENSION
  5
425
100
AcDbEntity
  8
DIM
100
AcDbDimension
  2
*D34
 10
145.168733
 20
317.066825
 30
0.0
 11
178.696733
 21
326.210825
 31
0.0
 70
    32
  3
SU1
100
AcDbAlignedDimension
 13
410.749323
 23
296.853594
 33
0.0
 14
354.511081
 24
317.066825
 34
0.0
 50
90.0
100
AcDbRotatedDimension
1001
ACAD
1000
DSTYLE
1002
{
1070
    47
1040
0.03
1070
    48
1040
0.03
1070
   272
1070
     2
1070
    40
1040
25.4
1070
     3
1000
mm
1070
   271
1070
     2
1070
     4
1000
"
1070
   274
1070
     3
1070
   143
1040
0.03937
1070
   171
1070
     3
1070
   170
1070
     1
1002
}
  0
DIMENSION
  5
433
100
AcDbEntity
  8
DIM
100
AcDbDimension
  2
*D35
 10
105.96493
 20
317.066825
 30
0.0
 11
105.96493
 21
305.459069
 31
0.0
 70
    32
  3
SU1
100
AcDbAlignedDimension
 13
410.749323
 23
293.851314
 33
0.0
 14
354.511081
 24
317.066825
 34
0.0
 50
90.0
100
AcDbRotatedDimension
1001
ACAD
1000
DSTYLE
1002
{
1070
    47
1040
0.03
1070
    48
1040
0.03
1070
   272
1070
     2
1070
    40
1040
25.4
1070
     3
1000
mm
1070
   271
1070
     2
1070
     4
1000
"
1070
   274
1070
     3
1070
   143
1040
0.03937
1070
   171
1070
     3
1070
   170
1070
     1
1002
}
  0
DIMENSION
  5
467
100
AcDbEntity
  8
DIM
100
AcDbDimension
  2
*D36
 10
344.13718
 20
289.640082
 30
0.0
 11
287.36818
 21
280.496082
 31
0.0
 70
    32
  1
{<>}\P{WALL THICKNESS}
  3
SU1
100
AcDbAlignedDimension
 13
354.511081
 23
290.402082
 33
0.0
 14
354.511081
 24
289.640082
 34
0.0
 50
90.0
100
AcDbRotatedDimension
1001
ACAD
1000
DSTYLE
1002
{
1070
    47
1040
0.03
1070
    71
1070
     1
1070
    48
1040
0.03
1070
   272
1070
     2
1070
    40
1040
25.4
1070
     3
1000
mm
1070
   271
1070
     2
1070
     4
1000
"
1070
   274
1070
     3
1070
   143
1040
0.03937
1070
   171
1070
     3
1070
   170
1070
     1
1002
}
  0
ARC
  5
475
100
AcDbEntity
  8
FOOT-A
100
AcDbCircle
 10
422.0375
 20
455.985439
 30
0.0
 40
1.5875
100
AcDbArc
 50
270.0
 51
0.0
1001
ACAD
1000
ASC_BOUNDS
1002
{
1070
    19
1005
0
1002
}
  0
ARC
  5
476
100
AcDbEntity
  8
FOOT-A
100
AcDbCircle
 10
422.0375
 20
104.014599
 30
0.0
 40
1.5875
100
AcDbArc
 50
360.0
 51
90.0
1001
ACAD
1000
ASC_BOUNDS
1002
{
1070
    19
1005
0
1005
1F6
1002
}
  0
DIMENSION
  5
482
100
AcDbEntity
  8
DIM
100
AcDbDimension
  2
*D37
 10
422.0375
 20
455.985439
 30
0.0
 11
480.856793
 21
434.547325
 31
0.0
 70
   164
  1
{<>}\P{2X}
  3
SU1$4
100
AcDbRadialDimension
 15
423.198893
 25
454.903163
 35
0.0
 40
0.0
1001
ACAD
1000
DSTYLE
1002
{
1070
    47
1040
0.03
1070
    48
1040
0.03
1070
   272
1070
     2
1070
    40
1040
25.4
1070
     3
1000
mm
1070
   271
1070
     2
1070
     4
1000
"
1070
   274
1070
     3
1070
   143
1040
0.03937
1070
   171
1070
     3
1070
   170
1070
     1
1002
}
  0
DIMENSION
  5
498
100
AcDbEntity
  8
DIM
100
AcDbDimension
  2
*D38
 10
403.719581
 20
459.846015
 30
0.0
 11
507.773085
 21
419.186197
 31
0.0
 70
   163
  1
{<>}\P{4X}
  3
SU1$3
100
AcDbDiametricDimension
 15
405.430389
 25
458.187843
 35
0.0
 40
0.0
1001
ACAD
1000
DSTYLE
1002
{
1070
    47
1040
0.03
1070
    71
1070
     1
1070
    48
1040
0.03
1070
   272
1070
     2
1070
    40
1040
25.4
1070
     3
1000
mm
1070
   271
1070
     2
1070
     4
1000
"
1070
   274
1070
     3
1070
   143
1040
0.03937
1070
   171
1070
     3
1070
   170
1070
     1
1002
}
  0
DIMENSION
  5
4AE
100
AcDbEntity
  8
DIM
100
AcDbDimension
  2
*D39
 10
416.895793
 20
304.205831
 30
0.0
 11
509.776227
 21
272.647584
 31
0.0
 70
   163
  1
{<>}\P{2X}
  3
SU1$3
100
AcDbDiametricDimension
 15
418.558369
 25
302.501076
 35
0.0
 40
0.0
1001
ACAD
1000
DSTYLE
1002
{
1070
    47
1040
0.03
1070
    71
1070
     1
1070
    48
1040
0.03
1070
   272
1070
     2
1070
    40
1040
25.4
1070
     3
1000
mm
1070
   271
1070
     2
1070
     4
1000
"
1070
   274
1070
     3
1070
   143
1040
0.03937
1070
   171
1070
     3
1070
   170
1070
     1
1002
}
  0
DIMENSION
  5
4C4
100
AcDbEntity
  8
DIM
100
AcDbDimension
  2
*D40
 10
419.327635
 20
296.517733
 30
0.0
 11
497.56937
 21
251.437106
 31
0.0
 70
   163
  1
{<>}\P{4X}
  3
SU1$3
100
AcDbDiametricDimension
 15
421.521046
 25
294.187174
 35
0.0
 40
0.0
1001
ACAD
1000
DSTYLE
1002
{
1070
    47
1040
0.03
1070
    48
1040
0.03
1070
   272
1070
     2
1070
    40
1040
25.4
1070
     3
1000
mm
1070
   271
1070
     2
1070
     4
1000
"
1070
   274
1070
     3
1070
   143
1040
0.03937
1070
   171
1070
     3
1070
   170
1070
     1
1002
}
  0
DIMENSION
  5
4DC
100
AcDbEntity
  8
DIM
100
AcDbDimension
  2
*D41
 10
383.197938
 20
304.558143
 30
0.0
 11
313.674922
 21
256.126991
 31
0.0
 70
   163
  3
SU1$3
100
AcDbDiametricDimension
 15
381.50201
 25
302.148765
 35
0.0
 40
0.0
1001
ACAD
1000
DSTYLE
1002
{
1070
    47
1040
0.03
1070
    48
1040
0.03
1070
   272
1070
     2
1070
    40
1040
25.4
1070
     3
1000
mm
1070
   271
1070
     2
1070
     4
1000
"
1070
   274
1070
     3
1070
   143
1040
0.03937
1070
   171
1070
     3
1070
   170
1070
     1
1002
}
  0
DIMENSION
  5
58E
100
AcDbEntity
  8
DIM
100
AcDbDimension
  2
*D42
 10
412.914744
 20
294.724339
 30
0.0
 11
503.200684
 21
233.088248
 31
0.0
 70
   163
  1
{<>}\P{8X}
  3
SU1$3
100
AcDbDiametricDimension
 15
413.582622
 25
293.979048
 35
0.0
 40
0.0
1001
ACAD
1000
DSTYLE
1002
{
1070
    47
1040
0.03
1070
    48
1040
0.03
1070
   272
1070
     2
1070
    40
1040
25.4
1070
     3
1000
mm
1070
   271
1070
     2
1070
     4
1000
"
1070
   274
1070
     3
1070
   143
1040
0.03937
1070
   171
1070
     3
1070
   170
1070
     1
1002
}
  0
MTEXT
  5
5A3
100
AcDbEntity
  8
TEXT
100
AcDbMText
 10
22.600321
 20
178.575171
 30
0.0
 40
4.0
 41
227.1775
 71
     1
 72
     1
  3
{MATERIAL: }\P{0.76mm [0.030"] thick carbon-fiber-epoxy-composite}\P\P{LAMINATE SCHEDULE:}\P{cloth:  - 1 layer Carbon-fiber (0.006" thick ea.)}\P{ xx oz/sq. yd. plain weave @ 90°}\P{ - 1 layer Carbon-fiber (0.001" thick ea.)}\P{ 0.4 oz/sq. yd. mat}\P
  3
{ - 1 layer Carbon-fiber (0.006" thick ea.)}\P{ xx oz/sq. yd. plain weave @ 45°}\P{ 1 layer Carbon-fiber (0.001" thick ea.)}\P{ 0.4 oz/sq. yd. mat}\P{ - 1 layer Carbon-fiber (0.006" thick ea.)}\P{ xx oz/sq. yd. plain weave @ 90°}\P{epoxy: heat resist
  1
ant laminating epoxy}\P{ Ciba-Geigy RP4005R/RP1500H}\P{cure: 24 hrs at room temp. @ 20psi}\P{ 2 hrs postcure at 66°C}\P\P{MACHINING:}\P{use fixture L4-END11}\P
  0
LEADER
  5
5A4
100
AcDbEntity
  8
TEXT
100
AcDbLeader
  3
SU1$7
 76
     3
 10
343.168452
 20
329.22924
 30
0.0
 10
343.168452
 20
306.358227
 30
0.0
 10
351.997038
 20
306.358227
 30
0.0
 77
   256
1001
ACAD
1000
DSTYLE
1002
{
1070
    47
1040
0.03
1070
    48
1040
0.03
1070
   272
1070
     2
1070
    40
1040
25.4
1070
     3
1000
mm
1070
   271
1070
     2
1070
     4
1000
"
1070
   274
1070
     3
1070
   143
1040
0.03937
1070
   171
1070
     3
1070
   170
1070
     1
1002
}
  0
TEXT
  5
5A5
100
AcDbEntity
  8
TEXT
100
AcDbText
 10
341.00635
 20
332.110628
 30
0.0
 40
6.0
  1
A
100
AcDbText
  0
LEADER
  5
5A6
100
AcDbEntity
  8
TEXT
100
AcDbLeader
  3
SU1$7
 76
     3
 10
434.96763
 20
329.22924
 30
0.0
 10
434.96763
 20
306.358227
 30
0.0
 10
426.139043
 20
306.358227
 30
0.0
 77
   256
211
-1.0
221
0.0
231
0.0
1001
ACAD
1000
DSTYLE
1002
{
1070
    47
1040
0.03
1070
    48
1040
0.03
1070
   272
1070
     2
1070
    40
1040
25.4
1070
     3
1000
mm
1070
   271
1070
     2
1070
     4
1000
"
1070
   274
1070
     3
1070
   143
1040
0.03937
1070
   171
1070
     3
1070
   170
1070
     1
1002
}
  0
TEXT
  5
5A7
100
AcDbEntity
  8
TEXT
100
AcDbText
 10
437.129732
 20
332.110628
 30
0.0
 40
6.0
  1
A
 71
     2
100
AcDbText
  0
TEXT
  5
5F5
100
AcDbEntity
  8
TEXT
100
AcDbText
 10
409.625
 20
44.25
 30
0.0
 40
6.0
  1
A-A
100
AcDbText
  0
TEXT
  5
5F6
100
AcDbEntity
  8
TEXT
100
AcDbText
 10
375.625
 20
44.25
 30
0.0
 40
4.5
  1
SECTION
100
AcDbText
  0
LINE
  5
682
100
AcDbEntity
  8
FOOT-A
100
AcDbLine
 10
462.182929
 20
168.227297
 30
0.0
 11
465.0
 21
174.25
 31
0.0
  0
LINE
  5
683
100
AcDbEntity
  8
FOOT-A
100
AcDbLine
 10
465.0
 20
174.25
 30
0.0
 11
471.0
 21
175.75
 31
0.0
  0
LINE
  5
684
100
AcDbEntity
  8
FOOT-A
100
AcDbLine
 10
471.0
 20
175.75
 30
0.0
 11
472.75
 21
181.125
 31
0.0
  0
LINE
  5
685
100
AcDbEntity
  8
FOOT-A
100
AcDbLine
 10
472.75
 20
181.125
 30
0.0
 11
477.625
 21
182.0
 31
0.0
  0
LINE
  5
686
100
AcDbEntity
  8
FOOT-A
100
AcDbLine
 10
477.625
 20
182.0
 30
0.0
 11
479.75
 21
186.0
 31
0.0
  0
LINE
  5
687
100
AcDbEntity
  8
FOOT-A
100
AcDbLine
 10
479.75
 20
186.0
 30
0.0
 11
482.348206
 21
186.820486
 31
0.0
  0
ENDSEC
  0
SECTION
  2
OBJECTS
  0
DICTIONARY
  5
C
100
AcDbDictionary
  3
ACAD_GROUP
350
D
  3
ACAD_MLINESTYLE
350
E
  3
ACASAPPOBJECT
350
7B
  3
ACASGREF_MASTER
350
2D
  3
ACCELVIEW
350
86
  3
ACDMSYSVARMGR
350
49
  3
ACGREF_MASTER
350
2B
  3
ACME_COMMAND_HISTORY
350
29
  3
ACME_SCOPE_NAME
350
28
  3
AD_APPL
350
3C
  3
AD_DRAWMGR_NAME
350
5E
  3
AD_GREF_MODULE
350
44
  3
AD_HOLENOTE_REPOSITORY
350
43
  3
ADSYSVARMGR
350
32
  3
AMI_MASTER
350
2C
  3
AUTOCAD_ASSEMBLIES_PROJECT
350
6A
  3
DESIGNER_ASSEMBLIES_SYSVARS
350
65
  0
DICTIONARY
  5
D
102
{ACAD_REACTORS
330
C
102
}
100
AcDbDictionary
  0
DICTIONARY
  5
E
102
{ACAD_REACTORS
330
C
102
}
100
AcDbDictionary
  3
STANDARD
350
13
  0
ACAD_ZOMBIE_OBJECT
  5
7B
102
{ACAD_REACTORS
330
C
102
}
100
AcDbZombieObject
 90
      499
 91
      536
 93
        2
310
90
360
79
 94
        0
  0
ACAD_ZOMBIE_OBJECT
  5
2D
102
{ACAD_REACTORS
330
C
102
}
100
AcDbZombieObject
 90
      499
 91
      505
 93
       34
310
0100004040
 94
        0
  0
ACAD_ZOMBIE_OBJECT
  5
86
102
{ACAD_REACTORS
330
C
102
}
100
AcDbZombieObject
 90
      499
 91
      537
 93
       12
310
9014
330
3D
 94
        0
  0
ACAD_ZOMBIE_OBJECT
  5
49
102
{ACAD_REACTORS
330
C
102
}
100
AcDbZombieObject
 90
      499
 91
      510
 93
      176
310
4C5114810100000000000000000000000000000000004F
330
4A
330
4B
330
4C
330
4D
330
4E
330
50
330
52
330
53
330
54
330
55
330
56
330
57
330
58
330
59
330
5A
330
5B
330
5D
 94
        0
  0
ACAD_ZOMBIE_OBJECT
  5
2B
102
{ACAD_REACTORS
330
C
102
}
100
AcDbZombieObject
 90
      499
 91
      503
 93
      114
310
01000040C000000000000000000000
 94
        0
  0
ACAD_ZOMBIE_OBJECT
  5
29
102
{ACAD_REACTORS
330
C
102
}
100
AcDbZombieObject
 90
      499
 91
      501
 93
     3940
310
478050444494D3140405084E202D205341564501411112534C501014293880B4814D1551590548050444494D31404050A4E202D2053455456415201411112534C501014293880B4814D1551590548050444494D31404050A4E202D2053455456415201411112534C501014293880B4814D1551590548050444494D31404050
310
A4E202D2053455456415201411112534C501014213880B4814D055914050444494D31404050A4E202D2053455456415201411112534C501014293880B4814D1551590548050444494D31404050A4E202D2053455456415201411112534C501014293880B4814D1551590548050444494D31404050A4E202D20534554564152
310
01411112534C501014293880B4814D1551590548050444494D3140405084E202D205341564501411112534C5010142D3880B48149154D513D49140504554E444F80504554E444F805034E455780508554E444546494E4580508554E444546494E458050A4D454E55554E4C4F4144805084D454E554C4F41448050C41445F43
310
4F4E56455254523140805084E202D20554E444F014213880B4815539113C050C414D4C54595045434845434B40C05084E202D20554E444F014253880B481310565154805084E202D20554E444F01415310565154A01415310565154A014115539113E014115539113E014113D41153A0
 94
        0
  0
ACAD_ZOMBIE_OBJECT
  5
28
102
{ACAD_REACTORS
330
C
102
}
100
AcDbZombieObject
 90
      499
 91
      500
 93
      456
310
01010040931000000000000000000000000000000000000000000000000000000000000000000000000000000000000000000000000009010002
360
2E
360
2F
360
30
360
31
360
33
360
34
360
35
360
36
360
37
360
38
360
39
360
3A
360
3B
360
3E
360
3F
360
40
360
41
360
42
360
45
360
46
360
47
360
48
360
4A
360
4B
360
4C
360
4D
360
4E
360
50
360
52
360
53
360
54
360
55
360
56
360
57
360
58
360
59
360
5A
360
5B
360
5D
360
66
360
67
360
68
360
69
360
6E
360
6F
360
70
360
71
360
72
360
76
330
3D
 94
        0
  0
ACAD_ZOMBIE_OBJECT
  5
3C
102
{ACAD_REACTORS
330
C
102
}
100
AcDbZombieObject
 90
      499
 91
      514
 93
       42
310
000100004340
330
2E
 94
        0
  0
ACAD_ZOMBIE_OBJECT
  5
5E
102
{ACAD_REACTORS
330
C
102
}
100
AcDbZombieObject
 90
      499
 91
      526
 93
       42
310
000100004400
330
45
 94
        0
  0
ACAD_ZOMBIE_OBJECT
  5
44
102
{ACAD_REACTORS
330
C
102
}
100
AcDbZombieObject
 90
      499
 91
      521
 93
      114
310
000000428000000000000000000000
 94
        0
  0
ACAD_ZOMBIE_OBJECT
  5
43
102
{ACAD_REACTORS
330
C
102
}
100
AcDbZombieObject
 90
      499
 91
      520
 93
        8
310
002B
330
42
 94
        0
  0
ACAD_ZOMBIE_OBJECT
  5
32
102
{ACAD_REACTORS
330
C
102
}
100
AcDbZombieObject
 90
      499
 91
      510
 93
      104
310
9094410100000000000000000000
330
33
330
34
330
35
330
36
330
37
330
38
330
39
330
3A
330
3B
 94
        0
  0
ACAD_ZOMBIE_OBJECT
  5
2C
102
{ACAD_REACTORS
330
C
102
}
100
AcDbZombieObject
 90
      499
 91
      504
 93
       34
310
0100004076
 94
        0
  0
ACAD_ZOMBIE_OBJECT
  5
6A
102
{ACAD_REACTORS
330
C
102
}
100
AcDbZombieObject
 90
      499
 91
      527
 93
       58
310
0100004180000000
330
70
330
76
330
71
 94
        0
  0
ACAD_ZOMBIE_OBJECT
  5
65
102
{ACAD_REACTORS
330
C
102
}
100
AcDbZombieObject
 90
      499
 91
      510
 93
       64
310
904441010000000000
330
66
330
67
330
68
330
69
 94
        0
  0
MLINESTYLE
  5
13
102
{ACAD_REACTORS
330
E
102
}
100
AcDbMlineStyle
  2
STANDARD
 70
     0
  3

 62
     0
 51
90.0
 52
90.0
 71
     2
 49
0.5
 62
   256
  6
BYLAYER
 49
-0.5
 62
   256
  6
BYLAYER
  0
ACAD_ZOMBIE_OBJECT
  5
79
100
AcDbZombieObject
 90
      499
 91
      534
 93
      720
310
9064D2E312E313607014B7269BC41100000000000000E03F1EC52B91F85EA10FE1EC52B91F85EA10FD034153471EC52B91F85EA10FC000000FC83D797414650540C000000000000E03F3F2A7C749358940FC000000FC83D797414F
 94
        0
  0
ACAD_ZOMBIE_OBJECT
  5
2E
100
AcDbZombieObject
 90
      499
 91
      506
 93
      280
310
000000000000014119185D1940506462E312E3136014119185D1940506462E312E313600
330
28
330
2F
330
30
330
32
330
3D
 94
        0
  0
ACAD_ZOMBIE_OBJECT
  5
2F
100
AcDbZombieObject
 90
      499
 91
      507
 93
      120
310
00009024410100000092080002A6A600
330
28
330
3F
330
3E
330
0
 94
        0
  0
ACAD_ZOMBIE_OBJECT
  5
30
100
AcDbZombieObject
 90
      499
 91
      508
 93
       46
310
000000009208
330
28
330
0
330
31
 94
        0
  0
ACAD_ZOMBIE_OBJECT
  5
31
100
AcDbZombieObject
 90
      499
 91
      509
 93
       22
310
0000A8
330
28
 94
        0
  0
ACAD_ZOMBIE_OBJECT
  5
33
100
AcDbZombieObject
 90
      499
 91
      511
 93
      124
310
00000142905350D3D39114D414D69050
330
28
 94
        0
  0
ACAD_ZOMBIE_OBJECT
  5
34
100
AcDbZombieObject
 90
      499
 91
      511
 93
      124
310
000001429053549553115353D1115010
330
28
 94
        0
  0
ACAD_ZOMBIE_OBJECT
  5
35
100
AcDbZombieObject
 90
      499
 91
      511
 93
      108
310
00000142105354D2D353D1115010
330
28
 94
        0
  0
ACAD_ZOMBIE_OBJECT
  5
36
100
AcDbZombieObject
 90
      499
 91
      511
 93
      140
310
000001435053511253511254D41353D11160
330
28
 94
        0
  0
ACAD_ZOMBIE_OBJECT
  5
37
100
AcDbZombieObject
 90
      499
 91
      512
 93
      180
310
00000142905354D2D05391D513D3000000000000010400
330
28
 94
        0
  0
ACAD_ZOMBIE_OBJECT
  5
38
100
AcDbZombieObject
 90
      499
 91
      513
 93
      164
310
00000142505354D2D4D516531140505434F4E542A0
330
28
 94
        0
  0
ACAD_ZOMBIE_OBJECT
  5
39
100
AcDbZombieObject
 90
      499
 91
      511
 93
      108
310
00000142105350D3511112535010
330
28
 94
        0
  0
ACAD_ZOMBIE_OBJECT
  5
3A
100
AcDbZombieObject
 90
      499
 91
      513
 93
      116
310
000001425053541054919253114060
330
28
 94
        0
  0
ACAD_ZOMBIE_OBJECT
  5
3B
100
AcDbZombieObject
 90
      499
 91
      511
 93
      100
310
00000142105350D3D35414D5A0
330
28
 94
        0
  0
ACAD_ZOMBIE_OBJECT
  5
3E
100
AcDbZombieObject
 90
      499
 91
      516
 93
      164
310
000092090148200A00000440000FFFFFFFF0000000
330
28
330
3F
330
2F
330
3D
 94
        0
  0
ACAD_ZOMBIE_OBJECT
  5
3F
100
AcDbZombieObject
 90
      499
 91
      517
 93
       82
310
000040520802482A800000
330
28
330
3E
330
2F
330
3D
 94
        0
  0
ACAD_ZOMBIE_OBJECT
  5
40
100
AcDbZombieObject
 90
      499
 91
      509
 93
       22
310
0000A8
330
28
 94
        0
  0
ACAD_ZOMBIE_OBJECT
  5
41
100
AcDbZombieObject
 90
      499
 91
      518
 93
       38
310
0000009208
330
28
330
0
 94
        0
  0
ACAD_ZOMBIE_OBJECT
  5
42
100
AcDbZombieObject
 90
      499
 91
      519
 93
     3196
310
0000419208050A544852555F4452494C4C0142D09312539117D1149253130050A544852555F43424F52450142D09312539117D0D093D4914050A544852555F4353494E4B0142D09312539117D0D4D25392D0648201459EC94958C8094950535112504815121493D551D20B9F4051C7B252563202525414D444941205820252
310
5414D44455020444545507D014F5EC94958C8094950535112504815121493D551D20B9F57141ED0D093D49148094958C80949505350D112504816080949505350D091115408111151541F405437B252563202525414D4449412058202525414D44455020444545507D5C507B43424F524520252563202525414D4344494120
310
58202525414D434244455020444545507D014EDEC94958C8094950535112504815121493D551D20B9F57141ED0D4D25392C8094958C80949505350D112504816080949505350D4D05391C949591F405417B252563202525414D4449412058202525414D44455020444545507D5C507B4353494E4B20252563202525414D434
310
449412058202525414D4353414E472525647D4
330
28
 94
        0
  0
ACAD_ZOMBIE_OBJECT
  5
45
100
AcDbZombieObject
 90
      499
 91
      522
 93
      308
310
0000014119185D1940507442E312E313663014119185D1940507442E312E313663405010000004
330
28
330
46
330
48
330
49
 94
        0
  0
ACAD_ZOMBIE_OBJECT
  5
46
100
AcDbZombieObject
 90
      499
 91
      523
 93
       56
310
0000901441010000
330
28
330
47
 94
        0
  0
ACAD_ZOMBIE_OBJECT
  5
47
100
AcDbZombieObject
 90
      499
 91
      524
 93
       40
310
0000A4410175
330
28
 94
        0
  0
ACAD_ZOMBIE_OBJECT
  5
48
100
AcDbZombieObject
 90
      499
 91
      525
 93
       68
310
0000A44101920A4820
330
28
 94
        0
  0
ACAD_ZOMBIE_OBJECT
  5
4A
100
AcDbZombieObject
 90
      499
 91
      511
 93
      108
310
000001421053521310D05310D010
330
28
 94
        0
  0
ACAD_ZOMBIE_OBJECT
  5
4B
100
AcDbZombieObject
 90
      499
 91
      511
 93
      124
310
000001429053541493D2951654115013
330
28
 94
        0
  0
ACAD_ZOMBIE_OBJECT
  5
4C
100
AcDbZombieObject
 90
      499
 91
      511
 93
      124
310
00000142905354915554D15112535010
330
28
 94
        0
  0
ACAD_ZOMBIE_OBJECT
  5
4D
100
AcDbZombieObject
 90
      499
 91
      511
 93
      132
310
00000143105354D150D51253D391125366
330
28
 94
        0
  0
ACAD_ZOMBIE_OBJECT
  5
4E
100
AcDbZombieObject
 90
      499
 91
      511
 93
      124
310
00000142905355941093D49111549010
330
28
 94
        0
  0
ACAD_ZOMBIE_OBJECT
  5
50
100
AcDbZombieObject
 90
      499
 91
      513
 93
      180
310
00000142905352125113151654114050648494444454E1
330
28
 94
        0
  0
ACAD_ZOMBIE_OBJECT
  5
52
100
AcDbZombieObject
 90
      499
 91
      513
 93
      196
310
00000142905354D150D315165411405085048414E544F4D320
330
28
 94
        0
  0
ACAD_ZOMBIE_OBJECT
  5
53
100
AcDbZombieObject
 90
      499
 91
      511
 93
      108
310
00000142105354D51114D0D51020
330
28
 94
        0
  0
ACAD_ZOMBIE_OBJECT
  5
54
100
AcDbZombieObject
 90
      499
 91
      511
 93
      108
310
00000142105354D5111510541021
330
28
 94
        0
  0
ACAD_ZOMBIE_OBJECT
  5
55
100
AcDbZombieObject
 90
      499
 91
      511
 93
      108
310
00000142105354D5111115131020
330
28
 94
        0
  0
ACAD_ZOMBIE_OBJECT
  5
56
100
AcDbZombieObject
 90
      499
 91
      512
 93
      148
310
00000141905350D310D34295C8FC2F528BC3F4
330
28
 94
        0
  0
ACAD_ZOMBIE_OBJECT
  5
57
100
AcDbZombieObject
 90
      499
 91
      512
 93
      156
310
00000141D05350D311D05402B8716D9CEF7C33F0
330
28
 94
        0
  0
ACAD_ZOMBIE_OBJECT
  5
58
100
AcDbZombieObject
 90
      499
 91
      512
 93
      164
310
00000142105350D313D4D2150295C8FC2F528BC3F0
330
28
 94
        0
  0
ACAD_ZOMBIE_OBJECT
  5
59
100
AcDbZombieObject
 90
      499
 91
      511
 93
      100
310
00000141D05350D31410549010
330
28
 94
        0
  0
ACAD_ZOMBIE_OBJECT
  5
5A
100
AcDbZombieObject
 90
      499
 91
      511
 93
      100
310
0000014210535590539254D222
330
28
 94
        0
  0
ACAD_ZOMBIE_OBJECT
  5
5B
100
AcDbZombieObject
 90
      499
 91
      512
 93
      188
310
00000142D0535312539155121250D2C295C8FC2F5289C3F0
330
28
 94
        0
  0
ACAD_ZOMBIE_OBJECT
  5
5D
100
AcDbZombieObject
 90
      499
 91
      513
 93
      164
310
00000142105350D3151654114050643454E5445520
330
28
 94
        0
  0
ACAD_ZOMBIE_OBJECT
  5
66
100
AcDbZombieObject
 90
      499
 91
      511
 93
      132
310
00000142D05050555513D4D3D315915010
330
28
 94
        0
  0
ACAD_ZOMBIE_OBJECT
  5
67
100
AcDbZombieObject
 90
      499
 91
      511
 93
      156
310
00000143905050555513D054D4D1535093115010
330
28
 94
        0
  0
ACAD_ZOMBIE_OBJECT
  5
68
100
AcDbZombieObject
 90
      499
 91
      511
 93
      148
310
00000143505055925155D49154D513D4915010
330
28
 94
        0
  0
ACAD_ZOMBIE_OBJECT
  5
69
100
AcDbZombieObject
 90
      499
 91
      511
 93
      124
310
00000142D050525394D15495105094E0
330
28
 94
        0
  0
ACAD_ZOMBIE_OBJECT
  5
6E
100
AcDbZombieObject
 90
      499
 91
      528
 93
       32
310
0000000065
330
28
340
6B
330
6F
330
6B
 94
        0
  0
ACAD_ZOMBIE_OBJECT
  5
6F
100
AcDbZombieObject
 90
      499
 91
      529
 93
      111
310
000001411050D05110400522080C
330
28
330
6E
 94
        0
  0
ACAD_ZOMBIE_OBJECT
  5
70
100
AcDbZombieObject
 90
      499
 91
      530
 93
       72
310
000000A44101A4410100
330
28
330
6F
 94
        0
  0
ACAD_ZOMBIE_OBJECT
  5
71
100
AcDbZombieObject
 90
      499
 91
      531
 93
       80
310
0000901441010000000000
330
28
330
72
330
72
330
72
330
72
 94
        0
  0
ACAD_ZOMBIE_OBJECT
  5
72
100
AcDbZombieObject
 90
      499
 91
      532
 93
      173
310
00000000406AAAAAAAAAAAAAAAAA806A44101A441010
330
28
330
71
330
6F
 94
        0
  0
ACAD_ZOMBIE_OBJECT
  5
76
100
AcDbZombieObject
 90
      499
 91
      533
 93
       26
310
00008000
330
28
330
0
 94
        0
  0
ENDSEC
  0
EOF
