  0
SECTION
  2
HEADER
  9
$ACADVER
  1
AC1012
  9
$DWGCODEPAGE
  3
ansi_1252
  9
$INSBASE
 10
0.0
 20
0.0
 30
0.0
  9
$EXTMIN
 10
12.7
 20
15.875
 30
0.0
  9
$EXTMAX
 10
520.721906
 20
390.525
 30
0.0
  9
$LIMMIN
 10
0.0
 20
0.0
  9
$LIMMAX
 10
534.0
 20
406.0
  9
$ORTHOMODE
 70
     1
  9
$REGENMODE
 70
     1
  9
$FILLMODE
 70
     1
  9
$QTEXTMODE
 70
     0
  9
$MIRRTEXT
 70
     1
  9
$DRAGMODE
 70
     2
  9
$LTSCALE
 40
10.0
  9
$OSMODE
 70
     0
  9
$ATTMODE
 70
     1
  9
$TEXTSIZE
 40
5.0
  9
$TRACEWID
 40
0.05
  9
$TEXTSTYLE
  7
STANDARD
  9
$CLAYER
  8
TEXT
  9
$CELTYPE
  6
BYLAYER
  9
$CECOLOR
 62
   256
  9
$CELTSCALE
 40
1.0
  9
$DELOBJ
 70
     1
  9
$DISPSILH
 70
     0
  9
$DIMSCALE
 40
10.0
  9
$DIMASZ
 40
0.18
  9
$DIMEXO
 40
0.0625
  9
$DIMDLI
 40
0.38
  9
$DIMRND
 40
0.0
  9
$DIMDLE
 40
0.0
  9
$DIMEXE
 40
0.18
  9
$DIMTP
 40
0.0
  9
$DIMTM
 40
0.0
  9
$DIMTXT
 40
0.18
  9
$DIMCEN
 40
0.09
  9
$DIMTSZ
 40
0.0
  9
$DIMTOL
 70
     0
  9
$DIMLIM
 70
     0
  9
$DIMTIH
 70
     1
  9
$DIMTOH
 70
     1
  9
$DIMSE1
 70
     0
  9
$DIMSE2
 70
     0
  9
$DIMTAD
 70
     0
  9
$DIMZIN
 70
     0
  9
$DIMBLK
  1

  9
$DIMASO
 70
     1
  9
$DIMSHO
 70
     1
  9
$DIMPOST
  1
mm
  9
$DIMAPOST
  1
"
  9
$DIMALT
 70
     1
  9
$DIMALTD
 70
     3
  9
$DIMALTF
 40
0.03937
  9
$DIMLFAC
 40
1.0
  9
$DIMTOFL
 70
     0
  9
$DIMTVP
 40
0.0
  9
$DIMTIX
 70
     0
  9
$DIMSOXD
 70
     0
  9
$DIMSAH
 70
     0
  9
$DIMBLK1
  1

  9
$DIMBLK2
  1

  9
$DIMSTYLE
  2
STANDARD
  9
$DIMCLRD
 70
     0
  9
$DIMCLRE
 70
     0
  9
$DIMCLRT
 70
     0
  9
$DIMTFAC
 40
1.0
  9
$DIMGAP
 40
0.09
  9
$DIMJUST
 70
     0
  9
$DIMSD1
 70
     0
  9
$DIMSD2
 70
     0
  9
$DIMTOLJ
 70
     1
  9
$DIMTZIN
 70
     0
  9
$DIMALTZ
 70
     0
  9
$DIMALTTZ
 70
     0
  9
$DIMFIT
 70
     0
  9
$DIMUPT
 70
     0
  9
$DIMUNIT
 70
     2
  9
$DIMDEC
 70
     2
  9
$DIMTDEC
 70
     4
  9
$DIMALTU
 70
     2
  9
$DIMALTTD
 70
     2
  9
$DIMTXSTY
  7
STANDARD
  9
$DIMAUNIT
 70
     0
  9
$LUNITS
 70
     2
  9
$LUPREC
 70
     4
  9
$SKETCHINC
 40
0.1
  9
$FILLETRAD
 40
0.0
  9
$AUNITS
 70
     0
  9
$AUPREC
 70
     0
  9
$MENU
  1
C:\CIM\ACAD
  9
$ELEVATION
 40
0.0
  9
$PELEVATION
 40
0.0
  9
$THICKNESS
 40
0.0
  9
$LIMCHECK
 70
     0
  9
$BLIPMODE
 70
     1
  9
$CHAMFERA
 40
0.0
  9
$CHAMFERB
 40
0.0
  9
$CHAMFERC
 40
0.0
  9
$CHAMFERD
 40
0.0
  9
$SKPOLY
 70
     0
  9
$TDCREATE
 40
2449993.600116319
  9
$TDUPDATE
 40
2449996.553474074
  9
$TDINDWG
 40
0.0279572917
  9
$TDUSRTIMER
 40
0.0279572917
  9
$USRTIMER
 70
     1
  9
$ANGBASE
 50
0.0
  9
$ANGDIR
 70
     0
  9
$PDMODE
 70
     0
  9
$PDSIZE
 40
0.0
  9
$PLINEWID
 40
0.0
  9
$COORDS
 70
     1
  9
$SPLFRAME
 70
     0
  9
$SPLINETYPE
 70
     6
  9
$SPLINESEGS
 70
     8
  9
$ATTDIA
 70
     0
  9
$ATTREQ
 70
     1
  9
$HANDLING
 70
     1
  9
$HANDSEED
  5
20CE
  9
$SURFTAB1
 70
     6
  9
$SURFTAB2
 70
     6
  9
$SURFTYPE
 70
     6
  9
$SURFU
 70
     6
  9
$SURFV
 70
     6
  9
$UCSNAME
  2
CIM_TB_HOLD
  9
$UCSORG
 10
0.0
 20
0.0
 30
0.0
  9
$UCSXDIR
 10
1.0
 20
0.0
 30
0.0
  9
$UCSYDIR
 10
0.0
 20
1.0
 30
0.0
  9
$PUCSNAME
  2

  9
$PUCSORG
 10
0.0
 20
0.0
 30
0.0
  9
$PUCSXDIR
 10
1.0
 20
0.0
 30
0.0
  9
$PUCSYDIR
 10
0.0
 20
1.0
 30
0.0
  9
$USERI1
 70
     0
  9
$USERI2
 70
     0
  9
$USERI3
 70
     0
  9
$USERI4
 70
     0
  9
$USERI5
 70
     0
  9
$USERR1
 40
0.0
  9
$USERR2
 40
0.0
  9
$USERR3
 40
0.0
  9
$USERR4
 40
0.0
  9
$USERR5
 40
0.0
  9
$WORLDVIEW
 70
     1
  9
$SHADEDGE
 70
     3
  9
$SHADEDIF
 70
    70
  9
$TILEMODE
 70
     1
  9
$MAXACTVP
 70
    16
  9
$PINSBASE
 10
0.0
 20
0.0
 30
0.0
  9
$PLIMCHECK
 70
     0
  9
$PEXTMIN
 10
1.000000E+20
 20
1.000000E+20
 30
1.000000E+20
  9
$PEXTMAX
 10
-1.000000E+20
 20
-1.000000E+20
 30
-1.000000E+20
  9
$PLIMMIN
 10
0.0
 20
0.0
  9
$PLIMMAX
 10
12.0
 20
9.0
  9
$UNITMODE
 70
     0
  9
$VISRETAIN
 70
     0
  9
$PLINEGEN
 70
     0
  9
$PSLTSCALE
 70
     1
  9
$TREEDEPTH
 70
  3020
  9
$PICKSTYLE
 70
     1
  9
$CMLSTYLE
  2
STANDARD
  9
$CMLJUST
 70
     0
  9
$CMLSCALE
 40
1.0
  9
$SAVEIMAGES
 70
     0
  0
ENDSEC
  0
SECTION
  2
CLASSES
  0
CLASS
  1
ACMESCOPE
  2
AcMeScope
  3
ACME_MODULE_NAME
 90
        0
280
     0
281
     0
  0
CLASS
  1
ACMECOMMANDHISTORY
  2
AcMeCommandHistory
  3
ACME_MODULE_NAME
 90
        0
280
     0
281
     0
  0
CLASS
  1
AcRfInsAdjusterMgr
  2
AcRfInsAdjusterMgr
  3
ACME_MODULE_NAME
 90
        0
280
     0
281
     0
  0
CLASS
  1
ACGREFMASTER
  2
AcGrefMaster
  3
"AcadRfServer"
 90
        0
280
     0
281
     0
  0
CLASS
  1
AmiMaster
  2
AmiMaster
  3
"AmiServices"
 90
        0
280
     0
281
     0
  0
CLASS
  1
ACASGREFMASTER
  2
AcAsGrefMaster
  3
"AutoSurfResolver"
 90
        0
280
     0
281
     0
  0
CLASS
  1
ADAPPL
  2
AcAdAppl
  3
"DesignerServices"
 90
        0
280
     0
281
     0
  0
CLASS
  1
DEPMGR
  2
AcAdDepMgr
  3
"DesignerServices"
 90
        0
280
     0
281
     0
  0
CLASS
  1
PARAMMGR
  2
AcAdParamMgr
  3
"DesignerServices"
 90
        0
280
     0
281
     0
  0
CLASS
  1
PARAMSCOPE
  2
AcAdParamScope
  3
"DesignerServices"
 90
        0
280
     0
281
     0
  0
CLASS
  1
"IM_SYSVAR_MAN"
  2
AcImSysVarManager
  3
"ADAM"
 90
        0
280
     0
281
     0
  0
CLASS
  1
SYSTEM_VAR_INT
  2
AcImIntSysVar
  3
"ADAM"
 90
        0
280
     0
281
     0
  0
CLASS
  1
SYSTEM_VAR_REAL
  2
AcImRealSysVar
  3
"ADAM"
 90
        0
280
     0
281
     0
  0
CLASS
  1
SYSTEM_VAR_STR
  2
AcImStrSysVar
  3
"ADAM"
 90
        0
280
     0
281
     0
  0
CLASS
  1
NAMEDAPPL
  2
AcAdNamedAppl
  3
"DesignerServices"
 90
        0
280
     0
281
     0
  0
CLASS
  1
ADPART
  2
AcAdPart
  3
"DesignerServices"
 90
        0
280
     0
281
     1
  0
CLASS
  1
ADBASE
  2
AcAdBase
  3
"DesignerServices"
 90
        0
280
     0
281
     0
  0
CLASS
  1
BODYID
  2
AcAdBodyId
  3
"DesignerServices"
 90
        0
280
     0
281
     0
  0
CLASS
  1
WORKPLANEDISPLAYMGR
  2
AcAdDisplayMgr
  3
"DesignerServices"
 90
        0
280
     0
281
     0
  0
CLASS
  1
ADHNTMPLT
  2
AdHoleNoteTemplateMgr
  3
"DesignerServices"
 90
        0
280
     0
281
     0
  0
CLASS
  1
AM_HNTEMPLATE_MGR_NAME
  2
AdHoleNoteTemplateMgrName
  3
"DesignerServices"
 90
        0
280
     0
281
     0
  0
CLASS
  1
AcAdGrefModule
  2
AcAdGrefModule
  3
AD_GREF_SERVICES_NSTR
 90
        0
280
     0
281
     0
  0
CLASS
  1
AM_DRAWING_MGR
  2
AcDmDwgMgr
  3
"Designer_Drawing_Mgmt"
 90
        0
280
     0
281
     0
  0
CLASS
  1
AM_DWG_DOCUMENT
  2
AcDmDwgDocument
  3
"Designer_Drawing_Mgmt"
 90
        0
280
     0
281
     0
  0
CLASS
  1
AM_DWG_SHEET
  2
AcDmSheet
  3
"Designer_Drawing_Mgmt"
 90
        0
280
     0
281
     0
  0
CLASS
  1
AM_VIEWDIMPARMAP
  2
AcDmViewDimParMap
  3
"Designer_Drawing_Mgmt"
 90
        0
280
     0
281
     0
  0
CLASS
  1
AM_DWGMGR_NAME
  2
AcDmDwgMgrName
  3
"Designer_Drawing_Mgmt"
 90
        0
280
     0
281
     0
  0
CLASS
  1
ACAMPROJECT
  2
AcAmProject
  3
"DesignerAssemblies"
 90
        0
280
     0
281
     0
  0
CLASS
  1
ACAMGRCOMPDEF
  2
AcAmGrCompDef
  3
"DesignerAssemblies"
 90
        0
280
     0
281
     0
  0
CLASS
  1
ACAMCOMPDEF
  2
AcAmCompDef
  3
"DesignerAssemblies"
 90
        0
280
     0
281
     0
  0
CLASS
  1
ACAMCOMPDEFMGR
  2
AcAmCompDefMgr
  3
"DesignerAssemblies"
 90
        0
280
     0
281
     0
  0
CLASS
  1
AMCONTEXTMGR
  2
AcAmContextMgr
  3
"DesignerAssemblies"
 90
        0
280
     0
281
     0
  0
CLASS
  1
AcAmContextModeler
  2
AcAmContextModeler
  3
"DesignerAssemblies"
 90
        0
280
     0
281
     0
  0
CLASS
  1
ACAMDRAWINGMAN
  2
AcAmDrawingMan
  3
"DesignerAssemblies"
 90
        0
280
     0
281
     0
  0
CLASS
  1
ASSYSVARS
  2
AcAsSysVars
  3
"AutoSurf"
 90
        0
280
     0
281
     0
  0
CLASS
  1
ASSTATICVARS
  2
AcAsStaticVars
  3
"AutoSurf"
 90
        0
280
     0
281
     0
  0
CLASS
  1
ASAPP
  2
AcAsAppObject
  3
"AutoSurf"
 90
        0
280
     0
281
     0
  0
ENDSEC
  0
SECTION
  2
TABLES
  0
TABLE
  2
VPORT
  5
8
100
AcDbSymbolTable
 70
     2
  0
VPORT
  5
20CD
100
AcDbSymbolTableRecord
100
AcDbViewportTableRecord
  2
*ACTIVE
 70
     0
 10
0.0
 20
0.0
 11
1.0
 21
1.0
 12
312.812304
 22
203.2
 13
0.0
 23
0.0
 14
1.0
 24
1.0
 15
10.0
 25
10.0
 16
0.0
 26
0.0
 36
1.0
 17
0.0
 27
0.0
 37
0.0
 40
374.65
 41
1.602094
 42
50.0
 43
0.0
 44
0.0
 50
0.0
 51
0.0
 71
     0
 72
   100
 73
     1
 74
     1
 75
     0
 76
     1
 77
     0
 78
     0
  0
ENDTAB
  0
TABLE
  2
LTYPE
  5
5
100
AcDbSymbolTable
 70
     6
  0
LTYPE
  5
14
100
AcDbSymbolTableRecord
100
AcDbLinetypeTableRecord
  2
BYBLOCK
 70
     0
  3

 72
    65
 73
     0
 40
0.0
  0
LTYPE
  5
15
100
AcDbSymbolTableRecord
100
AcDbLinetypeTableRecord
  2
BYLAYER
 70
     0
  3

 72
    65
 73
     0
 40
0.0
  0
LTYPE
  5
16
100
AcDbSymbolTableRecord
100
AcDbLinetypeTableRecord
  2
CONTINUOUS
 70
    64
  3
Solid line
 72
    65
 73
     0
 40
0.0
  0
LTYPE
  5
24
100
AcDbSymbolTableRecord
100
AcDbLinetypeTableRecord
  2
CENTER
 70
    64
  3
____ _ ____ _ ____ _ ____ _ ____ _ ____ _ ____ 
 72
    65
 73
     4
 40
2.0
 49
1.25
 74
     0
 49
-0.25
 74
     0
 49
0.25
 74
     0
 49
-0.25
 74
     0
  0
LTYPE
  5
26
100
AcDbSymbolTableRecord
100
AcDbLinetypeTableRecord
  2
HIDDEN
 70
    64
  3
__ __ __ __ __ __ __ __ __ __ __ __ __ __ __ __
 72
    65
 73
     2
 40
0.375
 49
0.25
 74
     0
 49
-0.125
 74
     0
  0
LTYPE
  5
20A0
100
AcDbSymbolTableRecord
100
AcDbLinetypeTableRecord
  2
PHANTOM2
 70
     0
  3
___ _ _ ___ _ _ ___ _ _ ___ _ _ ___ _ _ ___ _ _
 72
    65
 73
     6
 40
1.25
 49
0.625
 74
     0
 49
-0.125
 74
     0
 49
0.125
 74
     0
 49
-0.125
 74
     0
 49
0.125
 74
     0
 49
-0.125
 74
     0
  0
LTYPE
  5
20CA
100
AcDbSymbolTableRecord
100
AcDbLinetypeTableRecord
  2
ASULTYPE
 70
     0
  3
Solid line
 72
    65
 73
     2
 40
3.0
 49
2.5
 74
     0
 49
0.5
 74
     0
  0
LTYPE
  5
20CB
100
AcDbSymbolTableRecord
100
AcDbLinetypeTableRecord
  2
ASVLTYPE
 70
     0
  3
__ __ __ __ __ __ __ __ __ __ __ __ __ __ __ __ __ __ __ __ __
 72
    65
 73
     2
 40
0.75
 49
0.5
 74
     0
 49
-0.25
 74
     0
  0
ENDTAB
  0
TABLE
  2
LAYER
  5
2
100
AcDbSymbolTable
 70
    22
  0
LAYER
  5
F
100
AcDbSymbolTableRecord
100
AcDbLayerTableRecord
  2
0
 70
     0
 62
     7
  6
CONTINUOUS
  0
LAYER
  5
23
100
AcDbSymbolTableRecord
100
AcDbLayerTableRecord
  2
CENTER
 70
    64
 62
     1
  6
CENTER
  0
LAYER
  5
25
100
AcDbSymbolTableRecord
100
AcDbLayerTableRecord
  2
HIDDEN
 70
    64
 62
     7
  6
HIDDEN
  0
LAYER
  5
29
100
AcDbSymbolTableRecord
100
AcDbLayerTableRecord
  2
DIM
 70
    64
 62
     3
  6
CONTINUOUS
  0
LAYER
  5
2A
100
AcDbSymbolTableRecord
100
AcDbLayerTableRecord
  2
TEXT
 70
    64
 62
     7
  6
CONTINUOUS
  0
LAYER
  5
48
100
AcDbSymbolTableRecord
100
AcDbLayerTableRecord
  2
BORDER
 70
    64
 62
     6
  6
CONTINUOUS
  0
LAYER
  5
22F
100
AcDbSymbolTableRecord
100
AcDbLayerTableRecord
  2
SCRATCH
 70
    64
 62
     7
  6
CONTINUOUS
  0
LAYER
  5
230
100
AcDbSymbolTableRecord
100
AcDbLayerTableRecord
  2
DEFPOINTS
 70
    64
 62
     7
  6
CONTINUOUS
  0
LAYER
  5
231
100
AcDbSymbolTableRecord
100
AcDbLayerTableRecord
  2
BUSHING
 70
    64
 62
     3
  6
CONTINUOUS
  0
LAYER
  5
233
100
AcDbSymbolTableRecord
100
AcDbLayerTableRecord
  2
UPILEX
 70
    64
 62
     3
  6
CONTINUOUS
  0
LAYER
  5
234
100
AcDbSymbolTableRecord
100
AcDbLayerTableRecord
  2
AIN
 70
    64
 62
     5
  6
CONTINUOUS
  0
LAYER
  5
235
100
AcDbSymbolTableRecord
100
AcDbLayerTableRecord
  2
FOOT
 70
    64
 62
     1
  6
CONTINUOUS
  0
LAYER
  5
166B
100
AcDbSymbolTableRecord
100
AcDbLayerTableRecord
  2
L3_
 70
    64
 62
     1
  6
CONTINUOUS
  0
LAYER
  5
166C
100
AcDbSymbolTableRecord
100
AcDbLayerTableRecord
  2
KEVLAR
 70
    64
 62
     2
  6
CONTINUOUS
  0
LAYER
  5
20AE
100
AcDbSymbolTableRecord
100
AcDbLayerTableRecord
  2
AM_VIEWS
 70
     0
 62
    -7
  6
CONTINUOUS
  0
LAYER
  5
20AF
100
AcDbSymbolTableRecord
100
AcDbLayerTableRecord
  2
AM_PARDIM
 70
     0
 62
     3
  6
CONTINUOUS
  0
LAYER
  5
20B0
100
AcDbSymbolTableRecord
100
AcDbLayerTableRecord
  2
AM_REFDIM
 70
     0
 62
     4
  6
CONTINUOUS
  0
LAYER
  5
20B1
100
AcDbSymbolTableRecord
100
AcDbLayerTableRecord
  2
AM_VIS
 70
     0
 62
     7
  6
CONTINUOUS
  0
LAYER
  5
20B2
100
AcDbSymbolTableRecord
100
AcDbLayerTableRecord
  2
AM_HID
 70
    64
 62
     7
  6
HIDDEN
  0
LAYER
  5
20C1
100
AcDbSymbolTableRecord
100
AcDbLayerTableRecord
  2
AM_TR
 70
     0
 62
     7
  6
CONTINUOUS
  0
LAYER
  5
20C2
100
AcDbSymbolTableRecord
100
AcDbLayerTableRecord
  2
AM_BM
 70
     0
 62
     7
  6
CONTINUOUS
  0
LAYER
  5
20C3
100
AcDbSymbolTableRecord
100
AcDbLayerTableRecord
  2
AM_BL
 70
     0
 62
     7
  6
CONTINUOUS
  0
ENDTAB
  0
TABLE
  2
STYLE
  5
3
100
AcDbSymbolTable
 70
     3
  0
STYLE
  5
10
100
AcDbSymbolTableRecord
100
AcDbTextStyleTableRecord
  2
STANDARD
 70
    64
 40
0.0
 41
1.0
 50
0.0
 71
     0
 42
5.0
  3
txt
  4

  0
STYLE
  5
28
100
AcDbSymbolTableRecord
100
AcDbTextStyleTableRecord
  2
CIM_TB
 70
    64
 40
0.0
 41
1.0
 50
0.0
 71
     0
 42
0.2
  3
romans
  4

  0
STYLE
  5
49
100
AcDbSymbolTableRecord
100
AcDbTextStyleTableRecord
  2
ADESK2
 70
    64
 40
0.0
 41
1.0
 50
0.0
 71
     0
 42
0.065
  3
romans
  4

  0
ENDTAB
  0
TABLE
  2
VIEW
  5
6
100
AcDbSymbolTable
 70
     0
  0
ENDTAB
  0
TABLE
  2
UCS
  5
7
100
AcDbSymbolTable
 70
     1
  0
UCS
  5
2D
100
AcDbSymbolTableRecord
100
AcDbUCSTableRecord
  2
CIM_TB_HOLD
 70
     0
 10
0.0
 20
0.0
 30
0.0
 11
1.0
 21
0.0
 31
0.0
 12
0.0
 22
1.0
 32
0.0
  0
ENDTAB
  0
TABLE
  2
APPID
  5
9
100
AcDbSymbolTable
 70
     6
  0
APPID
  5
11
100
AcDbSymbolTableRecord
100
AcDbRegAppTableRecord
  2
ACAD
 70
     0
  0
APPID
  5
22
100
AcDbSymbolTableRecord
100
AcDbRegAppTableRecord
  2
TB_S_MPD
 70
     0
  0
APPID
  5
20AD
100
AcDbSymbolTableRecord
100
AcDbRegAppTableRecord
  2
AD_DRAW
 70
     0
  0
APPID
  5
20C5
100
AcDbSymbolTableRecord
100
AcDbRegAppTableRecord
  2
DESIGNERASSEMBLIES
 70
     0
  0
APPID
  5
20C6
100
AcDbSymbolTableRecord
100
AcDbRegAppTableRecord
  2
MCAD_NO_VIS
 70
     0
  0
APPID
  5
20CC
100
AcDbSymbolTableRecord
100
AcDbRegAppTableRecord
  2
ASURF_PCURVE_APPNAME
 70
     0
  0
ENDTAB
  0
TABLE
  2
DIMSTYLE
  5
A
100
AcDbSymbolTable
 70
     4
  0
DIMSTYLE
105
1D
100
AcDbSymbolTableRecord
100
AcDbDimStyleTableRecord
  2
STANDARD
 70
     0
  3

  4

  5

  6

  7

 40
1.0
 41
0.18
 42
0.0625
 43
0.38
 44
0.18
 45
0.0
 46
0.0
 47
0.0
 48
0.0
140
0.18
141
0.09
142
0.0
143
25.4
144
1.0
145
0.0
146
1.0
147
0.09
 71
     0
 72
     0
 73
     1
 74
     1
 75
     0
 76
     0
 77
     0
 78
     0
170
     0
171
     2
172
     0
173
     0
174
     0
175
     0
176
     0
177
     0
178
     0
270
     2
271
     3
272
     4
273
     2
274
     2
340
10
275
     0
280
     0
281
     0
282
     0
283
     1
284
     0
285
     0
286
     0
287
     0
288
     0
  0
DIMSTYLE
105
2B
100
AcDbSymbolTableRecord
100
AcDbDimStyleTableRecord
  2
STANDARD$4
 70
     0
  3

  4

  5

  6

  7

 40
1.0
 41
0.18
 42
0.0625
 43
0.38
 44
0.18
 45
0.0
 46
0.0
 47
0.0
 48
0.0
140
0.18
141
0.09
142
0.0
143
25.4
144
1.0
145
0.0
146
1.0
147
0.09
 71
     0
 72
     0
 73
     1
 74
     1
 75
     0
 76
     0
 77
     0
 78
     0
170
     0
171
     2
172
     0
173
     0
174
     0
175
     0
176
     0
177
     0
178
     0
270
     2
271
     4
272
     4
273
     2
274
     2
340
10
275
     0
280
     0
281
     0
282
     0
283
     1
284
     0
285
     0
286
     0
287
     3
288
     0
  0
DIMSTYLE
105
2C
100
AcDbSymbolTableRecord
100
AcDbDimStyleTableRecord
  2
STANDARD$3
 70
     0
  3

  4

  5

  6

  7

 40
1.0
 41
0.18
 42
0.0625
 43
0.38
 44
0.18
 45
0.0
 46
0.0
 47
0.0
 48
0.0
140
0.18
141
0.09
142
0.0
143
25.4
144
1.0
145
0.0
146
1.0
147
0.09
 71
     0
 72
     0
 73
     1
 74
     1
 75
     0
 76
     0
 77
     0
 78
     0
170
     0
171
     2
172
     0
173
     0
174
     0
175
     0
176
     0
177
     0
178
     0
270
     2
271
     4
272
     4
273
     2
274
     2
340
10
275
     0
280
     0
281
     0
282
     0
283
     1
284
     0
285
     0
286
     0
287
     3
288
     0
  0
DIMSTYLE
105
2010
100
AcDbSymbolTableRecord
100
AcDbDimStyleTableRecord
  2
SU1
 70
     0
  3

  4

  5

  6

  7

 40
1.0
 41
0.18
 42
0.0625
 43
0.38
 44
0.18
 45
0.0
 46
0.0
 47
0.001
 48
0.0
140
0.18
141
0.09
142
0.0
143
25.4
144
1.0
145
0.0
146
1.0
147
0.09
 71
     0
 72
     0
 73
     1
 74
     1
 75
     0
 76
     0
 77
     0
 78
     0
170
     0
171
     2
172
     0
173
     0
174
     0
175
     0
176
     0
177
     0
178
     0
270
     2
271
     3
272
     3
273
     2
274
     2
340
10
275
     0
280
     0
281
     0
282
     0
283
     1
284
     0
285
     0
286
     0
287
     0
288
     0
  0
ENDTAB
  0
TABLE
  2
BLOCK_RECORD
  5
1
100
AcDbSymbolTable
 70
    17
  0
BLOCK_RECORD
  5
1A
100
AcDbSymbolTableRecord
100
AcDbBlockTableRecord
  2
*MODEL_SPACE
  0
BLOCK_RECORD
  5
17
100
AcDbSymbolTableRecord
100
AcDbBlockTableRecord
  2
*PAPER_SPACE
  0
BLOCK_RECORD
  5
4A
100
AcDbSymbolTableRecord
100
AcDbBlockTableRecord
  2
C-BORDER
  0
BLOCK_RECORD
  5
83
100
AcDbSymbolTableRecord
100
AcDbBlockTableRecord
  2
*X1
  0
BLOCK_RECORD
  5
9D
100
AcDbSymbolTableRecord
100
AcDbBlockTableRecord
  2
*X2
  0
BLOCK_RECORD
  5
B8
100
AcDbSymbolTableRecord
100
AcDbBlockTableRecord
  2
HYBR-12
  0
BLOCK_RECORD
  5
11B
100
AcDbSymbolTableRecord
100
AcDbBlockTableRecord
  2
POST-1
  0
BLOCK_RECORD
  5
1415
100
AcDbSymbolTableRecord
100
AcDbBlockTableRecord
  2
*X5
  0
BLOCK_RECORD
  5
1430
100
AcDbSymbolTableRecord
100
AcDbBlockTableRecord
  2
*X6
  0
BLOCK_RECORD
  5
144B
100
AcDbSymbolTableRecord
100
AcDbBlockTableRecord
  2
HYBR-3
  0
BLOCK_RECORD
  5
14C0
100
AcDbSymbolTableRecord
100
AcDbBlockTableRecord
  2
POST-3
  0
BLOCK_RECORD
  5
172A
100
AcDbSymbolTableRecord
100
AcDbBlockTableRecord
  2
*D9
  0
BLOCK_RECORD
  5
1738
100
AcDbSymbolTableRecord
100
AcDbBlockTableRecord
  2
*D10
  0
BLOCK_RECORD
  5
1748
100
AcDbSymbolTableRecord
100
AcDbBlockTableRecord
  2
*D11
  0
BLOCK_RECORD
  5
1756
100
AcDbSymbolTableRecord
100
AcDbBlockTableRecord
  2
*D12
  0
BLOCK_RECORD
  5
1764
100
AcDbSymbolTableRecord
100
AcDbBlockTableRecord
  2
*D13
  0
BLOCK_RECORD
  5
1EAB
100
AcDbSymbolTableRecord
100
AcDbBlockTableRecord
  2
*X14
  0
BLOCK_RECORD
  5
1FB6
100
AcDbSymbolTableRecord
100
AcDbBlockTableRecord
  2
*X15
  0
BLOCK_RECORD
  5
20B9
100
AcDbSymbolTableRecord
100
AcDbBlockTableRecord
  2
*U16
  0
ENDTAB
  0
ENDSEC
  0
SECTION
  2
BLOCKS
  0
BLOCK
  5
1B
100
AcDbEntity
  8
0
100
AcDbBlockBegin
  2
*MODEL_SPACE
 70
     0
 10
0.0
 20
0.0
 30
0.0
  3
*MODEL_SPACE
  1

  0
ENDBLK
  5
1C
100
AcDbEntity
  8
0
100
AcDbBlockEnd
  0
BLOCK
  5
18
100
AcDbEntity
 67
     1
  8
0
100
AcDbBlockBegin
  2
*PAPER_SPACE
 70
     0
 10
0.0
 20
0.0
 30
0.0
  3
*PAPER_SPACE
  1

  0
ENDBLK
  5
19
100
AcDbEntity
 67
     1
  8
0
100
AcDbBlockEnd
  0
BLOCK
  5
80
100
AcDbEntity
  8
0
100
AcDbBlockBegin
  2
C-BORDER
 70
     0
 10
0.0
 20
0.0
 30
0.0
  3
C-BORDER
  1

  0
LINE
  5
2011
100
AcDbEntity
  8
TEXT
100
AcDbLine
 10
0.5
 20
14.875
 30
0.0
 11
3.0625
 21
14.875
 31
0.0
  0
LINE
  5
2012
100
AcDbEntity
  8
TEXT
100
AcDbLine
 10
3.0625
 20
14.875
 30
0.0
 11
3.0625
 21
15.375
 31
0.0
  0
CIRCLE
  5
2013
100
AcDbEntity
  8
TEXT
100
AcDbCircle
 10
1.177871
 20
15.111461
 30
0.0
 40
0.1875
  0
CIRCLE
  5
2014
100
AcDbEntity
  8
TEXT
100
AcDbCircle
 10
1.177871
 20
15.111461
 30
0.0
 40
0.09375
  0
LINE
  5
2015
100
AcDbEntity
  8
TEXT
  6
CENTER
100
AcDbLine
 10
0.943951
 20
15.111461
 30
0.0
 11
2.396621
 21
15.111461
 31
0.0
  0
LINE
  5
2016
100
AcDbEntity
  8
TEXT
  6
CENTER
100
AcDbLine
 10
1.177871
 20
14.882779
 30
0.0
 11
1.177871
 21
15.350656
 31
0.0
  0
LINE
  5
2017
100
AcDbEntity
  8
TEXT
100
AcDbLine
 10
1.646621
 20
15.205211
 30
0.0
 11
2.131263
 21
15.298961
 31
0.0
  0
LINE
  5
2018
100
AcDbEntity
  8
TEXT
100
AcDbLine
 10
1.646621
 20
15.017711
 30
0.0
 11
2.131263
 21
14.923961
 31
0.0
  0
LINE
  5
2019
100
AcDbEntity
  8
TEXT
100
AcDbLine
 10
1.646621
 20
15.017711
 30
0.0
 11
1.646621
 21
15.205211
 31
0.0
  0
LINE
  5
201A
100
AcDbEntity
  8
TEXT
100
AcDbLine
 10
2.131263
 20
15.298961
 30
0.0
 11
2.131263
 21
14.923961
 31
0.0
  0
TEXT
  5
201B
100
AcDbEntity
  8
TEXT
100
AcDbText
 10
0.6875
 20
14.689828
 30
0.0
 40
0.1
  1
THIRD ANGLE PROJECTION
100
AcDbText
  0
LINE
  5
201C
100
AcDbEntity
  8
TEXT
100
AcDbLine
 10
3.0625
 20
14.875
 30
0.0
 11
3.0625
 21
14.625
 31
0.0
  0
LINE
  5
201D
100
AcDbEntity
  8
TEXT
100
AcDbLine
 10
3.0625
 20
14.625
 30
0.0
 11
0.5
 21
14.625
 31
0.0
  0
TEXT
  5
201E
100
AcDbEntity
  8
TEXT
100
AcDbText
 10
15.40792
 20
1.861505
 30
0.0
 40
0.065
  1
  %%P 0.5%%D
  7
ADESK2
100
AcDbText
  0
TEXT
  5
201F
100
AcDbEntity
  8
TEXT
100
AcDbText
 10
15.40792
 20
1.966743
 30
0.0
 40
0.065
  1
ANGULAR
  7
ADESK2
100
AcDbText
  0
TEXT
  5
2020
100
AcDbEntity
  8
TEXT
100
AcDbText
 10
14.61466
 20
1.653744
 30
0.0
 40
0.065
  1
DO NOT SCALE DRAWING
  7
ADESK2
 72
     1
 11
15.229065
 21
1.653744
 31
0.0
100
AcDbText
  0
TEXT
  5
2021
100
AcDbEntity
  8
TEXT
100
AcDbText
 10
14.544023
 20
1.756267
 30
0.0
 40
0.065
  1
.XXX %%P .005
  7
ADESK2
100
AcDbText
  0
TEXT
  5
2022
100
AcDbEntity
  8
TEXT
100
AcDbText
 10
14.544023
 20
1.861505
 30
0.0
 40
0.065
  1
.XX  %%P .05
  7
ADESK2
100
AcDbText
  0
TEXT
  5
2023
100
AcDbEntity
  8
TEXT
100
AcDbText
 10
14.544023
 20
1.966743
 30
0.0
 40
0.065
  1
DECIMALS
  7
ADESK2
100
AcDbText
  0
TEXT
  5
2024
100
AcDbEntity
  8
TEXT
100
AcDbText
 10
14.930374
 20
2.074613
 30
0.0
 40
0.065
  1
TOLERANCES
  7
ADESK2
 72
     1
 11
15.229065
 21
2.074613
 31
0.0
100
AcDbText
  0
TEXT
  5
2025
100
AcDbEntity
  8
TEXT
100
AcDbText
 10
14.532636
 20
2.179851
 30
0.0
 40
0.065
  1
DIMENSIONS ARE IN INCHES
  7
ADESK2
 72
     1
 11
15.229065
 21
2.179851
 31
0.0
100
AcDbText
  0
TEXT
  5
2026
100
AcDbEntity
  8
TEXT
100
AcDbText
 10
14.458351
 20
2.285089
 30
0.0
 40
0.065
  1
UNLESS OTHERWISE SPECIFIED:
  7
ADESK2
 72
     1
 11
15.229065
 21
2.285089
 31
0.0
100
AcDbText
  0
TEXT
  5
2027
100
AcDbEntity
  8
BORDER
100
AcDbText
 10
16.916608
 20
2.075566
 30
0.0
 40
0.15
  1
HIGH ENERGY PHYSICS
100
AcDbText
  0
LINE
  5
2028
100
AcDbEntity
  8
BORDER
100
AcDbLine
 10
0.5
 20
15.375
 30
0.0
 11
20.5
 21
15.375
 31
0.0
  0
TEXT
  5
2029
100
AcDbEntity
  8
TEXT
100
AcDbText
 10
16.680137
 20
1.165354
 30
0.0
 40
0.075
  1
DIRECTORY
100
AcDbText
  0
TEXT
  5
202A
100
AcDbEntity
  8
BORDER
100
AcDbText
 10
16.367704
 20
0.951962
 30
0.0
 40
0.15
  1
C
100
AcDbText
  0
LINE
  5
202B
100
AcDbEntity
  8
BORDER
100
AcDbLine
 10
0.5
 20
0.625
 30
0.0
 11
20.5
 21
0.625
 31
0.0
  0
LINE
  5
202C
100
AcDbEntity
  8
BORDER
100
AcDbLine
 10
0.5
 20
15.375
 30
0.0
 11
0.5
 21
0.625
 31
0.0
  0
LINE
  5
202D
100
AcDbEntity
  8
BORDER
100
AcDbLine
 10
20.5
 20
0.625
 30
0.0
 11
20.5
 21
15.375
 31
0.0
  0
LINE
  5
202E
100
AcDbEntity
  8
BORDER
100
AcDbLine
 10
14.228025
 20
2.824147
 30
0.0
 11
20.500862
 21
2.824147
 31
0.0
  0
TEXT
  5
202F
100
AcDbEntity
  8
BORDER
100
AcDbText
 10
14.407029
 20
2.549228
 30
0.0
 40
0.15
  1
UNIVERSITY OF CALIFORNIA @ SANTA BARBARA
100
AcDbText
  0
TEXT
  5
2030
100
AcDbEntity
  8
TEXT
100
AcDbText
 10
14.297375
 20
1.479964
 30
0.0
 40
0.065
  1
DRAWN
  7
ADESK2
100
AcDbText
  0
LINE
  5
2031
100
AcDbEntity
  8
BORDER
100
AcDbLine
 10
14.229065
 20
0.625
 30
0.0
 11
14.229065
 21
2.824147
 31
0.0
  0
LINE
  5
2032
100
AcDbEntity
  8
BORDER
100
AcDbLine
 10
14.229065
 20
2.401501
 30
0.0
 11
20.500862
 21
2.401501
 31
0.0
  0
LINE
  5
2033
100
AcDbEntity
  8
TEXT
100
AcDbLine
 10
14.229065
 20
0.966501
 30
0.0
 11
16.229065
 21
0.966501
 31
0.0
  0
LINE
  5
2034
100
AcDbEntity
  8
TEXT
100
AcDbLine
 10
14.229065
 20
1.281501
 30
0.0
 11
20.500862
 21
1.281501
 31
0.0
  0
LINE
  5
2035
100
AcDbEntity
  8
TEXT
100
AcDbLine
 10
16.229065
 20
0.901501
 30
0.0
 11
20.500862
 21
0.901501
 31
0.0
  0
LINE
  5
2036
100
AcDbEntity
  8
BORDER
100
AcDbLine
 10
16.229065
 20
1.901501
 30
0.0
 11
20.500862
 21
1.901501
 31
0.0
  0
LINE
  5
2037
100
AcDbEntity
  8
BORDER
100
AcDbLine
 10
16.229065
 20
0.625
 30
0.0
 11
16.229065
 21
2.401501
 31
0.0
  0
LINE
  5
2038
100
AcDbEntity
  8
TEXT
100
AcDbLine
 10
17.229065
 20
0.625
 30
0.0
 11
17.229065
 21
0.901501
 31
0.0
  0
LINE
  5
2039
100
AcDbEntity
  8
TEXT
100
AcDbLine
 10
18.729065
 20
0.625
 30
0.0
 11
18.729065
 21
0.901501
 31
0.0
  0
LINE
  5
203A
100
AcDbEntity
  8
TEXT
100
AcDbLine
 10
16.609065
 20
0.901501
 30
0.0
 11
16.609065
 21
1.281501
 31
0.0
  0
LINE
  5
203B
100
AcDbEntity
  8
TEXT
100
AcDbLine
 10
17.729065
 20
0.901501
 30
0.0
 11
17.729065
 21
1.281501
 31
0.0
  0
LINE
  5
203C
100
AcDbEntity
  8
TEXT
100
AcDbLine
 10
20.099065
 20
0.901501
 30
0.0
 11
20.099065
 21
1.281501
 31
0.0
  0
TEXT
  5
203D
100
AcDbEntity
  8
TEXT
100
AcDbText
 10
16.281365
 20
0.744001
 30
0.0
 40
0.065
  1
SCALE
  7
ADESK2
100
AcDbText
  0
TEXT
  5
203E
100
AcDbEntity
  8
TEXT
100
AcDbText
 10
18.781865
 20
0.744001
 30
0.0
 40
0.065
  1
SHEET
  7
ADESK2
100
AcDbText
  0
TEXT
  5
203F
100
AcDbEntity
  8
TEXT
100
AcDbText
 10
16.316965
 20
1.167401
 30
0.0
 40
0.065
  1
SIZE
  7
ADESK2
100
AcDbText
  0
TEXT
  5
2040
100
AcDbEntity
  8
TEXT
100
AcDbText
 10
17.800065
 20
1.167401
 30
0.0
 40
0.065
  1
DWG NO.
  7
ADESK2
100
AcDbText
  0
TEXT
  5
2041
100
AcDbEntity
  8
TEXT
100
AcDbText
 10
20.179565
 20
1.167401
 30
0.0
 40
0.065
  1
REV
  7
ADESK2
100
AcDbText
  0
LINE
  5
2042
100
AcDbEntity
  8
TEXT
100
AcDbLine
 10
15.445694
 20
15.018795
 30
0.0
 11
20.5
 21
15.018795
 31
0.0
  0
LINE
  5
2043
100
AcDbEntity
  8
TEXT
100
AcDbLine
 10
15.445694
 20
14.768795
 30
0.0
 11
20.5
 21
14.768795
 31
0.0
  0
LINE
  5
2044
100
AcDbEntity
  8
TEXT
100
AcDbLine
 10
15.445694
 20
15.328859
 30
0.0
 11
15.445694
 21
14.768795
 31
0.0
  0
LINE
  5
2045
100
AcDbEntity
  8
TEXT
100
AcDbLine
 10
15.835946
 20
14.768795
 30
0.0
 11
15.835946
 21
15.018795
 31
0.0
  0
LINE
  5
2046
100
AcDbEntity
  8
TEXT
100
AcDbLine
 10
18.575946
 20
14.768795
 30
0.0
 11
18.575946
 21
15.018795
 31
0.0
  0
LINE
  5
2047
100
AcDbEntity
  8
TEXT
100
AcDbLine
 10
19.455946
 20
14.768795
 30
0.0
 11
19.455946
 21
15.018795
 31
0.0
  0
TEXT
  5
2048
100
AcDbEntity
  8
TEXT
100
AcDbText
 10
17.666146
 20
15.101295
 30
0.0
 40
0.065
  1
REVISIONS
  7
ADESK2
100
AcDbText
  0
TEXT
  5
2049
100
AcDbEntity
  8
TEXT
100
AcDbText
 10
15.536046
 20
14.859095
 30
0.0
 40
0.065
  1
REV
  7
ADESK2
100
AcDbText
  0
TEXT
  5
204A
100
AcDbEntity
  8
TEXT
100
AcDbText
 10
16.837946
 20
14.859095
 30
0.0
 40
0.065
  1
DESCRIPTION
  7
ADESK2
100
AcDbText
  0
TEXT
  5
204B
100
AcDbEntity
  8
TEXT
100
AcDbText
 10
18.903646
 20
14.859095
 30
0.0
 40
0.065
  1
DATE
  7
ADESK2
100
AcDbText
  0
TEXT
  5
204C
100
AcDbEntity
  8
TEXT
100
AcDbText
 10
19.697346
 20
14.859095
 30
0.0
 40
0.065
  1
APPROVED
  7
ADESK2
100
AcDbText
  0
LINE
  5
204D
100
AcDbEntity
  8
TEXT
100
AcDbLine
 10
14.229065
 20
1.591501
 30
0.0
 11
16.229065
 21
1.591501
 31
0.0
  0
TEXT
  5
204E
100
AcDbEntity
  8
TEXT
100
AcDbText
 10
14.309065
 20
1.171501
 30
0.0
 40
0.065
  1
CHECKED
  7
ADESK2
100
AcDbText
  0
TEXT
  5
204F
100
AcDbEntity
  8
TEXT
100
AcDbText
 10
14.309065
 20
0.856501
 30
0.0
 40
0.065
  1
DESIGN
  7
ADESK2
100
AcDbText
  0
LINE
  5
2050
100
AcDbEntity
  8
TEXT
100
AcDbLine
 10
15.729049
 20
1.591501
 30
0.0
 11
15.729049
 21
0.625
 31
0.0
  0
TEXT
  5
2051
100
AcDbEntity
  8
TEXT
100
AcDbText
 10
15.852468
 20
1.474951
 30
0.0
 40
0.065
  1
DATE
  7
ADESK2
100
AcDbText
  0
TEXT
  5
2052
100
AcDbEntity
  8
TEXT
100
AcDbText
 10
19.612036
 20
0.744377
 30
0.0
 40
0.065
  1
OF
  7
ADESK2
100
AcDbText
  0
ENDBLK
  5
81
100
AcDbEntity
  8
0
100
AcDbBlockEnd
  0
BLOCK
  5
9B
100
AcDbEntity
  8
0
100
AcDbBlockBegin
  2
*X1
 70
    65
 10
0.0
 20
0.0
 30
0.0
  3
*X1
  1

  0
LINE
  5
84
100
AcDbEntity
  8
0
 62
     0
100
AcDbLine
 10
105.871943
 20
75.819905
 30
0.0
 11
106.371943
 21
76.319905
 31
0.0
  0
LINE
  5
85
100
AcDbEntity
  8
0
 62
     0
100
AcDbLine
 10
115.590718
 20
85.53868
 30
0.0
 11
116.090718
 21
86.03868
 31
0.0
  0
LINE
  5
86
100
AcDbEntity
  8
0
 62
     0
100
AcDbLine
 10
105.871943
 20
77.587672
 30
0.0
 11
106.371943
 21
78.087672
 31
0.0
  0
LINE
  5
87
100
AcDbEntity
  8
0
 62
     0
100
AcDbLine
 10
113.822951
 20
85.53868
 30
0.0
 11
114.322951
 21
86.03868
 31
0.0
  0
LINE
  5
88
100
AcDbEntity
  8
0
 62
     0
100
AcDbLine
 10
105.871943
 20
79.355439
 30
0.0
 11
106.371943
 21
79.855439
 31
0.0
  0
LINE
  5
89
100
AcDbEntity
  8
0
 62
     0
100
AcDbLine
 10
112.055184
 20
85.53868
 30
0.0
 11
112.555184
 21
86.03868
 31
0.0
  0
LINE
  5
8A
100
AcDbEntity
  8
0
 62
     0
100
AcDbLine
 10
105.871943
 20
81.123206
 30
0.0
 11
106.371943
 21
81.623206
 31
0.0
  0
LINE
  5
8B
100
AcDbEntity
  8
0
 62
     0
100
AcDbLine
 10
110.287417
 20
85.53868
 30
0.0
 11
110.787417
 21
86.03868
 31
0.0
  0
LINE
  5
8C
100
AcDbEntity
  8
0
 62
     0
100
AcDbLine
 10
105.871943
 20
82.890973
 30
0.0
 11
106.371943
 21
83.390973
 31
0.0
  0
LINE
  5
8D
100
AcDbEntity
  8
0
 62
     0
100
AcDbLine
 10
108.51965
 20
85.53868
 30
0.0
 11
109.01965
 21
86.03868
 31
0.0
  0
LINE
  5
8E
100
AcDbEntity
  8
0
 62
     0
100
AcDbLine
 10
105.871943
 20
84.65874
 30
0.0
 11
106.371943
 21
85.15874
 31
0.0
  0
LINE
  5
8F
100
AcDbEntity
  8
0
 62
     0
100
AcDbLine
 10
106.751883
 20
85.53868
 30
0.0
 11
107.251883
 21
86.03868
 31
0.0
  0
LINE
  5
90
100
AcDbEntity
  8
0
 62
     0
100
AcDbLine
 10
107.158485
 20
75.33868
 30
0.0
 11
107.658485
 21
75.83868
 31
0.0
  0
LINE
  5
91
100
AcDbEntity
  8
0
 62
     0
100
AcDbLine
 10
116.271943
 20
84.452138
 30
0.0
 11
116.771943
 21
84.952138
 31
0.0
  0
LINE
  5
92
100
AcDbEntity
  8
0
 62
     0
100
AcDbLine
 10
108.926252
 20
75.33868
 30
0.0
 11
109.426252
 21
75.83868
 31
0.0
  0
LINE
  5
93
100
AcDbEntity
  8
0
 62
     0
100
AcDbLine
 10
116.271943
 20
82.684371
 30
0.0
 11
116.771943
 21
83.184371
 31
0.0
  0
LINE
  5
94
100
AcDbEntity
  8
0
 62
     0
100
AcDbLine
 10
110.694019
 20
75.33868
 30
0.0
 11
111.194019
 21
75.83868
 31
0.0
  0
LINE
  5
95
100
AcDbEntity
  8
0
 62
     0
100
AcDbLine
 10
116.271943
 20
80.916604
 30
0.0
 11
116.771943
 21
81.416604
 31
0.0
  0
LINE
  5
96
100
AcDbEntity
  8
0
 62
     0
100
AcDbLine
 10
112.461786
 20
75.33868
 30
0.0
 11
112.961786
 21
75.83868
 31
0.0
  0
LINE
  5
97
100
AcDbEntity
  8
0
 62
     0
100
AcDbLine
 10
116.271943
 20
79.148837
 30
0.0
 11
116.771943
 21
79.648837
 31
0.0
  0
LINE
  5
98
100
AcDbEntity
  8
0
 62
     0
100
AcDbLine
 10
114.229553
 20
75.33868
 30
0.0
 11
114.729553
 21
75.83868
 31
0.0
  0
LINE
  5
99
100
AcDbEntity
  8
0
 62
     0
100
AcDbLine
 10
116.271943
 20
77.38107
 30
0.0
 11
116.771943
 21
77.88107
 31
0.0
  0
LINE
  5
9A
100
AcDbEntity
  8
0
 62
     0
100
AcDbLine
 10
115.99732
 20
75.33868
 30
0.0
 11
116.771943
 21
76.113303
 31
0.0
  0
ENDBLK
  5
9C
100
AcDbEntity
  8
0
100
AcDbBlockEnd
  0
BLOCK
  5
B6
100
AcDbEntity
  8
0
100
AcDbBlockBegin
  2
*X2
 70
    65
 10
0.0
 20
0.0
 30
0.0
  3
*X2
  1

  0
LINE
  5
9E
100
AcDbEntity
  8
0
 62
     0
100
AcDbLine
 10
105.871943
 20
58.142235
 30
0.0
 11
106.371943
 21
58.642235
 31
0.0
  0
LINE
  5
9F
100
AcDbEntity
  8
0
 62
     0
100
AcDbLine
 10
114.568387
 20
66.83868
 30
0.0
 11
115.068387
 21
67.33868
 31
0.0
  0
LINE
  5
A0
100
AcDbEntity
  8
0
 62
     0
100
AcDbLine
 10
105.871943
 20
59.910002
 30
0.0
 11
106.371943
 21
60.410002
 31
0.0
  0
LINE
  5
A1
100
AcDbEntity
  8
0
 62
     0
100
AcDbLine
 10
112.80062
 20
66.83868
 30
0.0
 11
113.30062
 21
67.33868
 31
0.0
  0
LINE
  5
A2
100
AcDbEntity
  8
0
 62
     0
100
AcDbLine
 10
105.871943
 20
61.677769
 30
0.0
 11
106.371943
 21
62.177769
 31
0.0
  0
LINE
  5
A3
100
AcDbEntity
  8
0
 62
     0
100
AcDbLine
 10
111.032853
 20
66.83868
 30
0.0
 11
111.532853
 21
67.33868
 31
0.0
  0
LINE
  5
A4
100
AcDbEntity
  8
0
 62
     0
100
AcDbLine
 10
105.871943
 20
63.445536
 30
0.0
 11
106.371943
 21
63.945536
 31
0.0
  0
LINE
  5
A5
100
AcDbEntity
  8
0
 62
     0
100
AcDbLine
 10
109.265086
 20
66.83868
 30
0.0
 11
109.765086
 21
67.33868
 31
0.0
  0
LINE
  5
A6
100
AcDbEntity
  8
0
 62
     0
100
AcDbLine
 10
105.871943
 20
65.213303
 30
0.0
 11
106.371943
 21
65.713303
 31
0.0
  0
LINE
  5
A7
100
AcDbEntity
  8
0
 62
     0
100
AcDbLine
 10
107.49732
 20
66.83868
 30
0.0
 11
107.99732
 21
67.33868
 31
0.0
  0
LINE
  5
A8
100
AcDbEntity
  8
0
 62
     0
100
AcDbLine
 10
105.871943
 20
66.98107
 30
0.0
 11
106.229553
 21
67.33868
 31
0.0
  0
LINE
  5
A9
100
AcDbEntity
  8
0
 62
     0
100
AcDbLine
 10
106.136154
 20
56.63868
 30
0.0
 11
106.636154
 21
57.13868
 31
0.0
  0
LINE
  5
AA
100
AcDbEntity
  8
0
 62
     0
100
AcDbLine
 10
116.271943
 20
66.774469
 30
0.0
 11
116.771943
 21
67.274469
 31
0.0
  0
LINE
  5
AB
100
AcDbEntity
  8
0
 62
     0
100
AcDbLine
 10
107.903921
 20
56.63868
 30
0.0
 11
108.403921
 21
57.13868
 31
0.0
  0
LINE
  5
AC
100
AcDbEntity
  8
0
 62
     0
100
AcDbLine
 10
116.271943
 20
65.006702
 30
0.0
 11
116.771943
 21
65.506702
 31
0.0
  0
LINE
  5
AD
100
AcDbEntity
  8
0
 62
     0
100
AcDbLine
 10
109.671688
 20
56.63868
 30
0.0
 11
110.171688
 21
57.13868
 31
0.0
  0
LINE
  5
AE
100
AcDbEntity
  8
0
 62
     0
100
AcDbLine
 10
116.271943
 20
63.238935
 30
0.0
 11
116.771943
 21
63.738935
 31
0.0
  0
LINE
  5
AF
100
AcDbEntity
  8
0
 62
     0
100
AcDbLine
 10
111.439455
 20
56.63868
 30
0.0
 11
111.939455
 21
57.13868
 31
0.0
  0
LINE
  5
B0
100
AcDbEntity
  8
0
 62
     0
100
AcDbLine
 10
116.271943
 20
61.471168
 30
0.0
 11
116.771943
 21
61.971168
 31
0.0
  0
LINE
  5
B1
100
AcDbEntity
  8
0
 62
     0
100
AcDbLine
 10
113.207222
 20
56.63868
 30
0.0
 11
113.707222
 21
57.13868
 31
0.0
  0
LINE
  5
B2
100
AcDbEntity
  8
0
 62
     0
100
AcDbLine
 10
116.271943
 20
59.703401
 30
0.0
 11
116.771943
 21
60.203401
 31
0.0
  0
LINE
  5
B3
100
AcDbEntity
  8
0
 62
     0
100
AcDbLine
 10
114.974989
 20
56.63868
 30
0.0
 11
115.474989
 21
57.13868
 31
0.0
  0
LINE
  5
B4
100
AcDbEntity
  8
0
 62
     0
100
AcDbLine
 10
116.271943
 20
57.935634
 30
0.0
 11
116.771943
 21
58.435634
 31
0.0
  0
LINE
  5
B5
100
AcDbEntity
  8
0
 62
     0
100
AcDbLine
 10
116.742756
 20
56.63868
 30
0.0
 11
116.771943
 21
56.667867
 31
0.0
  0
ENDBLK
  5
B7
100
AcDbEntity
  8
0
100
AcDbBlockEnd
  0
BLOCK
  5
10C
100
AcDbEntity
  8
AIN
100
AcDbBlockBegin
  2
HYBR-12
 70
     0
 10
0.0
 20
0.0
 30
0.0
  3
HYBR-12
  1

  0
LINE
  5
B9
100
AcDbEntity
  8
SCRATCH
 62
     4
100
AcDbLine
 10
41.2
 20
46.8
 30
0.0
 11
41.2
 21
0.0
 31
0.0
  0
LINE
  5
BA
100
AcDbEntity
  8
SCRATCH
100
AcDbLine
 10
34.2
 20
30.347
 30
0.0
 11
34.2
 21
9.707
 31
0.0
  0
LINE
  5
BB
100
AcDbEntity
  8
SCRATCH
100
AcDbLine
 10
40.2
 20
30.347
 30
0.0
 11
40.2
 21
9.707
 31
0.0
  0
LINE
  5
BC
100
AcDbEntity
  8
SCRATCH
 62
     4
100
AcDbLine
 10
0.0
 20
46.8
 30
0.0
 11
0.0
 21
0.0
 31
0.0
  0
POLYLINE
  5
BD
100
AcDbEntity
  8
SCRATCH
100
AcDb2dPolyline
 66
     1
 10
0.0
 20
0.0
 30
0.0
 70
     1
  0
VERTEX
  5
BE
100
AcDbEntity
  8
SCRATCH
100
AcDbVertex
100
AcDb2dVertex
 10
7.6
 20
20.1
 30
0.0
  0
VERTEX
  5
BF
100
AcDbEntity
  8
SCRATCH
100
AcDbVertex
100
AcDb2dVertex
 10
17.6
 20
20.1
 30
0.0
  0
VERTEX
  5
C0
100
AcDbEntity
  8
SCRATCH
100
AcDbVertex
100
AcDb2dVertex
 10
17.6
 20
13.7
 30
0.0
  0
VERTEX
  5
C1
100
AcDbEntity
  8
SCRATCH
100
AcDbVertex
100
AcDb2dVertex
 10
7.6
 20
13.7
 30
0.0
  0
SEQEND
  5
10E
100
AcDbEntity
  8
SCRATCH
  0
LINE
  5
C2
100
AcDbEntity
  8
SCRATCH
 62
     4
100
AcDbLine
 10
0.0
 20
0.0
 30
0.0
 11
41.2
 21
0.0
 31
0.0
  0
POLYLINE
  5
C3
100
AcDbEntity
  8
SCRATCH
100
AcDb2dPolyline
 66
     1
 10
0.0
 20
0.0
 30
0.0
 70
     1
  0
VERTEX
  5
C4
100
AcDbEntity
  8
SCRATCH
100
AcDbVertex
100
AcDb2dVertex
 10
7.6
 20
7.1
 30
0.0
  0
VERTEX
  5
C5
100
AcDbEntity
  8
SCRATCH
100
AcDbVertex
100
AcDb2dVertex
 10
17.6
 20
7.1
 30
0.0
  0
VERTEX
  5
C6
100
AcDbEntity
  8
SCRATCH
100
AcDbVertex
100
AcDb2dVertex
 10
17.6
 20
0.7
 30
0.0
  0
VERTEX
  5
C7
100
AcDbEntity
  8
SCRATCH
100
AcDbVertex
100
AcDb2dVertex
 10
7.6
 20
0.7
 30
0.0
  0
SEQEND
  5
10F
100
AcDbEntity
  8
SCRATCH
  0
POLYLINE
  5
C8
100
AcDbEntity
  8
SCRATCH
100
AcDb2dPolyline
 66
     1
 10
0.0
 20
0.0
 30
0.0
 70
     1
  0
VERTEX
  5
C9
100
AcDbEntity
  8
SCRATCH
100
AcDbVertex
100
AcDb2dVertex
 10
7.6
 20
13.6
 30
0.0
  0
VERTEX
  5
CA
100
AcDbEntity
  8
SCRATCH
100
AcDbVertex
100
AcDb2dVertex
 10
17.6
 20
13.6
 30
0.0
  0
VERTEX
  5
CB
100
AcDbEntity
  8
SCRATCH
100
AcDbVertex
100
AcDb2dVertex
 10
17.6
 20
7.2
 30
0.0
  0
VERTEX
  5
CC
100
AcDbEntity
  8
SCRATCH
100
AcDbVertex
100
AcDb2dVertex
 10
7.6
 20
7.2
 30
0.0
  0
SEQEND
  5
110
100
AcDbEntity
  8
SCRATCH
  0
LINE
  5
CD
100
AcDbEntity
  8
SCRATCH
100
AcDbLine
 10
40.2
 20
9.707
 30
0.0
 11
34.2
 21
9.707
 31
0.0
  0
POLYLINE
  5
CE
100
AcDbEntity
  8
SCRATCH
100
AcDb2dPolyline
 66
     1
 10
0.0
 20
0.0
 30
0.0
 70
     1
  0
VERTEX
  5
CF
100
AcDbEntity
  8
SCRATCH
100
AcDbVertex
100
AcDb2dVertex
 10
7.6
 20
39.6
 30
0.0
  0
VERTEX
  5
D0
100
AcDbEntity
  8
SCRATCH
100
AcDbVertex
100
AcDb2dVertex
 10
17.6
 20
39.6
 30
0.0
  0
VERTEX
  5
D1
100
AcDbEntity
  8
SCRATCH
100
AcDbVertex
100
AcDb2dVertex
 10
17.6
 20
33.2
 30
0.0
  0
VERTEX
  5
D2
100
AcDbEntity
  8
SCRATCH
100
AcDbVertex
100
AcDb2dVertex
 10
7.6
 20
33.2
 30
0.0
  0
SEQEND
  5
111
100
AcDbEntity
  8
SCRATCH
  0
POLYLINE
  5
D3
100
AcDbEntity
  8
SCRATCH
100
AcDb2dPolyline
 66
     1
 10
0.0
 20
0.0
 30
0.0
 70
     1
  0
VERTEX
  5
D4
100
AcDbEntity
  8
SCRATCH
100
AcDbVertex
100
AcDb2dVertex
 10
7.6
 20
26.6
 30
0.0
  0
VERTEX
  5
D5
100
AcDbEntity
  8
SCRATCH
100
AcDbVertex
100
AcDb2dVertex
 10
17.6
 20
26.6
 30
0.0
  0
VERTEX
  5
D6
100
AcDbEntity
  8
SCRATCH
100
AcDbVertex
100
AcDb2dVertex
 10
17.6
 20
20.2
 30
0.0
  0
VERTEX
  5
D7
100
AcDbEntity
  8
SCRATCH
100
AcDbVertex
100
AcDb2dVertex
 10
7.6
 20
20.2
 30
0.0
  0
SEQEND
  5
112
100
AcDbEntity
  8
SCRATCH
  0
POLYLINE
  5
D8
100
AcDbEntity
  8
SCRATCH
100
AcDb2dPolyline
 66
     1
 10
0.0
 20
0.0
 30
0.0
 70
     1
  0
VERTEX
  5
D9
100
AcDbEntity
  8
SCRATCH
100
AcDbVertex
100
AcDb2dVertex
 10
7.6
 20
33.1
 30
0.0
  0
VERTEX
  5
DA
100
AcDbEntity
  8
SCRATCH
100
AcDbVertex
100
AcDb2dVertex
 10
17.6
 20
33.1
 30
0.0
  0
VERTEX
  5
DB
100
AcDbEntity
  8
SCRATCH
100
AcDbVertex
100
AcDb2dVertex
 10
17.6
 20
26.7
 30
0.0
  0
VERTEX
  5
DC
100
AcDbEntity
  8
SCRATCH
100
AcDbVertex
100
AcDb2dVertex
 10
7.6
 20
26.7
 30
0.0
  0
SEQEND
  5
113
100
AcDbEntity
  8
SCRATCH
  0
LINE
  5
DD
100
AcDbEntity
  8
SCRATCH
 62
     4
100
AcDbLine
 10
0.0
 20
46.8
 30
0.0
 11
41.2
 21
46.8
 31
0.0
  0
POLYLINE
  5
DE
100
AcDbEntity
  8
SCRATCH
100
AcDb2dPolyline
 66
     1
 10
0.0
 20
0.0
 30
0.0
 70
     1
  0
VERTEX
  5
DF
100
AcDbEntity
  8
SCRATCH
100
AcDbVertex
100
AcDb2dVertex
 10
7.6
 20
46.1
 30
0.0
  0
VERTEX
  5
E0
100
AcDbEntity
  8
SCRATCH
100
AcDbVertex
100
AcDb2dVertex
 10
17.6
 20
46.1
 30
0.0
  0
VERTEX
  5
E1
100
AcDbEntity
  8
SCRATCH
100
AcDbVertex
100
AcDb2dVertex
 10
17.6
 20
39.7
 30
0.0
  0
VERTEX
  5
E2
100
AcDbEntity
  8
SCRATCH
100
AcDbVertex
100
AcDb2dVertex
 10
7.6
 20
39.7
 30
0.0
  0
SEQEND
  5
114
100
AcDbEntity
  8
SCRATCH
  0
LINE
  5
E3
100
AcDbEntity
  8
SCRATCH
100
AcDbLine
 10
40.2
 20
30.347
 30
0.0
 11
34.2
 21
30.347
 31
0.0
  0
POLYLINE
  5
E4
100
AcDbEntity
  8
SCRATCH
 62
     4
100
AcDb2dPolyline
 66
     1
 10
0.0
 20
0.0
 30
0.0
 70
     1
  0
VERTEX
  5
E5
100
AcDbEntity
  8
SCRATCH
 62
     4
100
AcDbVertex
100
AcDb2dVertex
 10
27.3
 20
25.027
 30
0.0
 42
-0.414214
  0
VERTEX
  5
E6
100
AcDbEntity
  8
SCRATCH
 62
     4
100
AcDbVertex
100
AcDb2dVertex
 10
26.3
 20
26.027
 30
0.0
  0
VERTEX
  5
E7
100
AcDbEntity
  8
SCRATCH
 62
     4
100
AcDbVertex
100
AcDb2dVertex
 10
26.3
 20
32.727
 30
0.0
 42
-0.414214
  0
VERTEX
  5
E8
100
AcDbEntity
  8
SCRATCH
 62
     4
100
AcDbVertex
100
AcDb2dVertex
 10
27.3
 20
33.727
 30
0.0
  0
VERTEX
  5
E9
100
AcDbEntity
  8
SCRATCH
 62
     4
100
AcDbVertex
100
AcDb2dVertex
 10
29.7
 20
33.727
 30
0.0
 42
-0.414214
  0
VERTEX
  5
EA
100
AcDbEntity
  8
SCRATCH
 62
     4
100
AcDbVertex
100
AcDb2dVertex
 10
30.7
 20
32.727
 30
0.0
  0
VERTEX
  5
EB
100
AcDbEntity
  8
SCRATCH
 62
     4
100
AcDbVertex
100
AcDb2dVertex
 10
30.7
 20
26.027
 30
0.0
 42
-0.414214
  0
VERTEX
  5
EC
100
AcDbEntity
  8
SCRATCH
 62
     4
100
AcDbVertex
100
AcDb2dVertex
 10
29.7
 20
25.027
 30
0.0
  0
SEQEND
  5
115
100
AcDbEntity
  8
SCRATCH
 62
     4
  0
POLYLINE
  5
ED
100
AcDbEntity
  8
SCRATCH
 62
     4
100
AcDb2dPolyline
 66
     1
 10
0.0
 20
0.0
 30
0.0
 70
     1
  0
VERTEX
  5
EE
100
AcDbEntity
  8
SCRATCH
 62
     4
100
AcDbVertex
100
AcDb2dVertex
 10
27.3
 20
6.327
 30
0.0
 42
-0.414214
  0
VERTEX
  5
EF
100
AcDbEntity
  8
SCRATCH
 62
     4
100
AcDbVertex
100
AcDb2dVertex
 10
26.3
 20
7.327
 30
0.0
  0
VERTEX
  5
F0
100
AcDbEntity
  8
SCRATCH
 62
     4
100
AcDbVertex
100
AcDb2dVertex
 10
26.3
 20
14.027
 30
0.0
 42
-0.414214
  0
VERTEX
  5
F1
100
AcDbEntity
  8
SCRATCH
 62
     4
100
AcDbVertex
100
AcDb2dVertex
 10
27.3
 20
15.027
 30
0.0
  0
VERTEX
  5
F2
100
AcDbEntity
  8
SCRATCH
 62
     4
100
AcDbVertex
100
AcDb2dVertex
 10
29.7
 20
15.027
 30
0.0
 42
-0.414214
  0
VERTEX
  5
F3
100
AcDbEntity
  8
SCRATCH
 62
     4
100
AcDbVertex
100
AcDb2dVertex
 10
30.7
 20
14.027
 30
0.0
  0
VERTEX
  5
F4
100
AcDbEntity
  8
SCRATCH
 62
     4
100
AcDbVertex
100
AcDb2dVertex
 10
30.7
 20
7.327
 30
0.0
 42
-0.414214
  0
VERTEX
  5
F5
100
AcDbEntity
  8
SCRATCH
 62
     4
100
AcDbVertex
100
AcDb2dVertex
 10
29.7
 20
6.327
 30
0.0
  0
SEQEND
  5
116
100
AcDbEntity
  8
SCRATCH
 62
     4
  0
POLYLINE
  5
F6
100
AcDbEntity
  8
SCRATCH
100
AcDb2dPolyline
 66
     1
 10
0.0
 20
0.0
 30
0.0
 70
     1
1001
ACAD
1000
ASC_BOUNDS
1002
{
1070
    19
1005
100
1002
}
  0
VERTEX
  5
F7
100
AcDbEntity
  8
SCRATCH
100
AcDbVertex
100
AcDb2dVertex
 10
32.7
 20
24.527
 30
0.0
  0
VERTEX
  5
F8
100
AcDbEntity
  8
SCRATCH
100
AcDbVertex
100
AcDb2dVertex
 10
32.7
 20
34.227
 30
0.0
  0
VERTEX
  5
F9
100
AcDbEntity
  8
SCRATCH
100
AcDbVertex
100
AcDb2dVertex
 10
22.8
 20
34.227
 30
0.0
  0
VERTEX
  5
FA
100
AcDbEntity
  8
SCRATCH
100
AcDbVertex
100
AcDb2dVertex
 10
22.8
 20
24.527
 30
0.0
  0
SEQEND
  5
117
100
AcDbEntity
  8
SCRATCH
  0
POLYLINE
  5
FB
100
AcDbEntity
  8
SCRATCH
100
AcDb2dPolyline
 66
     1
 10
0.0
 20
0.0
 30
0.0
 70
     1
1001
ACAD
1000
ASC_BOUNDS
1002
{
1070
    19
1005
100
1002
}
  0
VERTEX
  5
FC
100
AcDbEntity
  8
SCRATCH
100
AcDbVertex
100
AcDb2dVertex
 10
33.2
 20
24.027
 30
0.0
  0
VERTEX
  5
FD
100
AcDbEntity
  8
SCRATCH
100
AcDbVertex
100
AcDb2dVertex
 10
33.2
 20
34.727
 30
0.0
  0
VERTEX
  5
FE
100
AcDbEntity
  8
SCRATCH
100
AcDbVertex
100
AcDb2dVertex
 10
22.3
 20
34.727
 30
0.0
  0
VERTEX
  5
FF
100
AcDbEntity
  8
SCRATCH
100
AcDbVertex
100
AcDb2dVertex
 10
22.3
 20
24.027
 30
0.0
  0
SEQEND
  5
118
100
AcDbEntity
  8
SCRATCH
  0
INSERT
  5
100
100
AcDbEntity
  8
SCRATCH
100
AcDbBlockReference
  2
*X1
 10
-83.571943
 20
-51.31168
 30
0.0
1001
ACAD
1000
HATCH
1002
{
1070
    19
1000
ANSI31
1040
10.0
1040
0.0
1000
ASC_BOUNDS
1070
     1
1070
     2
1070
     2
1005
FB
1005
F6
1000
ASC_SEEDPOINT
1011
-127.779811
1021
119.098754
1031
0.0
1002
}
  0
POLYLINE
  5
101
100
AcDbEntity
  8
SCRATCH
100
AcDb2dPolyline
 66
     1
 10
0.0
 20
0.0
 30
0.0
 70
     1
1001
ACAD
1000
ASC_BOUNDS
1002
{
1070
    19
1005
10B
1002
}
  0
VERTEX
  5
102
100
AcDbEntity
  8
SCRATCH
100
AcDbVertex
100
AcDb2dVertex
 10
22.8
 20
15.527
 30
0.0
  0
VERTEX
  5
103
100
AcDbEntity
  8
SCRATCH
100
AcDbVertex
100
AcDb2dVertex
 10
32.7
 20
15.527
 30
0.0
  0
VERTEX
  5
104
100
AcDbEntity
  8
SCRATCH
100
AcDbVertex
100
AcDb2dVertex
 10
32.7
 20
5.827
 30
0.0
  0
VERTEX
  5
105
100
AcDbEntity
  8
SCRATCH
100
AcDbVertex
100
AcDb2dVertex
 10
22.8
 20
5.827
 30
0.0
  0
SEQEND
  5
119
100
AcDbEntity
  8
SCRATCH
  0
POLYLINE
  5
106
100
AcDbEntity
  8
SCRATCH
100
AcDb2dPolyline
 66
     1
 10
0.0
 20
0.0
 30
0.0
 70
     1
1001
ACAD
1000
ASC_BOUNDS
1002
{
1070
    19
1005
10B
1002
}
  0
VERTEX
  5
107
100
AcDbEntity
  8
SCRATCH
100
AcDbVertex
100
AcDb2dVertex
 10
22.3
 20
16.027
 30
0.0
  0
VERTEX
  5
108
100
AcDbEntity
  8
SCRATCH
100
AcDbVertex
100
AcDb2dVertex
 10
33.2
 20
16.027
 30
0.0
  0
VERTEX
  5
109
100
AcDbEntity
  8
SCRATCH
100
AcDbVertex
100
AcDb2dVertex
 10
33.2
 20
5.327
 30
0.0
  0
VERTEX
  5
10A
100
AcDbEntity
  8
SCRATCH
100
AcDbVertex
100
AcDb2dVertex
 10
22.3
 20
5.327
 30
0.0
  0
SEQEND
  5
11A
100
AcDbEntity
  8
SCRATCH
  0
INSERT
  5
10B
100
AcDbEntity
  8
SCRATCH
100
AcDbBlockReference
  2
*X2
 10
-83.571943
 20
-51.31168
 30
0.0
1001
ACAD
1000
HATCH
1002
{
1070
    19
1000
ANSI31
1040
10.0
1040
0.0
1000
ASC_BOUNDS
1070
     1
1070
     2
1070
     2
1005
101
1005
106
1000
ASC_SEEDPOINT
1011
-127.779811
1021
119.098754
1031
0.0
1002
}
  0
ENDBLK
  5
10D
100
AcDbEntity
  8
AIN
100
AcDbBlockEnd
  0
BLOCK
  5
132
100
AcDbEntity
  8
FOOT
100
AcDbBlockBegin
  2
POST-1
 70
     0
 10
0.0
 20
0.0
 30
0.0
  3
POST-1
  1

  0
CIRCLE
  5
11C
100
AcDbEntity
  8
BUSHING
100
AcDbCircle
 10
5.7
 20
2.5
 30
0.0
 40
0.8
  0
POLYLINE
  5
11D
100
AcDbEntity
  8
BUSHING
  6
HIDDEN
100
AcDb2dPolyline
 66
     1
 10
0.0
 20
0.0
 30
0.0
 70
     1
  0
VERTEX
  5
11E
100
AcDbEntity
  8
BUSHING
  6
HIDDEN
100
AcDbVertex
100
AcDb2dVertex
 10
4.0
 20
1.5
 30
0.0
  0
VERTEX
  5
11F
100
AcDbEntity
  8
BUSHING
  6
HIDDEN
100
AcDbVertex
100
AcDb2dVertex
 10
4.0
 20
8.2
 30
0.0
 42
-0.414214
  0
VERTEX
  5
120
100
AcDbEntity
  8
BUSHING
  6
HIDDEN
100
AcDbVertex
100
AcDb2dVertex
 10
4.5
 20
8.7
 30
0.0
  0
VERTEX
  5
121
100
AcDbEntity
  8
BUSHING
  6
HIDDEN
100
AcDbVertex
100
AcDb2dVertex
 10
6.9
 20
8.7
 30
0.0
 42
-0.414214
  0
VERTEX
  5
122
100
AcDbEntity
  8
BUSHING
  6
HIDDEN
100
AcDbVertex
100
AcDb2dVertex
 10
7.4
 20
8.2
 30
0.0
  0
VERTEX
  5
123
100
AcDbEntity
  8
BUSHING
  6
HIDDEN
100
AcDbVertex
100
AcDb2dVertex
 10
7.4
 20
1.5
 30
0.0
 42
-0.414214
  0
VERTEX
  5
124
100
AcDbEntity
  8
BUSHING
  6
HIDDEN
100
AcDbVertex
100
AcDb2dVertex
 10
6.9
 20
1.0
 30
0.0
  0
VERTEX
  5
125
100
AcDbEntity
  8
BUSHING
  6
HIDDEN
100
AcDbVertex
100
AcDb2dVertex
 10
4.5
 20
1.0
 30
0.0
 42
-0.414214
  0
SEQEND
  5
134
100
AcDbEntity
  8
BUSHING
  6
HIDDEN
  0
LINE
  5
126
100
AcDbEntity
  8
BUSHING
100
AcDbLine
 10
0.5
 20
8.7
 30
0.0
 11
0.5
 21
1.0
 31
0.0
  0
LINE
  5
127
100
AcDbEntity
  8
BUSHING
100
AcDbLine
 10
2.5
 20
8.7
 30
0.0
 11
2.5
 21
1.0
 31
0.0
  0
CIRCLE
  5
128
100
AcDbEntity
  8
BUSHING
100
AcDbCircle
 10
5.7
 20
2.5
 30
0.0
 40
1.7
  0
LINE
  5
129
100
AcDbEntity
  8
BUSHING
100
AcDbLine
 10
0.0
 20
9.7
 30
0.0
 11
0.0
 21
0.0
 31
0.0
  0
LINE
  5
12A
100
AcDbEntity
  8
BUSHING
100
AcDbLine
 10
9.9
 20
9.7
 30
0.0
 11
9.9
 21
0.0
 31
0.0
  0
LINE
  5
12B
100
AcDbEntity
  8
BUSHING
100
AcDbLine
 10
0.0
 20
0.0
 30
0.0
 11
9.9
 21
0.0
 31
0.0
  0
LINE
  5
12C
100
AcDbEntity
  8
BUSHING
100
AcDbLine
 10
0.5
 20
1.0
 30
0.0
 11
2.5
 21
1.0
 31
0.0
  0
LINE
  5
12D
100
AcDbEntity
  8
BUSHING
100
AcDbLine
 10
0.0
 20
9.7
 30
0.0
 11
9.9
 21
9.7
 31
0.0
  0
LINE
  5
12E
100
AcDbEntity
  8
BUSHING
100
AcDbLine
 10
0.5
 20
8.7
 30
0.0
 11
2.5
 21
8.7
 31
0.0
  0
CIRCLE
  5
12F
100
AcDbEntity
  8
BUSHING
100
AcDbCircle
 10
5.7
 20
7.2
 30
0.0
 40
1.7
  0
CIRCLE
  5
130
100
AcDbEntity
  8
BUSHING
100
AcDbCircle
 10
5.7
 20
7.2
 30
0.0
 40
0.8
  0
CIRCLE
  5
131
100
AcDbEntity
  8
BUSHING
100
AcDbCircle
 10
5.7
 20
4.85
 30
0.0
 40
0.5
  0
ENDBLK
  5
133
100
AcDbEntity
  8
FOOT
100
AcDbBlockEnd
  0
BLOCK
  5
142E
100
AcDbEntity
  8
0
100
AcDbBlockBegin
  2
*X5
 70
    65
 10
0.0
 20
0.0
 30
0.0
  3
*X5
  1

  0
LINE
  5
1416
100
AcDbEntity
  8
0
 62
     0
100
AcDbLine
 10
207.002831
 20
76.188076
 30
0.0
 11
207.502831
 21
76.688076
 31
0.0
  0
LINE
  5
1417
100
AcDbEntity
  8
0
 62
     0
100
AcDbLine
 10
215.402831
 20
84.588076
 30
0.0
 11
215.902831
 21
85.088076
 31
0.0
  0
LINE
  5
1418
100
AcDbEntity
  8
0
 62
     0
100
AcDbLine
 10
207.002831
 20
77.955843
 30
0.0
 11
207.502831
 21
78.455843
 31
0.0
  0
LINE
  5
1419
100
AcDbEntity
  8
0
 62
     0
100
AcDbLine
 10
215.32724
 20
86.280252
 30
0.0
 11
215.82724
 21
86.780252
 31
0.0
  0
LINE
  5
141A
100
AcDbEntity
  8
0
 62
     0
100
AcDbLine
 10
207.002831
 20
79.72361
 30
0.0
 11
207.502831
 21
80.22361
 31
0.0
  0
LINE
  5
141B
100
AcDbEntity
  8
0
 62
     0
100
AcDbLine
 10
213.559473
 20
86.280252
 30
0.0
 11
214.059473
 21
86.780252
 31
0.0
  0
LINE
  5
141C
100
AcDbEntity
  8
0
 62
     0
100
AcDbLine
 10
207.002831
 20
81.491377
 30
0.0
 11
207.502831
 21
81.991377
 31
0.0
  0
LINE
  5
141D
100
AcDbEntity
  8
0
 62
     0
100
AcDbLine
 10
211.791706
 20
86.280252
 30
0.0
 11
212.291706
 21
86.780252
 31
0.0
  0
LINE
  5
141E
100
AcDbEntity
  8
0
 62
     0
100
AcDbLine
 10
207.002831
 20
83.259144
 30
0.0
 11
207.502831
 21
83.759144
 31
0.0
  0
LINE
  5
141F
100
AcDbEntity
  8
0
 62
     0
100
AcDbLine
 10
210.023939
 20
86.280252
 30
0.0
 11
210.523939
 21
86.780252
 31
0.0
  0
LINE
  5
1420
100
AcDbEntity
  8
0
 62
     0
100
AcDbLine
 10
207.002831
 20
85.026911
 30
0.0
 11
207.502831
 21
85.526911
 31
0.0
  0
LINE
  5
1421
100
AcDbEntity
  8
0
 62
     0
100
AcDbLine
 10
208.256172
 20
86.280252
 30
0.0
 11
208.756172
 21
86.780252
 31
0.0
  0
LINE
  5
1422
100
AcDbEntity
  8
0
 62
     0
100
AcDbLine
 10
207.002831
 20
74.420309
 30
0.0
 11
207.502831
 21
74.920309
 31
0.0
  0
LINE
  5
1423
100
AcDbEntity
  8
0
 62
     0
100
AcDbLine
 10
215.402831
 20
82.820309
 30
0.0
 11
215.902831
 21
83.320309
 31
0.0
  0
LINE
  5
1424
100
AcDbEntity
  8
0
 62
     0
100
AcDbLine
 10
207.430541
 20
73.080252
 30
0.0
 11
207.930541
 21
73.580252
 31
0.0
  0
LINE
  5
1425
100
AcDbEntity
  8
0
 62
     0
100
AcDbLine
 10
215.402831
 20
81.052543
 30
0.0
 11
215.902831
 21
81.552543
 31
0.0
  0
LINE
  5
1426
100
AcDbEntity
  8
0
 62
     0
100
AcDbLine
 10
209.198308
 20
73.080252
 30
0.0
 11
209.698308
 21
73.580252
 31
0.0
  0
LINE
  5
1427
100
AcDbEntity
  8
0
 62
     0
100
AcDbLine
 10
215.402831
 20
79.284776
 30
0.0
 11
215.902831
 21
79.784776
 31
0.0
  0
LINE
  5
1428
100
AcDbEntity
  8
0
 62
     0
100
AcDbLine
 10
210.966075
 20
73.080252
 30
0.0
 11
211.466075
 21
73.580252
 31
0.0
  0
LINE
  5
1429
100
AcDbEntity
  8
0
 62
     0
100
AcDbLine
 10
215.402831
 20
77.517009
 30
0.0
 11
215.902831
 21
78.017009
 31
0.0
  0
LINE
  5
142A
100
AcDbEntity
  8
0
 62
     0
100
AcDbLine
 10
212.733842
 20
73.080252
 30
0.0
 11
213.233842
 21
73.580252
 31
0.0
  0
LINE
  5
142B
100
AcDbEntity
  8
0
 62
     0
100
AcDbLine
 10
215.402831
 20
75.749242
 30
0.0
 11
215.902831
 21
76.249242
 31
0.0
  0
LINE
  5
142C
100
AcDbEntity
  8
0
 62
     0
100
AcDbLine
 10
214.501609
 20
73.080252
 30
0.0
 11
215.001609
 21
73.580252
 31
0.0
  0
LINE
  5
142D
100
AcDbEntity
  8
0
 62
     0
100
AcDbLine
 10
215.402831
 20
73.981475
 30
0.0
 11
215.902831
 21
74.481475
 31
0.0
  0
ENDBLK
  5
142F
100
AcDbEntity
  8
0
100
AcDbBlockEnd
  0
BLOCK
  5
1449
100
AcDbEntity
  8
0
100
AcDbBlockBegin
  2
*X6
 70
    65
 10
0.0
 20
0.0
 30
0.0
  3
*X6
  1

  0
LINE
  5
1431
100
AcDbEntity
  8
0
 62
     0
100
AcDbLine
 10
207.002831
 20
33.76167
 30
0.0
 11
207.502831
 21
34.26167
 31
0.0
  0
LINE
  5
1432
100
AcDbEntity
  8
0
 62
     0
100
AcDbLine
 10
215.402831
 20
42.16167
 30
0.0
 11
215.902831
 21
42.66167
 31
0.0
  0
LINE
  5
1433
100
AcDbEntity
  8
0
 62
     0
100
AcDbLine
 10
207.002831
 20
35.529437
 30
0.0
 11
207.502831
 21
36.029437
 31
0.0
  0
LINE
  5
1434
100
AcDbEntity
  8
0
 62
     0
100
AcDbLine
 10
215.053647
 20
43.580252
 30
0.0
 11
215.553647
 21
44.080252
 31
0.0
  0
LINE
  5
1435
100
AcDbEntity
  8
0
 62
     0
100
AcDbLine
 10
207.002831
 20
37.297203
 30
0.0
 11
207.502831
 21
37.797203
 31
0.0
  0
LINE
  5
1436
100
AcDbEntity
  8
0
 62
     0
100
AcDbLine
 10
213.28588
 20
43.580252
 30
0.0
 11
213.78588
 21
44.080252
 31
0.0
  0
LINE
  5
1437
100
AcDbEntity
  8
0
 62
     0
100
AcDbLine
 10
207.002831
 20
39.06497
 30
0.0
 11
207.502831
 21
39.56497
 31
0.0
  0
LINE
  5
1438
100
AcDbEntity
  8
0
 62
     0
100
AcDbLine
 10
211.518113
 20
43.580252
 30
0.0
 11
212.018113
 21
44.080252
 31
0.0
  0
LINE
  5
1439
100
AcDbEntity
  8
0
 62
     0
100
AcDbLine
 10
207.002831
 20
40.832737
 30
0.0
 11
207.502831
 21
41.332737
 31
0.0
  0
LINE
  5
143A
100
AcDbEntity
  8
0
 62
     0
100
AcDbLine
 10
209.750346
 20
43.580252
 30
0.0
 11
210.250346
 21
44.080252
 31
0.0
  0
LINE
  5
143B
100
AcDbEntity
  8
0
 62
     0
100
AcDbLine
 10
207.002831
 20
42.600504
 30
0.0
 11
207.502831
 21
43.100504
 31
0.0
  0
LINE
  5
143C
100
AcDbEntity
  8
0
 62
     0
100
AcDbLine
 10
207.982579
 20
43.580252
 30
0.0
 11
208.482579
 21
44.080252
 31
0.0
  0
LINE
  5
143D
100
AcDbEntity
  8
0
 62
     0
100
AcDbLine
 10
207.002831
 20
31.993903
 30
0.0
 11
207.502831
 21
32.493903
 31
0.0
  0
LINE
  5
143E
100
AcDbEntity
  8
0
 62
     0
100
AcDbLine
 10
215.402831
 20
40.393903
 30
0.0
 11
215.902831
 21
40.893903
 31
0.0
  0
LINE
  5
143F
100
AcDbEntity
  8
0
 62
     0
100
AcDbLine
 10
207.156948
 20
30.380252
 30
0.0
 11
207.656948
 21
30.880252
 31
0.0
  0
LINE
  5
1440
100
AcDbEntity
  8
0
 62
     0
100
AcDbLine
 10
215.402831
 20
38.626136
 30
0.0
 11
215.902831
 21
39.126136
 31
0.0
  0
LINE
  5
1441
100
AcDbEntity
  8
0
 62
     0
100
AcDbLine
 10
208.924715
 20
30.380252
 30
0.0
 11
209.424715
 21
30.880252
 31
0.0
  0
LINE
  5
1442
100
AcDbEntity
  8
0
 62
     0
100
AcDbLine
 10
215.402831
 20
36.858369
 30
0.0
 11
215.902831
 21
37.358369
 31
0.0
  0
LINE
  5
1443
100
AcDbEntity
  8
0
 62
     0
100
AcDbLine
 10
210.692482
 20
30.380252
 30
0.0
 11
211.192482
 21
30.880252
 31
0.0
  0
LINE
  5
1444
100
AcDbEntity
  8
0
 62
     0
100
AcDbLine
 10
215.402831
 20
35.090602
 30
0.0
 11
215.902831
 21
35.590602
 31
0.0
  0
LINE
  5
1445
100
AcDbEntity
  8
0
 62
     0
100
AcDbLine
 10
212.460249
 20
30.380252
 30
0.0
 11
212.960249
 21
30.880252
 31
0.0
  0
LINE
  5
1446
100
AcDbEntity
  8
0
 62
     0
100
AcDbLine
 10
215.402831
 20
33.322835
 30
0.0
 11
215.902831
 21
33.822835
 31
0.0
  0
LINE
  5
1447
100
AcDbEntity
  8
0
 62
     0
100
AcDbLine
 10
214.228015
 20
30.380252
 30
0.0
 11
214.728015
 21
30.880252
 31
0.0
  0
LINE
  5
1448
100
AcDbEntity
  8
0
 62
     0
100
AcDbLine
 10
215.402831
 20
31.555068
 30
0.0
 11
215.902831
 21
32.055068
 31
0.0
  0
ENDBLK
  5
144A
100
AcDbEntity
  8
0
100
AcDbBlockEnd
  0
BLOCK
  5
14AE
100
AcDbEntity
  8
KEVLAR
100
AcDbBlockBegin
  2
HYBR-3
 70
     0
 10
0.0
 20
0.0
 30
0.0
  3
HYBR-3
  1

  0
LINE
  5
144C
100
AcDbEntity
  8
SCRATCH
 62
     4
100
AcDbLine
 10
0.0
 20
66.3
 30
0.0
 11
38.0
 21
66.3
 31
0.0
  0
POLYLINE
  5
144D
100
AcDbEntity
  8
SCRATCH
100
AcDb2dPolyline
 66
     1
 10
0.0
 20
0.0
 30
0.0
 70
     1
  0
VERTEX
  5
144E
100
AcDbEntity
  8
SCRATCH
100
AcDbVertex
100
AcDb2dVertex
 10
7.6
 20
65.6
 30
0.0
  0
VERTEX
  5
144F
100
AcDbEntity
  8
SCRATCH
100
AcDbVertex
100
AcDb2dVertex
 10
17.6
 20
65.6
 30
0.0
  0
VERTEX
  5
1450
100
AcDbEntity
  8
SCRATCH
100
AcDbVertex
100
AcDb2dVertex
 10
17.6
 20
59.2
 30
0.0
  0
VERTEX
  5
1451
100
AcDbEntity
  8
SCRATCH
100
AcDbVertex
100
AcDb2dVertex
 10
7.6
 20
59.2
 30
0.0
  0
SEQEND
  5
14B0
100
AcDbEntity
  8
SCRATCH
  0
POLYLINE
  5
1452
100
AcDbEntity
  8
SCRATCH
100
AcDb2dPolyline
 66
     1
 10
0.0
 20
0.0
 30
0.0
 70
     1
  0
VERTEX
  5
1453
100
AcDbEntity
  8
SCRATCH
100
AcDbVertex
100
AcDb2dVertex
 10
7.6
 20
59.1
 30
0.0
  0
VERTEX
  5
1454
100
AcDbEntity
  8
SCRATCH
100
AcDbVertex
100
AcDb2dVertex
 10
17.6
 20
59.1
 30
0.0
  0
VERTEX
  5
1455
100
AcDbEntity
  8
SCRATCH
100
AcDbVertex
100
AcDb2dVertex
 10
17.6
 20
52.7
 30
0.0
  0
VERTEX
  5
1456
100
AcDbEntity
  8
SCRATCH
100
AcDbVertex
100
AcDb2dVertex
 10
7.6
 20
52.7
 30
0.0
  0
SEQEND
  5
14B1
100
AcDbEntity
  8
SCRATCH
  0
POLYLINE
  5
1457
100
AcDbEntity
  8
SCRATCH
100
AcDb2dPolyline
 66
     1
 10
0.0
 20
0.0
 30
0.0
 70
     1
  0
VERTEX
  5
1458
100
AcDbEntity
  8
SCRATCH
100
AcDbVertex
100
AcDb2dVertex
 10
7.6
 20
52.6
 30
0.0
  0
VERTEX
  5
1459
100
AcDbEntity
  8
SCRATCH
100
AcDbVertex
100
AcDb2dVertex
 10
17.6
 20
52.6
 30
0.0
  0
VERTEX
  5
145A
100
AcDbEntity
  8
SCRATCH
100
AcDbVertex
100
AcDb2dVertex
 10
17.6
 20
46.2
 30
0.0
  0
VERTEX
  5
145B
100
AcDbEntity
  8
SCRATCH
100
AcDbVertex
100
AcDb2dVertex
 10
7.6
 20
46.2
 30
0.0
  0
SEQEND
  5
14B2
100
AcDbEntity
  8
SCRATCH
  0
POLYLINE
  5
145C
100
AcDbEntity
  8
SCRATCH
100
AcDb2dPolyline
 66
     1
 10
0.0
 20
0.0
 30
0.0
 70
     1
  0
VERTEX
  5
145D
100
AcDbEntity
  8
SCRATCH
100
AcDbVertex
100
AcDb2dVertex
 10
7.6
 20
46.1
 30
0.0
  0
VERTEX
  5
145E
100
AcDbEntity
  8
SCRATCH
100
AcDbVertex
100
AcDb2dVertex
 10
17.6
 20
46.1
 30
0.0
  0
VERTEX
  5
145F
100
AcDbEntity
  8
SCRATCH
100
AcDbVertex
100
AcDb2dVertex
 10
17.6
 20
39.7
 30
0.0
  0
VERTEX
  5
1460
100
AcDbEntity
  8
SCRATCH
100
AcDbVertex
100
AcDb2dVertex
 10
7.6
 20
39.7
 30
0.0
  0
SEQEND
  5
14B3
100
AcDbEntity
  8
SCRATCH
  0
POLYLINE
  5
1461
100
AcDbEntity
  8
SCRATCH
100
AcDb2dPolyline
 66
     1
 10
0.0
 20
0.0
 30
0.0
 70
     1
  0
VERTEX
  5
1462
100
AcDbEntity
  8
SCRATCH
100
AcDbVertex
100
AcDb2dVertex
 10
7.6
 20
39.6
 30
0.0
  0
VERTEX
  5
1463
100
AcDbEntity
  8
SCRATCH
100
AcDbVertex
100
AcDb2dVertex
 10
17.6
 20
39.6
 30
0.0
  0
VERTEX
  5
1464
100
AcDbEntity
  8
SCRATCH
100
AcDbVertex
100
AcDb2dVertex
 10
17.6
 20
33.2
 30
0.0
  0
VERTEX
  5
1465
100
AcDbEntity
  8
SCRATCH
100
AcDbVertex
100
AcDb2dVertex
 10
7.6
 20
33.2
 30
0.0
  0
SEQEND
  5
14B4
100
AcDbEntity
  8
SCRATCH
  0
POLYLINE
  5
1466
100
AcDbEntity
  8
SCRATCH
100
AcDb2dPolyline
 66
     1
 10
0.0
 20
0.0
 30
0.0
 70
     1
  0
VERTEX
  5
1467
100
AcDbEntity
  8
SCRATCH
100
AcDbVertex
100
AcDb2dVertex
 10
7.6
 20
33.1
 30
0.0
  0
VERTEX
  5
1468
100
AcDbEntity
  8
SCRATCH
100
AcDbVertex
100
AcDb2dVertex
 10
17.6
 20
33.1
 30
0.0
  0
VERTEX
  5
1469
100
AcDbEntity
  8
SCRATCH
100
AcDbVertex
100
AcDb2dVertex
 10
17.6
 20
26.7
 30
0.0
  0
VERTEX
  5
146A
100
AcDbEntity
  8
SCRATCH
100
AcDbVertex
100
AcDb2dVertex
 10
7.6
 20
26.7
 30
0.0
  0
SEQEND
  5
14B5
100
AcDbEntity
  8
SCRATCH
  0
POLYLINE
  5
146B
100
AcDbEntity
  8
SCRATCH
100
AcDb2dPolyline
 66
     1
 10
0.0
 20
0.0
 30
0.0
 70
     1
  0
VERTEX
  5
146C
100
AcDbEntity
  8
SCRATCH
100
AcDbVertex
100
AcDb2dVertex
 10
7.6
 20
26.6
 30
0.0
  0
VERTEX
  5
146D
100
AcDbEntity
  8
SCRATCH
100
AcDbVertex
100
AcDb2dVertex
 10
17.6
 20
26.6
 30
0.0
  0
VERTEX
  5
146E
100
AcDbEntity
  8
SCRATCH
100
AcDbVertex
100
AcDb2dVertex
 10
17.6
 20
20.2
 30
0.0
  0
VERTEX
  5
146F
100
AcDbEntity
  8
SCRATCH
100
AcDbVertex
100
AcDb2dVertex
 10
7.6
 20
20.2
 30
0.0
  0
SEQEND
  5
14B6
100
AcDbEntity
  8
SCRATCH
  0
POLYLINE
  5
1470
100
AcDbEntity
  8
SCRATCH
100
AcDb2dPolyline
 66
     1
 10
0.0
 20
0.0
 30
0.0
 70
     1
  0
VERTEX
  5
1471
100
AcDbEntity
  8
SCRATCH
100
AcDbVertex
100
AcDb2dVertex
 10
7.6
 20
20.1
 30
0.0
  0
VERTEX
  5
1472
100
AcDbEntity
  8
SCRATCH
100
AcDbVertex
100
AcDb2dVertex
 10
17.6
 20
20.1
 30
0.0
  0
VERTEX
  5
1473
100
AcDbEntity
  8
SCRATCH
100
AcDbVertex
100
AcDb2dVertex
 10
17.6
 20
13.7
 30
0.0
  0
VERTEX
  5
1474
100
AcDbEntity
  8
SCRATCH
100
AcDbVertex
100
AcDb2dVertex
 10
7.6
 20
13.7
 30
0.0
  0
SEQEND
  5
14B7
100
AcDbEntity
  8
SCRATCH
  0
POLYLINE
  5
1475
100
AcDbEntity
  8
SCRATCH
100
AcDb2dPolyline
 66
     1
 10
0.0
 20
0.0
 30
0.0
 70
     1
  0
VERTEX
  5
1476
100
AcDbEntity
  8
SCRATCH
100
AcDbVertex
100
AcDb2dVertex
 10
7.6
 20
13.6
 30
0.0
  0
VERTEX
  5
1477
100
AcDbEntity
  8
SCRATCH
100
AcDbVertex
100
AcDb2dVertex
 10
17.6
 20
13.6
 30
0.0
  0
VERTEX
  5
1478
100
AcDbEntity
  8
SCRATCH
100
AcDbVertex
100
AcDb2dVertex
 10
17.6
 20
7.2
 30
0.0
  0
VERTEX
  5
1479
100
AcDbEntity
  8
SCRATCH
100
AcDbVertex
100
AcDb2dVertex
 10
7.6
 20
7.2
 30
0.0
  0
SEQEND
  5
14B8
100
AcDbEntity
  8
SCRATCH
  0
POLYLINE
  5
147A
100
AcDbEntity
  8
SCRATCH
100
AcDb2dPolyline
 66
     1
 10
0.0
 20
0.0
 30
0.0
 70
     1
  0
VERTEX
  5
147B
100
AcDbEntity
  8
SCRATCH
100
AcDbVertex
100
AcDb2dVertex
 10
7.6
 20
7.1
 30
0.0
  0
VERTEX
  5
147C
100
AcDbEntity
  8
SCRATCH
100
AcDbVertex
100
AcDb2dVertex
 10
17.6
 20
7.1
 30
0.0
  0
VERTEX
  5
147D
100
AcDbEntity
  8
SCRATCH
100
AcDbVertex
100
AcDb2dVertex
 10
17.6
 20
0.7
 30
0.0
  0
VERTEX
  5
147E
100
AcDbEntity
  8
SCRATCH
100
AcDbVertex
100
AcDb2dVertex
 10
7.6
 20
0.7
 30
0.0
  0
SEQEND
  5
14B9
100
AcDbEntity
  8
SCRATCH
  0
LINE
  5
147F
100
AcDbEntity
  8
SCRATCH
 62
     4
100
AcDbLine
 10
0.0
 20
0.0
 30
0.0
 11
38.0
 21
0.0
 31
0.0
  0
LINE
  5
1480
100
AcDbEntity
  8
SCRATCH
 62
     4
100
AcDbLine
 10
38.0
 20
66.3
 30
0.0
 11
38.0
 21
0.0
 31
0.0
  0
LINE
  5
1481
100
AcDbEntity
  8
SCRATCH
 62
     4
100
AcDbLine
 10
0.0
 20
66.3
 30
0.0
 11
0.0
 21
0.0
 31
0.0
  0
LINE
  5
1482
100
AcDbEntity
  8
SCRATCH
100
AcDbLine
 10
37.0
 20
48.15
 30
0.0
 11
37.0
 21
27.51
 31
0.0
  0
LINE
  5
1483
100
AcDbEntity
  8
SCRATCH
100
AcDbLine
 10
37.0
 20
27.51
 30
0.0
 11
31.0
 21
27.51
 31
0.0
  0
LINE
  5
1484
100
AcDbEntity
  8
SCRATCH
100
AcDbLine
 10
37.0
 20
48.15
 30
0.0
 11
31.0
 21
48.15
 31
0.0
  0
LINE
  5
1485
100
AcDbEntity
  8
SCRATCH
100
AcDbLine
 10
31.0
 20
48.15
 30
0.0
 11
31.0
 21
27.51
 31
0.0
  0
POLYLINE
  5
1486
100
AcDbEntity
  8
SCRATCH
 62
     4
100
AcDb2dPolyline
 66
     1
 10
0.0
 20
0.0
 30
0.0
 70
     1
  0
VERTEX
  5
1487
100
AcDbEntity
  8
SCRATCH
 62
     4
100
AcDbVertex
100
AcDb2dVertex
 10
25.1
 20
8.45
 30
0.0
  0
VERTEX
  5
1488
100
AcDbEntity
  8
SCRATCH
 62
     4
100
AcDbVertex
100
AcDb2dVertex
 10
25.1
 20
15.15
 30
0.0
 42
-0.414214
  0
VERTEX
  5
1489
100
AcDbEntity
  8
SCRATCH
 62
     4
100
AcDbVertex
100
AcDb2dVertex
 10
26.1
 20
16.15
 30
0.0
  0
VERTEX
  5
148A
100
AcDbEntity
  8
SCRATCH
 62
     4
100
AcDbVertex
100
AcDb2dVertex
 10
28.5
 20
16.15
 30
0.0
 42
-0.414214
  0
VERTEX
  5
148B
100
AcDbEntity
  8
SCRATCH
 62
     4
100
AcDbVertex
100
AcDb2dVertex
 10
29.5
 20
15.15
 30
0.0
  0
VERTEX
  5
148C
100
AcDbEntity
  8
SCRATCH
 62
     4
100
AcDbVertex
100
AcDb2dVertex
 10
29.5
 20
8.45
 30
0.0
 42
-0.414214
  0
VERTEX
  5
148D
100
AcDbEntity
  8
SCRATCH
 62
     4
100
AcDbVertex
100
AcDb2dVertex
 10
28.5
 20
7.45
 30
0.0
  0
VERTEX
  5
148E
100
AcDbEntity
  8
SCRATCH
 62
     4
100
AcDbVertex
100
AcDb2dVertex
 10
26.1
 20
7.45
 30
0.0
 42
-0.414214
  0
SEQEND
  5
14BA
100
AcDbEntity
  8
SCRATCH
 62
     4
  0
POLYLINE
  5
148F
100
AcDbEntity
  8
SCRATCH
 62
     4
100
AcDb2dPolyline
 66
     1
 10
0.0
 20
0.0
 30
0.0
 70
     1
  0
VERTEX
  5
1490
100
AcDbEntity
  8
SCRATCH
 62
     4
100
AcDbVertex
100
AcDb2dVertex
 10
25.1
 20
51.15
 30
0.0
  0
VERTEX
  5
1491
100
AcDbEntity
  8
SCRATCH
 62
     4
100
AcDbVertex
100
AcDb2dVertex
 10
25.1
 20
57.85
 30
0.0
 42
-0.414214
  0
VERTEX
  5
1492
100
AcDbEntity
  8
SCRATCH
 62
     4
100
AcDbVertex
100
AcDb2dVertex
 10
26.1
 20
58.85
 30
0.0
  0
VERTEX
  5
1493
100
AcDbEntity
  8
SCRATCH
 62
     4
100
AcDbVertex
100
AcDb2dVertex
 10
28.5
 20
58.85
 30
0.0
 42
-0.414214
  0
VERTEX
  5
1494
100
AcDbEntity
  8
SCRATCH
 62
     4
100
AcDbVertex
100
AcDb2dVertex
 10
29.5
 20
57.85
 30
0.0
  0
VERTEX
  5
1495
100
AcDbEntity
  8
SCRATCH
 62
     4
100
AcDbVertex
100
AcDb2dVertex
 10
29.5
 20
51.15
 30
0.0
 42
-0.414214
  0
VERTEX
  5
1496
100
AcDbEntity
  8
SCRATCH
 62
     4
100
AcDbVertex
100
AcDb2dVertex
 10
28.5
 20
50.15
 30
0.0
  0
VERTEX
  5
1497
100
AcDbEntity
  8
SCRATCH
 62
     4
100
AcDbVertex
100
AcDb2dVertex
 10
26.1
 20
50.15
 30
0.0
 42
-0.414214
  0
SEQEND
  5
14BB
100
AcDbEntity
  8
SCRATCH
 62
     4
  0
POLYLINE
  5
1498
100
AcDbEntity
  8
SCRATCH
100
AcDb2dPolyline
 66
     1
 10
0.0
 20
0.0
 30
0.0
 70
     1
1001
ACAD
1000
ASC_BOUNDS
1002
{
1070
    19
1005
0
1005
14A2
1002
}
  0
VERTEX
  5
1499
100
AcDbEntity
  8
SCRATCH
100
AcDbVertex
100
AcDb2dVertex
 10
22.6
 20
60.85
 30
0.0
1001
ACAD
1000
ASC_BOUNDS
1002
{
1070
    19
1005
0
1002
}
  0
VERTEX
  5
149A
100
AcDbEntity
  8
SCRATCH
100
AcDbVertex
100
AcDb2dVertex
 10
30.5
 20
60.85
 30
0.0
1001
ACAD
1000
ASC_BOUNDS
1002
{
1070
    19
1005
0
1002
}
  0
VERTEX
  5
149B
100
AcDbEntity
  8
SCRATCH
100
AcDbVertex
100
AcDb2dVertex
 10
30.5
 20
48.15
 30
0.0
  0
VERTEX
  5
149C
100
AcDbEntity
  8
SCRATCH
100
AcDbVertex
100
AcDb2dVertex
 10
22.6
 20
48.15
 30
0.0
  0
SEQEND
  5
14BC
100
AcDbEntity
  8
SCRATCH
1001
ACAD
1000
ASC_BOUNDS
1002
{
1070
    19
1005
0
1002
}
  0
POLYLINE
  5
149D
100
AcDbEntity
  8
SCRATCH
100
AcDb2dPolyline
 66
     1
 10
0.0
 20
0.0
 30
0.0
 70
     1
1001
ACAD
1000
ASC_BOUNDS
1002
{
1070
    19
1005
0
1005
14A2
1002
}
  0
VERTEX
  5
149E
100
AcDbEntity
  8
SCRATCH
100
AcDbVertex
100
AcDb2dVertex
 10
22.1
 20
61.35
 30
0.0
1001
ACAD
1000
ASC_BOUNDS
1002
{
1070
    19
1005
0
1002
}
  0
VERTEX
  5
149F
100
AcDbEntity
  8
SCRATCH
100
AcDbVertex
100
AcDb2dVertex
 10
31.0
 20
61.35
 30
0.0
1001
ACAD
1000
ASC_BOUNDS
1002
{
1070
    19
1005
0
1002
}
  0
VERTEX
  5
14A0
100
AcDbEntity
  8
SCRATCH
100
AcDbVertex
100
AcDb2dVertex
 10
31.0
 20
47.65
 30
0.0
1001
ACAD
1000
ASC_BOUNDS
1002
{
1070
    19
1005
0
1002
}
  0
VERTEX
  5
14A1
100
AcDbEntity
  8
SCRATCH
100
AcDbVertex
100
AcDb2dVertex
 10
22.1
 20
47.65
 30
0.0
1001
ACAD
1000
ASC_BOUNDS
1002
{
1070
    19
1005
0
1002
}
  0
SEQEND
  5
14BD
100
AcDbEntity
  8
SCRATCH
1001
ACAD
1000
ASC_BOUNDS
1002
{
1070
    19
1005
0
1002
}
  0
INSERT
  5
14A2
100
AcDbEntity
  8
SCRATCH
100
AcDbBlockReference
  2
*X5
 10
-184.902831
 20
-25.430252
 30
0.0
1001
ACAD
1000
HATCH
1002
{
1070
    19
1000
ANSI31
1040
10.0
1040
0.0
1000
ASC_BOUNDS
1070
     1
1070
     2
1070
     2
1005
149D
1005
1498
1000
ASC_SEEDPOINT
1011
25.483139
1021
8.333139
1031
0.0
1002
}
  0
POLYLINE
  5
14A3
100
AcDbEntity
  8
SCRATCH
100
AcDb2dPolyline
 66
     1
 10
0.0
 20
0.0
 30
0.0
 70
     1
1001
ACAD
1000
ASC_BOUNDS
1002
{
1070
    19
1005
14AD
1002
}
  0
VERTEX
  5
14A4
100
AcDbEntity
  8
SCRATCH
100
AcDbVertex
100
AcDb2dVertex
 10
22.6
 20
18.15
 30
0.0
1001
ACAD
1000
ASC_BOUNDS
1002
{
1070
    19
1002
}
  0
VERTEX
  5
14A5
100
AcDbEntity
  8
SCRATCH
100
AcDbVertex
100
AcDb2dVertex
 10
30.5
 20
18.15
 30
0.0
1001
ACAD
1000
ASC_BOUNDS
1002
{
1070
    19
1002
}
  0
VERTEX
  5
14A6
100
AcDbEntity
  8
SCRATCH
100
AcDbVertex
100
AcDb2dVertex
 10
30.5
 20
5.45
 30
0.0
  0
VERTEX
  5
14A7
100
AcDbEntity
  8
SCRATCH
100
AcDbVertex
100
AcDb2dVertex
 10
22.6
 20
5.45
 30
0.0
  0
SEQEND
  5
14BE
100
AcDbEntity
  8
SCRATCH
1001
ACAD
1000
ASC_BOUNDS
1002
{
1070
    19
1002
}
  0
POLYLINE
  5
14A8
100
AcDbEntity
  8
SCRATCH
100
AcDb2dPolyline
 66
     1
 10
0.0
 20
0.0
 30
0.0
 70
     1
1001
ACAD
1000
ASC_BOUNDS
1002
{
1070
    19
1005
14AD
1002
}
  0
VERTEX
  5
14A9
100
AcDbEntity
  8
SCRATCH
100
AcDbVertex
100
AcDb2dVertex
 10
22.1
 20
18.65
 30
0.0
1001
ACAD
1000
ASC_BOUNDS
1002
{
1070
    19
1002
}
  0
VERTEX
  5
14AA
100
AcDbEntity
  8
SCRATCH
100
AcDbVertex
100
AcDb2dVertex
 10
31.0
 20
18.65
 30
0.0
1001
ACAD
1000
ASC_BOUNDS
1002
{
1070
    19
1002
}
  0
VERTEX
  5
14AB
100
AcDbEntity
  8
SCRATCH
100
AcDbVertex
100
AcDb2dVertex
 10
31.0
 20
4.95
 30
0.0
1001
ACAD
1000
ASC_BOUNDS
1002
{
1070
    19
1002
}
  0
VERTEX
  5
14AC
100
AcDbEntity
  8
SCRATCH
100
AcDbVertex
100
AcDb2dVertex
 10
22.1
 20
4.95
 30
0.0
1001
ACAD
1000
ASC_BOUNDS
1002
{
1070
    19
1002
}
  0
SEQEND
  5
14BF
100
AcDbEntity
  8
SCRATCH
1001
ACAD
1000
ASC_BOUNDS
1002
{
1070
    19
1002
}
  0
INSERT
  5
14AD
100
AcDbEntity
  8
SCRATCH
100
AcDbBlockReference
  2
*X6
 10
-184.902831
 20
-25.430252
 30
0.0
1001
ACAD
1000
HATCH
1002
{
1070
    19
1000
ANSI31
1040
10.0
1040
0.0
1000
ASC_BOUNDS
1070
     1
1070
     2
1070
     2
1005
14A8
1005
14A3
1000
ASC_SEEDPOINT
1011
25.483139
1021
8.333139
1031
0.0
1002
}
  0
ENDBLK
  5
14AF
100
AcDbEntity
  8
KEVLAR
100
AcDbBlockEnd
  0
BLOCK
  5
14D7
100
AcDbEntity
  8
BUSHING
100
AcDbBlockBegin
  2
POST-3
 70
     0
 10
0.0
 20
0.0
 30
0.0
  3
POST-3
  1

  0
CIRCLE
  5
14C1
100
AcDbEntity
  8
BUSHING
100
AcDbCircle
 10
4.7
 20
6.35
 30
0.0
 40
0.5
  0
LINE
  5
14C2
100
AcDbEntity
  8
BUSHING
100
AcDbLine
 10
7.9
 20
12.7
 30
0.0
 11
7.9
 21
0.0
 31
0.0
  0
LINE
  5
14C3
100
AcDbEntity
  8
BUSHING
100
AcDbLine
 10
2.5
 20
11.7
 30
0.0
 11
2.5
 21
1.0
 31
0.0
  0
LINE
  5
14C4
100
AcDbEntity
  8
BUSHING
100
AcDbLine
 10
0.5
 20
11.7
 30
0.0
 11
0.5
 21
1.0
 31
0.0
  0
POLYLINE
  5
14C5
100
AcDbEntity
  8
BUSHING
  6
HIDDEN
100
AcDb2dPolyline
 66
     1
 10
0.0
 20
0.0
 30
0.0
 70
     1
  0
VERTEX
  5
14C6
100
AcDbEntity
  8
BUSHING
  6
HIDDEN
100
AcDbVertex
100
AcDb2dVertex
 10
3.0
 20
3.0
 30
0.0
  0
VERTEX
  5
14C7
100
AcDbEntity
  8
BUSHING
  6
HIDDEN
100
AcDbVertex
100
AcDb2dVertex
 10
3.0
 20
9.7
 30
0.0
 42
-0.414214
  0
VERTEX
  5
14C8
100
AcDbEntity
  8
BUSHING
  6
HIDDEN
100
AcDbVertex
100
AcDb2dVertex
 10
3.5
 20
10.2
 30
0.0
  0
VERTEX
  5
14C9
100
AcDbEntity
  8
BUSHING
  6
HIDDEN
100
AcDbVertex
100
AcDb2dVertex
 10
5.9
 20
10.2
 30
0.0
 42
-0.414214
  0
VERTEX
  5
14CA
100
AcDbEntity
  8
BUSHING
  6
HIDDEN
100
AcDbVertex
100
AcDb2dVertex
 10
6.4
 20
9.7
 30
0.0
  0
VERTEX
  5
14CB
100
AcDbEntity
  8
BUSHING
  6
HIDDEN
100
AcDbVertex
100
AcDb2dVertex
 10
6.4
 20
3.0
 30
0.0
 42
-0.414214
  0
VERTEX
  5
14CC
100
AcDbEntity
  8
BUSHING
  6
HIDDEN
100
AcDbVertex
100
AcDb2dVertex
 10
5.9
 20
2.5
 30
0.0
  0
VERTEX
  5
14CD
100
AcDbEntity
  8
BUSHING
  6
HIDDEN
100
AcDbVertex
100
AcDb2dVertex
 10
3.5
 20
2.5
 30
0.0
 42
-0.414214
  0
SEQEND
  5
14D9
100
AcDbEntity
  8
BUSHING
  6
HIDDEN
  0
LINE
  5
14CE
100
AcDbEntity
  8
BUSHING
100
AcDbLine
 10
0.0
 20
12.7
 30
0.0
 11
0.0
 21
0.0
 31
0.0
  0
LINE
  5
14CF
100
AcDbEntity
  8
BUSHING
100
AcDbLine
 10
0.0
 20
0.0
 30
0.0
 11
7.9
 21
0.0
 31
0.0
  0
LINE
  5
14D0
100
AcDbEntity
  8
BUSHING
100
AcDbLine
 10
0.5
 20
1.0
 30
0.0
 11
2.5
 21
1.0
 31
0.0
  0
CIRCLE
  5
14D1
100
AcDbEntity
  8
BUSHING
100
AcDbCircle
 10
4.7
 20
4.0
 30
0.0
 40
0.8
  0
CIRCLE
  5
14D2
100
AcDbEntity
  8
BUSHING
100
AcDbCircle
 10
4.7
 20
4.0
 30
0.0
 40
1.7
  0
LINE
  5
14D3
100
AcDbEntity
  8
BUSHING
100
AcDbLine
 10
0.0
 20
12.7
 30
0.0
 11
7.9
 21
12.7
 31
0.0
  0
LINE
  5
14D4
100
AcDbEntity
  8
BUSHING
100
AcDbLine
 10
0.5
 20
11.7
 30
0.0
 11
2.5
 21
11.7
 31
0.0
  0
CIRCLE
  5
14D5
100
AcDbEntity
  8
BUSHING
100
AcDbCircle
 10
4.7
 20
8.7
 30
0.0
 40
0.8
  0
CIRCLE
  5
14D6
100
AcDbEntity
  8
BUSHING
100
AcDbCircle
 10
4.7
 20
8.7
 30
0.0
 40
1.7
  0
ENDBLK
  5
14D8
100
AcDbEntity
  8
BUSHING
100
AcDbBlockEnd
  0
BLOCK
  5
1E87
100
AcDbEntity
  8
0
100
AcDbBlockBegin
  2
*D9
 70
    65
 10
0.0
 20
0.0
 30
0.0
  3
*D9
  1

  0
LINE
  5
1E88
100
AcDbEntity
  8
0
  6
BYBLOCK
 62
     0
100
AcDbLine
 10
184.182549
 20
174.850836
 30
0.0
 11
184.182549
 21
193.158848
 31
0.0
  0
LINE
  5
1E89
100
AcDbEntity
  8
0
  6
BYBLOCK
 62
     0
100
AcDbLine
 10
202.582512
 20
175.940836
 30
0.0
 11
202.582512
 21
193.158848
 31
0.0
  0
LINE
  5
1E8A
100
AcDbEntity
  8
0
  6
BYBLOCK
 62
     0
100
AcDbLine
 10
182.832549
 20
191.808848
 30
0.0
 11
181.482549
 21
191.808848
 31
0.0
  0
LINE
  5
1E8B
100
AcDbEntity
  8
0
  6
BYBLOCK
 62
     0
100
AcDbLine
 10
203.932512
 20
191.808848
 30
0.0
 11
205.282512
 21
191.808848
 31
0.0
  0
SOLID
  5
1E8C
100
AcDbEntity
  8
0
  6
BYBLOCK
 62
     0
100
AcDbTrace
 10
182.832549
 20
192.033848
 30
0.0
 11
182.832549
 21
191.583848
 31
0.0
 12
184.182549
 22
191.808848
 32
0.0
 13
184.182549
 23
191.808848
 33
0.0
  0
SOLID
  5
1E8D
100
AcDbEntity
  8
0
  6
BYBLOCK
 62
     0
100
AcDbTrace
 10
203.932512
 20
192.033848
 30
0.0
 11
203.932512
 21
191.583848
 31
0.0
 12
202.582512
 22
191.808848
 32
0.0
 13
202.582512
 23
191.808848
 33
0.0
  0
MTEXT
  5
1E8E
100
AcDbEntity
  8
0
  6
BYBLOCK
 62
     0
100
AcDbMText
 10
219.082512
 20
191.808848
 30
0.0
 40
2.25
 41
0.0
 71
     5
 72
     1
  1
\A1;18.40mm[0.724"]
  0
POINT
  5
1E8F
100
AcDbEntity
  8
DEFPOINTS
  6
BYBLOCK
 62
     0
100
AcDbPoint
 10
184.182549
 20
174.382086
 30
0.0
  0
POINT
  5
1E90
100
AcDbEntity
  8
DEFPOINTS
  6
BYBLOCK
 62
     0
100
AcDbPoint
 10
202.582512
 20
175.472086
 30
0.0
  0
POINT
  5
1E91
100
AcDbEntity
  8
DEFPOINTS
  6
BYBLOCK
 62
     0
100
AcDbPoint
 10
202.582512
 20
191.808848
 30
0.0
  0
ENDBLK
  5
1E92
100
AcDbEntity
  8
0
100
AcDbBlockEnd
  0
BLOCK
  5
1789
100
AcDbEntity
  8
0
100
AcDbBlockBegin
  2
*D10
 70
    65
 10
0.0
 20
0.0
 30
0.0
  3
*D10
  1

  0
LINE
  5
178A
100
AcDbEntity
  8
0
  6
BYBLOCK
 62
     0
100
AcDbLine
 10
186.301149
 20
195.874361
 30
0.0
 11
186.301149
 21
203.38235
 31
0.0
  0
LINE
  5
178B
100
AcDbEntity
  8
0
  6
BYBLOCK
 62
     0
100
AcDbLine
 10
181.301149
 20
195.174361
 30
0.0
 11
181.301149
 21
203.38235
 31
0.0
  0
LINE
  5
178C
100
AcDbEntity
  8
0
  6
BYBLOCK
 62
     0
100
AcDbLine
 10
187.651149
 20
202.03235
 30
0.0
 11
189.001149
 21
202.03235
 31
0.0
  0
LINE
  5
178D
100
AcDbEntity
  8
0
  6
BYBLOCK
 62
     0
100
AcDbLine
 10
179.951149
 20
202.03235
 30
0.0
 11
178.601149
 21
202.03235
 31
0.0
  0
SOLID
  5
178E
100
AcDbEntity
  8
0
  6
BYBLOCK
 62
     0
100
AcDbTrace
 10
187.651149
 20
202.25735
 30
0.0
 11
187.651149
 21
201.80735
 31
0.0
 12
186.301149
 22
202.03235
 32
0.0
 13
186.301149
 23
202.03235
 33
0.0
  0
SOLID
  5
178F
100
AcDbEntity
  8
0
  6
BYBLOCK
 62
     0
100
AcDbTrace
 10
179.951149
 20
202.25735
 30
0.0
 11
179.951149
 21
201.80735
 31
0.0
 12
181.301149
 22
202.03235
 32
0.0
 13
181.301149
 23
202.03235
 33
0.0
  0
MTEXT
  5
1790
100
AcDbEntity
  8
0
  6
BYBLOCK
 62
     0
100
AcDbMText
 10
164.801149
 20
202.03235
 30
0.0
 40
2.25
 41
0.0
 71
     5
 72
     1
  1
\A1;5.00mm[0.197"]
  0
POINT
  5
1791
100
AcDbEntity
  8
DEFPOINTS
  6
BYBLOCK
 62
     0
100
AcDbPoint
 10
186.301149
 20
195.405611
 30
0.0
  0
POINT
  5
1792
100
AcDbEntity
  8
DEFPOINTS
  6
BYBLOCK
 62
     0
100
AcDbPoint
 10
181.301149
 20
194.705611
 30
0.0
  0
POINT
  5
1793
100
AcDbEntity
  8
DEFPOINTS
  6
BYBLOCK
 62
     0
100
AcDbPoint
 10
181.301149
 20
202.03235
 30
0.0
  0
ENDBLK
  5
1794
100
AcDbEntity
  8
0
100
AcDbBlockEnd
  0
BLOCK
  5
1795
100
AcDbEntity
  8
0
100
AcDbBlockBegin
  2
*D11
 70
    65
 10
0.0
 20
0.0
 30
0.0
  3
*D11
  1

  0
LINE
  5
1796
100
AcDbEntity
  8
0
  6
BYBLOCK
 62
     0
100
AcDbLine
 10
186.072549
 20
306.64997
 30
0.0
 11
186.072549
 21
314.079622
 31
0.0
  0
LINE
  5
1797
100
AcDbEntity
  8
0
  6
BYBLOCK
 62
     0
100
AcDbLine
 10
181.072549
 20
305.94997
 30
0.0
 11
181.072549
 21
314.079622
 31
0.0
  0
LINE
  5
1798
100
AcDbEntity
  8
0
  6
BYBLOCK
 62
     0
100
AcDbLine
 10
187.422549
 20
312.729622
 30
0.0
 11
188.772549
 21
312.729622
 31
0.0
  0
LINE
  5
1799
100
AcDbEntity
  8
0
  6
BYBLOCK
 62
     0
100
AcDbLine
 10
179.722549
 20
312.729622
 30
0.0
 11
178.372549
 21
312.729622
 31
0.0
  0
SOLID
  5
179A
100
AcDbEntity
  8
0
  6
BYBLOCK
 62
     0
100
AcDbTrace
 10
187.422549
 20
312.954622
 30
0.0
 11
187.422549
 21
312.504622
 31
0.0
 12
186.072549
 22
312.729622
 32
0.0
 13
186.072549
 23
312.729622
 33
0.0
  0
SOLID
  5
179B
100
AcDbEntity
  8
0
  6
BYBLOCK
 62
     0
100
AcDbTrace
 10
179.722549
 20
312.954622
 30
0.0
 11
179.722549
 21
312.504622
 31
0.0
 12
181.072549
 22
312.729622
 32
0.0
 13
181.072549
 23
312.729622
 33
0.0
  0
MTEXT
  5
179C
100
AcDbEntity
  8
0
  6
BYBLOCK
 62
     0
100
AcDbMText
 10
164.572549
 20
312.729622
 30
0.0
 40
2.25
 41
0.0
 71
     5
 72
     1
  1
\A1;5.00mm[0.197"]
  0
POINT
  5
179D
100
AcDbEntity
  8
DEFPOINTS
  6
BYBLOCK
 62
     0
100
AcDbPoint
 10
186.072549
 20
306.18122
 30
0.0
  0
POINT
  5
179E
100
AcDbEntity
  8
DEFPOINTS
  6
BYBLOCK
 62
     0
100
AcDbPoint
 10
181.072549
 20
305.48122
 30
0.0
  0
POINT
  5
179F
100
AcDbEntity
  8
DEFPOINTS
  6
BYBLOCK
 62
     0
100
AcDbPoint
 10
181.072549
 20
312.729622
 30
0.0
  0
ENDBLK
  5
17A0
100
AcDbEntity
  8
0
100
AcDbBlockEnd
  0
BLOCK
  5
1E09
100
AcDbEntity
  8
0
100
AcDbBlockBegin
  2
*D12
 70
    65
 10
0.0
 20
0.0
 30
0.0
  3
*D12
  1

  0
LINE
  5
1E0A
100
AcDbEntity
  8
0
  6
BYBLOCK
 62
     0
100
AcDbLine
 10
202.582512
 20
310.71997
 30
0.0
 11
202.582512
 21
318.445589
 31
0.0
  0
LINE
  5
1E0B
100
AcDbEntity
  8
0
  6
BYBLOCK
 62
     0
100
AcDbLine
 10
207.577512
 20
308.22997
 30
0.0
 11
207.577512
 21
318.445589
 31
0.0
  0
LINE
  5
1E0C
100
AcDbEntity
  8
0
  6
BYBLOCK
 62
     0
100
AcDbLine
 10
201.232512
 20
317.095589
 30
0.0
 11
199.882512
 21
317.095589
 31
0.0
  0
LINE
  5
1E0D
100
AcDbEntity
  8
0
  6
BYBLOCK
 62
     0
100
AcDbLine
 10
208.927512
 20
317.095589
 30
0.0
 11
210.277512
 21
317.095589
 31
0.0
  0
SOLID
  5
1E0E
100
AcDbEntity
  8
0
  6
BYBLOCK
 62
     0
100
AcDbTrace
 10
201.232512
 20
317.320589
 30
0.0
 11
201.232512
 21
316.870589
 31
0.0
 12
202.582512
 22
317.095589
 32
0.0
 13
202.582512
 23
317.095589
 33
0.0
  0
SOLID
  5
1E0F
100
AcDbEntity
  8
0
  6
BYBLOCK
 62
     0
100
AcDbTrace
 10
208.927512
 20
317.320589
 30
0.0
 11
208.927512
 21
316.870589
 31
0.0
 12
207.577512
 22
317.095589
 32
0.0
 13
207.577512
 23
317.095589
 33
0.0
  0
MTEXT
  5
1E10
100
AcDbEntity
  8
0
  6
BYBLOCK
 62
     0
100
AcDbMText
 10
222.765012
 20
317.095589
 30
0.0
 40
2.25
 41
0.0
 71
     5
 72
     1
  1
\A1;5.00mm[0.197"]
  0
POINT
  5
1E11
100
AcDbEntity
  8
DEFPOINTS
  6
BYBLOCK
 62
     0
100
AcDbPoint
 10
202.582512
 20
310.25122
 30
0.0
  0
POINT
  5
1E12
100
AcDbEntity
  8
DEFPOINTS
  6
BYBLOCK
 62
     0
100
AcDbPoint
 10
207.577512
 20
307.76122
 30
0.0
  0
POINT
  5
1E13
100
AcDbEntity
  8
DEFPOINTS
  6
BYBLOCK
 62
     0
100
AcDbPoint
 10
207.577512
 20
317.095589
 30
0.0
  0
ENDBLK
  5
1E14
100
AcDbEntity
  8
0
100
AcDbBlockEnd
  0
BLOCK
  5
1F92
100
AcDbEntity
  8
0
100
AcDbBlockBegin
  2
*D13
 70
    65
 10
0.0
 20
0.0
 30
0.0
  3
*D13
  1

  0
LINE
  5
1F93
100
AcDbEntity
  8
0
  6
BYBLOCK
 62
     0
100
AcDbLine
 10
184.182549
 20
306.64997
 30
0.0
 11
184.182549
 21
325.569008
 31
0.0
  0
LINE
  5
1F94
100
AcDbEntity
  8
0
  6
BYBLOCK
 62
     0
100
AcDbLine
 10
202.582512
 20
310.71997
 30
0.0
 11
202.582512
 21
325.569008
 31
0.0
  0
LINE
  5
1F95
100
AcDbEntity
  8
0
  6
BYBLOCK
 62
     0
100
AcDbLine
 10
182.832549
 20
324.219008
 30
0.0
 11
181.482549
 21
324.219008
 31
0.0
  0
LINE
  5
1F96
100
AcDbEntity
  8
0
  6
BYBLOCK
 62
     0
100
AcDbLine
 10
203.932512
 20
324.219008
 30
0.0
 11
205.282512
 21
324.219008
 31
0.0
  0
SOLID
  5
1F97
100
AcDbEntity
  8
0
  6
BYBLOCK
 62
     0
100
AcDbTrace
 10
182.832549
 20
324.444008
 30
0.0
 11
182.832549
 21
323.994008
 31
0.0
 12
184.182549
 22
324.219008
 32
0.0
 13
184.182549
 23
324.219008
 33
0.0
  0
SOLID
  5
1F98
100
AcDbEntity
  8
0
  6
BYBLOCK
 62
     0
100
AcDbTrace
 10
203.932512
 20
324.444008
 30
0.0
 11
203.932512
 21
323.994008
 31
0.0
 12
202.582512
 22
324.219008
 32
0.0
 13
202.582512
 23
324.219008
 33
0.0
  0
MTEXT
  5
1F99
100
AcDbEntity
  8
0
  6
BYBLOCK
 62
     0
100
AcDbMText
 10
219.082512
 20
324.219008
 30
0.0
 40
2.25
 41
0.0
 71
     5
 72
     1
  1
\A1;18.40mm[0.724"]
  0
POINT
  5
1F9A
100
AcDbEntity
  8
DEFPOINTS
  6
BYBLOCK
 62
     0
100
AcDbPoint
 10
184.182549
 20
306.18122
 30
0.0
  0
POINT
  5
1F9B
100
AcDbEntity
  8
DEFPOINTS
  6
BYBLOCK
 62
     0
100
AcDbPoint
 10
202.582512
 20
310.25122
 30
0.0
  0
POINT
  5
1F9C
100
AcDbEntity
  8
DEFPOINTS
  6
BYBLOCK
 62
     0
100
AcDbPoint
 10
202.582512
 20
324.219008
 30
0.0
  0
ENDBLK
  5
1F9D
100
AcDbEntity
  8
0
100
AcDbBlockEnd
  0
BLOCK
  5
1EAC
100
AcDbEntity
  8
0
100
AcDbBlockBegin
  2
*X14
 70
    65
 10
0.0
 20
0.0
 30
0.0
  3
*X14
  1

  0
LINE
  5
1EAE
100
AcDbEntity
  8
0
 62
     0
100
AcDbLine
 10
221.416938
 20
106.512086
 30
0.0
 11
262.136938
 21
147.232086
 31
0.0
  0
LINE
  5
1EAF
100
AcDbEntity
  8
0
 62
     0
100
AcDbLine
 10
262.136938
 20
147.232086
 30
0.0
 11
287.886938
 21
172.982086
 31
0.0
  0
LINE
  5
1EB0
100
AcDbEntity
  8
0
 62
     0
100
AcDbLine
 10
219.649171
 20
106.512086
 30
0.0
 11
260.369171
 21
147.232086
 31
0.0
  0
LINE
  5
1EB1
100
AcDbEntity
  8
0
 62
     0
100
AcDbLine
 10
260.369171
 20
147.232086
 30
0.0
 11
286.119171
 21
172.982086
 31
0.0
  0
LINE
  5
1EB2
100
AcDbEntity
  8
0
 62
     0
100
AcDbLine
 10
217.881404
 20
106.512086
 30
0.0
 11
258.601404
 21
147.232086
 31
0.0
  0
LINE
  5
1EB3
100
AcDbEntity
  8
0
 62
     0
100
AcDbLine
 10
258.601404
 20
147.232086
 30
0.0
 11
284.351404
 21
172.982086
 31
0.0
  0
LINE
  5
1EB4
100
AcDbEntity
  8
0
 62
     0
100
AcDbLine
 10
216.113637
 20
106.512086
 30
0.0
 11
256.833637
 21
147.232086
 31
0.0
  0
LINE
  5
1EB5
100
AcDbEntity
  8
0
 62
     0
100
AcDbLine
 10
256.833637
 20
147.232086
 30
0.0
 11
282.583637
 21
172.982086
 31
0.0
  0
LINE
  5
1EB6
100
AcDbEntity
  8
0
 62
     0
100
AcDbLine
 10
214.345871
 20
106.512086
 30
0.0
 11
255.065871
 21
147.232086
 31
0.0
  0
LINE
  5
1EB7
100
AcDbEntity
  8
0
 62
     0
100
AcDbLine
 10
255.065871
 20
147.232086
 30
0.0
 11
280.815871
 21
172.982086
 31
0.0
  0
LINE
  5
1EB8
100
AcDbEntity
  8
0
 62
     0
100
AcDbLine
 10
212.578104
 20
106.512086
 30
0.0
 11
253.298104
 21
147.232086
 31
0.0
  0
LINE
  5
1EB9
100
AcDbEntity
  8
0
 62
     0
100
AcDbLine
 10
253.298104
 20
147.232086
 30
0.0
 11
279.048104
 21
172.982086
 31
0.0
  0
LINE
  5
1EBA
100
AcDbEntity
  8
0
 62
     0
100
AcDbLine
 10
210.810337
 20
106.512086
 30
0.0
 11
251.530337
 21
147.232086
 31
0.0
  0
LINE
  5
1EBB
100
AcDbEntity
  8
0
 62
     0
100
AcDbLine
 10
251.530337
 20
147.232086
 30
0.0
 11
277.280337
 21
172.982086
 31
0.0
  0
LINE
  5
1EBC
100
AcDbEntity
  8
0
 62
     0
100
AcDbLine
 10
209.04257
 20
106.512086
 30
0.0
 11
249.76257
 21
147.232086
 31
0.0
  0
LINE
  5
1EBD
100
AcDbEntity
  8
0
 62
     0
100
AcDbLine
 10
249.76257
 20
147.232086
 30
0.0
 11
275.51257
 21
172.982086
 31
0.0
  0
LINE
  5
1EBE
100
AcDbEntity
  8
0
 62
     0
100
AcDbLine
 10
207.274803
 20
106.512086
 30
0.0
 11
247.994803
 21
147.232086
 31
0.0
  0
LINE
  5
1EBF
100
AcDbEntity
  8
0
 62
     0
100
AcDbLine
 10
247.994803
 20
147.232086
 30
0.0
 11
273.744803
 21
172.982086
 31
0.0
  0
LINE
  5
1EC0
100
AcDbEntity
  8
0
 62
     0
100
AcDbLine
 10
205.507036
 20
106.512086
 30
0.0
 11
246.227036
 21
147.232086
 31
0.0
  0
LINE
  5
1EC1
100
AcDbEntity
  8
0
 62
     0
100
AcDbLine
 10
246.227036
 20
147.232086
 30
0.0
 11
271.977036
 21
172.982086
 31
0.0
  0
LINE
  5
1EC2
100
AcDbEntity
  8
0
 62
     0
100
AcDbLine
 10
203.739269
 20
106.512086
 30
0.0
 11
244.459269
 21
147.232086
 31
0.0
  0
LINE
  5
1EC3
100
AcDbEntity
  8
0
 62
     0
100
AcDbLine
 10
244.459269
 20
147.232086
 30
0.0
 11
270.209269
 21
172.982086
 31
0.0
  0
LINE
  5
1EC4
100
AcDbEntity
  8
0
 62
     0
100
AcDbLine
 10
202.577512
 20
107.118096
 30
0.0
 11
242.691502
 21
147.232086
 31
0.0
  0
LINE
  5
1EC5
100
AcDbEntity
  8
0
 62
     0
100
AcDbLine
 10
242.691502
 20
147.232086
 30
0.0
 11
268.441502
 21
172.982086
 31
0.0
  0
LINE
  5
1EC6
100
AcDbEntity
  8
0
 62
     0
100
AcDbLine
 10
202.577512
 20
108.885863
 30
0.0
 11
240.923735
 21
147.232086
 31
0.0
  0
LINE
  5
1EC7
100
AcDbEntity
  8
0
 62
     0
100
AcDbLine
 10
240.923735
 20
147.232086
 30
0.0
 11
266.673735
 21
172.982086
 31
0.0
  0
LINE
  5
1EC8
100
AcDbEntity
  8
0
 62
     0
100
AcDbLine
 10
202.577512
 20
110.65363
 30
0.0
 11
239.155968
 21
147.232086
 31
0.0
  0
LINE
  5
1EC9
100
AcDbEntity
  8
0
 62
     0
100
AcDbLine
 10
239.155968
 20
147.232086
 30
0.0
 11
264.905968
 21
172.982086
 31
0.0
  0
LINE
  5
1ECA
100
AcDbEntity
  8
0
 62
     0
100
AcDbLine
 10
202.577512
 20
112.421397
 30
0.0
 11
237.388201
 21
147.232086
 31
0.0
  0
LINE
  5
1ECB
100
AcDbEntity
  8
0
 62
     0
100
AcDbLine
 10
237.388201
 20
147.232086
 30
0.0
 11
263.138201
 21
172.982086
 31
0.0
  0
LINE
  5
1ECC
100
AcDbEntity
  8
0
 62
     0
100
AcDbLine
 10
202.577512
 20
114.189164
 30
0.0
 11
235.620434
 21
147.232086
 31
0.0
  0
LINE
  5
1ECD
100
AcDbEntity
  8
0
 62
     0
100
AcDbLine
 10
235.620434
 20
147.232086
 30
0.0
 11
261.370434
 21
172.982086
 31
0.0
  0
LINE
  5
1ECE
100
AcDbEntity
  8
0
 62
     0
100
AcDbLine
 10
202.577512
 20
115.956931
 30
0.0
 11
233.852667
 21
147.232086
 31
0.0
  0
LINE
  5
1ECF
100
AcDbEntity
  8
0
 62
     0
100
AcDbLine
 10
233.852667
 20
147.232086
 30
0.0
 11
259.602667
 21
172.982086
 31
0.0
  0
LINE
  5
1ED0
100
AcDbEntity
  8
0
 62
     0
100
AcDbLine
 10
202.577512
 20
117.724698
 30
0.0
 11
232.0849
 21
147.232086
 31
0.0
  0
LINE
  5
1ED1
100
AcDbEntity
  8
0
 62
     0
100
AcDbLine
 10
232.0849
 20
147.232086
 30
0.0
 11
257.8349
 21
172.982086
 31
0.0
  0
LINE
  5
1ED2
100
AcDbEntity
  8
0
 62
     0
100
AcDbLine
 10
202.577512
 20
119.492465
 30
0.0
 11
230.317133
 21
147.232086
 31
0.0
  0
LINE
  5
1ED3
100
AcDbEntity
  8
0
 62
     0
100
AcDbLine
 10
230.317133
 20
147.232086
 30
0.0
 11
256.067133
 21
172.982086
 31
0.0
  0
LINE
  5
1ED4
100
AcDbEntity
  8
0
 62
     0
100
AcDbLine
 10
202.577512
 20
121.260232
 30
0.0
 11
228.549366
 21
147.232086
 31
0.0
  0
LINE
  5
1ED5
100
AcDbEntity
  8
0
 62
     0
100
AcDbLine
 10
228.549366
 20
147.232086
 30
0.0
 11
254.299366
 21
172.982086
 31
0.0
  0
LINE
  5
1ED6
100
AcDbEntity
  8
0
 62
     0
100
AcDbLine
 10
202.577512
 20
123.027999
 30
0.0
 11
226.781599
 21
147.232086
 31
0.0
  0
LINE
  5
1ED7
100
AcDbEntity
  8
0
 62
     0
100
AcDbLine
 10
226.781599
 20
147.232086
 30
0.0
 11
252.531599
 21
172.982086
 31
0.0
  0
LINE
  5
1ED8
100
AcDbEntity
  8
0
 62
     0
100
AcDbLine
 10
202.577512
 20
124.795766
 30
0.0
 11
225.013832
 21
147.232086
 31
0.0
  0
LINE
  5
1ED9
100
AcDbEntity
  8
0
 62
     0
100
AcDbLine
 10
225.013832
 20
147.232086
 30
0.0
 11
250.763832
 21
172.982086
 31
0.0
  0
LINE
  5
1EDA
100
AcDbEntity
  8
0
 62
     0
100
AcDbLine
 10
202.577512
 20
126.563533
 30
0.0
 11
223.246065
 21
147.232086
 31
0.0
  0
LINE
  5
1EDB
100
AcDbEntity
  8
0
 62
     0
100
AcDbLine
 10
223.246065
 20
147.232086
 30
0.0
 11
248.996065
 21
172.982086
 31
0.0
  0
LINE
  5
1EDC
100
AcDbEntity
  8
0
 62
     0
100
AcDbLine
 10
183.028298
 20
108.782086
 30
0.0
 11
184.182549
 21
109.936337
 31
0.0
  0
LINE
  5
1EDD
100
AcDbEntity
  8
0
 62
     0
100
AcDbLine
 10
221.478298
 20
147.232086
 30
0.0
 11
247.228298
 21
172.982086
 31
0.0
  0
LINE
  5
1EDE
100
AcDbEntity
  8
0
 62
     0
100
AcDbLine
 10
202.577512
 20
128.3313
 30
0.0
 11
221.478298
 21
147.232086
 31
0.0
  0
LINE
  5
1EDF
100
AcDbEntity
  8
0
 62
     0
100
AcDbLine
 10
181.260531
 20
108.782086
 30
0.0
 11
184.182549
 21
111.704104
 31
0.0
  0
LINE
  5
1EE0
100
AcDbEntity
  8
0
 62
     0
100
AcDbLine
 10
219.710531
 20
147.232086
 30
0.0
 11
245.460531
 21
172.982086
 31
0.0
  0
LINE
  5
1EE1
100
AcDbEntity
  8
0
 62
     0
100
AcDbLine
 10
202.577512
 20
130.099067
 30
0.0
 11
219.710531
 21
147.232086
 31
0.0
  0
LINE
  5
1EE2
100
AcDbEntity
  8
0
 62
     0
100
AcDbLine
 10
179.492765
 20
108.782086
 30
0.0
 11
184.182549
 21
113.471871
 31
0.0
  0
LINE
  5
1EE3
100
AcDbEntity
  8
0
 62
     0
100
AcDbLine
 10
217.942765
 20
147.232086
 30
0.0
 11
243.692765
 21
172.982086
 31
0.0
  0
LINE
  5
1EE4
100
AcDbEntity
  8
0
 62
     0
100
AcDbLine
 10
202.577512
 20
131.866834
 30
0.0
 11
217.942765
 21
147.232086
 31
0.0
  0
LINE
  5
1EE5
100
AcDbEntity
  8
0
 62
     0
100
AcDbLine
 10
179.182549
 20
110.239638
 30
0.0
 11
184.182549
 21
115.239638
 31
0.0
  0
LINE
  5
1EE6
100
AcDbEntity
  8
0
 62
     0
100
AcDbLine
 10
216.174998
 20
147.232086
 30
0.0
 11
241.924998
 21
172.982086
 31
0.0
  0
LINE
  5
1EE7
100
AcDbEntity
  8
0
 62
     0
100
AcDbLine
 10
202.577512
 20
133.634601
 30
0.0
 11
216.174998
 21
147.232086
 31
0.0
  0
LINE
  5
1EE8
100
AcDbEntity
  8
0
 62
     0
100
AcDbLine
 10
179.182549
 20
112.007405
 30
0.0
 11
184.182549
 21
117.007405
 31
0.0
  0
LINE
  5
1EE9
100
AcDbEntity
  8
0
 62
     0
100
AcDbLine
 10
214.407231
 20
147.232086
 30
0.0
 11
240.157231
 21
172.982086
 31
0.0
  0
LINE
  5
1EEA
100
AcDbEntity
  8
0
 62
     0
100
AcDbLine
 10
202.577512
 20
135.402368
 30
0.0
 11
214.407231
 21
147.232086
 31
0.0
  0
LINE
  5
1EEB
100
AcDbEntity
  8
0
 62
     0
100
AcDbLine
 10
179.182549
 20
113.775172
 30
0.0
 11
184.182549
 21
118.775172
 31
0.0
  0
LINE
  5
1EEC
100
AcDbEntity
  8
0
 62
     0
100
AcDbLine
 10
212.639464
 20
147.232086
 30
0.0
 11
238.389464
 21
172.982086
 31
0.0
  0
LINE
  5
1EED
100
AcDbEntity
  8
0
 62
     0
100
AcDbLine
 10
202.577512
 20
137.170135
 30
0.0
 11
212.639464
 21
147.232086
 31
0.0
  0
LINE
  5
1EEE
100
AcDbEntity
  8
0
 62
     0
100
AcDbLine
 10
179.182549
 20
115.542939
 30
0.0
 11
184.182549
 21
120.542939
 31
0.0
  0
LINE
  5
1EEF
100
AcDbEntity
  8
0
 62
     0
100
AcDbLine
 10
210.871697
 20
147.232086
 30
0.0
 11
236.621697
 21
172.982086
 31
0.0
  0
LINE
  5
1EF0
100
AcDbEntity
  8
0
 62
     0
100
AcDbLine
 10
202.577512
 20
138.937901
 30
0.0
 11
210.871697
 21
147.232086
 31
0.0
  0
LINE
  5
1EF1
100
AcDbEntity
  8
0
 62
     0
100
AcDbLine
 10
179.182549
 20
117.310706
 30
0.0
 11
184.182549
 21
122.310706
 31
0.0
  0
LINE
  5
1EF2
100
AcDbEntity
  8
0
 62
     0
100
AcDbLine
 10
209.10393
 20
147.232086
 30
0.0
 11
234.85393
 21
172.982086
 31
0.0
  0
LINE
  5
1EF3
100
AcDbEntity
  8
0
 62
     0
100
AcDbLine
 10
202.577512
 20
140.705668
 30
0.0
 11
209.10393
 21
147.232086
 31
0.0
  0
LINE
  5
1EF4
100
AcDbEntity
  8
0
 62
     0
100
AcDbLine
 10
179.182549
 20
119.078473
 30
0.0
 11
184.182549
 21
124.078473
 31
0.0
  0
LINE
  5
1EF5
100
AcDbEntity
  8
0
 62
     0
100
AcDbLine
 10
207.336163
 20
147.232086
 30
0.0
 11
233.086163
 21
172.982086
 31
0.0
  0
LINE
  5
1EF6
100
AcDbEntity
  8
0
 62
     0
100
AcDbLine
 10
202.577512
 20
142.473435
 30
0.0
 11
207.336163
 21
147.232086
 31
0.0
  0
LINE
  5
1EF7
100
AcDbEntity
  8
0
 62
     0
100
AcDbLine
 10
179.182549
 20
120.84624
 30
0.0
 11
184.182549
 21
125.84624
 31
0.0
  0
LINE
  5
1EF8
100
AcDbEntity
  8
0
 62
     0
100
AcDbLine
 10
205.568396
 20
147.232086
 30
0.0
 11
231.318396
 21
172.982086
 31
0.0
  0
LINE
  5
1EF9
100
AcDbEntity
  8
0
 62
     0
100
AcDbLine
 10
202.577512
 20
144.241202
 30
0.0
 11
205.568396
 21
147.232086
 31
0.0
  0
LINE
  5
1EFA
100
AcDbEntity
  8
0
 62
     0
100
AcDbLine
 10
179.182549
 20
122.614007
 30
0.0
 11
184.182549
 21
127.614007
 31
0.0
  0
LINE
  5
1EFB
100
AcDbEntity
  8
0
 62
     0
100
AcDbLine
 10
203.800629
 20
147.232086
 30
0.0
 11
229.550629
 21
172.982086
 31
0.0
  0
LINE
  5
1EFC
100
AcDbEntity
  8
0
 62
     0
100
AcDbLine
 10
202.577512
 20
146.008969
 30
0.0
 11
203.800629
 21
147.232086
 31
0.0
  0
LINE
  5
1EFD
100
AcDbEntity
  8
0
 62
     0
100
AcDbLine
 10
179.182549
 20
124.381774
 30
0.0
 11
184.182549
 21
129.381774
 31
0.0
  0
LINE
  5
1EFE
100
AcDbEntity
  8
0
 62
     0
100
AcDbLine
 10
202.577512
 20
147.776736
 30
0.0
 11
227.782862
 21
172.982086
 31
0.0
  0
LINE
  5
1EFF
100
AcDbEntity
  8
0
 62
     0
100
AcDbLine
 10
179.182549
 20
126.149541
 30
0.0
 11
184.182549
 21
131.149541
 31
0.0
  0
LINE
  5
1F00
100
AcDbEntity
  8
0
 62
     0
100
AcDbLine
 10
202.577512
 20
149.544503
 30
0.0
 11
226.015095
 21
172.982086
 31
0.0
  0
LINE
  5
1F01
100
AcDbEntity
  8
0
 62
     0
100
AcDbLine
 10
179.182549
 20
127.917308
 30
0.0
 11
184.182549
 21
132.917308
 31
0.0
  0
LINE
  5
1F02
100
AcDbEntity
  8
0
 62
     0
100
AcDbLine
 10
202.577512
 20
151.31227
 30
0.0
 11
224.247328
 21
172.982086
 31
0.0
  0
LINE
  5
1F03
100
AcDbEntity
  8
0
 62
     0
100
AcDbLine
 10
179.182549
 20
129.685075
 30
0.0
 11
184.182549
 21
134.685075
 31
0.0
  0
LINE
  5
1F04
100
AcDbEntity
  8
0
 62
     0
100
AcDbLine
 10
202.577512
 20
153.080037
 30
0.0
 11
222.479561
 21
172.982086
 31
0.0
  0
LINE
  5
1F05
100
AcDbEntity
  8
0
 62
     0
100
AcDbLine
 10
179.182549
 20
131.452842
 30
0.0
 11
184.182549
 21
136.452842
 31
0.0
  0
LINE
  5
1F06
100
AcDbEntity
  8
0
 62
     0
100
AcDbLine
 10
202.577512
 20
154.847804
 30
0.0
 11
220.711794
 21
172.982086
 31
0.0
  0
LINE
  5
1F07
100
AcDbEntity
  8
0
 62
     0
100
AcDbLine
 10
179.182549
 20
133.220609
 30
0.0
 11
184.182549
 21
138.220609
 31
0.0
  0
LINE
  5
1F08
100
AcDbEntity
  8
0
 62
     0
100
AcDbLine
 10
202.577512
 20
156.615571
 30
0.0
 11
218.944027
 21
172.982086
 31
0.0
  0
LINE
  5
1F09
100
AcDbEntity
  8
0
 62
     0
100
AcDbLine
 10
179.182549
 20
134.988376
 30
0.0
 11
184.182549
 21
139.988376
 31
0.0
  0
LINE
  5
1F0A
100
AcDbEntity
  8
0
 62
     0
100
AcDbLine
 10
202.577512
 20
158.383338
 30
0.0
 11
217.17626
 21
172.982086
 31
0.0
  0
LINE
  5
1F0B
100
AcDbEntity
  8
0
 62
     0
100
AcDbLine
 10
179.182549
 20
136.756143
 30
0.0
 11
184.182549
 21
141.756143
 31
0.0
  0
LINE
  5
1F0C
100
AcDbEntity
  8
0
 62
     0
100
AcDbLine
 10
202.577512
 20
160.151105
 30
0.0
 11
215.408493
 21
172.982086
 31
0.0
  0
LINE
  5
1F0D
100
AcDbEntity
  8
0
 62
     0
100
AcDbLine
 10
179.182549
 20
138.52391
 30
0.0
 11
184.182549
 21
143.52391
 31
0.0
  0
LINE
  5
1F0E
100
AcDbEntity
  8
0
 62
     0
100
AcDbLine
 10
202.577512
 20
161.918872
 30
0.0
 11
213.640726
 21
172.982086
 31
0.0
  0
LINE
  5
1F0F
100
AcDbEntity
  8
0
 62
     0
100
AcDbLine
 10
179.182549
 20
140.291676
 30
0.0
 11
184.182549
 21
145.291676
 31
0.0
  0
LINE
  5
1F10
100
AcDbEntity
  8
0
 62
     0
100
AcDbLine
 10
202.577512
 20
163.686639
 30
0.0
 11
211.872959
 21
172.982086
 31
0.0
  0
LINE
  5
1F11
100
AcDbEntity
  8
0
 62
     0
100
AcDbLine
 10
179.182549
 20
142.059443
 30
0.0
 11
184.182549
 21
147.059443
 31
0.0
  0
LINE
  5
1F12
100
AcDbEntity
  8
0
 62
     0
100
AcDbLine
 10
202.577512
 20
165.454406
 30
0.0
 11
210.105192
 21
172.982086
 31
0.0
  0
LINE
  5
1F13
100
AcDbEntity
  8
0
 62
     0
100
AcDbLine
 10
179.182549
 20
143.82721
 30
0.0
 11
182.587425
 21
147.232086
 31
0.0
  0
LINE
  5
1F14
100
AcDbEntity
  8
0
 62
     0
100
AcDbLine
 10
202.577512
 20
167.222173
 30
0.0
 11
208.337425
 21
172.982086
 31
0.0
  0
LINE
  5
1F15
100
AcDbEntity
  8
0
 62
     0
100
AcDbLine
 10
182.587425
 20
147.232086
 30
0.0
 11
184.182549
 21
148.82721
 31
0.0
  0
LINE
  5
1F16
100
AcDbEntity
  8
0
 62
     0
100
AcDbLine
 10
179.182549
 20
145.594977
 30
0.0
 11
180.819659
 21
147.232086
 31
0.0
  0
LINE
  5
1F17
100
AcDbEntity
  8
0
 62
     0
100
AcDbLine
 10
202.577512
 20
168.98994
 30
0.0
 11
206.569659
 21
172.982086
 31
0.0
  0
LINE
  5
1F18
100
AcDbEntity
  8
0
 62
     0
100
AcDbLine
 10
180.819659
 20
147.232086
 30
0.0
 11
184.182549
 21
150.594977
 31
0.0
  0
LINE
  5
1F19
100
AcDbEntity
  8
0
 62
     0
100
AcDbLine
 10
179.182549
 20
147.362744
 30
0.0
 11
184.182549
 21
152.362744
 31
0.0
  0
LINE
  5
1F1A
100
AcDbEntity
  8
0
 62
     0
100
AcDbLine
 10
202.577512
 20
170.757707
 30
0.0
 11
204.801892
 21
172.982086
 31
0.0
  0
LINE
  5
1F1B
100
AcDbEntity
  8
0
 62
     0
100
AcDbLine
 10
179.182549
 20
149.130511
 30
0.0
 11
184.182549
 21
154.130511
 31
0.0
  0
LINE
  5
1F1C
100
AcDbEntity
  8
0
 62
     0
100
AcDbLine
 10
202.577512
 20
172.525474
 30
0.0
 11
203.034125
 21
172.982086
 31
0.0
  0
LINE
  5
1F1D
100
AcDbEntity
  8
0
 62
     0
100
AcDbLine
 10
179.182549
 20
150.898278
 30
0.0
 11
184.182549
 21
155.898278
 31
0.0
  0
LINE
  5
1F1E
100
AcDbEntity
  8
0
 62
     0
100
AcDbLine
 10
179.182549
 20
152.666045
 30
0.0
 11
184.182549
 21
157.666045
 31
0.0
  0
LINE
  5
1F1F
100
AcDbEntity
  8
0
 62
     0
100
AcDbLine
 10
179.182549
 20
154.433812
 30
0.0
 11
184.182549
 21
159.433812
 31
0.0
  0
LINE
  5
1F20
100
AcDbEntity
  8
0
 62
     0
100
AcDbLine
 10
179.182549
 20
156.201579
 30
0.0
 11
184.182549
 21
161.201579
 31
0.0
  0
LINE
  5
1F21
100
AcDbEntity
  8
0
 62
     0
100
AcDbLine
 10
179.182549
 20
157.969346
 30
0.0
 11
184.182549
 21
162.969346
 31
0.0
  0
LINE
  5
1F22
100
AcDbEntity
  8
0
 62
     0
100
AcDbLine
 10
179.182549
 20
159.737113
 30
0.0
 11
184.182549
 21
164.737113
 31
0.0
  0
LINE
  5
1F23
100
AcDbEntity
  8
0
 62
     0
100
AcDbLine
 10
179.182549
 20
161.50488
 30
0.0
 11
184.182549
 21
166.50488
 31
0.0
  0
LINE
  5
1F24
100
AcDbEntity
  8
0
 62
     0
100
AcDbLine
 10
179.182549
 20
163.272647
 30
0.0
 11
184.182549
 21
168.272647
 31
0.0
  0
LINE
  5
1F25
100
AcDbEntity
  8
0
 62
     0
100
AcDbLine
 10
179.182549
 20
165.040414
 30
0.0
 11
184.182549
 21
170.040414
 31
0.0
  0
LINE
  5
1F26
100
AcDbEntity
  8
0
 62
     0
100
AcDbLine
 10
179.182549
 20
166.808181
 30
0.0
 11
184.182549
 21
171.808181
 31
0.0
  0
LINE
  5
1F27
100
AcDbEntity
  8
0
 62
     0
100
AcDbLine
 10
179.182549
 20
168.575948
 30
0.0
 11
184.182549
 21
173.575948
 31
0.0
  0
LINE
  5
1F28
100
AcDbEntity
  8
0
 62
     0
100
AcDbLine
 10
179.182549
 20
170.343715
 30
0.0
 11
182.524701
 21
173.685866
 31
0.0
  0
LINE
  5
1F29
100
AcDbEntity
  8
0
 62
     0
100
AcDbLine
 10
179.182549
 20
172.111482
 30
0.0
 11
180.754932
 21
173.683865
 31
0.0
  0
LINE
  5
1F2A
100
AcDbEntity
  8
0
 62
     0
100
AcDbLine
 10
223.184705
 20
106.512086
 30
0.0
 11
263.904705
 21
147.232086
 31
0.0
  0
LINE
  5
1F2B
100
AcDbEntity
  8
0
 62
     0
100
AcDbLine
 10
263.904705
 20
147.232086
 30
0.0
 11
289.654705
 21
172.982086
 31
0.0
  0
LINE
  5
1F2C
100
AcDbEntity
  8
0
 62
     0
100
AcDbLine
 10
224.952472
 20
106.512086
 30
0.0
 11
265.672472
 21
147.232086
 31
0.0
  0
LINE
  5
1F2D
100
AcDbEntity
  8
0
 62
     0
100
AcDbLine
 10
265.672472
 20
147.232086
 30
0.0
 11
291.422472
 21
172.982086
 31
0.0
  0
LINE
  5
1F2E
100
AcDbEntity
  8
0
 62
     0
100
AcDbLine
 10
226.720239
 20
106.512086
 30
0.0
 11
267.440239
 21
147.232086
 31
0.0
  0
LINE
  5
1F2F
100
AcDbEntity
  8
0
 62
     0
100
AcDbLine
 10
267.440239
 20
147.232086
 30
0.0
 11
293.190239
 21
172.982086
 31
0.0
  0
LINE
  5
1F30
100
AcDbEntity
  8
0
 62
     0
100
AcDbLine
 10
228.488006
 20
106.512086
 30
0.0
 11
269.208006
 21
147.232086
 31
0.0
  0
LINE
  5
1F31
100
AcDbEntity
  8
0
 62
     0
100
AcDbLine
 10
269.208006
 20
147.232086
 30
0.0
 11
294.958006
 21
172.982086
 31
0.0
  0
LINE
  5
1F32
100
AcDbEntity
  8
0
 62
     0
100
AcDbLine
 10
230.255773
 20
106.512086
 30
0.0
 11
270.975773
 21
147.232086
 31
0.0
  0
LINE
  5
1F33
100
AcDbEntity
  8
0
 62
     0
100
AcDbLine
 10
270.975773
 20
147.232086
 30
0.0
 11
296.725773
 21
172.982086
 31
0.0
  0
LINE
  5
1F34
100
AcDbEntity
  8
0
 62
     0
100
AcDbLine
 10
232.02354
 20
106.512086
 30
0.0
 11
272.74354
 21
147.232086
 31
0.0
  0
LINE
  5
1F35
100
AcDbEntity
  8
0
 62
     0
100
AcDbLine
 10
272.74354
 20
147.232086
 30
0.0
 11
298.49354
 21
172.982086
 31
0.0
  0
LINE
  5
1F36
100
AcDbEntity
  8
0
 62
     0
100
AcDbLine
 10
233.791307
 20
106.512086
 30
0.0
 11
274.511307
 21
147.232086
 31
0.0
  0
LINE
  5
1F37
100
AcDbEntity
  8
0
 62
     0
100
AcDbLine
 10
274.511307
 20
147.232086
 30
0.0
 11
300.261307
 21
172.982086
 31
0.0
  0
LINE
  5
1F38
100
AcDbEntity
  8
0
 62
     0
100
AcDbLine
 10
235.559074
 20
106.512086
 30
0.0
 11
276.279074
 21
147.232086
 31
0.0
  0
LINE
  5
1F39
100
AcDbEntity
  8
0
 62
     0
100
AcDbLine
 10
276.279074
 20
147.232086
 30
0.0
 11
302.029074
 21
172.982086
 31
0.0
  0
LINE
  5
1F3A
100
AcDbEntity
  8
0
 62
     0
100
AcDbLine
 10
237.326841
 20
106.512086
 30
0.0
 11
278.046841
 21
147.232086
 31
0.0
  0
LINE
  5
1F3B
100
AcDbEntity
  8
0
 62
     0
100
AcDbLine
 10
278.046841
 20
147.232086
 30
0.0
 11
303.796841
 21
172.982086
 31
0.0
  0
LINE
  5
1F3C
100
AcDbEntity
  8
0
 62
     0
100
AcDbLine
 10
239.094608
 20
106.512086
 30
0.0
 11
279.814608
 21
147.232086
 31
0.0
  0
LINE
  5
1F3D
100
AcDbEntity
  8
0
 62
     0
100
AcDbLine
 10
279.814608
 20
147.232086
 30
0.0
 11
305.564608
 21
172.982086
 31
0.0
  0
LINE
  5
1F3E
100
AcDbEntity
  8
0
 62
     0
100
AcDbLine
 10
240.862375
 20
106.512086
 30
0.0
 11
281.582375
 21
147.232086
 31
0.0
  0
LINE
  5
1F3F
100
AcDbEntity
  8
0
 62
     0
100
AcDbLine
 10
281.582375
 20
147.232086
 30
0.0
 11
307.332375
 21
172.982086
 31
0.0
  0
LINE
  5
1F40
100
AcDbEntity
  8
0
 62
     0
100
AcDbLine
 10
242.630142
 20
106.512086
 30
0.0
 11
283.350142
 21
147.232086
 31
0.0
  0
LINE
  5
1F41
100
AcDbEntity
  8
0
 62
     0
100
AcDbLine
 10
283.350142
 20
147.232086
 30
0.0
 11
309.100142
 21
172.982086
 31
0.0
  0
LINE
  5
1F42
100
AcDbEntity
  8
0
 62
     0
100
AcDbLine
 10
244.397909
 20
106.512086
 30
0.0
 11
285.117909
 21
147.232086
 31
0.0
  0
LINE
  5
1F43
100
AcDbEntity
  8
0
 62
     0
100
AcDbLine
 10
285.117909
 20
147.232086
 30
0.0
 11
310.867909
 21
172.982086
 31
0.0
  0
LINE
  5
1F44
100
AcDbEntity
  8
0
 62
     0
100
AcDbLine
 10
246.165676
 20
106.512086
 30
0.0
 11
286.885676
 21
147.232086
 31
0.0
  0
LINE
  5
1F45
100
AcDbEntity
  8
0
 62
     0
100
AcDbLine
 10
286.885676
 20
147.232086
 30
0.0
 11
312.635676
 21
172.982086
 31
0.0
  0
LINE
  5
1F46
100
AcDbEntity
  8
0
 62
     0
100
AcDbLine
 10
247.933443
 20
106.512086
 30
0.0
 11
288.653443
 21
147.232086
 31
0.0
  0
LINE
  5
1F47
100
AcDbEntity
  8
0
 62
     0
100
AcDbLine
 10
288.653443
 20
147.232086
 30
0.0
 11
314.403443
 21
172.982086
 31
0.0
  0
LINE
  5
1F48
100
AcDbEntity
  8
0
 62
     0
100
AcDbLine
 10
249.70121
 20
106.512086
 30
0.0
 11
290.42121
 21
147.232086
 31
0.0
  0
LINE
  5
1F49
100
AcDbEntity
  8
0
 62
     0
100
AcDbLine
 10
290.42121
 20
147.232086
 30
0.0
 11
316.17121
 21
172.982086
 31
0.0
  0
LINE
  5
1F4A
100
AcDbEntity
  8
0
 62
     0
100
AcDbLine
 10
251.468977
 20
106.512086
 30
0.0
 11
292.188977
 21
147.232086
 31
0.0
  0
LINE
  5
1F4B
100
AcDbEntity
  8
0
 62
     0
100
AcDbLine
 10
292.188977
 20
147.232086
 30
0.0
 11
317.938977
 21
172.982086
 31
0.0
  0
LINE
  5
1F4C
100
AcDbEntity
  8
0
 62
     0
100
AcDbLine
 10
253.236743
 20
106.512086
 30
0.0
 11
293.956743
 21
147.232086
 31
0.0
  0
LINE
  5
1F4D
100
AcDbEntity
  8
0
 62
     0
100
AcDbLine
 10
293.956743
 20
147.232086
 30
0.0
 11
319.706743
 21
172.982086
 31
0.0
  0
LINE
  5
1F4E
100
AcDbEntity
  8
0
 62
     0
100
AcDbLine
 10
255.00451
 20
106.512086
 30
0.0
 11
295.72451
 21
147.232086
 31
0.0
  0
LINE
  5
1F4F
100
AcDbEntity
  8
0
 62
     0
100
AcDbLine
 10
295.72451
 20
147.232086
 30
0.0
 11
321.47451
 21
172.982086
 31
0.0
  0
LINE
  5
1F50
100
AcDbEntity
  8
0
 62
     0
100
AcDbLine
 10
256.772277
 20
106.512086
 30
0.0
 11
297.492277
 21
147.232086
 31
0.0
  0
LINE
  5
1F51
100
AcDbEntity
  8
0
 62
     0
100
AcDbLine
 10
297.492277
 20
147.232086
 30
0.0
 11
323.242277
 21
172.982086
 31
0.0
  0
LINE
  5
1F52
100
AcDbEntity
  8
0
 62
     0
100
AcDbLine
 10
258.540044
 20
106.512086
 30
0.0
 11
299.260044
 21
147.232086
 31
0.0
  0
LINE
  5
1F53
100
AcDbEntity
  8
0
 62
     0
100
AcDbLine
 10
299.260044
 20
147.232086
 30
0.0
 11
325.010044
 21
172.982086
 31
0.0
  0
LINE
  5
1F54
100
AcDbEntity
  8
0
 62
     0
100
AcDbLine
 10
260.307811
 20
106.512086
 30
0.0
 11
301.027811
 21
147.232086
 31
0.0
  0
LINE
  5
1F55
100
AcDbEntity
  8
0
 62
     0
100
AcDbLine
 10
301.027811
 20
147.232086
 30
0.0
 11
326.777811
 21
172.982086
 31
0.0
  0
LINE
  5
1F56
100
AcDbEntity
  8
0
 62
     0
100
AcDbLine
 10
262.075578
 20
106.512086
 30
0.0
 11
302.795578
 21
147.232086
 31
0.0
  0
LINE
  5
1F57
100
AcDbEntity
  8
0
 62
     0
100
AcDbLine
 10
302.795578
 20
147.232086
 30
0.0
 11
328.545578
 21
172.982086
 31
0.0
  0
LINE
  5
1F58
100
AcDbEntity
  8
0
 62
     0
100
AcDbLine
 10
263.843345
 20
106.512086
 30
0.0
 11
304.563345
 21
147.232086
 31
0.0
  0
LINE
  5
1F59
100
AcDbEntity
  8
0
 62
     0
100
AcDbLine
 10
304.563345
 20
147.232086
 30
0.0
 11
330.313345
 21
172.982086
 31
0.0
  0
LINE
  5
1F5A
100
AcDbEntity
  8
0
 62
     0
100
AcDbLine
 10
265.611112
 20
106.512086
 30
0.0
 11
306.331112
 21
147.232086
 31
0.0
  0
LINE
  5
1F5B
100
AcDbEntity
  8
0
 62
     0
100
AcDbLine
 10
306.331112
 20
147.232086
 30
0.0
 11
332.081112
 21
172.982086
 31
0.0
  0
LINE
  5
1F5C
100
AcDbEntity
  8
0
 62
     0
100
AcDbLine
 10
267.378879
 20
106.512086
 30
0.0
 11
308.098879
 21
147.232086
 31
0.0
  0
LINE
  5
1F5D
100
AcDbEntity
  8
0
 62
     0
100
AcDbLine
 10
308.098879
 20
147.232086
 30
0.0
 11
333.848879
 21
172.982086
 31
0.0
  0
LINE
  5
1F5E
100
AcDbEntity
  8
0
 62
     0
100
AcDbLine
 10
269.146646
 20
106.512086
 30
0.0
 11
309.866646
 21
147.232086
 31
0.0
  0
LINE
  5
1F5F
100
AcDbEntity
  8
0
 62
     0
100
AcDbLine
 10
309.866646
 20
147.232086
 30
0.0
 11
333.932512
 21
171.297952
 31
0.0
  0
LINE
  5
1F60
100
AcDbEntity
  8
0
 62
     0
100
AcDbLine
 10
270.914413
 20
106.512086
 30
0.0
 11
311.634413
 21
147.232086
 31
0.0
  0
LINE
  5
1F61
100
AcDbEntity
  8
0
 62
     0
100
AcDbLine
 10
311.634413
 20
147.232086
 30
0.0
 11
333.932512
 21
169.530185
 31
0.0
  0
LINE
  5
1F62
100
AcDbEntity
  8
0
 62
     0
100
AcDbLine
 10
272.68218
 20
106.512086
 30
0.0
 11
313.40218
 21
147.232086
 31
0.0
  0
LINE
  5
1F63
100
AcDbEntity
  8
0
 62
     0
100
AcDbLine
 10
313.40218
 20
147.232086
 30
0.0
 11
333.932512
 21
167.762418
 31
0.0
  0
LINE
  5
1F64
100
AcDbEntity
  8
0
 62
     0
100
AcDbLine
 10
274.449947
 20
106.512086
 30
0.0
 11
315.169947
 21
147.232086
 31
0.0
  0
LINE
  5
1F65
100
AcDbEntity
  8
0
 62
     0
100
AcDbLine
 10
315.169947
 20
147.232086
 30
0.0
 11
333.932512
 21
165.994651
 31
0.0
  0
LINE
  5
1F66
100
AcDbEntity
  8
0
 62
     0
100
AcDbLine
 10
276.217714
 20
106.512086
 30
0.0
 11
316.937714
 21
147.232086
 31
0.0
  0
LINE
  5
1F67
100
AcDbEntity
  8
0
 62
     0
100
AcDbLine
 10
316.937714
 20
147.232086
 30
0.0
 11
333.932512
 21
164.226884
 31
0.0
  0
LINE
  5
1F68
100
AcDbEntity
  8
0
 62
     0
100
AcDbLine
 10
277.985481
 20
106.512086
 30
0.0
 11
318.705481
 21
147.232086
 31
0.0
  0
LINE
  5
1F69
100
AcDbEntity
  8
0
 62
     0
100
AcDbLine
 10
318.705481
 20
147.232086
 30
0.0
 11
333.932512
 21
162.459117
 31
0.0
  0
LINE
  5
1F6A
100
AcDbEntity
  8
0
 62
     0
100
AcDbLine
 10
279.753248
 20
106.512086
 30
0.0
 11
320.473248
 21
147.232086
 31
0.0
  0
LINE
  5
1F6B
100
AcDbEntity
  8
0
 62
     0
100
AcDbLine
 10
320.473248
 20
147.232086
 30
0.0
 11
333.932512
 21
160.69135
 31
0.0
  0
LINE
  5
1F6C
100
AcDbEntity
  8
0
 62
     0
100
AcDbLine
 10
281.521015
 20
106.512086
 30
0.0
 11
322.241015
 21
147.232086
 31
0.0
  0
LINE
  5
1F6D
100
AcDbEntity
  8
0
 62
     0
100
AcDbLine
 10
322.241015
 20
147.232086
 30
0.0
 11
333.932512
 21
158.923583
 31
0.0
  0
LINE
  5
1F6E
100
AcDbEntity
  8
0
 62
     0
100
AcDbLine
 10
283.288782
 20
106.512086
 30
0.0
 11
324.008782
 21
147.232086
 31
0.0
  0
LINE
  5
1F6F
100
AcDbEntity
  8
0
 62
     0
100
AcDbLine
 10
324.008782
 20
147.232086
 30
0.0
 11
333.932512
 21
157.155816
 31
0.0
  0
LINE
  5
1F70
100
AcDbEntity
  8
0
 62
     0
100
AcDbLine
 10
285.056549
 20
106.512086
 30
0.0
 11
325.776549
 21
147.232086
 31
0.0
  0
LINE
  5
1F71
100
AcDbEntity
  8
0
 62
     0
100
AcDbLine
 10
325.776549
 20
147.232086
 30
0.0
 11
333.932512
 21
155.38805
 31
0.0
  0
LINE
  5
1F72
100
AcDbEntity
  8
0
 62
     0
100
AcDbLine
 10
286.824316
 20
106.512086
 30
0.0
 11
327.544316
 21
147.232086
 31
0.0
  0
LINE
  5
1F73
100
AcDbEntity
  8
0
 62
     0
100
AcDbLine
 10
327.544316
 20
147.232086
 30
0.0
 11
333.932512
 21
153.620283
 31
0.0
  0
LINE
  5
1F74
100
AcDbEntity
  8
0
 62
     0
100
AcDbLine
 10
288.592083
 20
106.512086
 30
0.0
 11
329.312083
 21
147.232086
 31
0.0
  0
LINE
  5
1F75
100
AcDbEntity
  8
0
 62
     0
100
AcDbLine
 10
329.312083
 20
147.232086
 30
0.0
 11
333.932512
 21
151.852516
 31
0.0
  0
LINE
  5
1F76
100
AcDbEntity
  8
0
 62
     0
100
AcDbLine
 10
290.35985
 20
106.512086
 30
0.0
 11
331.07985
 21
147.232086
 31
0.0
  0
LINE
  5
1F77
100
AcDbEntity
  8
0
 62
     0
100
AcDbLine
 10
331.07985
 20
147.232086
 30
0.0
 11
333.932512
 21
150.084749
 31
0.0
  0
LINE
  5
1F78
100
AcDbEntity
  8
0
 62
     0
100
AcDbLine
 10
292.127616
 20
106.512086
 30
0.0
 11
332.847616
 21
147.232086
 31
0.0
  0
LINE
  5
1F79
100
AcDbEntity
  8
0
 62
     0
100
AcDbLine
 10
332.847616
 20
147.232086
 30
0.0
 11
333.932512
 21
148.316982
 31
0.0
  0
LINE
  5
1F7A
100
AcDbEntity
  8
0
 62
     0
100
AcDbLine
 10
293.895383
 20
106.512086
 30
0.0
 11
333.932512
 21
146.549215
 31
0.0
  0
LINE
  5
1F7B
100
AcDbEntity
  8
0
 62
     0
100
AcDbLine
 10
295.66315
 20
106.512086
 30
0.0
 11
333.932512
 21
144.781448
 31
0.0
  0
LINE
  5
1F7C
100
AcDbEntity
  8
0
 62
     0
100
AcDbLine
 10
297.430917
 20
106.512086
 30
0.0
 11
333.932512
 21
143.013681
 31
0.0
  0
LINE
  5
1F7D
100
AcDbEntity
  8
0
 62
     0
100
AcDbLine
 10
299.198684
 20
106.512086
 30
0.0
 11
333.932512
 21
141.245914
 31
0.0
  0
LINE
  5
1F7E
100
AcDbEntity
  8
0
 62
     0
100
AcDbLine
 10
300.966451
 20
106.512086
 30
0.0
 11
333.932512
 21
139.478147
 31
0.0
  0
LINE
  5
1F7F
100
AcDbEntity
  8
0
 62
     0
100
AcDbLine
 10
302.734218
 20
106.512086
 30
0.0
 11
333.932512
 21
137.71038
 31
0.0
  0
LINE
  5
1F80
100
AcDbEntity
  8
0
 62
     0
100
AcDbLine
 10
304.501985
 20
106.512086
 30
0.0
 11
333.932512
 21
135.942613
 31
0.0
  0
LINE
  5
1F81
100
AcDbEntity
  8
0
 62
     0
100
AcDbLine
 10
306.269752
 20
106.512086
 30
0.0
 11
333.932512
 21
134.174846
 31
0.0
  0
LINE
  5
1F82
100
AcDbEntity
  8
0
 62
     0
100
AcDbLine
 10
308.037519
 20
106.512086
 30
0.0
 11
333.932512
 21
132.407079
 31
0.0
  0
LINE
  5
1F83
100
AcDbEntity
  8
0
 62
     0
100
AcDbLine
 10
309.805286
 20
106.512086
 30
0.0
 11
333.932512
 21
130.639312
 31
0.0
  0
LINE
  5
1F84
100
AcDbEntity
  8
0
 62
     0
100
AcDbLine
 10
311.573053
 20
106.512086
 30
0.0
 11
333.932512
 21
128.871545
 31
0.0
  0
LINE
  5
1F85
100
AcDbEntity
  8
0
 62
     0
100
AcDbLine
 10
313.34082
 20
106.512086
 30
0.0
 11
333.932512
 21
127.103778
 31
0.0
  0
LINE
  5
1F86
100
AcDbEntity
  8
0
 62
     0
100
AcDbLine
 10
315.108587
 20
106.512086
 30
0.0
 11
333.932512
 21
125.336011
 31
0.0
  0
LINE
  5
1F87
100
AcDbEntity
  8
0
 62
     0
100
AcDbLine
 10
316.876354
 20
106.512086
 30
0.0
 11
333.932512
 21
123.568244
 31
0.0
  0
LINE
  5
1F88
100
AcDbEntity
  8
0
 62
     0
100
AcDbLine
 10
318.644121
 20
106.512086
 30
0.0
 11
333.932512
 21
121.800477
 31
0.0
  0
LINE
  5
1F89
100
AcDbEntity
  8
0
 62
     0
100
AcDbLine
 10
320.411888
 20
106.512086
 30
0.0
 11
333.932512
 21
120.03271
 31
0.0
  0
LINE
  5
1F8A
100
AcDbEntity
  8
0
 62
     0
100
AcDbLine
 10
322.179655
 20
106.512086
 30
0.0
 11
333.932512
 21
118.264944
 31
0.0
  0
LINE
  5
1F8B
100
AcDbEntity
  8
0
 62
     0
100
AcDbLine
 10
323.947422
 20
106.512086
 30
0.0
 11
333.932512
 21
116.497177
 31
0.0
  0
LINE
  5
1F8C
100
AcDbEntity
  8
0
 62
     0
100
AcDbLine
 10
325.715189
 20
106.512086
 30
0.0
 11
333.932512
 21
114.72941
 31
0.0
  0
LINE
  5
1F8D
100
AcDbEntity
  8
0
 62
     0
100
AcDbLine
 10
327.482956
 20
106.512086
 30
0.0
 11
333.932512
 21
112.961643
 31
0.0
  0
LINE
  5
1F8E
100
AcDbEntity
  8
0
 62
     0
100
AcDbLine
 10
329.250722
 20
106.512086
 30
0.0
 11
333.932512
 21
111.193876
 31
0.0
  0
LINE
  5
1F8F
100
AcDbEntity
  8
0
 62
     0
100
AcDbLine
 10
331.018489
 20
106.512086
 30
0.0
 11
333.932512
 21
109.426109
 31
0.0
  0
LINE
  5
1F90
100
AcDbEntity
  8
0
 62
     0
100
AcDbLine
 10
332.786256
 20
106.512086
 30
0.0
 11
333.932512
 21
107.658342
 31
0.0
  0
ENDBLK
  5
1F91
100
AcDbEntity
  8
0
100
AcDbBlockEnd
  0
BLOCK
  5
1FB7
100
AcDbEntity
  8
0
100
AcDbBlockBegin
  2
*X15
 70
    65
 10
0.0
 20
0.0
 30
0.0
  3
*X15
  1

  0
LINE
  5
1FB9
100
AcDbEntity
  8
0
 62
     0
100
AcDbLine
 10
179.182549
 20
258.732062
 30
0.0
 11
184.182549
 21
263.732062
 31
0.0
  0
LINE
  5
1FBA
100
AcDbEntity
  8
0
 62
     0
100
AcDbLine
 10
202.577512
 20
282.127025
 30
0.0
 11
207.577512
 21
287.127025
 31
0.0
  0
LINE
  5
1FBB
100
AcDbEntity
  8
0
 62
     0
100
AcDbLine
 10
179.182549
 20
260.499829
 30
0.0
 11
184.182549
 21
265.499829
 31
0.0
  0
LINE
  5
1FBC
100
AcDbEntity
  8
0
 62
     0
100
AcDbLine
 10
202.577512
 20
283.894792
 30
0.0
 11
207.577512
 21
288.894792
 31
0.0
  0
LINE
  5
1FBD
100
AcDbEntity
  8
0
 62
     0
100
AcDbLine
 10
179.182549
 20
262.267596
 30
0.0
 11
183.946173
 21
267.03122
 31
0.0
  0
LINE
  5
1FBE
100
AcDbEntity
  8
0
 62
     0
100
AcDbLine
 10
202.577512
 20
285.662559
 30
0.0
 11
207.577512
 21
290.662559
 31
0.0
  0
LINE
  5
1FBF
100
AcDbEntity
  8
0
 62
     0
100
AcDbLine
 10
183.946173
 20
267.03122
 30
0.0
 11
184.182549
 21
267.267596
 31
0.0
  0
LINE
  5
1FC0
100
AcDbEntity
  8
0
 62
     0
100
AcDbLine
 10
179.182549
 20
264.035363
 30
0.0
 11
182.178406
 21
267.03122
 31
0.0
  0
LINE
  5
1FC1
100
AcDbEntity
  8
0
 62
     0
100
AcDbLine
 10
202.577512
 20
287.430326
 30
0.0
 11
207.577512
 21
292.430326
 31
0.0
  0
LINE
  5
1FC2
100
AcDbEntity
  8
0
 62
     0
100
AcDbLine
 10
182.178406
 20
267.03122
 30
0.0
 11
184.182549
 21
269.035363
 31
0.0
  0
LINE
  5
1FC3
100
AcDbEntity
  8
0
 62
     0
100
AcDbLine
 10
179.182549
 20
265.80313
 30
0.0
 11
180.410639
 21
267.03122
 31
0.0
  0
LINE
  5
1FC4
100
AcDbEntity
  8
0
 62
     0
100
AcDbLine
 10
202.577512
 20
289.198092
 30
0.0
 11
207.577512
 21
294.198092
 31
0.0
  0
LINE
  5
1FC5
100
AcDbEntity
  8
0
 62
     0
100
AcDbLine
 10
180.410639
 20
267.03122
 30
0.0
 11
184.182549
 21
270.80313
 31
0.0
  0
LINE
  5
1FC6
100
AcDbEntity
  8
0
 62
     0
100
AcDbLine
 10
179.182549
 20
267.570897
 30
0.0
 11
184.182549
 21
272.570897
 31
0.0
  0
LINE
  5
1FC7
100
AcDbEntity
  8
0
 62
     0
100
AcDbLine
 10
202.577512
 20
290.965859
 30
0.0
 11
207.577512
 21
295.965859
 31
0.0
  0
LINE
  5
1FC8
100
AcDbEntity
  8
0
 62
     0
100
AcDbLine
 10
179.182549
 20
269.338664
 30
0.0
 11
184.182549
 21
274.338664
 31
0.0
  0
LINE
  5
1FC9
100
AcDbEntity
  8
0
 62
     0
100
AcDbLine
 10
202.577512
 20
292.733626
 30
0.0
 11
207.577512
 21
297.733626
 31
0.0
  0
LINE
  5
1FCA
100
AcDbEntity
  8
0
 62
     0
100
AcDbLine
 10
179.182549
 20
271.106431
 30
0.0
 11
184.182549
 21
276.106431
 31
0.0
  0
LINE
  5
1FCB
100
AcDbEntity
  8
0
 62
     0
100
AcDbLine
 10
202.577512
 20
294.501393
 30
0.0
 11
207.577512
 21
299.501393
 31
0.0
  0
LINE
  5
1FCC
100
AcDbEntity
  8
0
 62
     0
100
AcDbLine
 10
179.182549
 20
272.874198
 30
0.0
 11
184.182549
 21
277.874198
 31
0.0
  0
LINE
  5
1FCD
100
AcDbEntity
  8
0
 62
     0
100
AcDbLine
 10
202.577512
 20
296.26916
 30
0.0
 11
207.577512
 21
301.26916
 31
0.0
  0
LINE
  5
1FCE
100
AcDbEntity
  8
0
 62
     0
100
AcDbLine
 10
179.182549
 20
274.641965
 30
0.0
 11
184.182549
 21
279.641965
 31
0.0
  0
LINE
  5
1FCF
100
AcDbEntity
  8
0
 62
     0
100
AcDbLine
 10
202.577512
 20
298.036927
 30
0.0
 11
207.577512
 21
303.036927
 31
0.0
  0
LINE
  5
1FD0
100
AcDbEntity
  8
0
 62
     0
100
AcDbLine
 10
179.182549
 20
276.409732
 30
0.0
 11
184.182549
 21
281.409732
 31
0.0
  0
LINE
  5
1FD1
100
AcDbEntity
  8
0
 62
     0
100
AcDbLine
 10
202.577512
 20
299.804694
 30
0.0
 11
207.577512
 21
304.804694
 31
0.0
  0
LINE
  5
1FD2
100
AcDbEntity
  8
0
 62
     0
100
AcDbLine
 10
179.182549
 20
278.177499
 30
0.0
 11
184.182549
 21
283.177499
 31
0.0
  0
LINE
  5
1FD3
100
AcDbEntity
  8
0
 62
     0
100
AcDbLine
 10
202.577512
 20
301.572461
 30
0.0
 11
207.577512
 21
306.572461
 31
0.0
  0
LINE
  5
1FD4
100
AcDbEntity
  8
0
 62
     0
100
AcDbLine
 10
179.182549
 20
279.945266
 30
0.0
 11
184.182549
 21
284.945266
 31
0.0
  0
LINE
  5
1FD5
100
AcDbEntity
  8
0
 62
     0
100
AcDbLine
 10
202.577512
 20
303.340228
 30
0.0
 11
206.998504
 21
307.76122
 31
0.0
  0
LINE
  5
1FD6
100
AcDbEntity
  8
0
 62
     0
100
AcDbLine
 10
179.182549
 20
281.713033
 30
0.0
 11
184.182549
 21
286.713033
 31
0.0
  0
LINE
  5
1FD7
100
AcDbEntity
  8
0
 62
     0
100
AcDbLine
 10
202.577512
 20
305.107995
 30
0.0
 11
205.230737
 21
307.76122
 31
0.0
  0
LINE
  5
1FD8
100
AcDbEntity
  8
0
 62
     0
100
AcDbLine
 10
179.182549
 20
283.4808
 30
0.0
 11
184.182549
 21
288.4808
 31
0.0
  0
LINE
  5
1FD9
100
AcDbEntity
  8
0
 62
     0
100
AcDbLine
 10
202.577512
 20
306.875762
 30
0.0
 11
203.46297
 21
307.76122
 31
0.0
  0
LINE
  5
1FDA
100
AcDbEntity
  8
0
 62
     0
100
AcDbLine
 10
179.182549
 20
285.248567
 30
0.0
 11
184.182549
 21
290.248567
 31
0.0
  0
LINE
  5
1FDB
100
AcDbEntity
  8
0
 62
     0
100
AcDbLine
 10
179.182549
 20
287.016334
 30
0.0
 11
184.182549
 21
292.016334
 31
0.0
  0
LINE
  5
1FDC
100
AcDbEntity
  8
0
 62
     0
100
AcDbLine
 10
179.182549
 20
288.784101
 30
0.0
 11
184.182549
 21
293.784101
 31
0.0
  0
LINE
  5
1FDD
100
AcDbEntity
  8
0
 62
     0
100
AcDbLine
 10
179.182549
 20
290.551867
 30
0.0
 11
184.182549
 21
295.551867
 31
0.0
  0
LINE
  5
1FDE
100
AcDbEntity
  8
0
 62
     0
100
AcDbLine
 10
179.182549
 20
292.319634
 30
0.0
 11
184.182549
 21
297.319634
 31
0.0
  0
LINE
  5
1FDF
100
AcDbEntity
  8
0
 62
     0
100
AcDbLine
 10
179.182549
 20
294.087401
 30
0.0
 11
184.182549
 21
299.087401
 31
0.0
  0
LINE
  5
1FE0
100
AcDbEntity
  8
0
 62
     0
100
AcDbLine
 10
179.182549
 20
295.855168
 30
0.0
 11
184.182549
 21
300.855168
 31
0.0
  0
LINE
  5
1FE1
100
AcDbEntity
  8
0
 62
     0
100
AcDbLine
 10
179.182549
 20
297.622935
 30
0.0
 11
184.182549
 21
302.622935
 31
0.0
  0
LINE
  5
1FE2
100
AcDbEntity
  8
0
 62
     0
100
AcDbLine
 10
179.182549
 20
299.390702
 30
0.0
 11
184.182549
 21
304.390702
 31
0.0
  0
LINE
  5
1FE3
100
AcDbEntity
  8
0
 62
     0
100
AcDbLine
 10
179.182549
 20
301.158469
 30
0.0
 11
183.5053
 21
305.48122
 31
0.0
  0
LINE
  5
1FE4
100
AcDbEntity
  8
0
 62
     0
100
AcDbLine
 10
179.182549
 20
302.926236
 30
0.0
 11
181.737533
 21
305.48122
 31
0.0
  0
LINE
  5
1FE5
100
AcDbEntity
  8
0
 62
     0
100
AcDbLine
 10
179.182549
 20
304.694003
 30
0.0
 11
179.969766
 21
305.48122
 31
0.0
  0
LINE
  5
1FE6
100
AcDbEntity
  8
0
 62
     0
100
AcDbLine
 10
179.182549
 20
256.964295
 30
0.0
 11
184.182549
 21
261.964295
 31
0.0
  0
LINE
  5
1FE7
100
AcDbEntity
  8
0
 62
     0
100
AcDbLine
 10
202.577512
 20
280.359258
 30
0.0
 11
207.577512
 21
285.359258
 31
0.0
  0
LINE
  5
1FE8
100
AcDbEntity
  8
0
 62
     0
100
AcDbLine
 10
179.182549
 20
255.196528
 30
0.0
 11
184.182549
 21
260.196528
 31
0.0
  0
LINE
  5
1FE9
100
AcDbEntity
  8
0
 62
     0
100
AcDbLine
 10
202.577512
 20
278.591491
 30
0.0
 11
207.577512
 21
283.591491
 31
0.0
  0
LINE
  5
1FEA
100
AcDbEntity
  8
0
 62
     0
100
AcDbLine
 10
179.182549
 20
253.428761
 30
0.0
 11
184.182549
 21
258.428761
 31
0.0
  0
LINE
  5
1FEB
100
AcDbEntity
  8
0
 62
     0
100
AcDbLine
 10
202.577512
 20
276.823724
 30
0.0
 11
207.577512
 21
281.823724
 31
0.0
  0
LINE
  5
1FEC
100
AcDbEntity
  8
0
 62
     0
100
AcDbLine
 10
179.182549
 20
251.660994
 30
0.0
 11
184.182549
 21
256.660994
 31
0.0
  0
LINE
  5
1FED
100
AcDbEntity
  8
0
 62
     0
100
AcDbLine
 10
202.577512
 20
275.055957
 30
0.0
 11
207.577512
 21
280.055957
 31
0.0
  0
LINE
  5
1FEE
100
AcDbEntity
  8
0
 62
     0
100
AcDbLine
 10
179.182549
 20
249.893228
 30
0.0
 11
184.182549
 21
254.893228
 31
0.0
  0
LINE
  5
1FEF
100
AcDbEntity
  8
0
 62
     0
100
AcDbLine
 10
202.577512
 20
273.28819
 30
0.0
 11
207.577512
 21
278.28819
 31
0.0
  0
LINE
  5
1FF0
100
AcDbEntity
  8
0
 62
     0
100
AcDbLine
 10
179.182549
 20
248.125461
 30
0.0
 11
184.182549
 21
253.125461
 31
0.0
  0
LINE
  5
1FF1
100
AcDbEntity
  8
0
 62
     0
100
AcDbLine
 10
202.577512
 20
271.520423
 30
0.0
 11
207.577512
 21
276.520423
 31
0.0
  0
LINE
  5
1FF2
100
AcDbEntity
  8
0
 62
     0
100
AcDbLine
 10
179.182549
 20
246.357694
 30
0.0
 11
184.182549
 21
251.357694
 31
0.0
  0
LINE
  5
1FF3
100
AcDbEntity
  8
0
 62
     0
100
AcDbLine
 10
202.577512
 20
269.752656
 30
0.0
 11
207.577512
 21
274.752656
 31
0.0
  0
LINE
  5
1FF4
100
AcDbEntity
  8
0
 62
     0
100
AcDbLine
 10
179.182549
 20
244.589927
 30
0.0
 11
184.182549
 21
249.589927
 31
0.0
  0
LINE
  5
1FF5
100
AcDbEntity
  8
0
 62
     0
100
AcDbLine
 10
202.577512
 20
267.984889
 30
0.0
 11
207.577512
 21
272.984889
 31
0.0
  0
LINE
  5
1FF6
100
AcDbEntity
  8
0
 62
     0
100
AcDbLine
 10
179.182549
 20
242.82216
 30
0.0
 11
184.182549
 21
247.82216
 31
0.0
  0
LINE
  5
1FF7
100
AcDbEntity
  8
0
 62
     0
100
AcDbLine
 10
203.39161
 20
267.03122
 30
0.0
 11
207.577512
 21
271.217122
 31
0.0
  0
LINE
  5
1FF8
100
AcDbEntity
  8
0
 62
     0
100
AcDbLine
 10
202.577512
 20
266.217122
 30
0.0
 11
203.39161
 21
267.03122
 31
0.0
  0
LINE
  5
1FF9
100
AcDbEntity
  8
0
 62
     0
100
AcDbLine
 10
179.182549
 20
241.054393
 30
0.0
 11
184.182549
 21
246.054393
 31
0.0
  0
LINE
  5
1FFA
100
AcDbEntity
  8
0
 62
     0
100
AcDbLine
 10
205.159377
 20
267.03122
 30
0.0
 11
207.577512
 21
269.449355
 31
0.0
  0
LINE
  5
1FFB
100
AcDbEntity
  8
0
 62
     0
100
AcDbLine
 10
202.577512
 20
264.449355
 30
0.0
 11
205.159377
 21
267.03122
 31
0.0
  0
LINE
  5
1FFC
100
AcDbEntity
  8
0
 62
     0
100
AcDbLine
 10
180.477144
 20
240.58122
 30
0.0
 11
184.182549
 21
244.286626
 31
0.0
  0
LINE
  5
1FFD
100
AcDbEntity
  8
0
 62
     0
100
AcDbLine
 10
206.927144
 20
267.03122
 30
0.0
 11
207.577512
 21
267.681588
 31
0.0
  0
LINE
  5
1FFE
100
AcDbEntity
  8
0
 62
     0
100
AcDbLine
 10
202.577512
 20
262.681588
 30
0.0
 11
206.927144
 21
267.03122
 31
0.0
  0
LINE
  5
1FFF
100
AcDbEntity
  8
0
 62
     0
100
AcDbLine
 10
182.244911
 20
240.58122
 30
0.0
 11
184.182549
 21
242.518859
 31
0.0
  0
LINE
  5
2000
100
AcDbEntity
  8
0
 62
     0
100
AcDbLine
 10
202.577512
 20
260.913821
 30
0.0
 11
207.577512
 21
265.913821
 31
0.0
  0
LINE
  5
2001
100
AcDbEntity
  8
0
 62
     0
100
AcDbLine
 10
184.012678
 20
240.58122
 30
0.0
 11
184.182549
 21
240.751092
 31
0.0
  0
LINE
  5
2002
100
AcDbEntity
  8
0
 62
     0
100
AcDbLine
 10
202.577512
 20
259.146054
 30
0.0
 11
207.577512
 21
264.146054
 31
0.0
  0
LINE
  5
2003
100
AcDbEntity
  8
0
 62
     0
100
AcDbLine
 10
202.577512
 20
257.378287
 30
0.0
 11
207.577512
 21
262.378287
 31
0.0
  0
LINE
  5
2004
100
AcDbEntity
  8
0
 62
     0
100
AcDbLine
 10
202.577512
 20
255.61052
 30
0.0
 11
207.577512
 21
260.61052
 31
0.0
  0
LINE
  5
2005
100
AcDbEntity
  8
0
 62
     0
100
AcDbLine
 10
202.577512
 20
253.842753
 30
0.0
 11
207.577512
 21
258.842753
 31
0.0
  0
LINE
  5
2006
100
AcDbEntity
  8
0
 62
     0
100
AcDbLine
 10
202.577512
 20
252.074986
 30
0.0
 11
207.577512
 21
257.074986
 31
0.0
  0
LINE
  5
2007
100
AcDbEntity
  8
0
 62
     0
100
AcDbLine
 10
202.577512
 20
250.30722
 30
0.0
 11
207.577512
 21
255.30722
 31
0.0
  0
LINE
  5
2008
100
AcDbEntity
  8
0
 62
     0
100
AcDbLine
 10
202.577512
 20
248.539453
 30
0.0
 11
207.577512
 21
253.539453
 31
0.0
  0
LINE
  5
2009
100
AcDbEntity
  8
0
 62
     0
100
AcDbLine
 10
202.577512
 20
246.771686
 30
0.0
 11
207.577512
 21
251.771686
 31
0.0
  0
LINE
  5
200A
100
AcDbEntity
  8
0
 62
     0
100
AcDbLine
 10
202.577512
 20
245.003919
 30
0.0
 11
207.577512
 21
250.003919
 31
0.0
  0
LINE
  5
200B
100
AcDbEntity
  8
0
 62
     0
100
AcDbLine
 10
202.577512
 20
243.236152
 30
0.0
 11
207.577512
 21
248.236152
 31
0.0
  0
LINE
  5
200C
100
AcDbEntity
  8
0
 62
     0
100
AcDbLine
 10
202.577512
 20
241.468385
 30
0.0
 11
207.577512
 21
246.468385
 31
0.0
  0
LINE
  5
200D
100
AcDbEntity
  8
0
 62
     0
100
AcDbLine
 10
204.168114
 20
241.29122
 30
0.0
 11
207.577512
 21
244.700618
 31
0.0
  0
LINE
  5
200E
100
AcDbEntity
  8
0
 62
     0
100
AcDbLine
 10
205.935881
 20
241.29122
 30
0.0
 11
207.577512
 21
242.932851
 31
0.0
  0
ENDBLK
  5
200F
100
AcDbEntity
  8
0
100
AcDbBlockEnd
  0
BLOCK
  5
20BA
100
AcDbEntity
  8
TEXT
100
AcDbBlockBegin
  2
*U16
 70
     1
 10
0.0
 20
0.0
 30
0.0
  3
*U16
  1

  0
ENDBLK
  5
20BB
100
AcDbEntity
  8
TEXT
100
AcDbBlockEnd
  0
ENDSEC
  0
SECTION
  2
ENTITIES
  0
INSERT
  5
82
100
AcDbEntity
  8
0
100
AcDbBlockReference
  2
C-BORDER
 10
0.0
 20
0.0
 30
0.0
 41
25.4
 42
25.4
 43
25.4
  0
TEXT
  5
43E
100
AcDbEntity
  8
TEXT
100
AcDbText
 10
416.359335
 20
38.288169
 30
0.0
 40
3.0
  1
LAYER 3 BACKWARD DETECTOR-HDI ASS'Y
100
AcDbText
  0
TEXT
  5
43F
100
AcDbEntity
  8
TEXT
100
AcDbText
 10
424.632676
 20
24.003265
 30
0.0
 40
3.0
  1
UPILEX
100
AcDbText
  0
TEXT
  5
440
100
AcDbEntity
  8
TEXT
100
AcDbText
 10
468.819839
 20
24.567144
 30
0.0
 40
3.0
  1
L3-UPI02
100
AcDbText
  0
TEXT
  5
441
100
AcDbEntity
  8
TEXT
100
AcDbText
 10
424.444646
 20
17.236732
 30
0.0
 40
3.0
  1
1=1
100
AcDbText
  0
TEXT
  5
442
100
AcDbEntity
  8
TEXT
100
AcDbText
 10
376.496873
 20
33.965106
 30
0.0
 40
3.0
  1
S. KYRE
100
AcDbText
  0
TEXT
  5
443
100
AcDbEntity
  8
TEXT
100
AcDbText
 10
400.188714
 20
33.777147
 30
0.0
 40
1.5
  1
10-05-95
100
AcDbText
  0
TEXT
  5
4D1
100
AcDbEntity
  8
TEXT
100
AcDbText
 10
223.8125
 20
89.4375
 30
0.0
 40
5.0
  1
LAYER 3 BACKWARD
100
AcDbText
  0
TEXT
  5
4D2
100
AcDbEntity
  8
TEXT
100
AcDbText
 10
223.8125
 20
81.104167
 30
0.0
 40
5.0
  1
Z-SIDE
100
AcDbText
  0
TEXT
  5
4D3
100
AcDbEntity
  8
TEXT
100
AcDbText
 10
223.8125
 20
225.3125
 30
0.0
 40
5.0
  1
LAYER 3 BACKWARD
100
AcDbText
  0
TEXT
  5
4D4
100
AcDbEntity
  8
TEXT
100
AcDbText
 10
223.8125
 20
216.791667
 30
0.0
 40
5.0
  1
PHI-SIDE
100
AcDbText
  0
TEXT
  5
4D6
100
AcDbEntity
  8
TEXT
100
AcDbText
 10
185.5
 20
338.5
 30
0.0
 40
5.0
  1
NOTE: HDI IS DRAWN IN EXTENDED POSITION
100
AcDbText
  0
LINE
  5
16CB
100
AcDbEntity
  8
CENTER
100
AcDbLine
 10
349.627347
 20
267.03122
 30
0.0
 11
128.226629
 21
267.03122
 31
0.0
1001
ACAD
1000
ASC_BOUNDS
1002
{
1070
    19
1005
1FB8
1005
0
1005
0
1005
0
1005
0
1005
0
1005
0
1005
0
1005
0
1005
0
1005
0
1005
0
1005
0
1005
0
1005
0
1005
0
1005
0
1005
0
1005
0
1005
0
1005
0
1005
0
1005
0
1005
0
1005
0
1005
0
1005
0
1005
0
1005
1FB8
1005
1FB8
1005
1FB8
1002
}
  0
INSERT
  5
16CC
100
AcDbEntity
  8
KEVLAR
100
AcDbBlockReference
  2
HYBR-3
 10
184.182549
 20
239.88122
 30
0.0
 41
-1.0
  0
INSERT
  5
16CD
100
AcDbEntity
  8
BUSHING
100
AcDbBlockReference
  2
POST-3
 10
161.582549
 20
245.33122
 30
0.0
 41
-1.0
  0
INSERT
  5
16CE
100
AcDbEntity
  8
BUSHING
100
AcDbBlockReference
  2
POST-3
 10
161.582549
 20
288.03122
 30
0.0
 41
-1.0
  0
LINE
  5
16D2
100
AcDbEntity
  8
UPILEX
100
AcDbLine
 10
196.867512
 20
240.58122
 30
0.0
 11
179.182549
 21
240.58122
 31
0.0
1001
ACAD
1000
ASC_BOUNDS
1002
{
1070
    19
1005
1FB8
1002
}
  0
LINE
  5
16D3
100
AcDbEntity
  8
UPILEX
100
AcDbLine
 10
179.182549
 20
240.58122
 30
0.0
 11
179.182549
 21
305.48122
 31
0.0
1001
ACAD
1000
ASC_BOUNDS
1002
{
1070
    19
1005
1FB8
1005
0
1005
0
1005
0
1005
0
1005
0
1005
0
1005
0
1005
0
1005
0
1005
1FB8
1002
}
  0
LINE
  5
16D4
100
AcDbEntity
  8
UPILEX
100
AcDbLine
 10
179.182549
 20
305.48122
 30
0.0
 11
195.307512
 21
305.48122
 31
0.0
1001
ACAD
1000
ASC_BOUNDS
1002
{
1070
    19
1005
1FB8
1002
}
  0
LINE
  5
16D5
100
AcDbEntity
  8
UPILEX
100
AcDbLine
 10
184.182549
 20
305.48122
 30
0.0
 11
184.182549
 21
240.58122
 31
0.0
1001
ACAD
1000
ASC_BOUNDS
1002
{
1070
    19
1005
1FB8
1005
0
1005
0
1005
0
1005
0
1005
0
1005
0
1005
0
1005
0
1005
0
1005
1FB8
1002
}
  0
LINE
  5
16D6
100
AcDbEntity
  8
UPILEX
100
AcDbLine
 10
202.577512
 20
241.29122
 30
0.0
 11
202.577512
 21
307.76122
 31
0.0
1001
ACAD
1000
ASC_BOUNDS
1002
{
1070
    19
1005
1FB8
1005
0
1005
0
1005
0
1005
0
1005
0
1005
0
1005
0
1005
0
1005
0
1005
1FB8
1002
}
  0
LINE
  5
16D7
100
AcDbEntity
  8
UPILEX
100
AcDbLine
 10
197.577512
 20
307.76122
 30
0.0
 11
207.577512
 21
307.76122
 31
0.0
1001
ACAD
1000
ASC_BOUNDS
1002
{
1070
    19
1005
1FB8
1002
}
  0
LINE
  5
16D8
100
AcDbEntity
  8
UPILEX
100
AcDbLine
 10
207.577512
 20
307.76122
 30
0.0
 11
207.577512
 21
241.29122
 31
0.0
1001
ACAD
1000
ASC_BOUNDS
1002
{
1070
    19
1005
1FB8
1005
0
1005
0
1005
0
1005
0
1005
0
1005
0
1005
0
1005
0
1005
0
1005
1FB8
1002
}
  0
LINE
  5
16D9
100
AcDbEntity
  8
UPILEX
100
AcDbLine
 10
207.577512
 20
241.29122
 30
0.0
 11
197.577512
 21
241.29122
 31
0.0
1001
ACAD
1000
ASC_BOUNDS
1002
{
1070
    19
1005
1FB8
1002
}
  0
LINE
  5
16DA
100
AcDbEntity
  8
UPILEX
100
AcDbLine
 10
197.577512
 20
241.29122
 30
0.0
 11
196.867512
 21
240.58122
 31
0.0
  0
LINE
  5
16DB
100
AcDbEntity
  8
UPILEX
100
AcDbLine
 10
197.577512
 20
307.76122
 30
0.0
 11
195.307512
 21
305.48122
 31
0.0
  0
LINE
  5
16DC
100
AcDbEntity
  8
UPILEX
100
AcDbLine
 10
202.577512
 20
172.982086
 30
0.0
 11
202.577512
 21
106.512086
 31
0.0
1001
ACAD
1000
ASC_BOUNDS
1002
{
1070
    19
1005
1EAD
1005
0
1005
0
1005
0
1005
0
1005
0
1005
0
1005
0
1005
0
1005
0
1005
0
1005
0
1005
0
1005
0
1005
0
1005
0
1005
1EAD
1002
}
  0
LINE
  5
16DD
100
AcDbEntity
  8
UPILEX
100
AcDbLine
 10
333.932512
 20
106.512086
 30
0.0
 11
333.932512
 21
172.982086
 31
0.0
1001
ACAD
1000
ASC_BOUNDS
1002
{
1070
    19
1005
1EAD
1005
0
1005
0
1005
0
1005
0
1005
0
1005
0
1005
0
1005
0
1005
0
1005
0
1005
0
1005
0
1005
0
1005
0
1005
0
1005
1EAD
1002
}
  0
LINE
  5
16DE
100
AcDbEntity
  8
UPILEX
100
AcDbLine
 10
184.182549
 20
108.782086
 30
0.0
 11
184.182549
 21
173.682086
 31
0.0
1001
ACAD
1000
ASC_BOUNDS
1002
{
1070
    19
1005
1EAD
1005
0
1005
0
1005
0
1005
0
1005
0
1005
0
1005
0
1005
0
1005
0
1005
0
1005
0
1005
0
1005
0
1005
0
1005
0
1005
1EAD
1002
}
  0
LINE
  5
16DF
100
AcDbEntity
  8
UPILEX
100
AcDbLine
 10
179.182549
 20
173.682086
 30
0.0
 11
179.182549
 21
108.782086
 31
0.0
1001
ACAD
1000
ASC_BOUNDS
1002
{
1070
    19
1005
1EAD
1005
0
1005
0
1005
0
1005
0
1005
0
1005
0
1005
0
1005
0
1005
0
1005
0
1005
0
1005
0
1005
0
1005
0
1005
0
1005
1EAD
1002
}
  0
INSERT
  5
16E0
100
AcDbEntity
  8
KEVLAR
100
AcDbBlockReference
  2
HYBR-3
 10
184.182549
 20
174.382086
 30
0.0
 50
180.0
  0
LINE
  5
16E1
100
AcDbEntity
  8
CENTER
100
AcDbLine
 10
349.627347
 20
147.232086
 30
0.0
 11
128.226629
 21
147.232086
 31
0.0
1001
ACAD
1000
ASC_BOUNDS
1002
{
1070
    19
1005
1EAD
1005
0
1005
0
1005
0
1005
0
1005
0
1005
0
1005
0
1005
0
1005
0
1005
0
1005
0
1005
0
1005
0
1005
0
1005
0
1005
0
1005
0
1005
0
1005
0
1005
0
1005
0
1005
0
1005
0
1005
0
1005
0
1005
0
1005
0
1005
0
1005
0
1005
0
1005
0
1005
0
1005
0
1005
0
1005
0
1005
0
1005
0
1005
0
1005
0
1005
0
1005
0
1005
0
1005
0
1005
0
1005
0
1005
0
1005
0
1005
0
1005
0
1005
0
1005
0
1005
0
1005
0
1005
0
1005
0
1005
0
1005
0
1005
0
1005
0
1005
0
1005
1EAD
1005
1EAD
1005
1EAD
1002
}
  0
INSERT
  5
16E2
100
AcDbEntity
  8
BUSHING
100
AcDbBlockReference
  2
POST-3
 10
161.582549
 20
168.932086
 30
0.0
 50
180.0
  0
LINE
  5
16E3
100
AcDbEntity
  8
UPILEX
100
AcDbLine
 10
333.932512
 20
172.982086
 30
0.0
 11
197.577512
 21
172.982086
 31
0.0
1001
ACAD
1000
ASC_BOUNDS
1002
{
1070
    19
1005
1EAD
1002
}
  0
LINE
  5
16E4
100
AcDbEntity
  8
UPILEX
100
AcDbLine
 10
197.577512
 20
172.982086
 30
0.0
 11
196.867512
 21
173.702086
 31
0.0
  0
LINE
  5
16E5
100
AcDbEntity
  8
UPILEX
100
AcDbLine
 10
196.867512
 20
173.702086
 30
0.0
 11
179.182549
 21
173.682086
 31
0.0
1001
ACAD
1000
ASC_BOUNDS
1002
{
1070
    19
1005
1EAD
1002
}
  0
INSERT
  5
16E6
100
AcDbEntity
  8
BUSHING
100
AcDbBlockReference
  2
POST-3
 10
161.582549
 20
126.232086
 30
0.0
 50
180.0
  0
LINE
  5
16E7
100
AcDbEntity
  8
UPILEX
100
AcDbLine
 10
197.577512
 20
106.512086
 30
0.0
 11
333.932512
 21
106.512086
 31
0.0
1001
ACAD
1000
ASC_BOUNDS
1002
{
1070
    19
1005
1EAD
1002
}
  0
LINE
  5
16E8
100
AcDbEntity
  8
UPILEX
100
AcDbLine
 10
179.182549
 20
108.782086
 30
0.0
 11
195.307512
 21
108.782086
 31
0.0
1001
ACAD
1000
ASC_BOUNDS
1002
{
1070
    19
1005
1EAD
1002
}
  0
LINE
  5
16E9
100
AcDbEntity
  8
UPILEX
100
AcDbLine
 10
197.577512
 20
106.512086
 30
0.0
 11
195.307512
 21
108.782086
 31
0.0
  0
DIMENSION
  5
1729
100
AcDbEntity
  8
DIM
100
AcDbDimension
  2
*D9
 10
202.582512
 20
191.808848
 30
0.0
 11
219.082512
 21
191.808848
 31
0.0
 70
    32
  3
STANDARD
100
AcDbAlignedDimension
 13
184.182549
 23
174.382086
 33
0.0
 14
202.582512
 24
175.472086
 34
0.0
100
AcDbRotatedDimension
1001
ACAD
1000
DSTYLE
1002
{
1070
   140
1040
0.3
1070
   272
1070
     2
1070
    40
1040
7.5
1070
     3
1000
mm
1070
   287
1070
     0
1070
   271
1070
     2
1070
     4
1000
"
1070
   143
1040
0.03937
1070
   171
1070
     3
1070
   170
1070
     1
1002
}
  0
DIMENSION
  5
1737
100
AcDbEntity
  8
DIM
100
AcDbDimension
  2
*D10
 10
179.182549
 20
181.008825
 30
0.0
 11
164.801149
 21
181.008825
 31
0.0
 12
-2.1186
 22
-21.023525
 32
0.0
 70
    32
  3
STANDARD
100
AcDbAlignedDimension
 13
184.182549
 23
174.382086
 33
0.0
 14
179.182549
 24
173.682086
 34
0.0
100
AcDbRotatedDimension
1001
ACAD
1000
DSTYLE
1002
{
1070
   140
1040
0.3
1070
   272
1070
     2
1070
    40
1040
7.5
1070
     3
1000
mm
1070
   287
1070
     0
1070
   271
1070
     2
1070
     4
1000
"
1070
   143
1040
0.03937
1070
   171
1070
     3
1070
   170
1070
     1
1002
}
  0
DIMENSION
  5
1747
100
AcDbEntity
  8
DIM
100
AcDbDimension
  2
*D11
 10
179.182549
 20
312.729622
 30
0.0
 11
164.572549
 21
312.729622
 31
0.0
 12
-1.89
 22
0.0
 32
0.0
 70
    32
  3
STANDARD
100
AcDbAlignedDimension
 13
184.182549
 23
306.18122
 33
0.0
 14
179.182549
 24
305.48122
 34
0.0
100
AcDbRotatedDimension
1001
ACAD
1000
DSTYLE
1002
{
1070
   140
1040
0.3
1070
   272
1070
     2
1070
    40
1040
7.5
1070
     3
1000
mm
1070
   287
1070
     0
1070
   271
1070
     2
1070
     4
1000
"
1070
   143
1040
0.03937
1070
   171
1070
     3
1070
   170
1070
     1
1002
}
  0
DIMENSION
  5
1755
100
AcDbEntity
  8
DIM
100
AcDbDimension
  2
*D12
 10
207.577512
 20
317.095589
 30
0.0
 11
222.765012
 21
317.095589
 31
0.0
 70
    32
  3
STANDARD
100
AcDbAlignedDimension
 13
202.582512
 23
310.25122
 33
0.0
 14
207.577512
 24
307.76122
 34
0.0
100
AcDbRotatedDimension
1001
ACAD
1000
DSTYLE
1002
{
1070
   140
1040
0.3
1070
   272
1070
     2
1070
    40
1040
7.5
1070
     3
1000
mm
1070
   287
1070
     0
1070
   271
1070
     2
1070
     4
1000
"
1070
   143
1040
0.03937
1070
   171
1070
     3
1070
   170
1070
     1
1002
}
  0
DIMENSION
  5
1763
100
AcDbEntity
  8
DIM
100
AcDbDimension
  2
*D13
 10
202.582512
 20
324.219008
 30
0.0
 11
219.082512
 21
324.219008
 31
0.0
 70
    32
  3
STANDARD
100
AcDbAlignedDimension
 13
184.182549
 23
306.18122
 33
0.0
 14
202.582512
 24
310.25122
 34
0.0
100
AcDbRotatedDimension
1001
ACAD
1000
DSTYLE
1002
{
1070
   140
1040
0.3
1070
   272
1070
     2
1070
    40
1040
7.5
1070
     3
1000
mm
1070
   287
1070
     0
1070
   271
1070
     2
1070
     4
1000
"
1070
   143
1040
0.03937
1070
   171
1070
     3
1070
   170
1070
     1
1002
}
  0
POLYLINE
  5
1AC8
100
AcDbEntity
  8
L3_
100
AcDb2dPolyline
 66
     1
 10
0.0
 20
0.0
 30
0.0
 70
     1
  0
VERTEX
  5
1AC9
100
AcDbEntity
  8
L3_
100
AcDbVertex
100
AcDb2dVertex
 10
202.582512
 20
104.012086
 30
0.0
  0
VERTEX
  5
1ACA
100
AcDbEntity
  8
L3_
100
AcDbVertex
100
AcDb2dVertex
 10
202.582512
 20
175.482086
 30
0.0
  0
VERTEX
  5
1ACB
100
AcDbEntity
  8
L3_
100
AcDbVertex
100
AcDb2dVertex
 10
246.482512
 20
175.482086
 30
0.0
  0
VERTEX
  5
1ACC
100
AcDbEntity
  8
L3_
100
AcDbVertex
100
AcDb2dVertex
 10
246.482512
 20
104.012086
 30
0.0
  0
SEQEND
  5
1ACD
100
AcDbEntity
  8
L3_
  0
POLYLINE
  5
1ACE
100
AcDbEntity
  8
L3_
100
AcDb2dPolyline
 66
     1
 10
0.0
 20
0.0
 30
0.0
 70
     1
  0
VERTEX
  5
1ACF
100
AcDbEntity
  8
L3_
100
AcDbVertex
100
AcDb2dVertex
 10
290.457512
 20
104.012086
 30
0.0
  0
VERTEX
  5
1AD0
100
AcDbEntity
  8
L3_
100
AcDbVertex
100
AcDb2dVertex
 10
290.457512
 20
175.482086
 30
0.0
  0
VERTEX
  5
1AD1
100
AcDbEntity
  8
L3_
100
AcDbVertex
100
AcDb2dVertex
 10
246.557512
 20
175.482086
 30
0.0
  0
VERTEX
  5
1AD2
100
AcDbEntity
  8
L3_
100
AcDbVertex
100
AcDb2dVertex
 10
246.557512
 20
104.012086
 30
0.0
  0
SEQEND
  5
1AD3
100
AcDbEntity
  8
L3_
  0
POLYLINE
  5
1AD4
100
AcDbEntity
  8
L3_
100
AcDb2dPolyline
 66
     1
 10
0.0
 20
0.0
 30
0.0
 70
     1
  0
VERTEX
  5
1AD5
100
AcDbEntity
  8
L3_
100
AcDbVertex
100
AcDb2dVertex
 10
290.532512
 20
104.012086
 30
0.0
  0
VERTEX
  5
1AD6
100
AcDbEntity
  8
L3_
100
AcDbVertex
100
AcDb2dVertex
 10
290.532512
 20
175.482086
 30
0.0
  0
VERTEX
  5
1AD7
100
AcDbEntity
  8
L3_
100
AcDbVertex
100
AcDb2dVertex
 10
334.432512
 20
175.482086
 30
0.0
  0
VERTEX
  5
1AD8
100
AcDbEntity
  8
L3_
100
AcDbVertex
100
AcDb2dVertex
 10
334.432512
 20
104.012086
 30
0.0
  0
SEQEND
  5
1AD9
100
AcDbEntity
  8
L3_
  0
POLYLINE
  5
1ADB
100
AcDbEntity
  8
L3_
100
AcDb2dPolyline
 66
     1
 10
0.0
 20
0.0
 30
0.0
 70
     1
  0
VERTEX
  5
1ADC
100
AcDbEntity
  8
L3_
100
AcDbVertex
100
AcDb2dVertex
 10
290.532512
 20
238.79122
 30
0.0
  0
VERTEX
  5
1ADD
100
AcDbEntity
  8
L3_
100
AcDbVertex
100
AcDb2dVertex
 10
290.532512
 20
310.26122
 30
0.0
  0
VERTEX
  5
1ADE
100
AcDbEntity
  8
L3_
100
AcDbVertex
100
AcDb2dVertex
 10
334.432512
 20
310.26122
 30
0.0
  0
VERTEX
  5
1ADF
100
AcDbEntity
  8
L3_
100
AcDbVertex
100
AcDb2dVertex
 10
334.432512
 20
238.79122
 30
0.0
  0
SEQEND
  5
1AE0
100
AcDbEntity
  8
L3_
  0
POLYLINE
  5
1AE1
100
AcDbEntity
  8
L3_
100
AcDb2dPolyline
 66
     1
 10
0.0
 20
0.0
 30
0.0
 70
     1
  0
VERTEX
  5
1AE2
100
AcDbEntity
  8
L3_
100
AcDbVertex
100
AcDb2dVertex
 10
290.457512
 20
238.79122
 30
0.0
  0
VERTEX
  5
1AE3
100
AcDbEntity
  8
L3_
100
AcDbVertex
100
AcDb2dVertex
 10
290.457512
 20
310.26122
 30
0.0
  0
VERTEX
  5
1AE4
100
AcDbEntity
  8
L3_
100
AcDbVertex
100
AcDb2dVertex
 10
246.557512
 20
310.26122
 30
0.0
  0
VERTEX
  5
1AE5
100
AcDbEntity
  8
L3_
100
AcDbVertex
100
AcDb2dVertex
 10
246.557512
 20
238.79122
 30
0.0
  0
SEQEND
  5
1AE6
100
AcDbEntity
  8
L3_
  0
POLYLINE
  5
1AE7
100
AcDbEntity
  8
L3_
100
AcDb2dPolyline
 66
     1
 10
0.0
 20
0.0
 30
0.0
 70
     1
  0
VERTEX
  5
1AE8
100
AcDbEntity
  8
L3_
100
AcDbVertex
100
AcDb2dVertex
 10
202.582512
 20
238.79122
 30
0.0
  0
VERTEX
  5
1AE9
100
AcDbEntity
  8
L3_
100
AcDbVertex
100
AcDb2dVertex
 10
202.582512
 20
310.26122
 30
0.0
  0
VERTEX
  5
1AEA
100
AcDbEntity
  8
L3_
100
AcDbVertex
100
AcDb2dVertex
 10
246.482512
 20
310.26122
 30
0.0
  0
VERTEX
  5
1AEB
100
AcDbEntity
  8
L3_
100
AcDbVertex
100
AcDb2dVertex
 10
246.482512
 20
238.79122
 30
0.0
  0
SEQEND
  5
1AEC
100
AcDbEntity
  8
L3_
  0
INSERT
  5
1EAD
100
AcDbEntity
  8
UPILEX
100
AcDbBlockReference
  2
*X14
 10
0.0
 20
0.0
 30
0.0
1001
ACAD
1000
HATCH
1002
{
1070
    19
1000
ANSI31
1040
10.0
1040
0.0
1000
ASC_BOUNDS
1070
     4
1070
     1
1070
     4
1005
16E7
1005
16DC
1005
16E1
1005
16DD
1070
     1
1070
     4
1005
16E1
1005
16DC
1005
16E3
1005
16DD
1070
     1
1070
     4
1005
16E1
1005
16DF
1005
16E5
1005
16DE
1070
     1
1070
     4
1005
16E8
1005
16DF
1005
16E1
1005
16DE
1000
ASC_SEEDPOINT
1011
241.776938
1021
126.872086
1031
0.0
1002
}
  0
INSERT
  5
1FB8
100
AcDbEntity
  8
UPILEX
100
AcDbBlockReference
  2
*X15
 10
0.0
 20
0.0
 30
0.0
1001
ACAD
1000
HATCH
1002
{
1070
    19
1000
ANSI31
1040
10.0
1040
0.0
1000
ASC_BOUNDS
1070
     4
1070
     1
1070
     4
1005
16D7
1005
16D6
1005
16CB
1005
16D8
1070
     1
1070
     4
1005
16CB
1005
16D6
1005
16D9
1005
16D8
1070
     1
1070
     4
1005
16CB
1005
16D3
1005
16D2
1005
16D5
1070
     1
1070
     4
1005
16D4
1005
16D3
1005
16CB
1005
16D5
1000
ASC_SEEDPOINT
1011
181.682549
1021
261.232062
1031
0.0
1002
}
  0
LINE
  5
2053
100
AcDbEntity
  8
TEXT
100
AcDbLine
 10
392.32062
 20
375.127405
 30
0.0
 11
392.32062
 21
350.548237
 31
0.0
  0
LINE
  5
2054
100
AcDbEntity
  8
TEXT
100
AcDbLine
 10
402.233031
 20
375.127405
 30
0.0
 11
402.233031
 21
350.548237
 31
0.0
  0
LINE
  5
2055
100
AcDbEntity
  8
TEXT
100
AcDbLine
 10
471.829031
 20
375.127405
 30
0.0
 11
471.829031
 21
350.548237
 31
0.0
  0
LINE
  5
2056
100
AcDbEntity
  8
TEXT
100
AcDbLine
 10
494.181031
 20
375.127405
 30
0.0
 11
494.181031
 21
350.548237
 31
0.0
  0
TEXT
  5
2057
100
AcDbEntity
  8
TEXT
100
AcDbText
 10
395.0
 20
370.0
 30
0.0
 40
2.0
  1
01
100
AcDbText
  0
TEXT
  5
2058
100
AcDbEntity
  8
TEXT
100
AcDbText
 10
404.0
 20
370.0
 30
0.0
 40
2.0
  1
UPDATE DETECTOR TO 4 WAFER LAYOUT
100
AcDbText
  0
TEXT
  5
2059
100
AcDbEntity
  8
TEXT
100
AcDbText
 10
475.0
 20
370.0
 30
0.0
 40
2.0
  1
04-24-96
100
AcDbText
  0
TEXT
  5
205A
100
AcDbEntity
  8
TEXT
100
AcDbText
 10
395.0
 20
366.0
 30
0.0
 40
2.0
  1
02
100
AcDbText
  0
TEXT
  5
205B
100
AcDbEntity
  8
TEXT
100
AcDbText
 10
404.0
 20
366.0
 30
0.0
 40
2.0
  1
UPDATE UPILEX LENGHT
100
AcDbText
  0
TEXT
  5
205C
100
AcDbEntity
  8
TEXT
100
AcDbText
 10
475.0
 20
366.0
 30
0.0
 40
2.0
  1
04-24-96
100
AcDbText
  0
LINE
  5
2062
100
AcDbEntity
  8
CENTER
100
AcDbLine
 10
303.727512
 20
247.257339
 30
0.0
 11
303.727512
 21
287.611291
 31
0.0
  0
TEXT
  5
2063
100
AcDbEntity
  8
CENTER
100
AcDbText
 10
299.897843
 20
289.932568
 30
0.0
 40
5.0
  1
I.P.
100
AcDbText
  0
TEXT
  5
2064
100
AcDbEntity
  8
CENTER
100
AcDbText
 10
299.897843
 20
179.920608
 30
0.0
 40
5.0
  1
I.P.
100
AcDbText
  0
LINE
  5
2065
100
AcDbEntity
  8
CENTER
100
AcDbLine
 10
303.727512
 20
129.961051
 30
0.0
 11
303.727512
 21
177.599332
 31
0.0
  0
TEXT
  5
206A
100
AcDbEntity
  8
TEXT
100
AcDbText
 10
248.007455
 20
125.072856
 30
0.0
 40
5.0
  1
LAYER 3
100
AcDbText
  0
TEXT
  5
206B
100
AcDbEntity
  8
TEXT
100
AcDbText
 10
248.007455
 20
116.739523
 30
0.0
 40
5.0
  1
BACKWARD
100
AcDbText
  0
TEXT
  5
206C
100
AcDbEntity
  8
TEXT
100
AcDbText
 10
248.007455
 20
108.406189
 30
0.0
 40
5.0
  1
Z-SIDE
100
AcDbText
  0
TEXT
  5
206D
100
AcDbEntity
  8
TEXT
100
AcDbText
 10
249.013483
 20
302.910549
 30
0.0
 40
5.0
  1
LAYER 3
100
AcDbText
  0
TEXT
  5
206E
100
AcDbEntity
  8
TEXT
100
AcDbText
 10
249.013483
 20
294.577215
 30
0.0
 40
5.0
  1
BACKWARD
100
AcDbText
  0
TEXT
  5
206F
100
AcDbEntity
  8
TEXT
100
AcDbText
 10
249.013483
 20
286.243882
 30
0.0
 40
5.0
  1
PHI-SIDE
100
AcDbText
  0
ENDSEC
  0
SECTION
  2
OBJECTS
  0
DICTIONARY
  5
C
100
AcDbDictionary
  3
ACAD_GROUP
350
D
  3
ACAD_MLINESTYLE
350
E
  3
ACME_SCOPE_NAME
350
2078
  3
ACME_COMMAND_HISTORY
350
2079
  3
ACGREF_MASTER
350
207B
  3
AMI_MASTER
350
207C
  3
ACASGREF_MASTER
350
207D
  3
ADSYSVARMGR
350
2082
  3
AD_APPL
350
208C
  3
AD_HOLENOTE_REPOSITORY
350
2093
  3
AD_GREF_MODULE
350
2094
  3
ACDMSYSVARMGR
350
2099
  3
AD_DRAWMGR_NAME
350
20AC
  3
DESIGNER_ASSEMBLIES_SYSVARS
350
20B3
  3
AUTOCAD_ASSEMBLIES_PROJECT
350
20B8
  3
ACASAPPOBJECT
350
20C9
  0
DICTIONARY
  5
D
102
{ACAD_REACTORS
330
C
102
}
100
AcDbDictionary
  0
DICTIONARY
  5
E
102
{ACAD_REACTORS
330
C
102
}
100
AcDbDictionary
  3
STANDARD
350
13
  0
NAMEDAPPL
  5
208C
102
{ACAD_REACTORS
330
C
102
}
  0
AM_HNTEMPLATE_MGR_NAME
  5
2093
102
{ACAD_REACTORS
330
C
102
}
  0
ASAPP
  5
20C9
102
{ACAD_REACTORS
330
C
102
}
100
AcAsAppObject
 70
     0
360
20C7
  0
MLINESTYLE
  5
13
102
{ACAD_REACTORS
330
E
102
}
100
AcDbMlineStyle
  2
STANDARD
 70
     0
  3

 62
     0
 51
90.0
 52
90.0
 71
     2
 49
0.5
 62
   256
  6
BYLAYER
 49
-0.5
 62
   256
  6
BYLAYER
  0
ASSYSVARS
  5
20C7
100
AcAsSysVars
 70
     0
  1
M.1.16
 40
2.617994
 40
0.5
 40
0.01
 70
     0
 40
0.01
  1
ASG
 40
0.01
 40
99999999.0
 70
    25
 70
     5
 70
     3
 40
0.5
 40
0.001
 40
99999999.0
  0
ENDSEC
  0
EOF
