  0
SECTION
  2
HEADER
  9
$ACADVER
  1
AC1012
  9
$DWGCODEPAGE
  3
ansi_1252
  9
$INSBASE
 10
0.0
 20
0.0
 30
0.0
  9
$EXTMIN
 10
12.7
 20
15.875
 30
0.0
  9
$EXTMAX
 10
520.721906
 20
390.525
 30
0.0
  9
$LIMMIN
 10
0.0
 20
0.0
  9
$LIMMAX
 10
534.0
 20
406.0
  9
$ORTHOMODE
 70
     0
  9
$REGENMODE
 70
     1
  9
$FILLMODE
 70
     1
  9
$QTEXTMODE
 70
     0
  9
$MIRRTEXT
 70
     1
  9
$DRAGMODE
 70
     2
  9
$LTSCALE
 40
10.0
  9
$OSMODE
 70
     0
  9
$ATTMODE
 70
     1
  9
$TEXTSIZE
 40
5.0
  9
$TRACEWID
 40
0.05
  9
$TEXTSTYLE
  7
STANDARD
  9
$CLAYER
  8
TEXT
  9
$CELTYPE
  6
BYLAYER
  9
$CECOLOR
 62
   256
  9
$CELTSCALE
 40
1.0
  9
$DELOBJ
 70
     1
  9
$DISPSILH
 70
     0
  9
$DIMSCALE
 40
12.0
  9
$DIMASZ
 40
0.18
  9
$DIMEXO
 40
0.0625
  9
$DIMDLI
 40
0.38
  9
$DIMRND
 40
0.0
  9
$DIMDLE
 40
0.0
  9
$DIMEXE
 40
0.18
  9
$DIMTP
 40
0.0
  9
$DIMTM
 40
0.0
  9
$DIMTXT
 40
0.18
  9
$DIMCEN
 40
0.09
  9
$DIMTSZ
 40
0.0
  9
$DIMTOL
 70
     0
  9
$DIMLIM
 70
     0
  9
$DIMTIH
 70
     1
  9
$DIMTOH
 70
     1
  9
$DIMSE1
 70
     0
  9
$DIMSE2
 70
     0
  9
$DIMTAD
 70
     0
  9
$DIMZIN
 70
     0
  9
$DIMBLK
  1

  9
$DIMASO
 70
     1
  9
$DIMSHO
 70
     1
  9
$DIMPOST
  1
mm
  9
$DIMAPOST
  1

  9
$DIMALT
 70
     1
  9
$DIMALTD
 70
     3
  9
$DIMALTF
 40
0.03937
  9
$DIMLFAC
 40
1.0
  9
$DIMTOFL
 70
     0
  9
$DIMTVP
 40
0.0
  9
$DIMTIX
 70
     0
  9
$DIMSOXD
 70
     0
  9
$DIMSAH
 70
     0
  9
$DIMBLK1
  1

  9
$DIMBLK2
  1

  9
$DIMSTYLE
  2
STANDARD
  9
$DIMCLRD
 70
     0
  9
$DIMCLRE
 70
     0
  9
$DIMCLRT
 70
     0
  9
$DIMTFAC
 40
1.0
  9
$DIMGAP
 40
0.09
  9
$DIMJUST
 70
     0
  9
$DIMSD1
 70
     0
  9
$DIMSD2
 70
     0
  9
$DIMTOLJ
 70
     1
  9
$DIMTZIN
 70
     0
  9
$DIMALTZ
 70
     0
  9
$DIMALTTZ
 70
     0
  9
$DIMFIT
 70
     0
  9
$DIMUPT
 70
     0
  9
$DIMUNIT
 70
     2
  9
$DIMDEC
 70
     2
  9
$DIMTDEC
 70
     4
  9
$DIMALTU
 70
     2
  9
$DIMALTTD
 70
     2
  9
$DIMTXSTY
  7
STANDARD
  9
$DIMAUNIT
 70
     0
  9
$LUNITS
 70
     2
  9
$LUPREC
 70
     4
  9
$SKETCHINC
 40
0.1
  9
$FILLETRAD
 40
0.0
  9
$AUNITS
 70
     0
  9
$AUPREC
 70
     0
  9
$MENU
  1
C:\CIM\ACAD
  9
$ELEVATION
 40
0.0
  9
$PELEVATION
 40
0.0
  9
$THICKNESS
 40
0.0
  9
$LIMCHECK
 70
     0
  9
$BLIPMODE
 70
     1
  9
$CHAMFERA
 40
0.0
  9
$CHAMFERB
 40
0.0
  9
$CHAMFERC
 40
0.0
  9
$CHAMFERD
 40
0.0
  9
$SKPOLY
 70
     0
  9
$TDCREATE
 40
2449993.600116319
  9
$TDUPDATE
 40
2450410.367852812
  9
$TDINDWG
 40
0.0625936111
  9
$TDUSRTIMER
 40
0.0625936111
  9
$USRTIMER
 70
     1
  9
$ANGBASE
 50
0.0
  9
$ANGDIR
 70
     0
  9
$PDMODE
 70
     0
  9
$PDSIZE
 40
0.0
  9
$PLINEWID
 40
0.0
  9
$COORDS
 70
     1
  9
$SPLFRAME
 70
     0
  9
$SPLINETYPE
 70
     6
  9
$SPLINESEGS
 70
     8
  9
$ATTDIA
 70
     0
  9
$ATTREQ
 70
     1
  9
$HANDLING
 70
     1
  9
$HANDSEED
  5
1B33
  9
$SURFTAB1
 70
     6
  9
$SURFTAB2
 70
     6
  9
$SURFTYPE
 70
     6
  9
$SURFU
 70
     6
  9
$SURFV
 70
     6
  9
$UCSNAME
  2
CIM_TB_HOLD
  9
$UCSORG
 10
0.0
 20
0.0
 30
0.0
  9
$UCSXDIR
 10
1.0
 20
0.0
 30
0.0
  9
$UCSYDIR
 10
0.0
 20
1.0
 30
0.0
  9
$PUCSNAME
  2

  9
$PUCSORG
 10
0.0
 20
0.0
 30
0.0
  9
$PUCSXDIR
 10
1.0
 20
0.0
 30
0.0
  9
$PUCSYDIR
 10
0.0
 20
1.0
 30
0.0
  9
$USERI1
 70
     0
  9
$USERI2
 70
     0
  9
$USERI3
 70
     0
  9
$USERI4
 70
     0
  9
$USERI5
 70
     0
  9
$USERR1
 40
0.0
  9
$USERR2
 40
0.0
  9
$USERR3
 40
0.0
  9
$USERR4
 40
0.0
  9
$USERR5
 40
0.0
  9
$WORLDVIEW
 70
     1
  9
$SHADEDGE
 70
     3
  9
$SHADEDIF
 70
    70
  9
$TILEMODE
 70
     1
  9
$MAXACTVP
 70
    16
  9
$PINSBASE
 10
0.0
 20
0.0
 30
0.0
  9
$PLIMCHECK
 70
     0
  9
$PEXTMIN
 10
1.000000E+20
 20
1.000000E+20
 30
1.000000E+20
  9
$PEXTMAX
 10
-1.000000E+20
 20
-1.000000E+20
 30
-1.000000E+20
  9
$PLIMMIN
 10
0.0
 20
0.0
  9
$PLIMMAX
 10
12.0
 20
9.0
  9
$UNITMODE
 70
     0
  9
$VISRETAIN
 70
     0
  9
$PLINEGEN
 70
     0
  9
$PSLTSCALE
 70
     1
  9
$TREEDEPTH
 70
  3020
  9
$PICKSTYLE
 70
     1
  9
$CMLSTYLE
  2
STANDARD
  9
$CMLJUST
 70
     0
  9
$CMLSCALE
 40
1.0
  9
$SAVEIMAGES
 70
     0
  0
ENDSEC
  0
SECTION
  2
CLASSES
  0
CLASS
  1
ACMESCOPE
  2
AcMeScope
  3
ACME_MODULE_NAME
 90
        0
280
     0
281
     0
  0
CLASS
  1
ACMECOMMANDHISTORY
  2
AcMeCommandHistory
  3
ACME_MODULE_NAME
 90
        0
280
     0
281
     0
  0
CLASS
  1
AcRfInsAdjusterMgr
  2
AcRfInsAdjusterMgr
  3
ACME_MODULE_NAME
 90
        0
280
     0
281
     0
  0
CLASS
  1
ACGREFMASTER
  2
AcGrefMaster
  3
"AcadRfServer"
 90
        0
280
     0
281
     0
  0
CLASS
  1
AmiMaster
  2
AmiMaster
  3
"AmiServices"
 90
        0
280
     0
281
     0
  0
CLASS
  1
ACASGREFMASTER
  2
AcAsGrefMaster
  3
"AutoSurfResolver"
 90
        0
280
     0
281
     0
  0
CLASS
  1
ADAPPL
  2
AcAdAppl
  3
"DesignerServices"
 90
        0
280
     0
281
     0
  0
CLASS
  1
DEPMGR
  2
AcAdDepMgr
  3
"DesignerServices"
 90
        0
280
     0
281
     0
  0
CLASS
  1
PARAMMGR
  2
AcAdParamMgr
  3
"DesignerServices"
 90
        0
280
     0
281
     0
  0
CLASS
  1
PARAMSCOPE
  2
AcAdParamScope
  3
"DesignerServices"
 90
        0
280
     0
281
     0
  0
CLASS
  1
"IM_SYSVAR_MAN"
  2
AcImSysVarManager
  3
"ADAM"
 90
        0
280
     0
281
     0
  0
CLASS
  1
SYSTEM_VAR_INT
  2
AcImIntSysVar
  3
"ADAM"
 90
        0
280
     0
281
     0
  0
CLASS
  1
SYSTEM_VAR_REAL
  2
AcImRealSysVar
  3
"ADAM"
 90
        0
280
     0
281
     0
  0
CLASS
  1
SYSTEM_VAR_STR
  2
AcImStrSysVar
  3
"ADAM"
 90
        0
280
     0
281
     0
  0
CLASS
  1
NAMEDAPPL
  2
AcAdNamedAppl
  3
"DesignerServices"
 90
        0
280
     0
281
     0
  0
CLASS
  1
ADPART
  2
AcAdPart
  3
"DesignerServices"
 90
        0
280
     0
281
     1
  0
CLASS
  1
ADBASE
  2
AcAdBase
  3
"DesignerServices"
 90
        0
280
     0
281
     0
  0
CLASS
  1
BODYID
  2
AcAdBodyId
  3
"DesignerServices"
 90
        0
280
     0
281
     0
  0
CLASS
  1
WORKPLANEDISPLAYMGR
  2
AcAdDisplayMgr
  3
"DesignerServices"
 90
        0
280
     0
281
     0
  0
CLASS
  1
ADHNTMPLT
  2
AdHoleNoteTemplateMgr
  3
"DesignerServices"
 90
        0
280
     0
281
     0
  0
CLASS
  1
AM_HNTEMPLATE_MGR_NAME
  2
AdHoleNoteTemplateMgrName
  3
"DesignerServices"
 90
        0
280
     0
281
     0
  0
CLASS
  1
AcAdGrefModule
  2
AcAdGrefModule
  3
AD_GREF_SERVICES_NSTR
 90
        0
280
     0
281
     0
  0
CLASS
  1
AM_DRAWING_MGR
  2
AcDmDwgMgr
  3
"Designer_Drawing_Mgmt"
 90
        0
280
     0
281
     0
  0
CLASS
  1
AM_DWG_DOCUMENT
  2
AcDmDwgDocument
  3
"Designer_Drawing_Mgmt"
 90
        0
280
     0
281
     0
  0
CLASS
  1
AM_DWG_SHEET
  2
AcDmSheet
  3
"Designer_Drawing_Mgmt"
 90
        0
280
     0
281
     0
  0
CLASS
  1
AM_VIEWDIMPARMAP
  2
AcDmViewDimParMap
  3
"Designer_Drawing_Mgmt"
 90
        0
280
     0
281
     0
  0
CLASS
  1
AM_DWGMGR_NAME
  2
AcDmDwgMgrName
  3
"Designer_Drawing_Mgmt"
 90
        0
280
     0
281
     0
  0
CLASS
  1
ACAMPROJECT
  2
AcAmProject
  3
"DesignerAssemblies"
 90
        0
280
     0
281
     0
  0
CLASS
  1
ACAMGRCOMPDEF
  2
AcAmGrCompDef
  3
"DesignerAssemblies"
 90
        0
280
     0
281
     0
  0
CLASS
  1
ACAMCOMPDEF
  2
AcAmCompDef
  3
"DesignerAssemblies"
 90
        0
280
     0
281
     0
  0
CLASS
  1
ACAMCOMPDEFMGR
  2
AcAmCompDefMgr
  3
"DesignerAssemblies"
 90
        0
280
     0
281
     0
  0
CLASS
  1
AMCONTEXTMGR
  2
AcAmContextMgr
  3
"DesignerAssemblies"
 90
        0
280
     0
281
     0
  0
CLASS
  1
AcAmContextModeler
  2
AcAmContextModeler
  3
"DesignerAssemblies"
 90
        0
280
     0
281
     0
  0
CLASS
  1
ACAMDRAWINGMAN
  2
AcAmDrawingMan
  3
"DesignerAssemblies"
 90
        0
280
     0
281
     0
  0
CLASS
  1
ASSYSVARS
  2
AcAsSysVars
  3
"AutoSurf"
 90
        0
280
     0
281
     0
  0
CLASS
  1
ASSTATICVARS
  2
AcAsStaticVars
  3
"AutoSurf"
 90
        0
280
     0
281
     0
  0
CLASS
  1
ASAPP
  2
AcAsAppObject
  3
"AutoSurf"
 90
        0
280
     0
281
     0
  0
CLASS
  1
AGDICTIONARY
  2
AgDictionary
  3
"AccelView"
 90
        1
280
     0
281
     0
  0
ENDSEC
  0
SECTION
  2
TABLES
  0
TABLE
  2
VPORT
  5
8
100
AcDbSymbolTable
 70
     3
  0
VPORT
  5
1B32
100
AcDbSymbolTableRecord
100
AcDbViewportTableRecord
  2
*ACTIVE
 70
     0
 10
0.0
 20
0.0
 11
1.0
 21
1.0
 12
312.812304
 22
203.2
 13
0.0
 23
0.0
 14
0.0625
 24
0.0625
 15
10.0
 25
10.0
 16
0.0
 26
0.0
 36
1.0
 17
0.0
 27
0.0
 37
0.0
 40
374.65
 41
1.602094
 42
50.0
 43
0.0
 44
0.0
 50
0.0
 51
0.0
 71
     0
 72
   100
 73
     1
 74
     1
 75
     0
 76
     1
 77
     0
 78
     0
  0
ENDTAB
  0
TABLE
  2
LTYPE
  5
5
100
AcDbSymbolTable
 70
     6
  0
LTYPE
  5
14
100
AcDbSymbolTableRecord
100
AcDbLinetypeTableRecord
  2
BYBLOCK
 70
     0
  3

 72
    65
 73
     0
 40
0.0
  0
LTYPE
  5
15
100
AcDbSymbolTableRecord
100
AcDbLinetypeTableRecord
  2
BYLAYER
 70
     0
  3

 72
    65
 73
     0
 40
0.0
  0
LTYPE
  5
16
100
AcDbSymbolTableRecord
100
AcDbLinetypeTableRecord
  2
CONTINUOUS
 70
    64
  3
Solid line
 72
    65
 73
     0
 40
0.0
  0
LTYPE
  5
24
100
AcDbSymbolTableRecord
100
AcDbLinetypeTableRecord
  2
CENTER
 70
    64
  3
____ _ ____ _ ____ _ ____ _ ____ _ ____ _ ____ 
 72
    65
 73
     4
 40
2.0
 49
1.25
 74
     0
 49
-0.25
 74
     0
 49
0.25
 74
     0
 49
-0.25
 74
     0
  0
LTYPE
  5
26
100
AcDbSymbolTableRecord
100
AcDbLinetypeTableRecord
  2
HIDDEN
 70
    64
  3
__ __ __ __ __ __ __ __ __ __ __ __ __ __ __ __
 72
    65
 73
     2
 40
0.375
 49
0.25
 74
     0
 49
-0.125
 74
     0
  0
LTYPE
  5
19D0
100
AcDbSymbolTableRecord
100
AcDbLinetypeTableRecord
  2
PHANTOM2
 70
     0
  3
___ _ _ ___ _ _ ___ _ _ ___ _ _ ___ _ _ ___ _ _
 72
    65
 73
     6
 40
1.25
 49
0.625
 74
     0
 49
-0.125
 74
     0
 49
0.125
 74
     0
 49
-0.125
 74
     0
 49
0.125
 74
     0
 49
-0.125
 74
     0
  0
LTYPE
  5
19FA
100
AcDbSymbolTableRecord
100
AcDbLinetypeTableRecord
  2
ASULTYPE
 70
     0
  3
Solid line
 72
    65
 73
     2
 40
3.0
 49
2.5
 74
     0
 49
0.5
 74
     0
  0
LTYPE
  5
19FB
100
AcDbSymbolTableRecord
100
AcDbLinetypeTableRecord
  2
ASVLTYPE
 70
     0
  3
__ __ __ __ __ __ __ __ __ __ __ __ __ __ __ __ __ __ __ __ __
 72
    65
 73
     2
 40
0.75
 49
0.5
 74
     0
 49
-0.25
 74
     0
  0
ENDTAB
  0
TABLE
  2
LAYER
  5
2
100
AcDbSymbolTable
 70
    24
  0
LAYER
  5
F
100
AcDbSymbolTableRecord
100
AcDbLayerTableRecord
  2
0
 70
     0
 62
     7
  6
CONTINUOUS
  0
LAYER
  5
23
100
AcDbSymbolTableRecord
100
AcDbLayerTableRecord
  2
CENTER
 70
    64
 62
     1
  6
CENTER
  0
LAYER
  5
25
100
AcDbSymbolTableRecord
100
AcDbLayerTableRecord
  2
HIDDEN
 70
    64
 62
     7
  6
HIDDEN
  0
LAYER
  5
29
100
AcDbSymbolTableRecord
100
AcDbLayerTableRecord
  2
DIM
 70
    64
 62
     3
  6
CONTINUOUS
  0
LAYER
  5
2A
100
AcDbSymbolTableRecord
100
AcDbLayerTableRecord
  2
TEXT
 70
    64
 62
     7
  6
CONTINUOUS
  0
LAYER
  5
2F
100
AcDbSymbolTableRecord
100
AcDbLayerTableRecord
  2
HCHARTS
 70
    64
 62
     3
  6
CONTINUOUS
  0
LAYER
  5
48
100
AcDbSymbolTableRecord
100
AcDbLayerTableRecord
  2
BORDER
 70
    64
 62
     6
  6
CONTINUOUS
  0
LAYER
  5
22F
100
AcDbSymbolTableRecord
100
AcDbLayerTableRecord
  2
SCRATCH
 70
    64
 62
     7
  6
CONTINUOUS
  0
LAYER
  5
230
100
AcDbSymbolTableRecord
100
AcDbLayerTableRecord
  2
DEFPOINTS
 70
    64
 62
     7
  6
CONTINUOUS
  0
LAYER
  5
231
100
AcDbSymbolTableRecord
100
AcDbLayerTableRecord
  2
BUSHING
 70
    64
 62
     3
  6
CONTINUOUS
  0
LAYER
  5
232
100
AcDbSymbolTableRecord
100
AcDbLayerTableRecord
  2
L1_
 70
    64
 62
     1
  6
CONTINUOUS
  0
LAYER
  5
233
100
AcDbSymbolTableRecord
100
AcDbLayerTableRecord
  2
UPILEX
 70
    64
 62
     3
  6
CONTINUOUS
  0
LAYER
  5
234
100
AcDbSymbolTableRecord
100
AcDbLayerTableRecord
  2
AIN
 70
    64
 62
     5
  6
CONTINUOUS
  0
LAYER
  5
235
100
AcDbSymbolTableRecord
100
AcDbLayerTableRecord
  2
FOOT
 70
    64
 62
     1
  6
CONTINUOUS
  0
LAYER
  5
236
100
AcDbSymbolTableRecord
100
AcDbLayerTableRecord
  2
FOOT-2
 70
    64
 62
     5
  6
CONTINUOUS
  0
LAYER
  5
63A
100
AcDbSymbolTableRecord
100
AcDbLayerTableRecord
  2
L2_
 70
    64
 62
     1
  6
CONTINUOUS
  0
LAYER
  5
19DE
100
AcDbSymbolTableRecord
100
AcDbLayerTableRecord
  2
AM_VIEWS
 70
     0
 62
    -7
  6
CONTINUOUS
  0
LAYER
  5
19DF
100
AcDbSymbolTableRecord
100
AcDbLayerTableRecord
  2
AM_PARDIM
 70
     0
 62
     3
  6
CONTINUOUS
  0
LAYER
  5
19E0
100
AcDbSymbolTableRecord
100
AcDbLayerTableRecord
  2
AM_REFDIM
 70
     0
 62
     4
  6
CONTINUOUS
  0
LAYER
  5
19E1
100
AcDbSymbolTableRecord
100
AcDbLayerTableRecord
  2
AM_VIS
 70
     0
 62
     7
  6
CONTINUOUS
  0
LAYER
  5
19E2
100
AcDbSymbolTableRecord
100
AcDbLayerTableRecord
  2
AM_HID
 70
    64
 62
     7
  6
HIDDEN
  0
LAYER
  5
19F1
100
AcDbSymbolTableRecord
100
AcDbLayerTableRecord
  2
AM_TR
 70
     0
 62
     7
  6
CONTINUOUS
  0
LAYER
  5
19F2
100
AcDbSymbolTableRecord
100
AcDbLayerTableRecord
  2
AM_BM
 70
     0
 62
     7
  6
CONTINUOUS
  0
LAYER
  5
19F3
100
AcDbSymbolTableRecord
100
AcDbLayerTableRecord
  2
AM_BL
 70
     0
 62
     7
  6
CONTINUOUS
  0
ENDTAB
  0
TABLE
  2
STYLE
  5
3
100
AcDbSymbolTable
 70
     3
  0
STYLE
  5
10
100
AcDbSymbolTableRecord
100
AcDbTextStyleTableRecord
  2
STANDARD
 70
    64
 40
0.0
 41
1.0
 50
0.0
 71
     0
 42
5.0
  3
txt
  4

  0
STYLE
  5
28
100
AcDbSymbolTableRecord
100
AcDbTextStyleTableRecord
  2
CIM_TB
 70
    64
 40
0.0
 41
1.0
 50
0.0
 71
     0
 42
0.2
  3
romans
  4

  0
STYLE
  5
49
100
AcDbSymbolTableRecord
100
AcDbTextStyleTableRecord
  2
ADESK2
 70
    64
 40
0.0
 41
1.0
 50
0.0
 71
     0
 42
0.065
  3
romans
  4

  0
ENDTAB
  0
TABLE
  2
VIEW
  5
6
100
AcDbSymbolTable
 70
     0
  0
ENDTAB
  0
TABLE
  2
UCS
  5
7
100
AcDbSymbolTable
 70
     1
  0
UCS
  5
2D
100
AcDbSymbolTableRecord
100
AcDbUCSTableRecord
  2
CIM_TB_HOLD
 70
     0
 10
0.0
 20
0.0
 30
0.0
 11
1.0
 21
0.0
 31
0.0
 12
0.0
 22
1.0
 32
0.0
  0
ENDTAB
  0
TABLE
  2
APPID
  5
9
100
AcDbSymbolTable
 70
     6
  0
APPID
  5
11
100
AcDbSymbolTableRecord
100
AcDbRegAppTableRecord
  2
ACAD
 70
     0
  0
APPID
  5
22
100
AcDbSymbolTableRecord
100
AcDbRegAppTableRecord
  2
TB_S_MPD
 70
     0
  0
APPID
  5
19DD
100
AcDbSymbolTableRecord
100
AcDbRegAppTableRecord
  2
AD_DRAW
 70
     0
  0
APPID
  5
19F5
100
AcDbSymbolTableRecord
100
AcDbRegAppTableRecord
  2
DESIGNERASSEMBLIES
 70
     0
  0
APPID
  5
19F6
100
AcDbSymbolTableRecord
100
AcDbRegAppTableRecord
  2
MCAD_NO_VIS
 70
     0
  0
APPID
  5
19FC
100
AcDbSymbolTableRecord
100
AcDbRegAppTableRecord
  2
ASURF_PCURVE_APPNAME
 70
     0
  0
ENDTAB
  0
TABLE
  2
DIMSTYLE
  5
A
100
AcDbSymbolTable
 70
     3
  0
DIMSTYLE
105
1D
100
AcDbSymbolTableRecord
100
AcDbDimStyleTableRecord
  2
STANDARD
 70
     0
  3

  4

  5

  6

  7

 40
1.0
 41
0.18
 42
0.0625
 43
0.38
 44
0.18
 45
0.0
 46
0.0
 47
0.0
 48
0.0
140
0.18
141
0.09
142
0.0
143
25.4
144
1.0
145
0.0
146
1.0
147
0.09
 71
     0
 72
     0
 73
     1
 74
     1
 75
     0
 76
     0
 77
     0
 78
     0
170
     0
171
     2
172
     0
173
     0
174
     0
175
     0
176
     0
177
     0
178
     0
270
     2
271
     3
272
     4
273
     2
274
     2
340
10
275
     0
280
     0
281
     0
282
     0
283
     1
284
     0
285
     0
286
     0
287
     0
288
     0
  0
DIMSTYLE
105
2B
100
AcDbSymbolTableRecord
100
AcDbDimStyleTableRecord
  2
STANDARD$4
 70
     0
  3

  4

  5

  6

  7

 40
1.0
 41
0.18
 42
0.0625
 43
0.38
 44
0.18
 45
0.0
 46
0.0
 47
0.0
 48
0.0
140
0.18
141
0.09
142
0.0
143
25.4
144
1.0
145
0.0
146
1.0
147
0.09
 71
     0
 72
     0
 73
     1
 74
     1
 75
     0
 76
     0
 77
     0
 78
     0
170
     0
171
     2
172
     0
173
     0
174
     0
175
     0
176
     0
177
     0
178
     0
270
     2
271
     4
272
     4
273
     2
274
     2
340
10
275
     0
280
     0
281
     0
282
     0
283
     1
284
     0
285
     0
286
     0
287
     3
288
     0
  0
DIMSTYLE
105
2C
100
AcDbSymbolTableRecord
100
AcDbDimStyleTableRecord
  2
STANDARD$3
 70
     0
  3

  4

  5

  6

  7

 40
1.0
 41
0.18
 42
0.0625
 43
0.38
 44
0.18
 45
0.0
 46
0.0
 47
0.0
 48
0.0
140
0.18
141
0.09
142
0.0
143
25.4
144
1.0
145
0.0
146
1.0
147
0.09
 71
     0
 72
     0
 73
     1
 74
     1
 75
     0
 76
     0
 77
     0
 78
     0
170
     0
171
     2
172
     0
173
     0
174
     0
175
     0
176
     0
177
     0
178
     0
270
     2
271
     4
272
     4
273
     2
274
     2
340
10
275
     0
280
     0
281
     0
282
     0
283
     1
284
     0
285
     0
286
     0
287
     3
288
     0
  0
ENDTAB
  0
TABLE
  2
BLOCK_RECORD
  5
1
100
AcDbSymbolTable
 70
    59
  0
BLOCK_RECORD
  5
1A
100
AcDbSymbolTableRecord
100
AcDbBlockTableRecord
  2
*MODEL_SPACE
  0
BLOCK_RECORD
  5
17
100
AcDbSymbolTableRecord
100
AcDbBlockTableRecord
  2
*PAPER_SPACE
  0
BLOCK_RECORD
  5
4A
100
AcDbSymbolTableRecord
100
AcDbBlockTableRecord
  2
C-BORDER
  0
BLOCK_RECORD
  5
83
100
AcDbSymbolTableRecord
100
AcDbBlockTableRecord
  2
*X1
  0
BLOCK_RECORD
  5
9D
100
AcDbSymbolTableRecord
100
AcDbBlockTableRecord
  2
*X2
  0
BLOCK_RECORD
  5
B8
100
AcDbSymbolTableRecord
100
AcDbBlockTableRecord
  2
HYBR-12
  0
BLOCK_RECORD
  5
11B
100
AcDbSymbolTableRecord
100
AcDbBlockTableRecord
  2
POST-1
  0
BLOCK_RECORD
  5
135
100
AcDbSymbolTableRecord
100
AcDbBlockTableRecord
  2
*D5
  0
BLOCK_RECORD
  5
142
100
AcDbSymbolTableRecord
100
AcDbBlockTableRecord
  2
*D6
  0
BLOCK_RECORD
  5
14F
100
AcDbSymbolTableRecord
100
AcDbBlockTableRecord
  2
*D7
  0
BLOCK_RECORD
  5
15C
100
AcDbSymbolTableRecord
100
AcDbBlockTableRecord
  2
*D8
  0
BLOCK_RECORD
  5
169
100
AcDbSymbolTableRecord
100
AcDbBlockTableRecord
  2
*D9
  0
BLOCK_RECORD
  5
176
100
AcDbSymbolTableRecord
100
AcDbBlockTableRecord
  2
*D10
  0
BLOCK_RECORD
  5
183
100
AcDbSymbolTableRecord
100
AcDbBlockTableRecord
  2
*X11
  0
BLOCK_RECORD
  5
1D6
100
AcDbSymbolTableRecord
100
AcDbBlockTableRecord
  2
*X12
  0
BLOCK_RECORD
  5
213
100
AcDbSymbolTableRecord
100
AcDbBlockTableRecord
  2
*D13
  0
BLOCK_RECORD
  5
221
100
AcDbSymbolTableRecord
100
AcDbBlockTableRecord
  2
*D14
  0
BLOCK_RECORD
  5
237
100
AcDbSymbolTableRecord
100
AcDbBlockTableRecord
  2
UPI-L1F
  0
BLOCK_RECORD
  5
50E
100
AcDbSymbolTableRecord
100
AcDbBlockTableRecord
  2
*D16
  0
BLOCK_RECORD
  5
51B
100
AcDbSymbolTableRecord
100
AcDbBlockTableRecord
  2
*D17
  0
BLOCK_RECORD
  5
528
100
AcDbSymbolTableRecord
100
AcDbBlockTableRecord
  2
*D18
  0
BLOCK_RECORD
  5
535
100
AcDbSymbolTableRecord
100
AcDbBlockTableRecord
  2
*D19
  0
BLOCK_RECORD
  5
542
100
AcDbSymbolTableRecord
100
AcDbBlockTableRecord
  2
*D20
  0
BLOCK_RECORD
  5
54F
100
AcDbSymbolTableRecord
100
AcDbBlockTableRecord
  2
*D21
  0
BLOCK_RECORD
  5
55C
100
AcDbSymbolTableRecord
100
AcDbBlockTableRecord
  2
*X22
  0
BLOCK_RECORD
  5
5DC
100
AcDbSymbolTableRecord
100
AcDbBlockTableRecord
  2
*X23
  0
BLOCK_RECORD
  5
61E
100
AcDbSymbolTableRecord
100
AcDbBlockTableRecord
  2
*D24
  0
BLOCK_RECORD
  5
62C
100
AcDbSymbolTableRecord
100
AcDbBlockTableRecord
  2
*D25
  0
BLOCK_RECORD
  5
63B
100
AcDbSymbolTableRecord
100
AcDbBlockTableRecord
  2
UPI-L2F
  0
BLOCK_RECORD
  5
957
100
AcDbSymbolTableRecord
100
AcDbBlockTableRecord
  2
*D27
  0
BLOCK_RECORD
  5
964
100
AcDbSymbolTableRecord
100
AcDbBlockTableRecord
  2
*D28
  0
BLOCK_RECORD
  5
971
100
AcDbSymbolTableRecord
100
AcDbBlockTableRecord
  2
*D29
  0
BLOCK_RECORD
  5
97E
100
AcDbSymbolTableRecord
100
AcDbBlockTableRecord
  2
*D30
  0
BLOCK_RECORD
  5
98B
100
AcDbSymbolTableRecord
100
AcDbBlockTableRecord
  2
*D31
  0
BLOCK_RECORD
  5
998
100
AcDbSymbolTableRecord
100
AcDbBlockTableRecord
  2
*D32
  0
BLOCK_RECORD
  5
9A5
100
AcDbSymbolTableRecord
100
AcDbBlockTableRecord
  2
*X33
  0
BLOCK_RECORD
  5
A19
100
AcDbSymbolTableRecord
100
AcDbBlockTableRecord
  2
*X34
  0
BLOCK_RECORD
  5
A56
100
AcDbSymbolTableRecord
100
AcDbBlockTableRecord
  2
UPI-L1B
  0
BLOCK_RECORD
  5
CD6
100
AcDbSymbolTableRecord
100
AcDbBlockTableRecord
  2
*D36
  0
BLOCK_RECORD
  5
CE3
100
AcDbSymbolTableRecord
100
AcDbBlockTableRecord
  2
*D37
  0
BLOCK_RECORD
  5
CF0
100
AcDbSymbolTableRecord
100
AcDbBlockTableRecord
  2
*D38
  0
BLOCK_RECORD
  5
CFD
100
AcDbSymbolTableRecord
100
AcDbBlockTableRecord
  2
*D39
  0
BLOCK_RECORD
  5
D0A
100
AcDbSymbolTableRecord
100
AcDbBlockTableRecord
  2
*D40
  0
BLOCK_RECORD
  5
D17
100
AcDbSymbolTableRecord
100
AcDbBlockTableRecord
  2
*D41
  0
BLOCK_RECORD
  5
D24
100
AcDbSymbolTableRecord
100
AcDbBlockTableRecord
  2
*X42
  0
BLOCK_RECORD
  5
DE8
100
AcDbSymbolTableRecord
100
AcDbBlockTableRecord
  2
*X43
  0
BLOCK_RECORD
  5
E29
100
AcDbSymbolTableRecord
100
AcDbBlockTableRecord
  2
UPI-L2B
  0
BLOCK_RECORD
  5
E99
100
AcDbSymbolTableRecord
100
AcDbBlockTableRecord
  2
*D45
  0
BLOCK_RECORD
  5
EA7
100
AcDbSymbolTableRecord
100
AcDbBlockTableRecord
  2
*D46
  0
BLOCK_RECORD
  5
EB5
100
AcDbSymbolTableRecord
100
AcDbBlockTableRecord
  2
*D47
  0
BLOCK_RECORD
  5
EF2
100
AcDbSymbolTableRecord
100
AcDbBlockTableRecord
  2
*D48
  0
BLOCK_RECORD
  5
F00
100
AcDbSymbolTableRecord
100
AcDbBlockTableRecord
  2
*D49
  0
BLOCK_RECORD
  5
1677
100
AcDbSymbolTableRecord
100
AcDbBlockTableRecord
  2
*X50
  0
BLOCK_RECORD
  5
178D
100
AcDbSymbolTableRecord
100
AcDbBlockTableRecord
  2
*X51
  0
BLOCK_RECORD
  5
19E9
100
AcDbSymbolTableRecord
100
AcDbBlockTableRecord
  2
*U56
  0
BLOCK_RECORD
  5
1A26
100
AcDbSymbolTableRecord
100
AcDbBlockTableRecord
  2
*X57
  0
BLOCK_RECORD
  5
1A8C
100
AcDbSymbolTableRecord
100
AcDbBlockTableRecord
  2
*X58
  0
ENDTAB
  0
ENDSEC
  0
SECTION
  2
BLOCKS
  0
BLOCK
  5
1B
100
AcDbEntity
  8
0
100
AcDbBlockBegin
  2
*MODEL_SPACE
 70
     0
 10
0.0
 20
0.0
 30
0.0
  3
*MODEL_SPACE
  1

  0
ENDBLK
  5
1C
100
AcDbEntity
  8
0
100
AcDbBlockEnd
  0
BLOCK
  5
18
100
AcDbEntity
 67
     1
  8
0
100
AcDbBlockBegin
  2
*PAPER_SPACE
 70
     0
 10
0.0
 20
0.0
 30
0.0
  3
*PAPER_SPACE
  1

  0
ENDBLK
  5
19
100
AcDbEntity
 67
     1
  8
0
100
AcDbBlockEnd
  0
BLOCK
  5
80
100
AcDbEntity
  8
0
100
AcDbBlockBegin
  2
C-BORDER
 70
     0
 10
0.0
 20
0.0
 30
0.0
  3
C-BORDER
  1

  0
LINE
  5
48B
100
AcDbEntity
  8
TEXT
100
AcDbLine
 10
0.5
 20
14.875
 30
0.0
 11
3.0625
 21
14.875
 31
0.0
  0
LINE
  5
48C
100
AcDbEntity
  8
TEXT
100
AcDbLine
 10
3.0625
 20
14.875
 30
0.0
 11
3.0625
 21
15.375
 31
0.0
  0
CIRCLE
  5
48D
100
AcDbEntity
  8
TEXT
100
AcDbCircle
 10
1.177871
 20
15.111461
 30
0.0
 40
0.1875
  0
CIRCLE
  5
48E
100
AcDbEntity
  8
TEXT
100
AcDbCircle
 10
1.177871
 20
15.111461
 30
0.0
 40
0.09375
  0
LINE
  5
48F
100
AcDbEntity
  8
TEXT
  6
CENTER
100
AcDbLine
 10
0.943951
 20
15.111461
 30
0.0
 11
2.396621
 21
15.111461
 31
0.0
  0
LINE
  5
490
100
AcDbEntity
  8
TEXT
  6
CENTER
100
AcDbLine
 10
1.177871
 20
14.882779
 30
0.0
 11
1.177871
 21
15.350656
 31
0.0
  0
LINE
  5
491
100
AcDbEntity
  8
TEXT
100
AcDbLine
 10
1.646621
 20
15.205211
 30
0.0
 11
2.131263
 21
15.298961
 31
0.0
  0
LINE
  5
492
100
AcDbEntity
  8
TEXT
100
AcDbLine
 10
1.646621
 20
15.017711
 30
0.0
 11
2.131263
 21
14.923961
 31
0.0
  0
LINE
  5
493
100
AcDbEntity
  8
TEXT
100
AcDbLine
 10
1.646621
 20
15.017711
 30
0.0
 11
1.646621
 21
15.205211
 31
0.0
  0
LINE
  5
494
100
AcDbEntity
  8
TEXT
100
AcDbLine
 10
2.131263
 20
15.298961
 30
0.0
 11
2.131263
 21
14.923961
 31
0.0
  0
TEXT
  5
495
100
AcDbEntity
  8
TEXT
100
AcDbText
 10
0.6875
 20
14.689828
 30
0.0
 40
0.1
  1
THIRD ANGLE PROJECTION
100
AcDbText
  0
LINE
  5
496
100
AcDbEntity
  8
TEXT
100
AcDbLine
 10
3.0625
 20
14.875
 30
0.0
 11
3.0625
 21
14.625
 31
0.0
  0
LINE
  5
497
100
AcDbEntity
  8
TEXT
100
AcDbLine
 10
3.0625
 20
14.625
 30
0.0
 11
0.5
 21
14.625
 31
0.0
  0
TEXT
  5
498
100
AcDbEntity
  8
TEXT
100
AcDbText
 10
15.40792
 20
1.861505
 30
0.0
 40
0.065
  1
  %%P 0.5%%D
  7
ADESK2
100
AcDbText
  0
TEXT
  5
499
100
AcDbEntity
  8
TEXT
100
AcDbText
 10
15.40792
 20
1.966743
 30
0.0
 40
0.065
  1
ANGULAR
  7
ADESK2
100
AcDbText
  0
TEXT
  5
49A
100
AcDbEntity
  8
TEXT
100
AcDbText
 10
14.61466
 20
1.653744
 30
0.0
 40
0.065
  1
DO NOT SCALE DRAWING
  7
ADESK2
 72
     1
 11
15.229065
 21
1.653744
 31
0.0
100
AcDbText
  0
TEXT
  5
49B
100
AcDbEntity
  8
TEXT
100
AcDbText
 10
14.544023
 20
1.756267
 30
0.0
 40
0.065
  1
.XXX %%P .005
  7
ADESK2
100
AcDbText
  0
TEXT
  5
49C
100
AcDbEntity
  8
TEXT
100
AcDbText
 10
14.544023
 20
1.861505
 30
0.0
 40
0.065
  1
.XX  %%P .05
  7
ADESK2
100
AcDbText
  0
TEXT
  5
49D
100
AcDbEntity
  8
TEXT
100
AcDbText
 10
14.544023
 20
1.966743
 30
0.0
 40
0.065
  1
DECIMALS
  7
ADESK2
100
AcDbText
  0
TEXT
  5
49E
100
AcDbEntity
  8
TEXT
100
AcDbText
 10
14.930374
 20
2.074613
 30
0.0
 40
0.065
  1
TOLERANCES
  7
ADESK2
 72
     1
 11
15.229065
 21
2.074613
 31
0.0
100
AcDbText
  0
TEXT
  5
49F
100
AcDbEntity
  8
TEXT
100
AcDbText
 10
14.532636
 20
2.179851
 30
0.0
 40
0.065
  1
DIMENSIONS ARE IN INCHES
  7
ADESK2
 72
     1
 11
15.229065
 21
2.179851
 31
0.0
100
AcDbText
  0
TEXT
  5
4A0
100
AcDbEntity
  8
TEXT
100
AcDbText
 10
14.458351
 20
2.285089
 30
0.0
 40
0.065
  1
UNLESS OTHERWISE SPECIFIED:
  7
ADESK2
 72
     1
 11
15.229065
 21
2.285089
 31
0.0
100
AcDbText
  0
TEXT
  5
4A1
100
AcDbEntity
  8
BORDER
100
AcDbText
 10
16.916608
 20
2.075566
 30
0.0
 40
0.15
  1
HIGH ENERGY PHYSICS
100
AcDbText
  0
LINE
  5
4A2
100
AcDbEntity
  8
BORDER
100
AcDbLine
 10
0.5
 20
15.375
 30
0.0
 11
20.5
 21
15.375
 31
0.0
  0
TEXT
  5
4A3
100
AcDbEntity
  8
TEXT
100
AcDbText
 10
16.680137
 20
1.165354
 30
0.0
 40
0.075
  1
FILE #
100
AcDbText
  0
TEXT
  5
4A4
100
AcDbEntity
  8
BORDER
100
AcDbText
 10
16.367704
 20
0.951962
 30
0.0
 40
0.15
  1
C
100
AcDbText
  0
LINE
  5
4A5
100
AcDbEntity
  8
BORDER
100
AcDbLine
 10
0.5
 20
0.625
 30
0.0
 11
20.5
 21
0.625
 31
0.0
  0
LINE
  5
4A6
100
AcDbEntity
  8
BORDER
100
AcDbLine
 10
0.5
 20
15.375
 30
0.0
 11
0.5
 21
0.625
 31
0.0
  0
LINE
  5
4A7
100
AcDbEntity
  8
BORDER
100
AcDbLine
 10
20.5
 20
0.625
 30
0.0
 11
20.5
 21
15.375
 31
0.0
  0
LINE
  5
4A8
100
AcDbEntity
  8
BORDER
100
AcDbLine
 10
14.228025
 20
2.824147
 30
0.0
 11
20.500862
 21
2.824147
 31
0.0
  0
TEXT
  5
4A9
100
AcDbEntity
  8
BORDER
100
AcDbText
 10
14.407029
 20
2.549228
 30
0.0
 40
0.15
  1
UNIVERSITY OF CALIFORNIA @ SANTA BARBARA
100
AcDbText
  0
TEXT
  5
4AA
100
AcDbEntity
  8
TEXT
100
AcDbText
 10
14.297375
 20
1.479964
 30
0.0
 40
0.065
  1
DRAWN
  7
ADESK2
100
AcDbText
  0
LINE
  5
4AB
100
AcDbEntity
  8
BORDER
100
AcDbLine
 10
14.229065
 20
0.625
 30
0.0
 11
14.229065
 21
2.824147
 31
0.0
  0
LINE
  5
4AC
100
AcDbEntity
  8
BORDER
100
AcDbLine
 10
14.229065
 20
2.401501
 30
0.0
 11
20.500862
 21
2.401501
 31
0.0
  0
LINE
  5
4AD
100
AcDbEntity
  8
TEXT
100
AcDbLine
 10
14.229065
 20
0.966501
 30
0.0
 11
16.229065
 21
0.966501
 31
0.0
  0
LINE
  5
4AE
100
AcDbEntity
  8
TEXT
100
AcDbLine
 10
14.229065
 20
1.281501
 30
0.0
 11
20.500862
 21
1.281501
 31
0.0
  0
LINE
  5
4AF
100
AcDbEntity
  8
TEXT
100
AcDbLine
 10
16.229065
 20
0.901501
 30
0.0
 11
20.500862
 21
0.901501
 31
0.0
  0
LINE
  5
4B0
100
AcDbEntity
  8
BORDER
100
AcDbLine
 10
16.229065
 20
1.901501
 30
0.0
 11
20.500862
 21
1.901501
 31
0.0
  0
LINE
  5
4B1
100
AcDbEntity
  8
BORDER
100
AcDbLine
 10
16.229065
 20
0.625
 30
0.0
 11
16.229065
 21
2.401501
 31
0.0
  0
LINE
  5
4B2
100
AcDbEntity
  8
TEXT
100
AcDbLine
 10
17.229065
 20
0.625
 30
0.0
 11
17.229065
 21
0.901501
 31
0.0
  0
LINE
  5
4B3
100
AcDbEntity
  8
TEXT
100
AcDbLine
 10
18.729065
 20
0.625
 30
0.0
 11
18.729065
 21
0.901501
 31
0.0
  0
LINE
  5
4B4
100
AcDbEntity
  8
TEXT
100
AcDbLine
 10
16.609065
 20
0.901501
 30
0.0
 11
16.609065
 21
1.281501
 31
0.0
  0
LINE
  5
4B5
100
AcDbEntity
  8
TEXT
100
AcDbLine
 10
17.729065
 20
0.901501
 30
0.0
 11
17.729065
 21
1.281501
 31
0.0
  0
LINE
  5
4B6
100
AcDbEntity
  8
TEXT
100
AcDbLine
 10
20.099065
 20
0.901501
 30
0.0
 11
20.099065
 21
1.281501
 31
0.0
  0
TEXT
  5
4B7
100
AcDbEntity
  8
TEXT
100
AcDbText
 10
16.281365
 20
0.744001
 30
0.0
 40
0.065
  1
SCALE
  7
ADESK2
100
AcDbText
  0
TEXT
  5
4B8
100
AcDbEntity
  8
TEXT
100
AcDbText
 10
18.781865
 20
0.744001
 30
0.0
 40
0.065
  1
SHEET
  7
ADESK2
100
AcDbText
  0
TEXT
  5
4B9
100
AcDbEntity
  8
TEXT
100
AcDbText
 10
16.316965
 20
1.167401
 30
0.0
 40
0.065
  1
SIZE
  7
ADESK2
100
AcDbText
  0
TEXT
  5
4BA
100
AcDbEntity
  8
TEXT
100
AcDbText
 10
17.800065
 20
1.167401
 30
0.0
 40
0.065
  1
DWG NO.
  7
ADESK2
100
AcDbText
  0
TEXT
  5
4BB
100
AcDbEntity
  8
TEXT
100
AcDbText
 10
20.179565
 20
1.167401
 30
0.0
 40
0.065
  1
REV
  7
ADESK2
100
AcDbText
  0
LINE
  5
4BC
100
AcDbEntity
  8
TEXT
100
AcDbLine
 10
15.445694
 20
15.018795
 30
0.0
 11
20.5
 21
15.018795
 31
0.0
  0
LINE
  5
4BD
100
AcDbEntity
  8
TEXT
100
AcDbLine
 10
15.445694
 20
14.768795
 30
0.0
 11
20.5
 21
14.768795
 31
0.0
  0
LINE
  5
4BE
100
AcDbEntity
  8
TEXT
100
AcDbLine
 10
15.445694
 20
15.328859
 30
0.0
 11
15.445694
 21
14.768795
 31
0.0
  0
LINE
  5
4BF
100
AcDbEntity
  8
TEXT
100
AcDbLine
 10
15.835946
 20
14.768795
 30
0.0
 11
15.835946
 21
15.018795
 31
0.0
  0
LINE
  5
4C0
100
AcDbEntity
  8
TEXT
100
AcDbLine
 10
18.575946
 20
14.768795
 30
0.0
 11
18.575946
 21
15.018795
 31
0.0
  0
LINE
  5
4C1
100
AcDbEntity
  8
TEXT
100
AcDbLine
 10
19.455946
 20
14.768795
 30
0.0
 11
19.455946
 21
15.018795
 31
0.0
  0
TEXT
  5
4C2
100
AcDbEntity
  8
TEXT
100
AcDbText
 10
17.666146
 20
15.101295
 30
0.0
 40
0.065
  1
REVISIONS
  7
ADESK2
100
AcDbText
  0
TEXT
  5
4C3
100
AcDbEntity
  8
TEXT
100
AcDbText
 10
15.536046
 20
14.859095
 30
0.0
 40
0.065
  1
REV
  7
ADESK2
100
AcDbText
  0
TEXT
  5
4C4
100
AcDbEntity
  8
TEXT
100
AcDbText
 10
16.837946
 20
14.859095
 30
0.0
 40
0.065
  1
DESCRIPTION
  7
ADESK2
100
AcDbText
  0
TEXT
  5
4C5
100
AcDbEntity
  8
TEXT
100
AcDbText
 10
18.903646
 20
14.859095
 30
0.0
 40
0.065
  1
DATE
  7
ADESK2
100
AcDbText
  0
TEXT
  5
4C6
100
AcDbEntity
  8
TEXT
100
AcDbText
 10
19.697346
 20
14.859095
 30
0.0
 40
0.065
  1
APPROVED
  7
ADESK2
100
AcDbText
  0
LINE
  5
4C7
100
AcDbEntity
  8
TEXT
100
AcDbLine
 10
14.229065
 20
1.591501
 30
0.0
 11
16.229065
 21
1.591501
 31
0.0
  0
TEXT
  5
4C8
100
AcDbEntity
  8
TEXT
100
AcDbText
 10
14.309065
 20
1.171501
 30
0.0
 40
0.065
  1
CHECKED
  7
ADESK2
100
AcDbText
  0
TEXT
  5
4C9
100
AcDbEntity
  8
TEXT
100
AcDbText
 10
14.309065
 20
0.856501
 30
0.0
 40
0.065
  1
DESIGN
  7
ADESK2
100
AcDbText
  0
LINE
  5
4CA
100
AcDbEntity
  8
TEXT
100
AcDbLine
 10
15.729049
 20
1.591501
 30
0.0
 11
15.729049
 21
0.625
 31
0.0
  0
TEXT
  5
4CB
100
AcDbEntity
  8
TEXT
100
AcDbText
 10
15.852468
 20
1.474951
 30
0.0
 40
0.065
  1
DATE
  7
ADESK2
100
AcDbText
  0
TEXT
  5
4CC
100
AcDbEntity
  8
TEXT
100
AcDbText
 10
19.612036
 20
0.744377
 30
0.0
 40
0.065
  1
OF
  7
ADESK2
100
AcDbText
  0
ENDBLK
  5
81
100
AcDbEntity
  8
0
100
AcDbBlockEnd
  0
BLOCK
  5
9B
100
AcDbEntity
  8
0
100
AcDbBlockBegin
  2
*X1
 70
    65
 10
0.0
 20
0.0
 30
0.0
  3
*X1
  1

  0
LINE
  5
84
100
AcDbEntity
  8
0
 62
     0
100
AcDbLine
 10
105.871943
 20
75.819905
 30
0.0
 11
106.371943
 21
76.319905
 31
0.0
  0
LINE
  5
85
100
AcDbEntity
  8
0
 62
     0
100
AcDbLine
 10
115.590718
 20
85.53868
 30
0.0
 11
116.090718
 21
86.03868
 31
0.0
  0
LINE
  5
86
100
AcDbEntity
  8
0
 62
     0
100
AcDbLine
 10
105.871943
 20
77.587672
 30
0.0
 11
106.371943
 21
78.087672
 31
0.0
  0
LINE
  5
87
100
AcDbEntity
  8
0
 62
     0
100
AcDbLine
 10
113.822951
 20
85.53868
 30
0.0
 11
114.322951
 21
86.03868
 31
0.0
  0
LINE
  5
88
100
AcDbEntity
  8
0
 62
     0
100
AcDbLine
 10
105.871943
 20
79.355439
 30
0.0
 11
106.371943
 21
79.855439
 31
0.0
  0
LINE
  5
89
100
AcDbEntity
  8
0
 62
     0
100
AcDbLine
 10
112.055184
 20
85.53868
 30
0.0
 11
112.555184
 21
86.03868
 31
0.0
  0
LINE
  5
8A
100
AcDbEntity
  8
0
 62
     0
100
AcDbLine
 10
105.871943
 20
81.123206
 30
0.0
 11
106.371943
 21
81.623206
 31
0.0
  0
LINE
  5
8B
100
AcDbEntity
  8
0
 62
     0
100
AcDbLine
 10
110.287417
 20
85.53868
 30
0.0
 11
110.787417
 21
86.03868
 31
0.0
  0
LINE
  5
8C
100
AcDbEntity
  8
0
 62
     0
100
AcDbLine
 10
105.871943
 20
82.890973
 30
0.0
 11
106.371943
 21
83.390973
 31
0.0
  0
LINE
  5
8D
100
AcDbEntity
  8
0
 62
     0
100
AcDbLine
 10
108.51965
 20
85.53868
 30
0.0
 11
109.01965
 21
86.03868
 31
0.0
  0
LINE
  5
8E
100
AcDbEntity
  8
0
 62
     0
100
AcDbLine
 10
105.871943
 20
84.65874
 30
0.0
 11
106.371943
 21
85.15874
 31
0.0
  0
LINE
  5
8F
100
AcDbEntity
  8
0
 62
     0
100
AcDbLine
 10
106.751883
 20
85.53868
 30
0.0
 11
107.251883
 21
86.03868
 31
0.0
  0
LINE
  5
90
100
AcDbEntity
  8
0
 62
     0
100
AcDbLine
 10
107.158485
 20
75.33868
 30
0.0
 11
107.658485
 21
75.83868
 31
0.0
  0
LINE
  5
91
100
AcDbEntity
  8
0
 62
     0
100
AcDbLine
 10
116.271943
 20
84.452138
 30
0.0
 11
116.771943
 21
84.952138
 31
0.0
  0
LINE
  5
92
100
AcDbEntity
  8
0
 62
     0
100
AcDbLine
 10
108.926252
 20
75.33868
 30
0.0
 11
109.426252
 21
75.83868
 31
0.0
  0
LINE
  5
93
100
AcDbEntity
  8
0
 62
     0
100
AcDbLine
 10
116.271943
 20
82.684371
 30
0.0
 11
116.771943
 21
83.184371
 31
0.0
  0
LINE
  5
94
100
AcDbEntity
  8
0
 62
     0
100
AcDbLine
 10
110.694019
 20
75.33868
 30
0.0
 11
111.194019
 21
75.83868
 31
0.0
  0
LINE
  5
95
100
AcDbEntity
  8
0
 62
     0
100
AcDbLine
 10
116.271943
 20
80.916604
 30
0.0
 11
116.771943
 21
81.416604
 31
0.0
  0
LINE
  5
96
100
AcDbEntity
  8
0
 62
     0
100
AcDbLine
 10
112.461786
 20
75.33868
 30
0.0
 11
112.961786
 21
75.83868
 31
0.0
  0
LINE
  5
97
100
AcDbEntity
  8
0
 62
     0
100
AcDbLine
 10
116.271943
 20
79.148837
 30
0.0
 11
116.771943
 21
79.648837
 31
0.0
  0
LINE
  5
98
100
AcDbEntity
  8
0
 62
     0
100
AcDbLine
 10
114.229553
 20
75.33868
 30
0.0
 11
114.729553
 21
75.83868
 31
0.0
  0
LINE
  5
99
100
AcDbEntity
  8
0
 62
     0
100
AcDbLine
 10
116.271943
 20
77.38107
 30
0.0
 11
116.771943
 21
77.88107
 31
0.0
  0
LINE
  5
9A
100
AcDbEntity
  8
0
 62
     0
100
AcDbLine
 10
115.99732
 20
75.33868
 30
0.0
 11
116.771943
 21
76.113303
 31
0.0
  0
ENDBLK
  5
9C
100
AcDbEntity
  8
0
100
AcDbBlockEnd
  0
BLOCK
  5
B6
100
AcDbEntity
  8
0
100
AcDbBlockBegin
  2
*X2
 70
    65
 10
0.0
 20
0.0
 30
0.0
  3
*X2
  1

  0
LINE
  5
9E
100
AcDbEntity
  8
0
 62
     0
100
AcDbLine
 10
105.871943
 20
58.142235
 30
0.0
 11
106.371943
 21
58.642235
 31
0.0
  0
LINE
  5
9F
100
AcDbEntity
  8
0
 62
     0
100
AcDbLine
 10
114.568387
 20
66.83868
 30
0.0
 11
115.068387
 21
67.33868
 31
0.0
  0
LINE
  5
A0
100
AcDbEntity
  8
0
 62
     0
100
AcDbLine
 10
105.871943
 20
59.910002
 30
0.0
 11
106.371943
 21
60.410002
 31
0.0
  0
LINE
  5
A1
100
AcDbEntity
  8
0
 62
     0
100
AcDbLine
 10
112.80062
 20
66.83868
 30
0.0
 11
113.30062
 21
67.33868
 31
0.0
  0
LINE
  5
A2
100
AcDbEntity
  8
0
 62
     0
100
AcDbLine
 10
105.871943
 20
61.677769
 30
0.0
 11
106.371943
 21
62.177769
 31
0.0
  0
LINE
  5
A3
100
AcDbEntity
  8
0
 62
     0
100
AcDbLine
 10
111.032853
 20
66.83868
 30
0.0
 11
111.532853
 21
67.33868
 31
0.0
  0
LINE
  5
A4
100
AcDbEntity
  8
0
 62
     0
100
AcDbLine
 10
105.871943
 20
63.445536
 30
0.0
 11
106.371943
 21
63.945536
 31
0.0
  0
LINE
  5
A5
100
AcDbEntity
  8
0
 62
     0
100
AcDbLine
 10
109.265086
 20
66.83868
 30
0.0
 11
109.765086
 21
67.33868
 31
0.0
  0
LINE
  5
A6
100
AcDbEntity
  8
0
 62
     0
100
AcDbLine
 10
105.871943
 20
65.213303
 30
0.0
 11
106.371943
 21
65.713303
 31
0.0
  0
LINE
  5
A7
100
AcDbEntity
  8
0
 62
     0
100
AcDbLine
 10
107.49732
 20
66.83868
 30
0.0
 11
107.99732
 21
67.33868
 31
0.0
  0
LINE
  5
A8
100
AcDbEntity
  8
0
 62
     0
100
AcDbLine
 10
105.871943
 20
66.98107
 30
0.0
 11
106.229553
 21
67.33868
 31
0.0
  0
LINE
  5
A9
100
AcDbEntity
  8
0
 62
     0
100
AcDbLine
 10
106.136154
 20
56.63868
 30
0.0
 11
106.636154
 21
57.13868
 31
0.0
  0
LINE
  5
AA
100
AcDbEntity
  8
0
 62
     0
100
AcDbLine
 10
116.271943
 20
66.774469
 30
0.0
 11
116.771943
 21
67.274469
 31
0.0
  0
LINE
  5
AB
100
AcDbEntity
  8
0
 62
     0
100
AcDbLine
 10
107.903921
 20
56.63868
 30
0.0
 11
108.403921
 21
57.13868
 31
0.0
  0
LINE
  5
AC
100
AcDbEntity
  8
0
 62
     0
100
AcDbLine
 10
116.271943
 20
65.006702
 30
0.0
 11
116.771943
 21
65.506702
 31
0.0
  0
LINE
  5
AD
100
AcDbEntity
  8
0
 62
     0
100
AcDbLine
 10
109.671688
 20
56.63868
 30
0.0
 11
110.171688
 21
57.13868
 31
0.0
  0
LINE
  5
AE
100
AcDbEntity
  8
0
 62
     0
100
AcDbLine
 10
116.271943
 20
63.238935
 30
0.0
 11
116.771943
 21
63.738935
 31
0.0
  0
LINE
  5
AF
100
AcDbEntity
  8
0
 62
     0
100
AcDbLine
 10
111.439455
 20
56.63868
 30
0.0
 11
111.939455
 21
57.13868
 31
0.0
  0
LINE
  5
B0
100
AcDbEntity
  8
0
 62
     0
100
AcDbLine
 10
116.271943
 20
61.471168
 30
0.0
 11
116.771943
 21
61.971168
 31
0.0
  0
LINE
  5
B1
100
AcDbEntity
  8
0
 62
     0
100
AcDbLine
 10
113.207222
 20
56.63868
 30
0.0
 11
113.707222
 21
57.13868
 31
0.0
  0
LINE
  5
B2
100
AcDbEntity
  8
0
 62
     0
100
AcDbLine
 10
116.271943
 20
59.703401
 30
0.0
 11
116.771943
 21
60.203401
 31
0.0
  0
LINE
  5
B3
100
AcDbEntity
  8
0
 62
     0
100
AcDbLine
 10
114.974989
 20
56.63868
 30
0.0
 11
115.474989
 21
57.13868
 31
0.0
  0
LINE
  5
B4
100
AcDbEntity
  8
0
 62
     0
100
AcDbLine
 10
116.271943
 20
57.935634
 30
0.0
 11
116.771943
 21
58.435634
 31
0.0
  0
LINE
  5
B5
100
AcDbEntity
  8
0
 62
     0
100
AcDbLine
 10
116.742756
 20
56.63868
 30
0.0
 11
116.771943
 21
56.667867
 31
0.0
  0
ENDBLK
  5
B7
100
AcDbEntity
  8
0
100
AcDbBlockEnd
  0
BLOCK
  5
10C
100
AcDbEntity
  8
AIN
100
AcDbBlockBegin
  2
HYBR-12
 70
     0
 10
0.0
 20
0.0
 30
0.0
  3
HYBR-12
  1

  0
LINE
  5
B9
100
AcDbEntity
  8
SCRATCH
 62
     4
100
AcDbLine
 10
41.2
 20
46.8
 30
0.0
 11
41.2
 21
0.0
 31
0.0
  0
LINE
  5
BA
100
AcDbEntity
  8
SCRATCH
100
AcDbLine
 10
34.2
 20
30.347
 30
0.0
 11
34.2
 21
9.707
 31
0.0
  0
LINE
  5
BB
100
AcDbEntity
  8
SCRATCH
100
AcDbLine
 10
40.2
 20
30.347
 30
0.0
 11
40.2
 21
9.707
 31
0.0
  0
LINE
  5
BC
100
AcDbEntity
  8
SCRATCH
 62
     4
100
AcDbLine
 10
0.0
 20
46.8
 30
0.0
 11
0.0
 21
0.0
 31
0.0
  0
POLYLINE
  5
BD
100
AcDbEntity
  8
SCRATCH
100
AcDb2dPolyline
 66
     1
 10
0.0
 20
0.0
 30
0.0
 70
     1
  0
VERTEX
  5
BE
100
AcDbEntity
  8
SCRATCH
100
AcDbVertex
100
AcDb2dVertex
 10
7.6
 20
20.1
 30
0.0
  0
VERTEX
  5
BF
100
AcDbEntity
  8
SCRATCH
100
AcDbVertex
100
AcDb2dVertex
 10
17.6
 20
20.1
 30
0.0
  0
VERTEX
  5
C0
100
AcDbEntity
  8
SCRATCH
100
AcDbVertex
100
AcDb2dVertex
 10
17.6
 20
13.7
 30
0.0
  0
VERTEX
  5
C1
100
AcDbEntity
  8
SCRATCH
100
AcDbVertex
100
AcDb2dVertex
 10
7.6
 20
13.7
 30
0.0
  0
SEQEND
  5
10E
100
AcDbEntity
  8
SCRATCH
  0
LINE
  5
C2
100
AcDbEntity
  8
SCRATCH
 62
     4
100
AcDbLine
 10
0.0
 20
0.0
 30
0.0
 11
41.2
 21
0.0
 31
0.0
  0
POLYLINE
  5
C3
100
AcDbEntity
  8
SCRATCH
100
AcDb2dPolyline
 66
     1
 10
0.0
 20
0.0
 30
0.0
 70
     1
  0
VERTEX
  5
C4
100
AcDbEntity
  8
SCRATCH
100
AcDbVertex
100
AcDb2dVertex
 10
7.6
 20
7.1
 30
0.0
  0
VERTEX
  5
C5
100
AcDbEntity
  8
SCRATCH
100
AcDbVertex
100
AcDb2dVertex
 10
17.6
 20
7.1
 30
0.0
  0
VERTEX
  5
C6
100
AcDbEntity
  8
SCRATCH
100
AcDbVertex
100
AcDb2dVertex
 10
17.6
 20
0.7
 30
0.0
  0
VERTEX
  5
C7
100
AcDbEntity
  8
SCRATCH
100
AcDbVertex
100
AcDb2dVertex
 10
7.6
 20
0.7
 30
0.0
  0
SEQEND
  5
10F
100
AcDbEntity
  8
SCRATCH
  0
POLYLINE
  5
C8
100
AcDbEntity
  8
SCRATCH
100
AcDb2dPolyline
 66
     1
 10
0.0
 20
0.0
 30
0.0
 70
     1
  0
VERTEX
  5
C9
100
AcDbEntity
  8
SCRATCH
100
AcDbVertex
100
AcDb2dVertex
 10
7.6
 20
13.6
 30
0.0
  0
VERTEX
  5
CA
100
AcDbEntity
  8
SCRATCH
100
AcDbVertex
100
AcDb2dVertex
 10
17.6
 20
13.6
 30
0.0
  0
VERTEX
  5
CB
100
AcDbEntity
  8
SCRATCH
100
AcDbVertex
100
AcDb2dVertex
 10
17.6
 20
7.2
 30
0.0
  0
VERTEX
  5
CC
100
AcDbEntity
  8
SCRATCH
100
AcDbVertex
100
AcDb2dVertex
 10
7.6
 20
7.2
 30
0.0
  0
SEQEND
  5
110
100
AcDbEntity
  8
SCRATCH
  0
LINE
  5
CD
100
AcDbEntity
  8
SCRATCH
100
AcDbLine
 10
40.2
 20
9.707
 30
0.0
 11
34.2
 21
9.707
 31
0.0
  0
POLYLINE
  5
CE
100
AcDbEntity
  8
SCRATCH
100
AcDb2dPolyline
 66
     1
 10
0.0
 20
0.0
 30
0.0
 70
     1
  0
VERTEX
  5
CF
100
AcDbEntity
  8
SCRATCH
100
AcDbVertex
100
AcDb2dVertex
 10
7.6
 20
39.6
 30
0.0
  0
VERTEX
  5
D0
100
AcDbEntity
  8
SCRATCH
100
AcDbVertex
100
AcDb2dVertex
 10
17.6
 20
39.6
 30
0.0
  0
VERTEX
  5
D1
100
AcDbEntity
  8
SCRATCH
100
AcDbVertex
100
AcDb2dVertex
 10
17.6
 20
33.2
 30
0.0
  0
VERTEX
  5
D2
100
AcDbEntity
  8
SCRATCH
100
AcDbVertex
100
AcDb2dVertex
 10
7.6
 20
33.2
 30
0.0
  0
SEQEND
  5
111
100
AcDbEntity
  8
SCRATCH
  0
POLYLINE
  5
D3
100
AcDbEntity
  8
SCRATCH
100
AcDb2dPolyline
 66
     1
 10
0.0
 20
0.0
 30
0.0
 70
     1
  0
VERTEX
  5
D4
100
AcDbEntity
  8
SCRATCH
100
AcDbVertex
100
AcDb2dVertex
 10
7.6
 20
26.6
 30
0.0
  0
VERTEX
  5
D5
100
AcDbEntity
  8
SCRATCH
100
AcDbVertex
100
AcDb2dVertex
 10
17.6
 20
26.6
 30
0.0
  0
VERTEX
  5
D6
100
AcDbEntity
  8
SCRATCH
100
AcDbVertex
100
AcDb2dVertex
 10
17.6
 20
20.2
 30
0.0
  0
VERTEX
  5
D7
100
AcDbEntity
  8
SCRATCH
100
AcDbVertex
100
AcDb2dVertex
 10
7.6
 20
20.2
 30
0.0
  0
SEQEND
  5
112
100
AcDbEntity
  8
SCRATCH
  0
POLYLINE
  5
D8
100
AcDbEntity
  8
SCRATCH
100
AcDb2dPolyline
 66
     1
 10
0.0
 20
0.0
 30
0.0
 70
     1
  0
VERTEX
  5
D9
100
AcDbEntity
  8
SCRATCH
100
AcDbVertex
100
AcDb2dVertex
 10
7.6
 20
33.1
 30
0.0
  0
VERTEX
  5
DA
100
AcDbEntity
  8
SCRATCH
100
AcDbVertex
100
AcDb2dVertex
 10
17.6
 20
33.1
 30
0.0
  0
VERTEX
  5
DB
100
AcDbEntity
  8
SCRATCH
100
AcDbVertex
100
AcDb2dVertex
 10
17.6
 20
26.7
 30
0.0
  0
VERTEX
  5
DC
100
AcDbEntity
  8
SCRATCH
100
AcDbVertex
100
AcDb2dVertex
 10
7.6
 20
26.7
 30
0.0
  0
SEQEND
  5
113
100
AcDbEntity
  8
SCRATCH
  0
LINE
  5
DD
100
AcDbEntity
  8
SCRATCH
 62
     4
100
AcDbLine
 10
0.0
 20
46.8
 30
0.0
 11
41.2
 21
46.8
 31
0.0
  0
POLYLINE
  5
DE
100
AcDbEntity
  8
SCRATCH
100
AcDb2dPolyline
 66
     1
 10
0.0
 20
0.0
 30
0.0
 70
     1
  0
VERTEX
  5
DF
100
AcDbEntity
  8
SCRATCH
100
AcDbVertex
100
AcDb2dVertex
 10
7.6
 20
46.1
 30
0.0
  0
VERTEX
  5
E0
100
AcDbEntity
  8
SCRATCH
100
AcDbVertex
100
AcDb2dVertex
 10
17.6
 20
46.1
 30
0.0
  0
VERTEX
  5
E1
100
AcDbEntity
  8
SCRATCH
100
AcDbVertex
100
AcDb2dVertex
 10
17.6
 20
39.7
 30
0.0
  0
VERTEX
  5
E2
100
AcDbEntity
  8
SCRATCH
100
AcDbVertex
100
AcDb2dVertex
 10
7.6
 20
39.7
 30
0.0
  0
SEQEND
  5
114
100
AcDbEntity
  8
SCRATCH
  0
LINE
  5
E3
100
AcDbEntity
  8
SCRATCH
100
AcDbLine
 10
40.2
 20
30.347
 30
0.0
 11
34.2
 21
30.347
 31
0.0
  0
POLYLINE
  5
E4
100
AcDbEntity
  8
SCRATCH
 62
     4
100
AcDb2dPolyline
 66
     1
 10
0.0
 20
0.0
 30
0.0
 70
     1
  0
VERTEX
  5
E5
100
AcDbEntity
  8
SCRATCH
 62
     4
100
AcDbVertex
100
AcDb2dVertex
 10
27.3
 20
25.027
 30
0.0
 42
-0.414214
  0
VERTEX
  5
E6
100
AcDbEntity
  8
SCRATCH
 62
     4
100
AcDbVertex
100
AcDb2dVertex
 10
26.3
 20
26.027
 30
0.0
  0
VERTEX
  5
E7
100
AcDbEntity
  8
SCRATCH
 62
     4
100
AcDbVertex
100
AcDb2dVertex
 10
26.3
 20
32.727
 30
0.0
 42
-0.414214
  0
VERTEX
  5
E8
100
AcDbEntity
  8
SCRATCH
 62
     4
100
AcDbVertex
100
AcDb2dVertex
 10
27.3
 20
33.727
 30
0.0
  0
VERTEX
  5
E9
100
AcDbEntity
  8
SCRATCH
 62
     4
100
AcDbVertex
100
AcDb2dVertex
 10
29.7
 20
33.727
 30
0.0
 42
-0.414214
  0
VERTEX
  5
EA
100
AcDbEntity
  8
SCRATCH
 62
     4
100
AcDbVertex
100
AcDb2dVertex
 10
30.7
 20
32.727
 30
0.0
  0
VERTEX
  5
EB
100
AcDbEntity
  8
SCRATCH
 62
     4
100
AcDbVertex
100
AcDb2dVertex
 10
30.7
 20
26.027
 30
0.0
 42
-0.414214
  0
VERTEX
  5
EC
100
AcDbEntity
  8
SCRATCH
 62
     4
100
AcDbVertex
100
AcDb2dVertex
 10
29.7
 20
25.027
 30
0.0
  0
SEQEND
  5
115
100
AcDbEntity
  8
SCRATCH
 62
     4
  0
POLYLINE
  5
ED
100
AcDbEntity
  8
SCRATCH
 62
     4
100
AcDb2dPolyline
 66
     1
 10
0.0
 20
0.0
 30
0.0
 70
     1
  0
VERTEX
  5
EE
100
AcDbEntity
  8
SCRATCH
 62
     4
100
AcDbVertex
100
AcDb2dVertex
 10
27.3
 20
6.327
 30
0.0
 42
-0.414214
  0
VERTEX
  5
EF
100
AcDbEntity
  8
SCRATCH
 62
     4
100
AcDbVertex
100
AcDb2dVertex
 10
26.3
 20
7.327
 30
0.0
  0
VERTEX
  5
F0
100
AcDbEntity
  8
SCRATCH
 62
     4
100
AcDbVertex
100
AcDb2dVertex
 10
26.3
 20
14.027
 30
0.0
 42
-0.414214
  0
VERTEX
  5
F1
100
AcDbEntity
  8
SCRATCH
 62
     4
100
AcDbVertex
100
AcDb2dVertex
 10
27.3
 20
15.027
 30
0.0
  0
VERTEX
  5
F2
100
AcDbEntity
  8
SCRATCH
 62
     4
100
AcDbVertex
100
AcDb2dVertex
 10
29.7
 20
15.027
 30
0.0
 42
-0.414214
  0
VERTEX
  5
F3
100
AcDbEntity
  8
SCRATCH
 62
     4
100
AcDbVertex
100
AcDb2dVertex
 10
30.7
 20
14.027
 30
0.0
  0
VERTEX
  5
F4
100
AcDbEntity
  8
SCRATCH
 62
     4
100
AcDbVertex
100
AcDb2dVertex
 10
30.7
 20
7.327
 30
0.0
 42
-0.414214
  0
VERTEX
  5
F5
100
AcDbEntity
  8
SCRATCH
 62
     4
100
AcDbVertex
100
AcDb2dVertex
 10
29.7
 20
6.327
 30
0.0
  0
SEQEND
  5
116
100
AcDbEntity
  8
SCRATCH
 62
     4
  0
POLYLINE
  5
F6
100
AcDbEntity
  8
SCRATCH
100
AcDb2dPolyline
 66
     1
 10
0.0
 20
0.0
 30
0.0
 70
     1
1001
ACAD
1000
ASC_BOUNDS
1002
{
1070
    19
1005
100
1002
}
  0
VERTEX
  5
F7
100
AcDbEntity
  8
SCRATCH
100
AcDbVertex
100
AcDb2dVertex
 10
32.7
 20
24.527
 30
0.0
  0
VERTEX
  5
F8
100
AcDbEntity
  8
SCRATCH
100
AcDbVertex
100
AcDb2dVertex
 10
32.7
 20
34.227
 30
0.0
  0
VERTEX
  5
F9
100
AcDbEntity
  8
SCRATCH
100
AcDbVertex
100
AcDb2dVertex
 10
22.8
 20
34.227
 30
0.0
  0
VERTEX
  5
FA
100
AcDbEntity
  8
SCRATCH
100
AcDbVertex
100
AcDb2dVertex
 10
22.8
 20
24.527
 30
0.0
  0
SEQEND
  5
117
100
AcDbEntity
  8
SCRATCH
  0
POLYLINE
  5
FB
100
AcDbEntity
  8
SCRATCH
100
AcDb2dPolyline
 66
     1
 10
0.0
 20
0.0
 30
0.0
 70
     1
1001
ACAD
1000
ASC_BOUNDS
1002
{
1070
    19
1005
100
1002
}
  0
VERTEX
  5
FC
100
AcDbEntity
  8
SCRATCH
100
AcDbVertex
100
AcDb2dVertex
 10
33.2
 20
24.027
 30
0.0
  0
VERTEX
  5
FD
100
AcDbEntity
  8
SCRATCH
100
AcDbVertex
100
AcDb2dVertex
 10
33.2
 20
34.727
 30
0.0
  0
VERTEX
  5
FE
100
AcDbEntity
  8
SCRATCH
100
AcDbVertex
100
AcDb2dVertex
 10
22.3
 20
34.727
 30
0.0
  0
VERTEX
  5
FF
100
AcDbEntity
  8
SCRATCH
100
AcDbVertex
100
AcDb2dVertex
 10
22.3
 20
24.027
 30
0.0
  0
SEQEND
  5
118
100
AcDbEntity
  8
SCRATCH
  0
INSERT
  5
100
100
AcDbEntity
  8
SCRATCH
100
AcDbBlockReference
  2
*X1
 10
-83.571943
 20
-51.31168
 30
0.0
1001
ACAD
1000
HATCH
1002
{
1070
    19
1000
ANSI31
1040
10.0
1040
0.0
1000
ASC_BOUNDS
1070
     1
1070
     2
1070
     2
1005
FB
1005
F6
1000
ASC_SEEDPOINT
1011
-127.779811
1021
119.098754
1031
0.0
1002
}
  0
POLYLINE
  5
101
100
AcDbEntity
  8
SCRATCH
100
AcDb2dPolyline
 66
     1
 10
0.0
 20
0.0
 30
0.0
 70
     1
1001
ACAD
1000
ASC_BOUNDS
1002
{
1070
    19
1005
10B
1002
}
  0
VERTEX
  5
102
100
AcDbEntity
  8
SCRATCH
100
AcDbVertex
100
AcDb2dVertex
 10
22.8
 20
15.527
 30
0.0
  0
VERTEX
  5
103
100
AcDbEntity
  8
SCRATCH
100
AcDbVertex
100
AcDb2dVertex
 10
32.7
 20
15.527
 30
0.0
  0
VERTEX
  5
104
100
AcDbEntity
  8
SCRATCH
100
AcDbVertex
100
AcDb2dVertex
 10
32.7
 20
5.827
 30
0.0
  0
VERTEX
  5
105
100
AcDbEntity
  8
SCRATCH
100
AcDbVertex
100
AcDb2dVertex
 10
22.8
 20
5.827
 30
0.0
  0
SEQEND
  5
119
100
AcDbEntity
  8
SCRATCH
  0
POLYLINE
  5
106
100
AcDbEntity
  8
SCRATCH
100
AcDb2dPolyline
 66
     1
 10
0.0
 20
0.0
 30
0.0
 70
     1
1001
ACAD
1000
ASC_BOUNDS
1002
{
1070
    19
1005
10B
1002
}
  0
VERTEX
  5
107
100
AcDbEntity
  8
SCRATCH
100
AcDbVertex
100
AcDb2dVertex
 10
22.3
 20
16.027
 30
0.0
  0
VERTEX
  5
108
100
AcDbEntity
  8
SCRATCH
100
AcDbVertex
100
AcDb2dVertex
 10
33.2
 20
16.027
 30
0.0
  0
VERTEX
  5
109
100
AcDbEntity
  8
SCRATCH
100
AcDbVertex
100
AcDb2dVertex
 10
33.2
 20
5.327
 30
0.0
  0
VERTEX
  5
10A
100
AcDbEntity
  8
SCRATCH
100
AcDbVertex
100
AcDb2dVertex
 10
22.3
 20
5.327
 30
0.0
  0
SEQEND
  5
11A
100
AcDbEntity
  8
SCRATCH
  0
INSERT
  5
10B
100
AcDbEntity
  8
SCRATCH
100
AcDbBlockReference
  2
*X2
 10
-83.571943
 20
-51.31168
 30
0.0
1001
ACAD
1000
HATCH
1002
{
1070
    19
1000
ANSI31
1040
10.0
1040
0.0
1000
ASC_BOUNDS
1070
     1
1070
     2
1070
     2
1005
101
1005
106
1000
ASC_SEEDPOINT
1011
-127.779811
1021
119.098754
1031
0.0
1002
}
  0
ENDBLK
  5
10D
100
AcDbEntity
  8
AIN
100
AcDbBlockEnd
  0
BLOCK
  5
132
100
AcDbEntity
  8
FOOT
100
AcDbBlockBegin
  2
POST-1
 70
     0
 10
0.0
 20
0.0
 30
0.0
  3
POST-1
  1

  0
CIRCLE
  5
11C
100
AcDbEntity
  8
BUSHING
100
AcDbCircle
 10
5.7
 20
2.5
 30
0.0
 40
0.8
  0
POLYLINE
  5
11D
100
AcDbEntity
  8
BUSHING
  6
HIDDEN
100
AcDb2dPolyline
 66
     1
 10
0.0
 20
0.0
 30
0.0
 70
     1
  0
VERTEX
  5
11E
100
AcDbEntity
  8
BUSHING
  6
HIDDEN
100
AcDbVertex
100
AcDb2dVertex
 10
4.0
 20
1.5
 30
0.0
  0
VERTEX
  5
11F
100
AcDbEntity
  8
BUSHING
  6
HIDDEN
100
AcDbVertex
100
AcDb2dVertex
 10
4.0
 20
8.2
 30
0.0
 42
-0.414214
  0
VERTEX
  5
120
100
AcDbEntity
  8
BUSHING
  6
HIDDEN
100
AcDbVertex
100
AcDb2dVertex
 10
4.5
 20
8.7
 30
0.0
  0
VERTEX
  5
121
100
AcDbEntity
  8
BUSHING
  6
HIDDEN
100
AcDbVertex
100
AcDb2dVertex
 10
6.9
 20
8.7
 30
0.0
 42
-0.414214
  0
VERTEX
  5
122
100
AcDbEntity
  8
BUSHING
  6
HIDDEN
100
AcDbVertex
100
AcDb2dVertex
 10
7.4
 20
8.2
 30
0.0
  0
VERTEX
  5
123
100
AcDbEntity
  8
BUSHING
  6
HIDDEN
100
AcDbVertex
100
AcDb2dVertex
 10
7.4
 20
1.5
 30
0.0
 42
-0.414214
  0
VERTEX
  5
124
100
AcDbEntity
  8
BUSHING
  6
HIDDEN
100
AcDbVertex
100
AcDb2dVertex
 10
6.9
 20
1.0
 30
0.0
  0
VERTEX
  5
125
100
AcDbEntity
  8
BUSHING
  6
HIDDEN
100
AcDbVertex
100
AcDb2dVertex
 10
4.5
 20
1.0
 30
0.0
 42
-0.414214
  0
SEQEND
  5
134
100
AcDbEntity
  8
BUSHING
  6
HIDDEN
  0
LINE
  5
126
100
AcDbEntity
  8
BUSHING
100
AcDbLine
 10
0.5
 20
8.7
 30
0.0
 11
0.5
 21
1.0
 31
0.0
  0
LINE
  5
127
100
AcDbEntity
  8
BUSHING
100
AcDbLine
 10
2.5
 20
8.7
 30
0.0
 11
2.5
 21
1.0
 31
0.0
  0
CIRCLE
  5
128
100
AcDbEntity
  8
BUSHING
100
AcDbCircle
 10
5.7
 20
2.5
 30
0.0
 40
1.7
  0
LINE
  5
129
100
AcDbEntity
  8
BUSHING
100
AcDbLine
 10
0.0
 20
9.7
 30
0.0
 11
0.0
 21
0.0
 31
0.0
  0
LINE
  5
12A
100
AcDbEntity
  8
BUSHING
100
AcDbLine
 10
9.9
 20
9.7
 30
0.0
 11
9.9
 21
0.0
 31
0.0
  0
LINE
  5
12B
100
AcDbEntity
  8
BUSHING
100
AcDbLine
 10
0.0
 20
0.0
 30
0.0
 11
9.9
 21
0.0
 31
0.0
  0
LINE
  5
12C
100
AcDbEntity
  8
BUSHING
100
AcDbLine
 10
0.5
 20
1.0
 30
0.0
 11
2.5
 21
1.0
 31
0.0
  0
LINE
  5
12D
100
AcDbEntity
  8
BUSHING
100
AcDbLine
 10
0.0
 20
9.7
 30
0.0
 11
9.9
 21
9.7
 31
0.0
  0
LINE
  5
12E
100
AcDbEntity
  8
BUSHING
100
AcDbLine
 10
0.5
 20
8.7
 30
0.0
 11
2.5
 21
8.7
 31
0.0
  0
CIRCLE
  5
12F
100
AcDbEntity
  8
BUSHING
100
AcDbCircle
 10
5.7
 20
7.2
 30
0.0
 40
1.7
  0
CIRCLE
  5
130
100
AcDbEntity
  8
BUSHING
100
AcDbCircle
 10
5.7
 20
7.2
 30
0.0
 40
0.8
  0
CIRCLE
  5
131
100
AcDbEntity
  8
BUSHING
100
AcDbCircle
 10
5.7
 20
4.85
 30
0.0
 40
0.5
  0
ENDBLK
  5
133
100
AcDbEntity
  8
FOOT
100
AcDbBlockEnd
  0
BLOCK
  5
140
100
AcDbEntity
  8
0
100
AcDbBlockBegin
  2
*D5
 70
    65
 10
0.0
 20
0.0
 30
0.0
  3
*D5
  1

  0
LINE
  5
136
100
AcDbEntity
  8
0
  6
BYBLOCK
 62
     0
100
AcDbLine
 10
-363.231024
 20
148.806798
 30
0.0
 11
-363.231024
 21
159.299723
 31
0.0
  0
LINE
  5
137
100
AcDbEntity
  8
0
  6
BYBLOCK
 62
     0
100
AcDbLine
 10
-368.231024
 20
148.806798
 30
0.0
 11
-368.231024
 21
159.299723
 31
0.0
  0
LINE
  5
138
100
AcDbEntity
  8
0
  6
BYBLOCK
 62
     0
100
AcDbLine
 10
-361.881024
 20
157.949723
 30
0.0
 11
-360.531024
 21
157.949723
 31
0.0
  0
LINE
  5
139
100
AcDbEntity
  8
0
  6
BYBLOCK
 62
     0
100
AcDbLine
 10
-369.581024
 20
157.949723
 30
0.0
 11
-370.931024
 21
157.949723
 31
0.0
  0
SOLID
  5
13A
100
AcDbEntity
  8
0
  6
BYBLOCK
 62
     0
100
AcDbTrace
 10
-361.881024
 20
158.174723
 30
0.0
 11
-361.881024
 21
157.724723
 31
0.0
 12
-363.231024
 22
157.949723
 32
0.0
 13
-363.231024
 23
157.949723
 33
0.0
  0
SOLID
  5
13B
100
AcDbEntity
  8
0
  6
BYBLOCK
 62
     0
100
AcDbTrace
 10
-369.581024
 20
158.174723
 30
0.0
 11
-369.581024
 21
157.724723
 31
0.0
 12
-368.231024
 22
157.949723
 32
0.0
 13
-368.231024
 23
157.949723
 33
0.0
  0
MTEXT
  5
13C
100
AcDbEntity
  8
0
  6
BYBLOCK
 62
     0
100
AcDbMText
 10
-384.731024
 20
157.949723
 30
0.0
 40
2.25
 41
0.0
 71
     5
 72
     1
  1
\A1;5.00mm[0.197"]
  0
POINT
  5
13D
100
AcDbEntity
  8
DEFPOINTS
  6
BYBLOCK
 62
     0
100
AcDbPoint
 10
-363.231024
 20
148.338048
 30
0.0
  0
POINT
  5
13E
100
AcDbEntity
  8
DEFPOINTS
  6
BYBLOCK
 62
     0
100
AcDbPoint
 10
-368.231024
 20
148.338048
 30
0.0
  0
POINT
  5
13F
100
AcDbEntity
  8
DEFPOINTS
  6
BYBLOCK
 62
     0
100
AcDbPoint
 10
-368.231024
 20
157.949723
 30
0.0
  0
ENDBLK
  5
141
100
AcDbEntity
  8
0
100
AcDbBlockEnd
  0
BLOCK
  5
14D
100
AcDbEntity
  8
0
100
AcDbBlockBegin
  2
*D6
 70
    65
 10
0.0
 20
0.0
 30
0.0
  3
*D6
  1

  0
LINE
  5
143
100
AcDbEntity
  8
0
  6
BYBLOCK
 62
     0
100
AcDbLine
 10
-347.356024
 20
161.056798
 30
0.0
 11
-347.356024
 21
170.308015
 31
0.0
  0
LINE
  5
144
100
AcDbEntity
  8
0
  6
BYBLOCK
 62
     0
100
AcDbLine
 10
-363.231024
 20
148.806798
 30
0.0
 11
-363.231024
 21
170.308015
 31
0.0
  0
LINE
  5
145
100
AcDbEntity
  8
0
  6
BYBLOCK
 62
     0
100
AcDbLine
 10
-346.006024
 20
168.958015
 30
0.0
 11
-344.656024
 21
168.958015
 31
0.0
  0
LINE
  5
146
100
AcDbEntity
  8
0
  6
BYBLOCK
 62
     0
100
AcDbLine
 10
-364.581024
 20
168.958015
 30
0.0
 11
-365.931024
 21
168.958015
 31
0.0
  0
SOLID
  5
147
100
AcDbEntity
  8
0
  6
BYBLOCK
 62
     0
100
AcDbTrace
 10
-346.006024
 20
169.183015
 30
0.0
 11
-346.006024
 21
168.733015
 31
0.0
 12
-347.356024
 22
168.958015
 32
0.0
 13
-347.356024
 23
168.958015
 33
0.0
  0
SOLID
  5
148
100
AcDbEntity
  8
0
  6
BYBLOCK
 62
     0
100
AcDbTrace
 10
-364.581024
 20
169.183015
 30
0.0
 11
-364.581024
 21
168.733015
 31
0.0
 12
-363.231024
 22
168.958015
 32
0.0
 13
-363.231024
 23
168.958015
 33
0.0
  0
MTEXT
  5
149
100
AcDbEntity
  8
0
  6
BYBLOCK
 62
     0
100
AcDbMText
 10
-381.231024
 20
168.958015
 30
0.0
 40
2.25
 41
0.0
 71
     5
 72
     1
  1
\A1;15.88mm[0.625"]
  0
POINT
  5
14A
100
AcDbEntity
  8
DEFPOINTS
  6
BYBLOCK
 62
     0
100
AcDbPoint
 10
-347.356024
 20
160.588048
 30
0.0
  0
POINT
  5
14B
100
AcDbEntity
  8
DEFPOINTS
  6
BYBLOCK
 62
     0
100
AcDbPoint
 10
-363.231024
 20
148.338048
 30
0.0
  0
POINT
  5
14C
100
AcDbEntity
  8
DEFPOINTS
  6
BYBLOCK
 62
     0
100
AcDbPoint
 10
-363.231024
 20
168.958015
 30
0.0
  0
ENDBLK
  5
14E
100
AcDbEntity
  8
0
100
AcDbBlockEnd
  0
BLOCK
  5
15A
100
AcDbEntity
  8
0
100
AcDbBlockBegin
  2
*D7
 70
    65
 10
0.0
 20
0.0
 30
0.0
  3
*D7
  1

  0
LINE
  5
150
100
AcDbEntity
  8
0
  6
BYBLOCK
 62
     0
100
AcDbLine
 10
-347.356024
 20
161.056798
 30
0.0
 11
-347.356024
 21
176.96735
 31
0.0
  0
LINE
  5
151
100
AcDbEntity
  8
0
  6
BYBLOCK
 62
     0
100
AcDbLine
 10
-342.356024
 20
161.056798
 30
0.0
 11
-342.356024
 21
176.96735
 31
0.0
  0
LINE
  5
152
100
AcDbEntity
  8
0
  6
BYBLOCK
 62
     0
100
AcDbLine
 10
-348.706024
 20
175.61735
 30
0.0
 11
-350.056024
 21
175.61735
 31
0.0
  0
LINE
  5
153
100
AcDbEntity
  8
0
  6
BYBLOCK
 62
     0
100
AcDbLine
 10
-341.006024
 20
175.61735
 30
0.0
 11
-339.656024
 21
175.61735
 31
0.0
  0
SOLID
  5
154
100
AcDbEntity
  8
0
  6
BYBLOCK
 62
     0
100
AcDbTrace
 10
-348.706024
 20
175.84235
 30
0.0
 11
-348.706024
 21
175.39235
 31
0.0
 12
-347.356024
 22
175.61735
 32
0.0
 13
-347.356024
 23
175.61735
 33
0.0
  0
SOLID
  5
155
100
AcDbEntity
  8
0
  6
BYBLOCK
 62
     0
100
AcDbTrace
 10
-341.006024
 20
175.84235
 30
0.0
 11
-341.006024
 21
175.39235
 31
0.0
 12
-342.356024
 22
175.61735
 32
0.0
 13
-342.356024
 23
175.61735
 33
0.0
  0
MTEXT
  5
156
100
AcDbEntity
  8
0
  6
BYBLOCK
 62
     0
100
AcDbMText
 10
-325.856024
 20
175.61735
 30
0.0
 40
2.25
 41
0.0
 71
     5
 72
     1
  1
\A1;5.00mm[0.197"]
  0
POINT
  5
157
100
AcDbEntity
  8
DEFPOINTS
  6
BYBLOCK
 62
     0
100
AcDbPoint
 10
-347.356024
 20
160.588048
 30
0.0
  0
POINT
  5
158
100
AcDbEntity
  8
DEFPOINTS
  6
BYBLOCK
 62
     0
100
AcDbPoint
 10
-342.356024
 20
160.588048
 30
0.0
  0
POINT
  5
159
100
AcDbEntity
  8
DEFPOINTS
  6
BYBLOCK
 62
     0
100
AcDbPoint
 10
-342.356024
 20
175.61735
 30
0.0
  0
ENDBLK
  5
15B
100
AcDbEntity
  8
0
100
AcDbBlockEnd
  0
BLOCK
  5
167
100
AcDbEntity
  8
0
100
AcDbBlockBegin
  2
*D8
 70
    65
 10
0.0
 20
0.0
 30
0.0
  3
*D8
  1

  0
LINE
  5
15D
100
AcDbEntity
  8
0
  6
BYBLOCK
 62
     0
100
AcDbLine
 10
-348.118024
 20
89.584238
 30
0.0
 11
-348.118024
 21
93.691217
 31
0.0
  0
LINE
  5
15E
100
AcDbEntity
  8
0
  6
BYBLOCK
 62
     0
100
AcDbLine
 10
-343.118024
 20
88.884238
 30
0.0
 11
-343.118024
 21
93.691217
 31
0.0
  0
LINE
  5
15F
100
AcDbEntity
  8
0
  6
BYBLOCK
 62
     0
100
AcDbLine
 10
-349.468024
 20
92.341217
 30
0.0
 11
-350.818024
 21
92.341217
 31
0.0
  0
LINE
  5
160
100
AcDbEntity
  8
0
  6
BYBLOCK
 62
     0
100
AcDbLine
 10
-341.768024
 20
92.341217
 30
0.0
 11
-340.418024
 21
92.341217
 31
0.0
  0
SOLID
  5
161
100
AcDbEntity
  8
0
  6
BYBLOCK
 62
     0
100
AcDbTrace
 10
-349.468024
 20
92.566217
 30
0.0
 11
-349.468024
 21
92.116217
 31
0.0
 12
-348.118024
 22
92.341217
 32
0.0
 13
-348.118024
 23
92.341217
 33
0.0
  0
SOLID
  5
162
100
AcDbEntity
  8
0
  6
BYBLOCK
 62
     0
100
AcDbTrace
 10
-341.768024
 20
92.566217
 30
0.0
 11
-341.768024
 21
92.116217
 31
0.0
 12
-343.118024
 22
92.341217
 32
0.0
 13
-343.118024
 23
92.341217
 33
0.0
  0
MTEXT
  5
163
100
AcDbEntity
  8
0
  6
BYBLOCK
 62
     0
100
AcDbMText
 10
-326.618024
 20
92.341217
 30
0.0
 40
2.25
 41
0.0
 71
     5
 72
     1
  1
\A1;5.00mm[0.197"]
  0
POINT
  5
164
100
AcDbEntity
  8
DEFPOINTS
  6
BYBLOCK
 62
     0
100
AcDbPoint
 10
-348.118024
 20
89.115488
 30
0.0
  0
POINT
  5
165
100
AcDbEntity
  8
DEFPOINTS
  6
BYBLOCK
 62
     0
100
AcDbPoint
 10
-343.118024
 20
88.415488
 30
0.0
  0
POINT
  5
166
100
AcDbEntity
  8
DEFPOINTS
  6
BYBLOCK
 62
     0
100
AcDbPoint
 10
-343.118024
 20
92.341217
 30
0.0
  0
ENDBLK
  5
168
100
AcDbEntity
  8
0
100
AcDbBlockEnd
  0
BLOCK
  5
174
100
AcDbEntity
  8
0
100
AcDbBlockBegin
  2
*D9
 70
    65
 10
0.0
 20
0.0
 30
0.0
  3
*D9
  1

  0
LINE
  5
16A
100
AcDbEntity
  8
0
  6
BYBLOCK
 62
     0
100
AcDbLine
 10
-363.231024
 20
92.014238
 30
0.0
 11
-363.231024
 21
97.012248
 31
0.0
  0
LINE
  5
16B
100
AcDbEntity
  8
0
  6
BYBLOCK
 62
     0
100
AcDbLine
 10
-419.791024
 20
87.014238
 30
0.0
 11
-419.791024
 21
97.012248
 31
0.0
  0
LINE
  5
16C
100
AcDbEntity
  8
0
  6
BYBLOCK
 62
     0
100
AcDbLine
 10
-364.581024
 20
95.662248
 30
0.0
 11
-375.836024
 21
95.662248
 31
0.0
  0
LINE
  5
16D
100
AcDbEntity
  8
0
  6
BYBLOCK
 62
     0
100
AcDbLine
 10
-418.441024
 20
95.662248
 30
0.0
 11
-407.186024
 21
95.662248
 31
0.0
  0
SOLID
  5
16E
100
AcDbEntity
  8
0
  6
BYBLOCK
 62
     0
100
AcDbTrace
 10
-364.581024
 20
95.887248
 30
0.0
 11
-364.581024
 21
95.437248
 31
0.0
 12
-363.231024
 22
95.662248
 32
0.0
 13
-363.231024
 23
95.662248
 33
0.0
  0
SOLID
  5
16F
100
AcDbEntity
  8
0
  6
BYBLOCK
 62
     0
100
AcDbTrace
 10
-418.441024
 20
95.887248
 30
0.0
 11
-418.441024
 21
95.437248
 31
0.0
 12
-419.791024
 22
95.662248
 32
0.0
 13
-419.791024
 23
95.662248
 33
0.0
  0
MTEXT
  5
170
100
AcDbEntity
  8
0
  6
BYBLOCK
 62
     0
100
AcDbMText
 10
-391.511024
 20
95.662248
 30
0.0
 40
2.25
 41
0.0
 71
     5
 72
     1
  1
\A1;56.56mm[2.227"]
  0
POINT
  5
171
100
AcDbEntity
  8
DEFPOINTS
  6
BYBLOCK
 62
     0
100
AcDbPoint
 10
-363.231024
 20
91.545488
 30
0.0
  0
POINT
  5
172
100
AcDbEntity
  8
DEFPOINTS
  6
BYBLOCK
 62
     0
100
AcDbPoint
 10
-419.791024
 20
86.545488
 30
0.0
  0
POINT
  5
173
100
AcDbEntity
  8
DEFPOINTS
  6
BYBLOCK
 62
     0
100
AcDbPoint
 10
-419.791024
 20
95.662248
 30
0.0
  0
ENDBLK
  5
175
100
AcDbEntity
  8
0
100
AcDbBlockEnd
  0
BLOCK
  5
181
100
AcDbEntity
  8
0
100
AcDbBlockBegin
  2
*D10
 70
    65
 10
0.0
 20
0.0
 30
0.0
  3
*D10
  1

  0
LINE
  5
177
100
AcDbEntity
  8
0
  6
BYBLOCK
 62
     0
100
AcDbLine
 10
-363.231024
 20
92.014238
 30
0.0
 11
-363.231024
 21
101.993796
 31
0.0
  0
LINE
  5
178
100
AcDbEntity
  8
0
  6
BYBLOCK
 62
     0
100
AcDbLine
 10
-348.118024
 20
89.584238
 30
0.0
 11
-348.118024
 21
101.993796
 31
0.0
  0
LINE
  5
179
100
AcDbEntity
  8
0
  6
BYBLOCK
 62
     0
100
AcDbLine
 10
-364.581024
 20
100.643796
 30
0.0
 11
-365.931024
 21
100.643796
 31
0.0
  0
LINE
  5
17A
100
AcDbEntity
  8
0
  6
BYBLOCK
 62
     0
100
AcDbLine
 10
-346.768024
 20
100.643796
 30
0.0
 11
-345.418024
 21
100.643796
 31
0.0
  0
SOLID
  5
17B
100
AcDbEntity
  8
0
  6
BYBLOCK
 62
     0
100
AcDbTrace
 10
-364.581024
 20
100.868796
 30
0.0
 11
-364.581024
 21
100.418796
 31
0.0
 12
-363.231024
 22
100.643796
 32
0.0
 13
-363.231024
 23
100.643796
 33
0.0
  0
SOLID
  5
17C
100
AcDbEntity
  8
0
  6
BYBLOCK
 62
     0
100
AcDbTrace
 10
-346.768024
 20
100.868796
 30
0.0
 11
-346.768024
 21
100.418796
 31
0.0
 12
-348.118024
 22
100.643796
 32
0.0
 13
-348.118024
 23
100.643796
 33
0.0
  0
MTEXT
  5
17D
100
AcDbEntity
  8
0
  6
BYBLOCK
 62
     0
100
AcDbMText
 10
-330.493024
 20
100.643796
 30
0.0
 40
2.25
 41
0.0
 71
     5
 72
     1
  1
\A1;15.11mm[0.595"]
  0
POINT
  5
17E
100
AcDbEntity
  8
DEFPOINTS
  6
BYBLOCK
 62
     0
100
AcDbPoint
 10
-363.231024
 20
91.545488
 30
0.0
  0
POINT
  5
17F
100
AcDbEntity
  8
DEFPOINTS
  6
BYBLOCK
 62
     0
100
AcDbPoint
 10
-348.118024
 20
89.115488
 30
0.0
  0
POINT
  5
180
100
AcDbEntity
  8
DEFPOINTS
  6
BYBLOCK
 62
     0
100
AcDbPoint
 10
-348.118024
 20
100.643796
 30
0.0
  0
ENDBLK
  5
182
100
AcDbEntity
  8
0
100
AcDbBlockEnd
  0
BLOCK
  5
1D4
100
AcDbEntity
  8
0
100
AcDbBlockBegin
  2
*X11
 70
    65
 10
0.0
 20
0.0
 30
0.0
  3
*X11
  1

  0
LINE
  5
184
100
AcDbEntity
  8
0
 62
     0
100
AcDbLine
 10
-367.428006
 20
52.765488
 30
0.0
 11
-403.708006
 21
89.045488
 31
0.0
  0
LINE
  5
185
100
AcDbEntity
  8
0
 62
     0
100
AcDbLine
 10
-369.195773
 20
52.765488
 30
0.0
 11
-405.475773
 21
89.045488
 31
0.0
  0
LINE
  5
186
100
AcDbEntity
  8
0
 62
     0
100
AcDbLine
 10
-370.96354
 20
52.765488
 30
0.0
 11
-407.24354
 21
89.045488
 31
0.0
  0
LINE
  5
187
100
AcDbEntity
  8
0
 62
     0
100
AcDbLine
 10
-372.731307
 20
52.765488
 30
0.0
 11
-409.011307
 21
89.045488
 31
0.0
  0
LINE
  5
188
100
AcDbEntity
  8
0
 62
     0
100
AcDbLine
 10
-374.499074
 20
52.765488
 30
0.0
 11
-410.779074
 21
89.045488
 31
0.0
  0
LINE
  5
189
100
AcDbEntity
  8
0
 62
     0
100
AcDbLine
 10
-376.266841
 20
52.765488
 30
0.0
 11
-412.546841
 21
89.045488
 31
0.0
  0
LINE
  5
18A
100
AcDbEntity
  8
0
 62
     0
100
AcDbLine
 10
-378.034608
 20
52.765488
 30
0.0
 11
-414.314608
 21
89.045488
 31
0.0
  0
LINE
  5
18B
100
AcDbEntity
  8
0
 62
     0
100
AcDbLine
 10
-379.802375
 20
52.765488
 30
0.0
 11
-416.082375
 21
89.045488
 31
0.0
  0
LINE
  5
18C
100
AcDbEntity
  8
0
 62
     0
100
AcDbLine
 10
-381.570142
 20
52.765488
 30
0.0
 11
-417.850142
 21
89.045488
 31
0.0
  0
LINE
  5
18D
100
AcDbEntity
  8
0
 62
     0
100
AcDbLine
 10
-383.337909
 20
52.765488
 30
0.0
 11
-419.617909
 21
89.045488
 31
0.0
  0
LINE
  5
18E
100
AcDbEntity
  8
0
 62
     0
100
AcDbLine
 10
-385.105676
 20
52.765488
 30
0.0
 11
-419.791024
 21
87.450836
 31
0.0
  0
LINE
  5
18F
100
AcDbEntity
  8
0
 62
     0
100
AcDbLine
 10
-386.873443
 20
52.765488
 30
0.0
 11
-419.791024
 21
85.683069
 31
0.0
  0
LINE
  5
190
100
AcDbEntity
  8
0
 62
     0
100
AcDbLine
 10
-388.641209
 20
52.765488
 30
0.0
 11
-419.791024
 21
83.915303
 31
0.0
  0
LINE
  5
191
100
AcDbEntity
  8
0
 62
     0
100
AcDbLine
 10
-390.408976
 20
52.765488
 30
0.0
 11
-419.791024
 21
82.147536
 31
0.0
  0
LINE
  5
192
100
AcDbEntity
  8
0
 62
     0
100
AcDbLine
 10
-392.176743
 20
52.765488
 30
0.0
 11
-419.791024
 21
80.379769
 31
0.0
  0
LINE
  5
193
100
AcDbEntity
  8
0
 62
     0
100
AcDbLine
 10
-393.94451
 20
52.765488
 30
0.0
 11
-419.791024
 21
78.612002
 31
0.0
  0
LINE
  5
194
100
AcDbEntity
  8
0
 62
     0
100
AcDbLine
 10
-395.712277
 20
52.765488
 30
0.0
 11
-419.791024
 21
76.844235
 31
0.0
  0
LINE
  5
195
100
AcDbEntity
  8
0
 62
     0
100
AcDbLine
 10
-397.480044
 20
52.765488
 30
0.0
 11
-419.791024
 21
75.076468
 31
0.0
  0
LINE
  5
196
100
AcDbEntity
  8
0
 62
     0
100
AcDbLine
 10
-399.247811
 20
52.765488
 30
0.0
 11
-419.791024
 21
73.308701
 31
0.0
  0
LINE
  5
197
100
AcDbEntity
  8
0
 62
     0
100
AcDbLine
 10
-401.015578
 20
52.765488
 30
0.0
 11
-419.791024
 21
71.540934
 31
0.0
  0
LINE
  5
198
100
AcDbEntity
  8
0
 62
     0
100
AcDbLine
 10
-402.783345
 20
52.765488
 30
0.0
 11
-419.791024
 21
69.773167
 31
0.0
  0
LINE
  5
199
100
AcDbEntity
  8
0
 62
     0
100
AcDbLine
 10
-404.551112
 20
52.765488
 30
0.0
 11
-419.791024
 21
68.0054
 31
0.0
  0
LINE
  5
19A
100
AcDbEntity
  8
0
 62
     0
100
AcDbLine
 10
-406.318879
 20
52.765488
 30
0.0
 11
-419.791024
 21
66.237633
 31
0.0
  0
LINE
  5
19B
100
AcDbEntity
  8
0
 62
     0
100
AcDbLine
 10
-408.086646
 20
52.765488
 30
0.0
 11
-419.791024
 21
64.469866
 31
0.0
  0
LINE
  5
19C
100
AcDbEntity
  8
0
 62
     0
100
AcDbLine
 10
-409.854413
 20
52.765488
 30
0.0
 11
-419.791024
 21
62.702099
 31
0.0
  0
LINE
  5
19D
100
AcDbEntity
  8
0
 62
     0
100
AcDbLine
 10
-411.62218
 20
52.765488
 30
0.0
 11
-419.791024
 21
60.934332
 31
0.0
  0
LINE
  5
19E
100
AcDbEntity
  8
0
 62
     0
100
AcDbLine
 10
-413.389947
 20
52.765488
 30
0.0
 11
-419.791024
 21
59.166565
 31
0.0
  0
LINE
  5
19F
100
AcDbEntity
  8
0
 62
     0
100
AcDbLine
 10
-415.157714
 20
52.765488
 30
0.0
 11
-419.791024
 21
57.398798
 31
0.0
  0
LINE
  5
1A0
100
AcDbEntity
  8
0
 62
     0
100
AcDbLine
 10
-416.925481
 20
52.765488
 30
0.0
 11
-419.791024
 21
55.631031
 31
0.0
  0
LINE
  5
1A1
100
AcDbEntity
  8
0
 62
     0
100
AcDbLine
 10
-418.693248
 20
52.765488
 30
0.0
 11
-419.791024
 21
53.863264
 31
0.0
  0
LINE
  5
1A2
100
AcDbEntity
  8
0
 62
     0
100
AcDbLine
 10
-365.660239
 20
52.765488
 30
0.0
 11
-401.940239
 21
89.045488
 31
0.0
  0
LINE
  5
1A3
100
AcDbEntity
  8
0
 62
     0
100
AcDbLine
 10
-363.892472
 20
52.765488
 30
0.0
 11
-400.172472
 21
89.045488
 31
0.0
  0
LINE
  5
1A4
100
AcDbEntity
  8
0
 62
     0
100
AcDbLine
 10
-363.231024
 20
53.871807
 30
0.0
 11
-398.404705
 21
89.045488
 31
0.0
  0
LINE
  5
1A5
100
AcDbEntity
  8
0
 62
     0
100
AcDbLine
 10
-363.231024
 20
55.639574
 30
0.0
 11
-396.636938
 21
89.045488
 31
0.0
  0
LINE
  5
1A6
100
AcDbEntity
  8
0
 62
     0
100
AcDbLine
 10
-363.231024
 20
57.407341
 30
0.0
 11
-394.869171
 21
89.045488
 31
0.0
  0
LINE
  5
1A7
100
AcDbEntity
  8
0
 62
     0
100
AcDbLine
 10
-347.071404
 20
43.015488
 30
0.0
 11
-348.118024
 21
44.062108
 31
0.0
  0
LINE
  5
1A8
100
AcDbEntity
  8
0
 62
     0
100
AcDbLine
 10
-363.231024
 20
59.175108
 30
0.0
 11
-393.101404
 21
89.045488
 31
0.0
  0
LINE
  5
1A9
100
AcDbEntity
  8
0
 62
     0
100
AcDbLine
 10
-345.303637
 20
43.015488
 30
0.0
 11
-348.118024
 21
45.829875
 31
0.0
  0
LINE
  5
1AA
100
AcDbEntity
  8
0
 62
     0
100
AcDbLine
 10
-363.231024
 20
60.942875
 30
0.0
 11
-391.333637
 21
89.045488
 31
0.0
  0
LINE
  5
1AB
100
AcDbEntity
  8
0
 62
     0
100
AcDbLine
 10
-343.53587
 20
43.015488
 30
0.0
 11
-348.118024
 21
47.597642
 31
0.0
  0
LINE
  5
1AC
100
AcDbEntity
  8
0
 62
     0
100
AcDbLine
 10
-363.231024
 20
62.710642
 30
0.0
 11
-389.56587
 21
89.045488
 31
0.0
  0
LINE
  5
1AD
100
AcDbEntity
  8
0
 62
     0
100
AcDbLine
 10
-343.118024
 20
44.365409
 30
0.0
 11
-348.118024
 21
49.365409
 31
0.0
  0
LINE
  5
1AE
100
AcDbEntity
  8
0
 62
     0
100
AcDbLine
 10
-363.231024
 20
64.478409
 30
0.0
 11
-387.798103
 21
89.045488
 31
0.0
  0
LINE
  5
1AF
100
AcDbEntity
  8
0
 62
     0
100
AcDbLine
 10
-343.118024
 20
46.133175
 30
0.0
 11
-348.118024
 21
51.133175
 31
0.0
  0
LINE
  5
1B0
100
AcDbEntity
  8
0
 62
     0
100
AcDbLine
 10
-363.231024
 20
66.246175
 30
0.0
 11
-386.030337
 21
89.045488
 31
0.0
  0
LINE
  5
1B1
100
AcDbEntity
  8
0
 62
     0
100
AcDbLine
 10
-343.118024
 20
47.900942
 30
0.0
 11
-348.118024
 21
52.900942
 31
0.0
  0
LINE
  5
1B2
100
AcDbEntity
  8
0
 62
     0
100
AcDbLine
 10
-363.231024
 20
68.013942
 30
0.0
 11
-384.26257
 21
89.045488
 31
0.0
  0
LINE
  5
1B3
100
AcDbEntity
  8
0
 62
     0
100
AcDbLine
 10
-343.118024
 20
49.668709
 30
0.0
 11
-348.118024
 21
54.668709
 31
0.0
  0
LINE
  5
1B4
100
AcDbEntity
  8
0
 62
     0
100
AcDbLine
 10
-363.231024
 20
69.781709
 30
0.0
 11
-382.494803
 21
89.045488
 31
0.0
  0
LINE
  5
1B5
100
AcDbEntity
  8
0
 62
     0
100
AcDbLine
 10
-343.118024
 20
51.436476
 30
0.0
 11
-348.118024
 21
56.436476
 31
0.0
  0
LINE
  5
1B6
100
AcDbEntity
  8
0
 62
     0
100
AcDbLine
 10
-363.231024
 20
71.549476
 30
0.0
 11
-380.727036
 21
89.045488
 31
0.0
  0
LINE
  5
1B7
100
AcDbEntity
  8
0
 62
     0
100
AcDbLine
 10
-343.118024
 20
53.204243
 30
0.0
 11
-348.118024
 21
58.204243
 31
0.0
  0
LINE
  5
1B8
100
AcDbEntity
  8
0
 62
     0
100
AcDbLine
 10
-363.231024
 20
73.317243
 30
0.0
 11
-378.959269
 21
89.045488
 31
0.0
  0
LINE
  5
1B9
100
AcDbEntity
  8
0
 62
     0
100
AcDbLine
 10
-343.118024
 20
54.97201
 30
0.0
 11
-348.118024
 21
59.97201
 31
0.0
  0
LINE
  5
1BA
100
AcDbEntity
  8
0
 62
     0
100
AcDbLine
 10
-363.231024
 20
75.08501
 30
0.0
 11
-377.191502
 21
89.045488
 31
0.0
  0
LINE
  5
1BB
100
AcDbEntity
  8
0
 62
     0
100
AcDbLine
 10
-343.118024
 20
56.739777
 30
0.0
 11
-348.118024
 21
61.739777
 31
0.0
  0
LINE
  5
1BC
100
AcDbEntity
  8
0
 62
     0
100
AcDbLine
 10
-363.231024
 20
76.852777
 30
0.0
 11
-375.423735
 21
89.045488
 31
0.0
  0
LINE
  5
1BD
100
AcDbEntity
  8
0
 62
     0
100
AcDbLine
 10
-343.118024
 20
58.507544
 30
0.0
 11
-348.118024
 21
63.507544
 31
0.0
  0
LINE
  5
1BE
100
AcDbEntity
  8
0
 62
     0
100
AcDbLine
 10
-363.231024
 20
78.620544
 30
0.0
 11
-373.655968
 21
89.045488
 31
0.0
  0
LINE
  5
1BF
100
AcDbEntity
  8
0
 62
     0
100
AcDbLine
 10
-343.118024
 20
60.275311
 30
0.0
 11
-348.118024
 21
65.275311
 31
0.0
  0
LINE
  5
1C0
100
AcDbEntity
  8
0
 62
     0
100
AcDbLine
 10
-363.231024
 20
80.388311
 30
0.0
 11
-371.888201
 21
89.045488
 31
0.0
  0
LINE
  5
1C1
100
AcDbEntity
  8
0
 62
     0
100
AcDbLine
 10
-343.118024
 20
62.043078
 30
0.0
 11
-348.118024
 21
67.043078
 31
0.0
  0
LINE
  5
1C2
100
AcDbEntity
  8
0
 62
     0
100
AcDbLine
 10
-363.231024
 20
82.156078
 30
0.0
 11
-370.120434
 21
89.045488
 31
0.0
  0
LINE
  5
1C3
100
AcDbEntity
  8
0
 62
     0
100
AcDbLine
 10
-343.118024
 20
63.810845
 30
0.0
 11
-348.118024
 21
68.810845
 31
0.0
  0
LINE
  5
1C4
100
AcDbEntity
  8
0
 62
     0
100
AcDbLine
 10
-363.231024
 20
83.923845
 30
0.0
 11
-368.352667
 21
89.045488
 31
0.0
  0
LINE
  5
1C5
100
AcDbEntity
  8
0
 62
     0
100
AcDbLine
 10
-343.118024
 20
65.578612
 30
0.0
 11
-348.118024
 21
70.578612
 31
0.0
  0
LINE
  5
1C6
100
AcDbEntity
  8
0
 62
     0
100
AcDbLine
 10
-363.231024
 20
85.691612
 30
0.0
 11
-366.5849
 21
89.045488
 31
0.0
  0
LINE
  5
1C7
100
AcDbEntity
  8
0
 62
     0
100
AcDbLine
 10
-343.118024
 20
67.346379
 30
0.0
 11
-348.118024
 21
72.346379
 31
0.0
  0
LINE
  5
1C8
100
AcDbEntity
  8
0
 62
     0
100
AcDbLine
 10
-363.231024
 20
87.459379
 30
0.0
 11
-364.817133
 21
89.045488
 31
0.0
  0
LINE
  5
1C9
100
AcDbEntity
  8
0
 62
     0
100
AcDbLine
 10
-343.118024
 20
69.114146
 30
0.0
 11
-348.118024
 21
74.114146
 31
0.0
  0
LINE
  5
1CA
100
AcDbEntity
  8
0
 62
     0
100
AcDbLine
 10
-343.118024
 20
70.881913
 30
0.0
 11
-348.118024
 21
75.881913
 31
0.0
  0
LINE
  5
1CB
100
AcDbEntity
  8
0
 62
     0
100
AcDbLine
 10
-343.118024
 20
72.64968
 30
0.0
 11
-348.118024
 21
77.64968
 31
0.0
  0
LINE
  5
1CC
100
AcDbEntity
  8
0
 62
     0
100
AcDbLine
 10
-343.118024
 20
74.417447
 30
0.0
 11
-348.118024
 21
79.417447
 31
0.0
  0
LINE
  5
1CD
100
AcDbEntity
  8
0
 62
     0
100
AcDbLine
 10
-343.118024
 20
76.185214
 30
0.0
 11
-348.118024
 21
81.185214
 31
0.0
  0
LINE
  5
1CE
100
AcDbEntity
  8
0
 62
     0
100
AcDbLine
 10
-343.118024
 20
77.952981
 30
0.0
 11
-348.118024
 21
82.952981
 31
0.0
  0
LINE
  5
1CF
100
AcDbEntity
  8
0
 62
     0
100
AcDbLine
 10
-343.118024
 20
79.720748
 30
0.0
 11
-348.118024
 21
84.720748
 31
0.0
  0
LINE
  5
1D0
100
AcDbEntity
  8
0
 62
     0
100
AcDbLine
 10
-343.118024
 20
81.488515
 30
0.0
 11
-348.118024
 21
86.488515
 31
0.0
  0
LINE
  5
1D1
100
AcDbEntity
  8
0
 62
     0
100
AcDbLine
 10
-343.118024
 20
83.256281
 30
0.0
 11
-348.118024
 21
88.256281
 31
0.0
  0
LINE
  5
1D2
100
AcDbEntity
  8
0
 62
     0
100
AcDbLine
 10
-343.118024
 20
85.024048
 30
0.0
 11
-346.509464
 21
88.415488
 31
0.0
  0
LINE
  5
1D3
100
AcDbEntity
  8
0
 62
     0
100
AcDbLine
 10
-343.118024
 20
86.791815
 30
0.0
 11
-344.741697
 21
88.415488
 31
0.0
  0
ENDBLK
  5
1D5
100
AcDbEntity
  8
0
100
AcDbBlockEnd
  0
BLOCK
  5
211
100
AcDbEntity
  8
0
100
AcDbBlockBegin
  2
*X12
 70
    65
 10
0.0
 20
0.0
 30
0.0
  3
*X12
  1

  0
LINE
  5
1D7
100
AcDbEntity
  8
0
 62
     0
100
AcDbLine
 10
-368.231024
 20
123.208189
 30
0.0
 11
-363.231024
 21
128.208189
 31
0.0
  0
LINE
  5
1D8
100
AcDbEntity
  8
0
 62
     0
100
AcDbLine
 10
-347.356024
 20
144.083189
 30
0.0
 11
-342.356024
 21
149.083189
 31
0.0
  0
LINE
  5
1D9
100
AcDbEntity
  8
0
 62
     0
100
AcDbLine
 10
-368.231024
 20
124.975956
 30
0.0
 11
-364.188932
 21
129.018048
 31
0.0
  0
LINE
  5
1DA
100
AcDbEntity
  8
0
 62
     0
100
AcDbLine
 10
-347.356024
 20
145.850956
 30
0.0
 11
-342.356024
 21
150.850956
 31
0.0
  0
LINE
  5
1DB
100
AcDbEntity
  8
0
 62
     0
100
AcDbLine
 10
-364.188932
 20
129.018048
 30
0.0
 11
-363.231024
 21
129.975956
 31
0.0
  0
LINE
  5
1DC
100
AcDbEntity
  8
0
 62
     0
100
AcDbLine
 10
-368.231024
 20
126.743723
 30
0.0
 11
-365.956699
 21
129.018048
 31
0.0
  0
LINE
  5
1DD
100
AcDbEntity
  8
0
 62
     0
100
AcDbLine
 10
-347.356024
 20
147.618723
 30
0.0
 11
-342.356024
 21
152.618723
 31
0.0
  0
LINE
  5
1DE
100
AcDbEntity
  8
0
 62
     0
100
AcDbLine
 10
-365.956699
 20
129.018048
 30
0.0
 11
-363.231024
 21
131.743723
 31
0.0
  0
LINE
  5
1DF
100
AcDbEntity
  8
0
 62
     0
100
AcDbLine
 10
-368.231024
 20
128.51149
 30
0.0
 11
-367.724466
 21
129.018048
 31
0.0
  0
LINE
  5
1E0
100
AcDbEntity
  8
0
 62
     0
100
AcDbLine
 10
-347.356024
 20
149.38649
 30
0.0
 11
-342.356024
 21
154.38649
 31
0.0
  0
LINE
  5
1E1
100
AcDbEntity
  8
0
 62
     0
100
AcDbLine
 10
-367.724466
 20
129.018048
 30
0.0
 11
-363.231024
 21
133.51149
 31
0.0
  0
LINE
  5
1E2
100
AcDbEntity
  8
0
 62
     0
100
AcDbLine
 10
-368.231024
 20
130.279257
 30
0.0
 11
-363.231024
 21
135.279257
 31
0.0
  0
LINE
  5
1E3
100
AcDbEntity
  8
0
 62
     0
100
AcDbLine
 10
-347.356024
 20
151.154257
 30
0.0
 11
-342.356024
 21
156.154257
 31
0.0
  0
LINE
  5
1E4
100
AcDbEntity
  8
0
 62
     0
100
AcDbLine
 10
-368.231024
 20
132.047024
 30
0.0
 11
-363.231024
 21
137.047024
 31
0.0
  0
LINE
  5
1E5
100
AcDbEntity
  8
0
 62
     0
100
AcDbLine
 10
-347.356024
 20
152.922024
 30
0.0
 11
-342.356024
 21
157.922024
 31
0.0
  0
LINE
  5
1E6
100
AcDbEntity
  8
0
 62
     0
100
AcDbLine
 10
-368.231024
 20
133.814791
 30
0.0
 11
-363.231024
 21
138.814791
 31
0.0
  0
LINE
  5
1E7
100
AcDbEntity
  8
0
 62
     0
100
AcDbLine
 10
-347.356024
 20
154.689791
 30
0.0
 11
-342.356024
 21
159.689791
 31
0.0
  0
LINE
  5
1E8
100
AcDbEntity
  8
0
 62
     0
100
AcDbLine
 10
-368.231024
 20
135.582558
 30
0.0
 11
-363.231024
 21
140.582558
 31
0.0
  0
LINE
  5
1E9
100
AcDbEntity
  8
0
 62
     0
100
AcDbLine
 10
-347.356024
 20
156.457558
 30
0.0
 11
-343.225534
 21
160.588048
 31
0.0
  0
LINE
  5
1EA
100
AcDbEntity
  8
0
 62
     0
100
AcDbLine
 10
-368.231024
 20
137.350325
 30
0.0
 11
-363.231024
 21
142.350325
 31
0.0
  0
LINE
  5
1EB
100
AcDbEntity
  8
0
 62
     0
100
AcDbLine
 10
-347.356024
 20
158.225325
 30
0.0
 11
-344.993301
 21
160.588048
 31
0.0
  0
LINE
  5
1EC
100
AcDbEntity
  8
0
 62
     0
100
AcDbLine
 10
-368.231024
 20
139.118092
 30
0.0
 11
-363.231024
 21
144.118092
 31
0.0
  0
LINE
  5
1ED
100
AcDbEntity
  8
0
 62
     0
100
AcDbLine
 10
-347.356024
 20
159.993092
 30
0.0
 11
-346.761068
 21
160.588048
 31
0.0
  0
LINE
  5
1EE
100
AcDbEntity
  8
0
 62
     0
100
AcDbLine
 10
-368.231024
 20
140.885859
 30
0.0
 11
-363.231024
 21
145.885859
 31
0.0
  0
LINE
  5
1EF
100
AcDbEntity
  8
0
 62
     0
100
AcDbLine
 10
-368.231024
 20
142.653626
 30
0.0
 11
-363.231024
 21
147.653626
 31
0.0
  0
LINE
  5
1F0
100
AcDbEntity
  8
0
 62
     0
100
AcDbLine
 10
-368.231024
 20
144.421393
 30
0.0
 11
-363.231024
 21
149.421393
 31
0.0
  0
LINE
  5
1F1
100
AcDbEntity
  8
0
 62
     0
100
AcDbLine
 10
-368.231024
 20
146.18916
 30
0.0
 11
-363.582136
 21
150.838048
 31
0.0
  0
LINE
  5
1F2
100
AcDbEntity
  8
0
 62
     0
100
AcDbLine
 10
-368.231024
 20
147.956927
 30
0.0
 11
-365.349903
 21
150.838048
 31
0.0
  0
LINE
  5
1F3
100
AcDbEntity
  8
0
 62
     0
100
AcDbLine
 10
-368.231024
 20
149.724694
 30
0.0
 11
-367.11767
 21
150.838048
 31
0.0
  0
LINE
  5
1F4
100
AcDbEntity
  8
0
 62
     0
100
AcDbLine
 10
-368.231024
 20
121.440422
 30
0.0
 11
-363.231024
 21
126.440422
 31
0.0
  0
LINE
  5
1F5
100
AcDbEntity
  8
0
 62
     0
100
AcDbLine
 10
-347.356024
 20
142.315422
 30
0.0
 11
-342.356024
 21
147.315422
 31
0.0
  0
LINE
  5
1F6
100
AcDbEntity
  8
0
 62
     0
100
AcDbLine
 10
-368.231024
 20
119.672655
 30
0.0
 11
-363.231024
 21
124.672655
 31
0.0
  0
LINE
  5
1F7
100
AcDbEntity
  8
0
 62
     0
100
AcDbLine
 10
-347.356024
 20
140.547655
 30
0.0
 11
-342.356024
 21
145.547655
 31
0.0
  0
LINE
  5
1F8
100
AcDbEntity
  8
0
 62
     0
100
AcDbLine
 10
-368.231024
 20
117.904889
 30
0.0
 11
-363.231024
 21
122.904889
 31
0.0
  0
LINE
  5
1F9
100
AcDbEntity
  8
0
 62
     0
100
AcDbLine
 10
-347.356024
 20
138.779889
 30
0.0
 11
-342.356024
 21
143.779889
 31
0.0
  0
LINE
  5
1FA
100
AcDbEntity
  8
0
 62
     0
100
AcDbLine
 10
-368.231024
 20
116.137122
 30
0.0
 11
-363.231024
 21
121.137122
 31
0.0
  0
LINE
  5
1FB
100
AcDbEntity
  8
0
 62
     0
100
AcDbLine
 10
-347.356024
 20
137.012122
 30
0.0
 11
-342.356024
 21
142.012122
 31
0.0
  0
LINE
  5
1FC
100
AcDbEntity
  8
0
 62
     0
100
AcDbLine
 10
-368.042331
 20
114.558048
 30
0.0
 11
-363.231024
 21
119.369355
 31
0.0
  0
LINE
  5
1FD
100
AcDbEntity
  8
0
 62
     0
100
AcDbLine
 10
-347.356024
 20
135.244355
 30
0.0
 11
-342.356024
 21
140.244355
 31
0.0
  0
LINE
  5
1FE
100
AcDbEntity
  8
0
 62
     0
100
AcDbLine
 10
-366.274564
 20
114.558048
 30
0.0
 11
-363.231024
 21
117.601588
 31
0.0
  0
LINE
  5
1FF
100
AcDbEntity
  8
0
 62
     0
100
AcDbLine
 10
-347.356024
 20
133.476588
 30
0.0
 11
-342.356024
 21
138.476588
 31
0.0
  0
LINE
  5
200
100
AcDbEntity
  8
0
 62
     0
100
AcDbLine
 10
-364.506797
 20
114.558048
 30
0.0
 11
-363.231024
 21
115.833821
 31
0.0
  0
LINE
  5
201
100
AcDbEntity
  8
0
 62
     0
100
AcDbLine
 10
-347.356024
 20
131.708821
 30
0.0
 11
-342.356024
 21
136.708821
 31
0.0
  0
LINE
  5
202
100
AcDbEntity
  8
0
 62
     0
100
AcDbLine
 10
-347.356024
 20
129.941054
 30
0.0
 11
-342.356024
 21
134.941054
 31
0.0
  0
LINE
  5
203
100
AcDbEntity
  8
0
 62
     0
100
AcDbLine
 10
-347.356024
 20
128.173287
 30
0.0
 11
-346.511263
 21
129.018048
 31
0.0
  0
LINE
  5
204
100
AcDbEntity
  8
0
 62
     0
100
AcDbLine
 10
-346.511263
 20
129.018048
 30
0.0
 11
-342.356024
 21
133.173287
 31
0.0
  0
LINE
  5
205
100
AcDbEntity
  8
0
 62
     0
100
AcDbLine
 10
-347.356024
 20
126.40552
 30
0.0
 11
-344.743496
 21
129.018048
 31
0.0
  0
LINE
  5
206
100
AcDbEntity
  8
0
 62
     0
100
AcDbLine
 10
-344.743496
 20
129.018048
 30
0.0
 11
-342.356024
 21
131.40552
 31
0.0
  0
LINE
  5
207
100
AcDbEntity
  8
0
 62
     0
100
AcDbLine
 10
-347.356024
 20
124.637753
 30
0.0
 11
-342.975729
 21
129.018048
 31
0.0
  0
LINE
  5
208
100
AcDbEntity
  8
0
 62
     0
100
AcDbLine
 10
-342.975729
 20
129.018048
 30
0.0
 11
-342.356024
 21
129.637753
 31
0.0
  0
LINE
  5
209
100
AcDbEntity
  8
0
 62
     0
100
AcDbLine
 10
-347.356024
 20
122.869986
 30
0.0
 11
-342.356024
 21
127.869986
 31
0.0
  0
LINE
  5
20A
100
AcDbEntity
  8
0
 62
     0
100
AcDbLine
 10
-347.356024
 20
121.102219
 30
0.0
 11
-342.356024
 21
126.102219
 31
0.0
  0
LINE
  5
20B
100
AcDbEntity
  8
0
 62
     0
100
AcDbLine
 10
-347.356024
 20
119.334452
 30
0.0
 11
-342.356024
 21
124.334452
 31
0.0
  0
LINE
  5
20C
100
AcDbEntity
  8
0
 62
     0
100
AcDbLine
 10
-347.356024
 20
117.566685
 30
0.0
 11
-342.356024
 21
122.566685
 31
0.0
  0
LINE
  5
20D
100
AcDbEntity
  8
0
 62
     0
100
AcDbLine
 10
-347.356024
 20
115.798918
 30
0.0
 11
-342.356024
 21
120.798918
 31
0.0
  0
LINE
  5
20E
100
AcDbEntity
  8
0
 62
     0
100
AcDbLine
 10
-346.199127
 20
115.188048
 30
0.0
 11
-342.356024
 21
119.031151
 31
0.0
  0
LINE
  5
20F
100
AcDbEntity
  8
0
 62
     0
100
AcDbLine
 10
-344.43136
 20
115.188048
 30
0.0
 11
-342.356024
 21
117.263384
 31
0.0
  0
LINE
  5
210
100
AcDbEntity
  8
0
 62
     0
100
AcDbLine
 10
-342.663593
 20
115.188048
 30
0.0
 11
-342.356024
 21
115.495617
 31
0.0
  0
ENDBLK
  5
212
100
AcDbEntity
  8
0
100
AcDbBlockEnd
  0
BLOCK
  5
21F
100
AcDbEntity
  8
0
100
AcDbBlockBegin
  2
*D13
 70
    65
 10
0.0
 20
0.0
 30
0.0
  3
*D13
  1

  0
LINE
  5
214
100
AcDbEntity
  8
0
  6
BYBLOCK
 62
     0
100
AcDbLine
 10
-360.762274
 20
52.765488
 30
0.0
 11
-355.376312
 21
52.765488
 31
0.0
  0
LINE
  5
215
100
AcDbEntity
  8
0
  6
BYBLOCK
 62
     0
100
AcDbLine
 10
-362.762274
 20
50.265488
 30
0.0
 11
-355.376312
 21
50.265488
 31
0.0
  0
LINE
  5
216
100
AcDbEntity
  8
0
  6
BYBLOCK
 62
     0
100
AcDbLine
 10
-356.726312
 20
54.115488
 30
0.0
 11
-356.726312
 21
55.465488
 31
0.0
  0
LINE
  5
217
100
AcDbEntity
  8
0
  6
BYBLOCK
 62
     0
100
AcDbLine
 10
-356.726312
 20
48.915488
 30
0.0
 11
-356.726312
 21
47.565488
 31
0.0
  0
LINE
  5
218
100
AcDbEntity
  8
0
  6
BYBLOCK
 62
     0
100
AcDbLine
 10
-356.726312
 20
47.565488
 30
0.0
 11
-358.076312
 21
47.565488
 31
0.0
  0
SOLID
  5
219
100
AcDbEntity
  8
0
  6
BYBLOCK
 62
     0
100
AcDbTrace
 10
-356.951312
 20
54.115488
 30
0.0
 11
-356.501312
 21
54.115488
 31
0.0
 12
-356.726312
 22
52.765488
 32
0.0
 13
-356.726312
 23
52.765488
 33
0.0
  0
SOLID
  5
21A
100
AcDbEntity
  8
0
  6
BYBLOCK
 62
     0
100
AcDbTrace
 10
-356.951312
 20
48.915488
 30
0.0
 11
-356.501312
 21
48.915488
 31
0.0
 12
-356.726312
 22
50.265488
 32
0.0
 13
-356.726312
 23
50.265488
 33
0.0
  0
MTEXT
  5
21B
100
AcDbEntity
  8
0
  6
BYBLOCK
 62
     0
100
AcDbMText
 10
-372.063812
 20
47.565488
 30
0.0
 40
2.25
 41
0.0
 71
     5
 72
     1
  1
\A1;2.50mm[0.098"]
  0
POINT
  5
21C
100
AcDbEntity
  8
DEFPOINTS
  6
BYBLOCK
 62
     0
100
AcDbPoint
 10
-361.231024
 20
52.765488
 30
0.0
  0
POINT
  5
21D
100
AcDbEntity
  8
DEFPOINTS
  6
BYBLOCK
 62
     0
100
AcDbPoint
 10
-363.231024
 20
50.265488
 30
0.0
  0
POINT
  5
21E
100
AcDbEntity
  8
DEFPOINTS
  6
BYBLOCK
 62
     0
100
AcDbPoint
 10
-356.726312
 20
50.265488
 30
0.0
  0
ENDBLK
  5
220
100
AcDbEntity
  8
0
100
AcDbBlockEnd
  0
BLOCK
  5
22D
100
AcDbEntity
  8
0
100
AcDbBlockBegin
  2
*D14
 70
    65
 10
0.0
 20
0.0
 30
0.0
  3
*D14
  1

  0
LINE
  5
222
100
AcDbEntity
  8
0
  6
BYBLOCK
 62
     0
100
AcDbLine
 10
-360.762274
 20
114.558048
 30
0.0
 11
-356.943217
 21
114.558048
 31
0.0
  0
LINE
  5
223
100
AcDbEntity
  8
0
  6
BYBLOCK
 62
     0
100
AcDbLine
 10
-362.762274
 20
112.058048
 30
0.0
 11
-356.943217
 21
112.058048
 31
0.0
  0
LINE
  5
224
100
AcDbEntity
  8
0
  6
BYBLOCK
 62
     0
100
AcDbLine
 10
-358.293217
 20
115.908048
 30
0.0
 11
-358.293217
 21
117.258048
 31
0.0
  0
LINE
  5
225
100
AcDbEntity
  8
0
  6
BYBLOCK
 62
     0
100
AcDbLine
 10
-358.293217
 20
110.708048
 30
0.0
 11
-358.293217
 21
109.358048
 31
0.0
  0
LINE
  5
226
100
AcDbEntity
  8
0
  6
BYBLOCK
 62
     0
100
AcDbLine
 10
-358.293217
 20
109.358048
 30
0.0
 11
-359.643217
 21
109.358048
 31
0.0
  0
SOLID
  5
227
100
AcDbEntity
  8
0
  6
BYBLOCK
 62
     0
100
AcDbTrace
 10
-358.518217
 20
115.908048
 30
0.0
 11
-358.068217
 21
115.908048
 31
0.0
 12
-358.293217
 22
114.558048
 32
0.0
 13
-358.293217
 23
114.558048
 33
0.0
  0
SOLID
  5
228
100
AcDbEntity
  8
0
  6
BYBLOCK
 62
     0
100
AcDbTrace
 10
-358.518217
 20
110.708048
 30
0.0
 11
-358.068217
 21
110.708048
 31
0.0
 12
-358.293217
 22
112.058048
 32
0.0
 13
-358.293217
 23
112.058048
 33
0.0
  0
MTEXT
  5
229
100
AcDbEntity
  8
0
  6
BYBLOCK
 62
     0
100
AcDbMText
 10
-373.630717
 20
109.358048
 30
0.0
 40
2.25
 41
0.0
 71
     5
 72
     1
  1
\A1;2.50mm[0.098"]
  0
POINT
  5
22A
100
AcDbEntity
  8
DEFPOINTS
  6
BYBLOCK
 62
     0
100
AcDbPoint
 10
-361.231024
 20
114.558048
 30
0.0
  0
POINT
  5
22B
100
AcDbEntity
  8
DEFPOINTS
  6
BYBLOCK
 62
     0
100
AcDbPoint
 10
-363.231024
 20
112.058048
 30
0.0
  0
POINT
  5
22C
100
AcDbEntity
  8
DEFPOINTS
  6
BYBLOCK
 62
     0
100
AcDbPoint
 10
-358.293217
 20
112.058048
 30
0.0
  0
ENDBLK
  5
22E
100
AcDbEntity
  8
0
100
AcDbBlockEnd
  0
BLOCK
  5
273
100
AcDbEntity
  8
0
100
AcDbBlockBegin
  2
UPI-L1F
 70
     0
 10
0.0
 20
0.0
 30
0.0
  3
UPI-L1F
  1

  0
LINE
  5
238
100
AcDbEntity
  8
CENTER
100
AcDbLine
 10
-113.27
 20
78.752559
 30
0.0
 11
110.544461
 21
78.752559
 31
0.0
1001
ACAD
1000
ASC_BOUNDS
1002
{
1070
    19
1005
270
1005
0
1005
0
1005
0
1005
0
1005
0
1005
0
1005
0
1005
0
1005
0
1005
0
1005
0
1005
0
1005
0
1005
0
1005
0
1005
0
1005
0
1005
0
1005
0
1005
0
1005
0
1005
0
1005
0
1005
0
1005
270
1005
270
1005
270
1002
}
  0
LINE
  5
239
100
AcDbEntity
  8
HIDDEN
100
AcDbLine
 10
0.0
 20
66.792559
 30
0.0
 11
48.56
 21
66.792559
 31
0.0
  0
LINE
  5
23A
100
AcDbEntity
  8
HIDDEN
100
AcDbLine
 10
48.56
 20
98.072559
 30
0.0
 11
0.0
 21
98.072559
 31
0.0
  0
LINE
  5
23B
100
AcDbEntity
  8
L1_
100
AcDbLine
 10
0.0
 20
61.792559
 30
0.0
 11
56.56
 21
61.792559
 31
0.0
  0
LINE
  5
23C
100
AcDbEntity
  8
L1_
100
AcDbLine
 10
56.56
 20
103.072559
 30
0.0
 11
0.0
 21
103.072559
 31
0.0
  0
LINE
  5
23D
100
AcDbEntity
  8
L1_
100
AcDbLine
 10
-0.075
 20
61.792559
 30
0.0
 11
-0.075
 21
103.072559
 31
0.0
  0
LINE
  5
23E
100
AcDbEntity
  8
L1_
100
AcDbLine
 10
0.0
 20
61.792559
 30
0.0
 11
0.0
 21
103.072559
 31
0.0
  0
LINE
  5
23F
100
AcDbEntity
  8
L1_
100
AcDbLine
 10
56.56
 20
61.792559
 30
0.0
 11
56.56
 21
103.072559
 31
0.0
  0
INSERT
  5
240
100
AcDbEntity
  8
AIN
100
AcDbBlockReference
  2
HYBR-12
 10
72.435
 20
64.222559
 30
0.0
  0
LINE
  5
241
100
AcDbEntity
  8
UPILEX
100
AcDbLine
 10
77.435
 20
64.922559
 30
0.0
 11
77.435
 21
110.322559
 31
0.0
1001
ACAD
1000
ASC_BOUNDS
1002
{
1070
    19
1005
270
1005
0
1005
0
1005
0
1005
0
1005
0
1005
0
1005
270
1002
}
  0
LINE
  5
242
100
AcDbEntity
  8
UPILEX
100
AcDbLine
 10
51.56
 20
64.292559
 30
0.0
 11
51.56
 21
100.572559
 31
0.0
1001
ACAD
1000
ASC_BOUNDS
1002
{
1070
    19
1005
270
1005
0
1005
0
1005
0
1005
0
1005
0
1005
0
1005
270
1002
}
  0
LINE
  5
243
100
AcDbEntity
  8
HIDDEN
100
AcDbLine
 10
48.56
 20
66.792559
 30
0.0
 11
48.56
 21
98.072559
 31
0.0
  0
LINE
  5
244
100
AcDbEntity
  8
UPILEX
100
AcDbLine
 10
58.56
 20
64.292559
 30
0.0
 11
51.56
 21
64.292559
 31
0.0
1001
ACAD
1000
ASC_BOUNDS
1002
{
1070
    19
1005
270
1002
}
  0
LINE
  5
245
100
AcDbEntity
  8
UPILEX
100
AcDbLine
 10
51.56
 20
100.572559
 30
0.0
 11
58.56
 21
100.572559
 31
0.0
1001
ACAD
1000
ASC_BOUNDS
1002
{
1070
    19
1005
270
1002
}
  0
LINE
  5
246
100
AcDbEntity
  8
UPILEX
100
AcDbLine
 10
59.19
 20
64.922559
 30
0.0
 11
77.435
 21
64.922559
 31
0.0
1001
ACAD
1000
ASC_BOUNDS
1002
{
1070
    19
1005
270
1002
}
  0
INSERT
  5
247
100
AcDbEntity
  8
CENTER
100
AcDbBlockReference
  2
POST-1
 10
95.235
 20
70.049559
 30
0.0
  0
INSERT
  5
248
100
AcDbEntity
  8
CENTER
100
AcDbBlockReference
  2
POST-1
 10
95.235
 20
88.749559
 30
0.0
  0
LINE
  5
249
100
AcDbEntity
  8
UPILEX
100
AcDbLine
 10
77.435
 20
110.322559
 30
0.0
 11
68.31
 21
110.322559
 31
0.0
1001
ACAD
1000
ASC_BOUNDS
1002
{
1070
    19
1005
270
1002
}
  0
LINE
  5
24A
100
AcDbEntity
  8
UPILEX
100
AcDbLine
 10
56.56
 20
100.572559
 30
0.0
 11
56.56
 21
64.292559
 31
0.0
1001
ACAD
1000
ASC_BOUNDS
1002
{
1070
    19
1005
270
1005
0
1005
0
1005
0
1005
0
1005
0
1005
0
1005
270
1002
}
  0
LINE
  5
24B
100
AcDbEntity
  8
UPILEX
100
AcDbLine
 10
72.435
 20
64.922559
 30
0.0
 11
72.435
 21
110.322559
 31
0.0
1001
ACAD
1000
ASC_BOUNDS
1002
{
1070
    19
1005
270
1005
0
1005
0
1005
0
1005
0
1005
0
1005
0
1005
270
1002
}
  0
DIMENSION
  5
24C
100
AcDbEntity
  8
DIM
100
AcDbDimension
  2
*D5
 10
51.56
 20
107.684235
 30
0.0
 11
35.06
 21
107.684235
 31
0.0
 12
419.791024
 22
-50.265488
 32
0.0
  3
STANDARD
100
AcDbAlignedDimension
 13
56.56
 23
98.072559
 33
0.0
 14
51.56
 24
98.072559
 34
0.0
100
AcDbRotatedDimension
1001
ACAD
1000
DSTYLE
1002
{
1070
   140
1040
0.3
1070
   272
1070
     2
1070
    40
1040
7.5
1070
     3
1000
mm
1070
   287
1070
     0
1070
   271
1070
     2
1070
     4
1000
"
1070
   143
1040
0.03937
1070
   171
1070
     3
1070
   170
1070
     1
1002
}
  0
DIMENSION
  5
24D
100
AcDbEntity
  8
DIM
100
AcDbDimension
  2
*D6
 10
56.56
 20
118.692527
 30
0.0
 11
38.56
 21
118.692527
 31
0.0
 12
419.791024
 22
-50.265488
 32
0.0
  3
STANDARD
100
AcDbAlignedDimension
 13
72.435
 23
110.322559
 33
0.0
 14
56.56
 24
98.072559
 34
0.0
100
AcDbRotatedDimension
1001
ACAD
1000
DSTYLE
1002
{
1070
   140
1040
0.3
1070
   272
1070
     2
1070
    40
1040
7.5
1070
     3
1000
mm
1070
   287
1070
     0
1070
   271
1070
     2
1070
     4
1000
"
1070
   143
1040
0.03937
1070
   171
1070
     3
1070
   170
1070
     1
1002
}
  0
DIMENSION
  5
24E
100
AcDbEntity
  8
DIM
100
AcDbDimension
  2
*D7
 10
77.435
 20
125.351862
 30
0.0
 11
93.935
 21
125.351862
 31
0.0
 12
419.791024
 22
-50.265488
 32
0.0
  3
STANDARD
100
AcDbAlignedDimension
 13
72.435
 23
110.322559
 33
0.0
 14
77.435
 24
110.322559
 34
0.0
100
AcDbRotatedDimension
1001
ACAD
1000
DSTYLE
1002
{
1070
   140
1040
0.3
1070
   272
1070
     2
1070
    40
1040
7.5
1070
     3
1000
mm
1070
   287
1070
     0
1070
   271
1070
     2
1070
     4
1000
"
1070
   143
1040
0.03937
1070
   171
1070
     3
1070
   170
1070
     1
1002
}
  0
LINE
  5
24F
100
AcDbEntity
  8
UPILEX
100
AcDbLine
 10
58.56
 20
100.572559
 30
0.0
 11
68.31
 21
110.322559
 31
0.0
  0
LINE
  5
250
100
AcDbEntity
  8
CENTER
100
AcDbLine
 10
-218.154026
 20
24.32
 30
0.0
 11
110.544461
 21
24.32
 31
0.0
1001
ACAD
1000
ASC_BOUNDS
1002
{
1070
    19
1005
0
1005
0
1005
0
1005
0
1005
0
1005
0
1005
0
1005
0
1005
0
1005
0
1005
0
1005
0
1005
0
1005
0
1005
0
1005
0
1005
0
1005
0
1005
0
1005
0
1005
0
1005
0
1005
0
1005
0
1005
0
1005
0
1005
0
1005
0
1005
0
1005
0
1005
0
1005
0
1005
0
1005
0
1005
0
1002
}
  0
LINE
  5
251
100
AcDbEntity
  8
UPILEX
100
AcDbLine
 10
-0.038418
 20
38.78
 30
0.0
 11
-0.038418
 21
2.5
 31
0.0
1001
ACAD
1000
ASC_BOUNDS
1002
{
1070
    19
1005
0
1005
0
1005
0
1005
0
1005
0
1005
0
1002
}
  0
LINE
  5
252
100
AcDbEntity
  8
L1_
100
AcDbLine
 10
56.56
 20
41.28
 30
0.0
 11
56.56
 21
0.0
 31
0.0
  0
LINE
  5
253
100
AcDbEntity
  8
L1_
100
AcDbLine
 10
0.0
 20
41.28
 30
0.0
 11
0.0
 21
0.0
 31
0.0
  0
LINE
  5
254
100
AcDbEntity
  8
L1_
100
AcDbLine
 10
-0.075
 20
41.28
 30
0.0
 11
-0.075
 21
0.0
 31
0.0
  0
LINE
  5
255
100
AcDbEntity
  8
L1_
100
AcDbLine
 10
0.0
 20
41.28
 30
0.0
 11
56.56
 21
41.28
 31
0.0
  0
LINE
  5
256
100
AcDbEntity
  8
L1_
100
AcDbLine
 10
56.56
 20
0.0
 30
0.0
 11
0.0
 21
0.0
 31
0.0
  0
LINE
  5
257
100
AcDbEntity
  8
HIDDEN
100
AcDbLine
 10
48.56
 20
5.0
 30
0.0
 11
0.0
 21
5.0
 31
0.0
  0
LINE
  5
258
100
AcDbEntity
  8
HIDDEN
100
AcDbLine
 10
0.0
 20
36.28
 30
0.0
 11
48.56
 21
36.28
 31
0.0
  0
LINE
  5
259
100
AcDbEntity
  8
UPILEX
100
AcDbLine
 10
71.673
 20
38.15
 30
0.0
 11
71.673
 21
-7.25
 31
0.0
1001
ACAD
1000
ASC_BOUNDS
1002
{
1070
    19
1005
0
1005
0
1005
0
1005
0
1005
0
1005
0
1005
0
1005
0
1005
0
1005
0
1005
26F
1002
}
  0
LINE
  5
25A
100
AcDbEntity
  8
UPILEX
100
AcDbLine
 10
76.673
 20
38.15
 30
0.0
 11
76.673
 21
-7.25
 31
0.0
1001
ACAD
1000
ASC_BOUNDS
1002
{
1070
    19
1005
0
1005
0
1005
0
1005
0
1005
0
1005
0
1005
0
1005
0
1005
0
1005
0
1005
26F
1002
}
  0
INSERT
  5
25B
100
AcDbEntity
  8
AIN
100
AcDbBlockReference
  2
HYBR-12
 10
71.673
 20
38.85
 30
0.0
 41
-1.0
 50
180.0
  0
LINE
  5
25C
100
AcDbEntity
  8
UPILEX
100
AcDbLine
 10
56.56
 20
2.5
 30
0.0
 11
56.56
 21
38.78
 31
0.0
1001
ACAD
1000
ASC_BOUNDS
1002
{
1070
    19
1005
0
1005
0
1005
0
1005
0
1005
0
1005
0
1005
0
1005
0
1005
0
1005
0
1005
26F
1002
}
  0
LINE
  5
25D
100
AcDbEntity
  8
HIDDEN
100
AcDbLine
 10
48.56
 20
36.28
 30
0.0
 11
48.56
 21
5.0
 31
0.0
  0
LINE
  5
25E
100
AcDbEntity
  8
UPILEX
100
AcDbLine
 10
0.0
 20
38.78
 30
0.0
 11
0.0
 21
2.5
 31
0.0
1001
ACAD
1000
ASC_BOUNDS
1002
{
1070
    19
1005
0
1005
0
1005
0
1005
0
1005
0
1005
0
1005
0
1005
0
1005
0
1005
0
1005
26F
1002
}
  0
LINE
  5
25F
100
AcDbEntity
  8
UPILEX
100
AcDbLine
 10
58.56
 20
38.78
 30
0.0
 11
0.0
 21
38.78
 31
0.0
1001
ACAD
1000
ASC_BOUNDS
1002
{
1070
    19
1005
26F
1002
}
  0
LINE
  5
260
100
AcDbEntity
  8
UPILEX
100
AcDbLine
 10
0.0
 20
2.5
 30
0.0
 11
58.56
 21
2.5
 31
0.0
1001
ACAD
1000
ASC_BOUNDS
1002
{
1070
    19
1005
26F
1002
}
  0
INSERT
  5
261
100
AcDbEntity
  8
CENTER
100
AcDbBlockReference
  2
POST-1
 10
94.473
 20
33.023
 30
0.0
 41
-1.0
 50
180.0
  0
INSERT
  5
262
100
AcDbEntity
  8
CENTER
100
AcDbBlockReference
  2
POST-1
 10
94.473
 20
14.323
 30
0.0
 41
-1.0
 50
180.0
  0
LINE
  5
263
100
AcDbEntity
  8
UPILEX
100
AcDbLine
 10
76.673
 20
-7.25
 30
0.0
 11
68.31
 21
-7.25
 31
0.0
1001
ACAD
1000
ASC_BOUNDS
1002
{
1070
    19
1005
26F
1002
}
  0
DIMENSION
  5
264
100
AcDbEntity
  8
TEXT
100
AcDbDimension
  2
*D8
 10
76.673
 20
42.075729
 30
0.0
 11
93.173
 21
42.075729
 31
0.0
 12
419.791024
 22
-50.265488
 32
0.0
  3
STANDARD
100
AcDbAlignedDimension
 13
71.673
 23
38.85
 33
0.0
 14
76.673
 24
38.15
 34
0.0
100
AcDbRotatedDimension
1001
ACAD
1000
DSTYLE
1002
{
1070
   140
1040
0.3
1070
   272
1070
     2
1070
    40
1040
7.5
1070
     3
1000
mm
1070
   287
1070
     0
1070
   271
1070
     2
1070
     4
1000
"
1070
   143
1040
0.03937
1070
   171
1070
     3
1070
   170
1070
     1
1002
}
  0
DIMENSION
  5
265
100
AcDbEntity
  8
TEXT
100
AcDbDimension
  2
*D9
 10
0.0
 20
45.396759
 30
0.0
 11
28.28
 21
45.396759
 31
0.0
 12
419.791024
 22
-50.265488
 32
0.0
  3
STANDARD
100
AcDbAlignedDimension
 13
56.56
 23
41.28
 33
0.0
 14
0.0
 24
36.28
 34
0.0
100
AcDbRotatedDimension
1001
ACAD
1000
DSTYLE
1002
{
1070
   140
1040
0.3
1070
   272
1070
     2
1070
    40
1040
7.5
1070
     3
1000
mm
1070
   287
1070
     0
1070
   271
1070
     2
1070
     4
1000
"
1070
   143
1040
0.03937
1070
   171
1070
     3
1070
   170
1070
     1
1002
}
  0
DIMENSION
  5
266
100
AcDbEntity
  8
TEXT
100
AcDbDimension
  2
*D10
 10
71.673
 20
50.378307
 30
0.0
 11
89.298
 21
50.378307
 31
0.0
 12
419.791024
 22
-50.265488
 32
0.0
  3
STANDARD
100
AcDbAlignedDimension
 13
56.56
 23
41.28
 33
0.0
 14
71.673
 24
38.85
 34
0.0
100
AcDbRotatedDimension
1001
ACAD
1000
DSTYLE
1002
{
1070
   140
1040
0.3
1070
   272
1070
     2
1070
    40
1040
7.5
1070
     3
1000
mm
1070
   287
1070
     0
1070
   271
1070
     2
1070
     4
1000
"
1070
   143
1040
0.03937
1070
   171
1070
     3
1070
   170
1070
     1
1002
}
  0
LINE
  5
267
100
AcDbEntity
  8
UPILEX
100
AcDbLine
 10
58.56
 20
38.78
 30
0.0
 11
59.19
 21
38.15
 31
0.0
  0
LINE
  5
268
100
AcDbEntity
  8
UPILEX
100
AcDbLine
 10
58.56
 20
64.292559
 30
0.0
 11
59.19
 21
64.922559
 31
0.0
  0
TEXT
  5
269
100
AcDbEntity
  8
UPILEX
100
AcDbText
 10
57.271536
 20
85.177101
 30
0.0
 40
1.5
  1
L1 FORWARD
  7
CIM_TB
100
AcDbText
  0
TEXT
  5
26A
100
AcDbEntity
  8
UPILEX
100
AcDbText
 10
57.271536
 20
82.74853
 30
0.0
 40
1.5
  1
TOP
  7
CIM_TB
100
AcDbText
  0
TEXT
  5
26B
100
AcDbEntity
  8
UPILEX
100
AcDbText
 10
56.842299
 20
22.097797
 30
0.0
 40
1.5
  1
L1 FORWARD
  7
CIM_TB
100
AcDbText
  0
TEXT
  5
26C
100
AcDbEntity
  8
UPILEX
100
AcDbText
 10
56.842299
 20
19.669226
 30
0.0
 40
1.5
  1
BOTTOM
  7
CIM_TB
100
AcDbText
  0
LINE
  5
26D
100
AcDbEntity
  8
UPILEX
100
AcDbLine
 10
76.673
 20
38.15
 30
0.0
 11
59.19
 21
38.15
 31
0.0
1001
ACAD
1000
ASC_BOUNDS
1002
{
1070
    19
1005
26F
1002
}
  0
LINE
  5
26E
100
AcDbEntity
  8
UPILEX
100
AcDbLine
 10
58.56
 20
2.5
 30
0.0
 11
68.31
 21
-7.25
 31
0.0
  0
INSERT
  5
26F
100
AcDbEntity
  8
UPILEX
100
AcDbBlockReference
  2
*X11
 10
419.791024
 20
-50.265488
 30
0.0
1001
ACAD
1000
HATCH
1002
{
1070
    19
1000
ANSI31
1040
10.0
1040
1.570796
1000
ASC_BOUNDS
1070
     2
1070
     1
1070
     4
1005
26D
1005
259
1005
263
1005
25A
1070
     1
1070
     4
1005
25F
1005
25E
1005
260
1005
25C
1000
ASC_SEEDPOINT
1011
33.873871
1021
29.254607
1031
0.0
1002
}
  0
INSERT
  5
270
100
AcDbEntity
  8
UPILEX
100
AcDbBlockReference
  2
*X12
 10
419.791024
 20
-50.265488
 30
0.0
1001
ACAD
1000
HATCH
1002
{
1070
    19
1000
ANSI31
1040
10.0
1040
0.0
1000
ASC_BOUNDS
1070
     4
1070
     1
1070
     4
1005
245
1005
242
1005
238
1005
24A
1070
     1
1070
     4
1005
238
1005
242
1005
244
1005
24A
1070
     1
1070
     4
1005
238
1005
24B
1005
246
1005
241
1070
     1
1070
     4
1005
249
1005
24B
1005
238
1005
241
1000
ASC_SEEDPOINT
1011
54.06
1021
75.442701
1031
0.0
1002
}
  0
DIMENSION
  5
271
100
AcDbEntity
  8
DIM
100
AcDbDimension
  2
*D13
 10
63.064712
 20
0.0
 30
0.0
 11
47.727212
 21
-2.7
 31
0.0
 12
419.791024
 22
-50.265488
 32
0.0
  3
STANDARD
100
AcDbAlignedDimension
 13
58.56
 23
2.5
 33
0.0
 14
56.56
 24
0.0
 34
0.0
 50
90.0
100
AcDbRotatedDimension
1001
ACAD
1000
DSTYLE
1002
{
1070
   140
1040
0.3
1070
   272
1070
     2
1070
    40
1040
7.5
1070
     3
1000
mm
1070
   287
1070
     0
1070
   271
1070
     2
1070
     4
1000
"
1070
   143
1040
0.03937
1070
   171
1070
     3
1070
   170
1070
     1
1002
}
  0
DIMENSION
  5
272
100
AcDbEntity
  8
DIM
100
AcDbDimension
  2
*D14
 10
61.497807
 20
61.792559
 30
0.0
 11
46.160307
 21
59.092559
 31
0.0
 12
419.791024
 22
-50.265488
 32
0.0
  3
STANDARD
100
AcDbAlignedDimension
 13
58.56
 23
64.292559
 33
0.0
 14
56.56
 24
61.792559
 34
0.0
 50
90.0
100
AcDbRotatedDimension
1001
ACAD
1000
DSTYLE
1002
{
1070
   140
1040
0.3
1070
   272
1070
     2
1070
    40
1040
7.5
1070
     3
1000
mm
1070
   287
1070
     0
1070
   271
1070
     2
1070
     4
1000
"
1070
   143
1040
0.03937
1070
   171
1070
     3
1070
   170
1070
     1
1002
}
  0
ENDBLK
  5
274
100
AcDbEntity
  8
0
100
AcDbBlockEnd
  0
BLOCK
  5
519
100
AcDbEntity
  8
0
100
AcDbBlockBegin
  2
*D16
 70
    65
 10
0.0
 20
0.0
 30
0.0
  3
*D16
  1

  0
LINE
  5
50F
100
AcDbEntity
  8
0
  6
BYBLOCK
 62
     0
100
AcDbLine
 10
-363.231024
 20
235.433608
 30
0.0
 11
-363.231024
 21
246.287322
 31
0.0
  0
LINE
  5
510
100
AcDbEntity
  8
0
  6
BYBLOCK
 62
     0
100
AcDbLine
 10
-368.231024
 20
235.433608
 30
0.0
 11
-368.231024
 21
246.287322
 31
0.0
  0
LINE
  5
511
100
AcDbEntity
  8
0
  6
BYBLOCK
 62
     0
100
AcDbLine
 10
-361.881024
 20
244.937322
 30
0.0
 11
-360.531024
 21
244.937322
 31
0.0
  0
LINE
  5
512
100
AcDbEntity
  8
0
  6
BYBLOCK
 62
     0
100
AcDbLine
 10
-369.581024
 20
244.937322
 30
0.0
 11
-370.931024
 21
244.937322
 31
0.0
  0
SOLID
  5
513
100
AcDbEntity
  8
0
  6
BYBLOCK
 62
     0
100
AcDbTrace
 10
-361.881024
 20
245.162322
 30
0.0
 11
-361.881024
 21
244.712322
 31
0.0
 12
-363.231024
 22
244.937322
 32
0.0
 13
-363.231024
 23
244.937322
 33
0.0
  0
SOLID
  5
514
100
AcDbEntity
  8
0
  6
BYBLOCK
 62
     0
100
AcDbTrace
 10
-369.581024
 20
245.162322
 30
0.0
 11
-369.581024
 21
244.712322
 31
0.0
 12
-368.231024
 22
244.937322
 32
0.0
 13
-368.231024
 23
244.937322
 33
0.0
  0
MTEXT
  5
515
100
AcDbEntity
  8
0
  6
BYBLOCK
 62
     0
100
AcDbMText
 10
-384.731024
 20
244.937322
 30
0.0
 40
2.25
 41
0.0
 71
     5
 72
     1
  1
\A1;5.00mm[0.197"]
  0
POINT
  5
516
100
AcDbEntity
  8
DEFPOINTS
  6
BYBLOCK
 62
     0
100
AcDbPoint
 10
-363.231024
 20
234.964858
 30
0.0
  0
POINT
  5
517
100
AcDbEntity
  8
DEFPOINTS
  6
BYBLOCK
 62
     0
100
AcDbPoint
 10
-368.231024
 20
234.964858
 30
0.0
  0
POINT
  5
518
100
AcDbEntity
  8
DEFPOINTS
  6
BYBLOCK
 62
     0
100
AcDbPoint
 10
-368.231024
 20
244.937322
 30
0.0
  0
ENDBLK
  5
51A
100
AcDbEntity
  8
0
100
AcDbBlockEnd
  0
BLOCK
  5
526
100
AcDbEntity
  8
0
100
AcDbBlockBegin
  2
*D17
 70
    65
 10
0.0
 20
0.0
 30
0.0
  3
*D17
  1

  0
LINE
  5
51C
100
AcDbEntity
  8
0
  6
BYBLOCK
 62
     0
100
AcDbLine
 10
-346.213063
 20
318.028321
 30
0.0
 11
-346.213063
 21
323.716473
 31
0.0
  0
LINE
  5
51D
100
AcDbEntity
  8
0
  6
BYBLOCK
 62
     0
100
AcDbLine
 10
-341.213063
 20
318.028321
 30
0.0
 11
-341.213063
 21
323.716473
 31
0.0
  0
LINE
  5
51E
100
AcDbEntity
  8
0
  6
BYBLOCK
 62
     0
100
AcDbLine
 10
-347.563063
 20
322.366473
 30
0.0
 11
-348.913063
 21
322.366473
 31
0.0
  0
LINE
  5
51F
100
AcDbEntity
  8
0
  6
BYBLOCK
 62
     0
100
AcDbLine
 10
-339.863063
 20
322.366473
 30
0.0
 11
-338.513063
 21
322.366473
 31
0.0
  0
SOLID
  5
520
100
AcDbEntity
  8
0
  6
BYBLOCK
 62
     0
100
AcDbTrace
 10
-347.563063
 20
322.591473
 30
0.0
 11
-347.563063
 21
322.141473
 31
0.0
 12
-346.213063
 22
322.366473
 32
0.0
 13
-346.213063
 23
322.366473
 33
0.0
  0
SOLID
  5
521
100
AcDbEntity
  8
0
  6
BYBLOCK
 62
     0
100
AcDbTrace
 10
-339.863063
 20
322.591473
 30
0.0
 11
-339.863063
 21
322.141473
 31
0.0
 12
-341.213063
 22
322.366473
 32
0.0
 13
-341.213063
 23
322.366473
 33
0.0
  0
MTEXT
  5
522
100
AcDbEntity
  8
0
  6
BYBLOCK
 62
     0
100
AcDbMText
 10
-324.713063
 20
322.366473
 30
0.0
 40
2.25
 41
0.0
 71
     5
 72
     1
  1
\A1;5.00mm[0.197"]
  0
POINT
  5
523
100
AcDbEntity
  8
DEFPOINTS
  6
BYBLOCK
 62
     0
100
AcDbPoint
 10
-346.213063
 20
317.559571
 30
0.0
  0
POINT
  5
524
100
AcDbEntity
  8
DEFPOINTS
  6
BYBLOCK
 62
     0
100
AcDbPoint
 10
-341.213063
 20
317.559571
 30
0.0
  0
POINT
  5
525
100
AcDbEntity
  8
DEFPOINTS
  6
BYBLOCK
 62
     0
100
AcDbPoint
 10
-341.213063
 20
322.366473
 30
0.0
  0
ENDBLK
  5
527
100
AcDbEntity
  8
0
100
AcDbBlockEnd
  0
BLOCK
  5
533
100
AcDbEntity
  8
0
100
AcDbBlockBegin
  2
*D18
 70
    65
 10
0.0
 20
0.0
 30
0.0
  3
*D18
  1

  0
LINE
  5
529
100
AcDbEntity
  8
0
  6
BYBLOCK
 62
     0
100
AcDbLine
 10
-363.231024
 20
235.433608
 30
0.0
 11
-363.231024
 21
254.068411
 31
0.0
  0
LINE
  5
52A
100
AcDbEntity
  8
0
  6
BYBLOCK
 62
     0
100
AcDbLine
 10
-346.213063
 20
241.863598
 30
0.0
 11
-346.213063
 21
254.068411
 31
0.0
  0
LINE
  5
52B
100
AcDbEntity
  8
0
  6
BYBLOCK
 62
     0
100
AcDbLine
 10
-364.581024
 20
252.718411
 30
0.0
 11
-365.931024
 21
252.718411
 31
0.0
  0
LINE
  5
52C
100
AcDbEntity
  8
0
  6
BYBLOCK
 62
     0
100
AcDbLine
 10
-344.863063
 20
252.718411
 30
0.0
 11
-343.513063
 21
252.718411
 31
0.0
  0
SOLID
  5
52D
100
AcDbEntity
  8
0
  6
BYBLOCK
 62
     0
100
AcDbTrace
 10
-364.581024
 20
252.943411
 30
0.0
 11
-364.581024
 21
252.493411
 31
0.0
 12
-363.231024
 22
252.718411
 32
0.0
 13
-363.231024
 23
252.718411
 33
0.0
  0
SOLID
  5
52E
100
AcDbEntity
  8
0
  6
BYBLOCK
 62
     0
100
AcDbTrace
 10
-344.863063
 20
252.943411
 30
0.0
 11
-344.863063
 21
252.493411
 31
0.0
 12
-346.213063
 22
252.718411
 32
0.0
 13
-346.213063
 23
252.718411
 33
0.0
  0
MTEXT
  5
52F
100
AcDbEntity
  8
0
  6
BYBLOCK
 62
     0
100
AcDbMText
 10
-328.588063
 20
252.718411
 30
0.0
 40
2.25
 41
0.0
 71
     5
 72
     1
  1
\A1;17.02mm[0.670"]
  0
POINT
  5
530
100
AcDbEntity
  8
DEFPOINTS
  6
BYBLOCK
 62
     0
100
AcDbPoint
 10
-363.231024
 20
234.964858
 30
0.0
  0
POINT
  5
531
100
AcDbEntity
  8
DEFPOINTS
  6
BYBLOCK
 62
     0
100
AcDbPoint
 10
-346.213063
 20
241.394848
 30
0.0
  0
POINT
  5
532
100
AcDbEntity
  8
DEFPOINTS
  6
BYBLOCK
 62
     0
100
AcDbPoint
 10
-346.213063
 20
252.718411
 30
0.0
  0
ENDBLK
  5
534
100
AcDbEntity
  8
0
100
AcDbBlockEnd
  0
BLOCK
  5
540
100
AcDbEntity
  8
0
100
AcDbBlockBegin
  2
*D19
 70
    65
 10
0.0
 20
0.0
 30
0.0
  3
*D19
  1

  0
LINE
  5
536
100
AcDbEntity
  8
0
  6
BYBLOCK
 62
     0
100
AcDbLine
 10
-346.975063
 20
233.414937
 30
0.0
 11
-346.975063
 21
238.536519
 31
0.0
  0
LINE
  5
537
100
AcDbEntity
  8
0
  6
BYBLOCK
 62
     0
100
AcDbLine
 10
-341.975063
 20
232.714937
 30
0.0
 11
-341.975063
 21
238.536519
 31
0.0
  0
LINE
  5
538
100
AcDbEntity
  8
0
  6
BYBLOCK
 62
     0
100
AcDbLine
 10
-348.325063
 20
237.186519
 30
0.0
 11
-349.675063
 21
237.186519
 31
0.0
  0
LINE
  5
539
100
AcDbEntity
  8
0
  6
BYBLOCK
 62
     0
100
AcDbLine
 10
-340.625063
 20
237.186519
 30
0.0
 11
-339.275063
 21
237.186519
 31
0.0
  0
SOLID
  5
53A
100
AcDbEntity
  8
0
  6
BYBLOCK
 62
     0
100
AcDbTrace
 10
-348.325063
 20
237.411519
 30
0.0
 11
-348.325063
 21
236.961519
 31
0.0
 12
-346.975063
 22
237.186519
 32
0.0
 13
-346.975063
 23
237.186519
 33
0.0
  0
SOLID
  5
53B
100
AcDbEntity
  8
0
  6
BYBLOCK
 62
     0
100
AcDbTrace
 10
-340.625063
 20
237.411519
 30
0.0
 11
-340.625063
 21
236.961519
 31
0.0
 12
-341.975063
 22
237.186519
 32
0.0
 13
-341.975063
 23
237.186519
 33
0.0
  0
MTEXT
  5
53C
100
AcDbEntity
  8
0
  6
BYBLOCK
 62
     0
100
AcDbMText
 10
-325.475063
 20
237.186519
 30
0.0
 40
2.25
 41
0.0
 71
     5
 72
     1
  1
\A1;5.00mm[0.197"]
  0
POINT
  5
53D
100
AcDbEntity
  8
DEFPOINTS
  6
BYBLOCK
 62
     0
100
AcDbPoint
 10
-346.975063
 20
232.946187
 30
0.0
  0
POINT
  5
53E
100
AcDbEntity
  8
DEFPOINTS
  6
BYBLOCK
 62
     0
100
AcDbPoint
 10
-341.975063
 20
232.246187
 30
0.0
  0
POINT
  5
53F
100
AcDbEntity
  8
DEFPOINTS
  6
BYBLOCK
 62
     0
100
AcDbPoint
 10
-341.975063
 20
237.186519
 30
0.0
  0
ENDBLK
  5
541
100
AcDbEntity
  8
0
100
AcDbBlockEnd
  0
BLOCK
  5
54D
100
AcDbEntity
  8
0
100
AcDbBlockBegin
  2
*D20
 70
    65
 10
0.0
 20
0.0
 30
0.0
  3
*D20
  1

  0
LINE
  5
543
100
AcDbEntity
  8
0
  6
BYBLOCK
 62
     0
100
AcDbLine
 10
-363.231024
 20
238.144927
 30
0.0
 11
-363.231024
 21
243.366318
 31
0.0
  0
LINE
  5
544
100
AcDbEntity
  8
0
  6
BYBLOCK
 62
     0
100
AcDbLine
 10
-423.831024
 20
233.144927
 30
0.0
 11
-423.831024
 21
243.366318
 31
0.0
  0
LINE
  5
545
100
AcDbEntity
  8
0
  6
BYBLOCK
 62
     0
100
AcDbLine
 10
-364.581024
 20
242.016318
 30
0.0
 11
-378.231024
 21
242.016318
 31
0.0
  0
LINE
  5
546
100
AcDbEntity
  8
0
  6
BYBLOCK
 62
     0
100
AcDbLine
 10
-422.481024
 20
242.016318
 30
0.0
 11
-408.831024
 21
242.016318
 31
0.0
  0
SOLID
  5
547
100
AcDbEntity
  8
0
  6
BYBLOCK
 62
     0
100
AcDbTrace
 10
-364.581024
 20
242.241318
 30
0.0
 11
-364.581024
 21
241.791318
 31
0.0
 12
-363.231024
 22
242.016318
 32
0.0
 13
-363.231024
 23
242.016318
 33
0.0
  0
SOLID
  5
548
100
AcDbEntity
  8
0
  6
BYBLOCK
 62
     0
100
AcDbTrace
 10
-422.481024
 20
242.241318
 30
0.0
 11
-422.481024
 21
241.791318
 31
0.0
 12
-423.831024
 22
242.016318
 32
0.0
 13
-423.831024
 23
242.016318
 33
0.0
  0
MTEXT
  5
549
100
AcDbEntity
  8
0
  6
BYBLOCK
 62
     0
100
AcDbMText
 10
-393.531024
 20
242.016318
 30
0.0
 40
2.25
 41
0.0
 71
     5
 72
     1
  1
\A1;60.60mm[2.386"]
  0
POINT
  5
54A
100
AcDbEntity
  8
DEFPOINTS
  6
BYBLOCK
 62
     0
100
AcDbPoint
 10
-363.231024
 20
237.676177
 30
0.0
  0
POINT
  5
54B
100
AcDbEntity
  8
DEFPOINTS
  6
BYBLOCK
 62
     0
100
AcDbPoint
 10
-423.831024
 20
232.676177
 30
0.0
  0
POINT
  5
54C
100
AcDbEntity
  8
DEFPOINTS
  6
BYBLOCK
 62
     0
100
AcDbPoint
 10
-423.831024
 20
242.016318
 30
0.0
  0
ENDBLK
  5
54E
100
AcDbEntity
  8
0
100
AcDbBlockEnd
  0
BLOCK
  5
55A
100
AcDbEntity
  8
0
100
AcDbBlockBegin
  2
*D21
 70
    65
 10
0.0
 20
0.0
 30
0.0
  3
*D21
  1

  0
LINE
  5
550
100
AcDbEntity
  8
0
  6
BYBLOCK
 62
     0
100
AcDbLine
 10
-363.231024
 20
238.144927
 30
0.0
 11
-363.231024
 21
248.598598
 31
0.0
  0
LINE
  5
551
100
AcDbEntity
  8
0
  6
BYBLOCK
 62
     0
100
AcDbLine
 10
-346.975063
 20
233.414937
 30
0.0
 11
-346.975063
 21
248.598598
 31
0.0
  0
LINE
  5
552
100
AcDbEntity
  8
0
  6
BYBLOCK
 62
     0
100
AcDbLine
 10
-364.581024
 20
247.248598
 30
0.0
 11
-365.931024
 21
247.248598
 31
0.0
  0
LINE
  5
553
100
AcDbEntity
  8
0
  6
BYBLOCK
 62
     0
100
AcDbLine
 10
-345.625063
 20
247.248598
 30
0.0
 11
-344.275063
 21
247.248598
 31
0.0
  0
SOLID
  5
554
100
AcDbEntity
  8
0
  6
BYBLOCK
 62
     0
100
AcDbTrace
 10
-364.581024
 20
247.473598
 30
0.0
 11
-364.581024
 21
247.023598
 31
0.0
 12
-363.231024
 22
247.248598
 32
0.0
 13
-363.231024
 23
247.248598
 33
0.0
  0
SOLID
  5
555
100
AcDbEntity
  8
0
  6
BYBLOCK
 62
     0
100
AcDbTrace
 10
-345.625063
 20
247.473598
 30
0.0
 11
-345.625063
 21
247.023598
 31
0.0
 12
-346.975063
 22
247.248598
 32
0.0
 13
-346.975063
 23
247.248598
 33
0.0
  0
MTEXT
  5
556
100
AcDbEntity
  8
0
  6
BYBLOCK
 62
     0
100
AcDbMText
 10
-329.162563
 20
247.248598
 30
0.0
 40
2.25
 41
0.0
 71
     5
 72
     1
  1
\A1;16.26mm[0.640"]
  0
POINT
  5
557
100
AcDbEntity
  8
DEFPOINTS
  6
BYBLOCK
 62
     0
100
AcDbPoint
 10
-363.231024
 20
237.676177
 30
0.0
  0
POINT
  5
558
100
AcDbEntity
  8
DEFPOINTS
  6
BYBLOCK
 62
     0
100
AcDbPoint
 10
-346.975063
 20
232.946187
 30
0.0
  0
POINT
  5
559
100
AcDbEntity
  8
DEFPOINTS
  6
BYBLOCK
 62
     0
100
AcDbPoint
 10
-346.975063
 20
247.248598
 30
0.0
  0
ENDBLK
  5
55B
100
AcDbEntity
  8
0
100
AcDbBlockEnd
  0
BLOCK
  5
5DA
100
AcDbEntity
  8
0
100
AcDbBlockBegin
  2
*X22
 70
    65
 10
0.0
 20
0.0
 30
0.0
  3
*X22
  1

  0
LINE
  5
55D
100
AcDbEntity
  8
0
 62
     0
100
AcDbLine
 10
-363.231024
 20
191.757629
 30
0.0
 11
-389.889571
 21
218.416177
 31
0.0
  0
LINE
  5
55E
100
AcDbEntity
  8
0
 62
     0
100
AcDbLine
 10
-389.889571
 20
218.416177
 30
0.0
 11
-406.649571
 21
235.176177
 31
0.0
  0
LINE
  5
55F
100
AcDbEntity
  8
0
 62
     0
100
AcDbLine
 10
-364.017338
 20
190.776177
 30
0.0
 11
-391.657338
 21
218.416177
 31
0.0
  0
LINE
  5
560
100
AcDbEntity
  8
0
 62
     0
100
AcDbLine
 10
-391.657338
 20
218.416177
 30
0.0
 11
-408.417338
 21
235.176177
 31
0.0
  0
LINE
  5
561
100
AcDbEntity
  8
0
 62
     0
100
AcDbLine
 10
-365.785105
 20
190.776177
 30
0.0
 11
-393.425105
 21
218.416177
 31
0.0
  0
LINE
  5
562
100
AcDbEntity
  8
0
 62
     0
100
AcDbLine
 10
-393.425105
 20
218.416177
 30
0.0
 11
-410.185105
 21
235.176177
 31
0.0
  0
LINE
  5
563
100
AcDbEntity
  8
0
 62
     0
100
AcDbLine
 10
-367.552872
 20
190.776177
 30
0.0
 11
-395.192872
 21
218.416177
 31
0.0
  0
LINE
  5
564
100
AcDbEntity
  8
0
 62
     0
100
AcDbLine
 10
-395.192872
 20
218.416177
 30
0.0
 11
-411.952872
 21
235.176177
 31
0.0
  0
LINE
  5
565
100
AcDbEntity
  8
0
 62
     0
100
AcDbLine
 10
-369.320639
 20
190.776177
 30
0.0
 11
-396.960639
 21
218.416177
 31
0.0
  0
LINE
  5
566
100
AcDbEntity
  8
0
 62
     0
100
AcDbLine
 10
-396.960639
 20
218.416177
 30
0.0
 11
-413.720639
 21
235.176177
 31
0.0
  0
LINE
  5
567
100
AcDbEntity
  8
0
 62
     0
100
AcDbLine
 10
-371.088406
 20
190.776177
 30
0.0
 11
-398.728406
 21
218.416177
 31
0.0
  0
LINE
  5
568
100
AcDbEntity
  8
0
 62
     0
100
AcDbLine
 10
-398.728406
 20
218.416177
 30
0.0
 11
-415.488406
 21
235.176177
 31
0.0
  0
LINE
  5
569
100
AcDbEntity
  8
0
 62
     0
100
AcDbLine
 10
-372.856173
 20
190.776177
 30
0.0
 11
-400.496173
 21
218.416177
 31
0.0
  0
LINE
  5
56A
100
AcDbEntity
  8
0
 62
     0
100
AcDbLine
 10
-400.496173
 20
218.416177
 30
0.0
 11
-417.256173
 21
235.176177
 31
0.0
  0
LINE
  5
56B
100
AcDbEntity
  8
0
 62
     0
100
AcDbLine
 10
-374.62394
 20
190.776177
 30
0.0
 11
-402.26394
 21
218.416177
 31
0.0
  0
LINE
  5
56C
100
AcDbEntity
  8
0
 62
     0
100
AcDbLine
 10
-402.26394
 20
218.416177
 30
0.0
 11
-419.02394
 21
235.176177
 31
0.0
  0
LINE
  5
56D
100
AcDbEntity
  8
0
 62
     0
100
AcDbLine
 10
-376.391707
 20
190.776177
 30
0.0
 11
-404.031707
 21
218.416177
 31
0.0
  0
LINE
  5
56E
100
AcDbEntity
  8
0
 62
     0
100
AcDbLine
 10
-404.031707
 20
218.416177
 30
0.0
 11
-420.791707
 21
235.176177
 31
0.0
  0
LINE
  5
56F
100
AcDbEntity
  8
0
 62
     0
100
AcDbLine
 10
-378.159474
 20
190.776177
 30
0.0
 11
-405.799474
 21
218.416177
 31
0.0
  0
LINE
  5
570
100
AcDbEntity
  8
0
 62
     0
100
AcDbLine
 10
-405.799474
 20
218.416177
 30
0.0
 11
-422.559474
 21
235.176177
 31
0.0
  0
LINE
  5
571
100
AcDbEntity
  8
0
 62
     0
100
AcDbLine
 10
-379.927241
 20
190.776177
 30
0.0
 11
-407.567241
 21
218.416177
 31
0.0
  0
LINE
  5
572
100
AcDbEntity
  8
0
 62
     0
100
AcDbLine
 10
-407.567241
 20
218.416177
 30
0.0
 11
-423.831024
 21
234.67996
 31
0.0
  0
LINE
  5
573
100
AcDbEntity
  8
0
 62
     0
100
AcDbLine
 10
-381.695008
 20
190.776177
 30
0.0
 11
-409.335008
 21
218.416177
 31
0.0
  0
LINE
  5
574
100
AcDbEntity
  8
0
 62
     0
100
AcDbLine
 10
-409.335008
 20
218.416177
 30
0.0
 11
-423.831024
 21
232.912193
 31
0.0
  0
LINE
  5
575
100
AcDbEntity
  8
0
 62
     0
100
AcDbLine
 10
-383.462775
 20
190.776177
 30
0.0
 11
-411.102775
 21
218.416177
 31
0.0
  0
LINE
  5
576
100
AcDbEntity
  8
0
 62
     0
100
AcDbLine
 10
-411.102775
 20
218.416177
 30
0.0
 11
-423.831024
 21
231.144426
 31
0.0
  0
LINE
  5
577
100
AcDbEntity
  8
0
 62
     0
100
AcDbLine
 10
-385.230542
 20
190.776177
 30
0.0
 11
-412.870542
 21
218.416177
 31
0.0
  0
LINE
  5
578
100
AcDbEntity
  8
0
 62
     0
100
AcDbLine
 10
-412.870542
 20
218.416177
 30
0.0
 11
-423.831024
 21
229.376659
 31
0.0
  0
LINE
  5
579
100
AcDbEntity
  8
0
 62
     0
100
AcDbLine
 10
-386.998309
 20
190.776177
 30
0.0
 11
-414.638309
 21
218.416177
 31
0.0
  0
LINE
  5
57A
100
AcDbEntity
  8
0
 62
     0
100
AcDbLine
 10
-414.638309
 20
218.416177
 30
0.0
 11
-423.831024
 21
227.608892
 31
0.0
  0
LINE
  5
57B
100
AcDbEntity
  8
0
 62
     0
100
AcDbLine
 10
-388.766076
 20
190.776177
 30
0.0
 11
-416.406076
 21
218.416177
 31
0.0
  0
LINE
  5
57C
100
AcDbEntity
  8
0
 62
     0
100
AcDbLine
 10
-416.406076
 20
218.416177
 30
0.0
 11
-423.831024
 21
225.841125
 31
0.0
  0
LINE
  5
57D
100
AcDbEntity
  8
0
 62
     0
100
AcDbLine
 10
-390.533843
 20
190.776177
 30
0.0
 11
-418.173843
 21
218.416177
 31
0.0
  0
LINE
  5
57E
100
AcDbEntity
  8
0
 62
     0
100
AcDbLine
 10
-418.173843
 20
218.416177
 30
0.0
 11
-423.831024
 21
224.073358
 31
0.0
  0
LINE
  5
57F
100
AcDbEntity
  8
0
 62
     0
100
AcDbLine
 10
-392.30161
 20
190.776177
 30
0.0
 11
-419.94161
 21
218.416177
 31
0.0
  0
LINE
  5
580
100
AcDbEntity
  8
0
 62
     0
100
AcDbLine
 10
-419.94161
 20
218.416177
 30
0.0
 11
-423.831024
 21
222.305591
 31
0.0
  0
LINE
  5
581
100
AcDbEntity
  8
0
 62
     0
100
AcDbLine
 10
-394.069376
 20
190.776177
 30
0.0
 11
-421.709376
 21
218.416177
 31
0.0
  0
LINE
  5
582
100
AcDbEntity
  8
0
 62
     0
100
AcDbLine
 10
-421.709376
 20
218.416177
 30
0.0
 11
-423.831024
 21
220.537824
 31
0.0
  0
LINE
  5
583
100
AcDbEntity
  8
0
 62
     0
100
AcDbLine
 10
-395.837143
 20
190.776177
 30
0.0
 11
-423.477143
 21
218.416177
 31
0.0
  0
LINE
  5
584
100
AcDbEntity
  8
0
 62
     0
100
AcDbLine
 10
-423.477143
 20
218.416177
 30
0.0
 11
-423.831024
 21
218.770057
 31
0.0
  0
LINE
  5
585
100
AcDbEntity
  8
0
 62
     0
100
AcDbLine
 10
-397.60491
 20
190.776177
 30
0.0
 11
-423.831024
 21
217.00229
 31
0.0
  0
LINE
  5
586
100
AcDbEntity
  8
0
 62
     0
100
AcDbLine
 10
-399.372677
 20
190.776177
 30
0.0
 11
-423.831024
 21
215.234523
 31
0.0
  0
LINE
  5
587
100
AcDbEntity
  8
0
 62
     0
100
AcDbLine
 10
-401.140444
 20
190.776177
 30
0.0
 11
-423.831024
 21
213.466756
 31
0.0
  0
LINE
  5
588
100
AcDbEntity
  8
0
 62
     0
100
AcDbLine
 10
-402.908211
 20
190.776177
 30
0.0
 11
-423.831024
 21
211.698989
 31
0.0
  0
LINE
  5
589
100
AcDbEntity
  8
0
 62
     0
100
AcDbLine
 10
-404.675978
 20
190.776177
 30
0.0
 11
-423.831024
 21
209.931222
 31
0.0
  0
LINE
  5
58A
100
AcDbEntity
  8
0
 62
     0
100
AcDbLine
 10
-406.443745
 20
190.776177
 30
0.0
 11
-423.831024
 21
208.163455
 31
0.0
  0
LINE
  5
58B
100
AcDbEntity
  8
0
 62
     0
100
AcDbLine
 10
-408.211512
 20
190.776177
 30
0.0
 11
-423.831024
 21
206.395688
 31
0.0
  0
LINE
  5
58C
100
AcDbEntity
  8
0
 62
     0
100
AcDbLine
 10
-409.979279
 20
190.776177
 30
0.0
 11
-423.831024
 21
204.627921
 31
0.0
  0
LINE
  5
58D
100
AcDbEntity
  8
0
 62
     0
100
AcDbLine
 10
-411.747046
 20
190.776177
 30
0.0
 11
-423.831024
 21
202.860154
 31
0.0
  0
LINE
  5
58E
100
AcDbEntity
  8
0
 62
     0
100
AcDbLine
 10
-413.514813
 20
190.776177
 30
0.0
 11
-423.831024
 21
201.092387
 31
0.0
  0
LINE
  5
58F
100
AcDbEntity
  8
0
 62
     0
100
AcDbLine
 10
-415.28258
 20
190.776177
 30
0.0
 11
-423.831024
 21
199.324621
 31
0.0
  0
LINE
  5
590
100
AcDbEntity
  8
0
 62
     0
100
AcDbLine
 10
-417.050347
 20
190.776177
 30
0.0
 11
-423.831024
 21
197.556854
 31
0.0
  0
LINE
  5
591
100
AcDbEntity
  8
0
 62
     0
100
AcDbLine
 10
-418.818114
 20
190.776177
 30
0.0
 11
-423.831024
 21
195.789087
 31
0.0
  0
LINE
  5
592
100
AcDbEntity
  8
0
 62
     0
100
AcDbLine
 10
-420.585881
 20
190.776177
 30
0.0
 11
-423.831024
 21
194.02132
 31
0.0
  0
LINE
  5
593
100
AcDbEntity
  8
0
 62
     0
100
AcDbLine
 10
-422.353648
 20
190.776177
 30
0.0
 11
-423.831024
 21
192.253553
 31
0.0
  0
LINE
  5
594
100
AcDbEntity
  8
0
 62
     0
100
AcDbLine
 10
-363.231024
 20
193.525396
 30
0.0
 11
-388.121804
 21
218.416177
 31
0.0
  0
LINE
  5
595
100
AcDbEntity
  8
0
 62
     0
100
AcDbLine
 10
-388.121804
 20
218.416177
 30
0.0
 11
-404.881804
 21
235.176177
 31
0.0
  0
LINE
  5
596
100
AcDbEntity
  8
0
 62
     0
100
AcDbLine
 10
-363.231024
 20
195.293163
 30
0.0
 11
-386.354037
 21
218.416177
 31
0.0
  0
LINE
  5
597
100
AcDbEntity
  8
0
 62
     0
100
AcDbLine
 10
-386.354037
 20
218.416177
 30
0.0
 11
-403.114037
 21
235.176177
 31
0.0
  0
LINE
  5
598
100
AcDbEntity
  8
0
 62
     0
100
AcDbLine
 10
-363.231024
 20
197.06093
 30
0.0
 11
-384.58627
 21
218.416177
 31
0.0
  0
LINE
  5
599
100
AcDbEntity
  8
0
 62
     0
100
AcDbLine
 10
-384.58627
 20
218.416177
 30
0.0
 11
-401.34627
 21
235.176177
 31
0.0
  0
LINE
  5
59A
100
AcDbEntity
  8
0
 62
     0
100
AcDbLine
 10
-363.231024
 20
198.828697
 30
0.0
 11
-382.818504
 21
218.416177
 31
0.0
  0
LINE
  5
59B
100
AcDbEntity
  8
0
 62
     0
100
AcDbLine
 10
-382.818504
 20
218.416177
 30
0.0
 11
-399.578504
 21
235.176177
 31
0.0
  0
LINE
  5
59C
100
AcDbEntity
  8
0
 62
     0
100
AcDbLine
 10
-363.231024
 20
200.596464
 30
0.0
 11
-381.050737
 21
218.416177
 31
0.0
  0
LINE
  5
59D
100
AcDbEntity
  8
0
 62
     0
100
AcDbLine
 10
-381.050737
 20
218.416177
 30
0.0
 11
-397.810737
 21
235.176177
 31
0.0
  0
LINE
  5
59E
100
AcDbEntity
  8
0
 62
     0
100
AcDbLine
 10
-363.231024
 20
202.364231
 30
0.0
 11
-379.28297
 21
218.416177
 31
0.0
  0
LINE
  5
59F
100
AcDbEntity
  8
0
 62
     0
100
AcDbLine
 10
-379.28297
 20
218.416177
 30
0.0
 11
-396.04297
 21
235.176177
 31
0.0
  0
LINE
  5
5A0
100
AcDbEntity
  8
0
 62
     0
100
AcDbLine
 10
-345.945213
 20
186.846187
 30
0.0
 11
-346.975063
 21
187.876037
 31
0.0
  0
LINE
  5
5A1
100
AcDbEntity
  8
0
 62
     0
100
AcDbLine
 10
-377.515203
 20
218.416177
 30
0.0
 11
-394.275203
 21
235.176177
 31
0.0
  0
LINE
  5
5A2
100
AcDbEntity
  8
0
 62
     0
100
AcDbLine
 10
-363.231024
 20
204.131998
 30
0.0
 11
-377.515203
 21
218.416177
 31
0.0
  0
LINE
  5
5A3
100
AcDbEntity
  8
0
 62
     0
100
AcDbLine
 10
-344.177446
 20
186.846187
 30
0.0
 11
-346.975063
 21
189.643804
 31
0.0
  0
LINE
  5
5A4
100
AcDbEntity
  8
0
 62
     0
100
AcDbLine
 10
-375.747436
 20
218.416177
 30
0.0
 11
-392.507436
 21
235.176177
 31
0.0
  0
LINE
  5
5A5
100
AcDbEntity
  8
0
 62
     0
100
AcDbLine
 10
-363.231024
 20
205.899765
 30
0.0
 11
-375.747436
 21
218.416177
 31
0.0
  0
LINE
  5
5A6
100
AcDbEntity
  8
0
 62
     0
100
AcDbLine
 10
-342.409679
 20
186.846187
 30
0.0
 11
-346.975063
 21
191.411571
 31
0.0
  0
LINE
  5
5A7
100
AcDbEntity
  8
0
 62
     0
100
AcDbLine
 10
-373.979669
 20
218.416177
 30
0.0
 11
-390.739669
 21
235.176177
 31
0.0
  0
LINE
  5
5A8
100
AcDbEntity
  8
0
 62
     0
100
AcDbLine
 10
-363.231024
 20
207.667532
 30
0.0
 11
-373.979669
 21
218.416177
 31
0.0
  0
LINE
  5
5A9
100
AcDbEntity
  8
0
 62
     0
100
AcDbLine
 10
-341.975063
 20
188.179338
 30
0.0
 11
-346.975063
 21
193.179338
 31
0.0
  0
LINE
  5
5AA
100
AcDbEntity
  8
0
 62
     0
100
AcDbLine
 10
-372.211902
 20
218.416177
 30
0.0
 11
-388.971902
 21
235.176177
 31
0.0
  0
LINE
  5
5AB
100
AcDbEntity
  8
0
 62
     0
100
AcDbLine
 10
-363.231024
 20
209.435299
 30
0.0
 11
-372.211902
 21
218.416177
 31
0.0
  0
LINE
  5
5AC
100
AcDbEntity
  8
0
 62
     0
100
AcDbLine
 10
-341.975063
 20
189.947105
 30
0.0
 11
-346.975063
 21
194.947105
 31
0.0
  0
LINE
  5
5AD
100
AcDbEntity
  8
0
 62
     0
100
AcDbLine
 10
-370.444135
 20
218.416177
 30
0.0
 11
-387.204135
 21
235.176177
 31
0.0
  0
LINE
  5
5AE
100
AcDbEntity
  8
0
 62
     0
100
AcDbLine
 10
-363.231024
 20
211.203066
 30
0.0
 11
-370.444135
 21
218.416177
 31
0.0
  0
LINE
  5
5AF
100
AcDbEntity
  8
0
 62
     0
100
AcDbLine
 10
-341.975063
 20
191.714872
 30
0.0
 11
-346.975063
 21
196.714872
 31
0.0
  0
LINE
  5
5B0
100
AcDbEntity
  8
0
 62
     0
100
AcDbLine
 10
-368.676368
 20
218.416177
 30
0.0
 11
-385.436368
 21
235.176177
 31
0.0
  0
LINE
  5
5B1
100
AcDbEntity
  8
0
 62
     0
100
AcDbLine
 10
-363.231024
 20
212.970833
 30
0.0
 11
-368.676368
 21
218.416177
 31
0.0
  0
LINE
  5
5B2
100
AcDbEntity
  8
0
 62
     0
100
AcDbLine
 10
-341.975063
 20
193.482639
 30
0.0
 11
-346.975063
 21
198.482639
 31
0.0
  0
LINE
  5
5B3
100
AcDbEntity
  8
0
 62
     0
100
AcDbLine
 10
-366.908601
 20
218.416177
 30
0.0
 11
-383.668601
 21
235.176177
 31
0.0
  0
LINE
  5
5B4
100
AcDbEntity
  8
0
 62
     0
100
AcDbLine
 10
-363.231024
 20
214.7386
 30
0.0
 11
-366.908601
 21
218.416177
 31
0.0
  0
LINE
  5
5B5
100
AcDbEntity
  8
0
 62
     0
100
AcDbLine
 10
-341.975063
 20
195.250406
 30
0.0
 11
-346.975063
 21
200.250406
 31
0.0
  0
LINE
  5
5B6
100
AcDbEntity
  8
0
 62
     0
100
AcDbLine
 10
-365.140834
 20
218.416177
 30
0.0
 11
-381.900834
 21
235.176177
 31
0.0
  0
LINE
  5
5B7
100
AcDbEntity
  8
0
 62
     0
100
AcDbLine
 10
-363.231024
 20
216.506366
 30
0.0
 11
-365.140834
 21
218.416177
 31
0.0
  0
LINE
  5
5B8
100
AcDbEntity
  8
0
 62
     0
100
AcDbLine
 10
-341.975063
 20
197.018173
 30
0.0
 11
-346.975063
 21
202.018173
 31
0.0
  0
LINE
  5
5B9
100
AcDbEntity
  8
0
 62
     0
100
AcDbLine
 10
-363.373067
 20
218.416177
 30
0.0
 11
-380.133067
 21
235.176177
 31
0.0
  0
LINE
  5
5BA
100
AcDbEntity
  8
0
 62
     0
100
AcDbLine
 10
-363.231024
 20
218.274133
 30
0.0
 11
-363.373067
 21
218.416177
 31
0.0
  0
LINE
  5
5BB
100
AcDbEntity
  8
0
 62
     0
100
AcDbLine
 10
-341.975063
 20
198.78594
 30
0.0
 11
-346.975063
 21
203.78594
 31
0.0
  0
LINE
  5
5BC
100
AcDbEntity
  8
0
 62
     0
100
AcDbLine
 10
-363.231024
 20
220.0419
 30
0.0
 11
-378.3653
 21
235.176177
 31
0.0
  0
LINE
  5
5BD
100
AcDbEntity
  8
0
 62
     0
100
AcDbLine
 10
-341.975063
 20
200.553707
 30
0.0
 11
-346.975063
 21
205.553707
 31
0.0
  0
LINE
  5
5BE
100
AcDbEntity
  8
0
 62
     0
100
AcDbLine
 10
-363.231024
 20
221.809667
 30
0.0
 11
-376.597533
 21
235.176177
 31
0.0
  0
LINE
  5
5BF
100
AcDbEntity
  8
0
 62
     0
100
AcDbLine
 10
-341.975063
 20
202.321474
 30
0.0
 11
-346.975063
 21
207.321474
 31
0.0
  0
LINE
  5
5C0
100
AcDbEntity
  8
0
 62
     0
100
AcDbLine
 10
-363.231024
 20
223.577434
 30
0.0
 11
-374.829766
 21
235.176177
 31
0.0
  0
LINE
  5
5C1
100
AcDbEntity
  8
0
 62
     0
100
AcDbLine
 10
-341.975063
 20
204.089241
 30
0.0
 11
-346.975063
 21
209.089241
 31
0.0
  0
LINE
  5
5C2
100
AcDbEntity
  8
0
 62
     0
100
AcDbLine
 10
-363.231024
 20
225.345201
 30
0.0
 11
-373.061999
 21
235.176177
 31
0.0
  0
LINE
  5
5C3
100
AcDbEntity
  8
0
 62
     0
100
AcDbLine
 10
-341.975063
 20
205.857007
 30
0.0
 11
-346.975063
 21
210.857007
 31
0.0
  0
LINE
  5
5C4
100
AcDbEntity
  8
0
 62
     0
100
AcDbLine
 10
-363.231024
 20
227.112968
 30
0.0
 11
-371.294232
 21
235.176177
 31
0.0
  0
LINE
  5
5C5
100
AcDbEntity
  8
0
 62
     0
100
AcDbLine
 10
-341.975063
 20
207.624774
 30
0.0
 11
-346.975063
 21
212.624774
 31
0.0
  0
LINE
  5
5C6
100
AcDbEntity
  8
0
 62
     0
100
AcDbLine
 10
-363.231024
 20
228.880735
 30
0.0
 11
-369.526465
 21
235.176177
 31
0.0
  0
LINE
  5
5C7
100
AcDbEntity
  8
0
 62
     0
100
AcDbLine
 10
-341.975063
 20
209.392541
 30
0.0
 11
-346.975063
 21
214.392541
 31
0.0
  0
LINE
  5
5C8
100
AcDbEntity
  8
0
 62
     0
100
AcDbLine
 10
-363.231024
 20
230.648502
 30
0.0
 11
-367.758698
 21
235.176177
 31
0.0
  0
LINE
  5
5C9
100
AcDbEntity
  8
0
 62
     0
100
AcDbLine
 10
-341.975063
 20
211.160308
 30
0.0
 11
-346.975063
 21
216.160308
 31
0.0
  0
LINE
  5
5CA
100
AcDbEntity
  8
0
 62
     0
100
AcDbLine
 10
-363.231024
 20
232.416269
 30
0.0
 11
-365.990931
 21
235.176177
 31
0.0
  0
LINE
  5
5CB
100
AcDbEntity
  8
0
 62
     0
100
AcDbLine
 10
-341.975063
 20
212.928075
 30
0.0
 11
-346.975063
 21
217.928075
 31
0.0
  0
LINE
  5
5CC
100
AcDbEntity
  8
0
 62
     0
100
AcDbLine
 10
-363.231024
 20
234.184036
 30
0.0
 11
-364.223164
 21
235.176177
 31
0.0
  0
LINE
  5
5CD
100
AcDbEntity
  8
0
 62
     0
100
AcDbLine
 10
-341.975063
 20
214.695842
 30
0.0
 11
-345.695398
 21
218.416177
 31
0.0
  0
LINE
  5
5CE
100
AcDbEntity
  8
0
 62
     0
100
AcDbLine
 10
-345.695398
 20
218.416177
 30
0.0
 11
-346.975063
 21
219.695842
 31
0.0
  0
LINE
  5
5CF
100
AcDbEntity
  8
0
 62
     0
100
AcDbLine
 10
-341.975063
 20
216.463609
 30
0.0
 11
-343.927631
 21
218.416177
 31
0.0
  0
LINE
  5
5D0
100
AcDbEntity
  8
0
 62
     0
100
AcDbLine
 10
-343.927631
 20
218.416177
 30
0.0
 11
-346.975063
 21
221.463609
 31
0.0
  0
LINE
  5
5D1
100
AcDbEntity
  8
0
 62
     0
100
AcDbLine
 10
-341.975063
 20
218.231376
 30
0.0
 11
-342.159864
 21
218.416177
 31
0.0
  0
LINE
  5
5D2
100
AcDbEntity
  8
0
 62
     0
100
AcDbLine
 10
-342.159864
 20
218.416177
 30
0.0
 11
-346.975063
 21
223.231376
 31
0.0
  0
LINE
  5
5D3
100
AcDbEntity
  8
0
 62
     0
100
AcDbLine
 10
-341.975063
 20
219.999143
 30
0.0
 11
-346.975063
 21
224.999143
 31
0.0
  0
LINE
  5
5D4
100
AcDbEntity
  8
0
 62
     0
100
AcDbLine
 10
-341.975063
 20
221.76691
 30
0.0
 11
-346.975063
 21
226.76691
 31
0.0
  0
LINE
  5
5D5
100
AcDbEntity
  8
0
 62
     0
100
AcDbLine
 10
-341.975063
 20
223.534677
 30
0.0
 11
-346.975063
 21
228.534677
 31
0.0
  0
LINE
  5
5D6
100
AcDbEntity
  8
0
 62
     0
100
AcDbLine
 10
-341.975063
 20
225.302444
 30
0.0
 11
-346.975063
 21
230.302444
 31
0.0
  0
LINE
  5
5D7
100
AcDbEntity
  8
0
 62
     0
100
AcDbLine
 10
-341.975063
 20
227.070211
 30
0.0
 11
-346.975063
 21
232.070211
 31
0.0
  0
LINE
  5
5D8
100
AcDbEntity
  8
0
 62
     0
100
AcDbLine
 10
-341.975063
 20
228.837978
 30
0.0
 11
-345.383272
 21
232.246187
 31
0.0
  0
LINE
  5
5D9
100
AcDbEntity
  8
0
 62
     0
100
AcDbLine
 10
-341.975063
 20
230.605745
 30
0.0
 11
-343.615505
 21
232.246187
 31
0.0
  0
ENDBLK
  5
5DB
100
AcDbEntity
  8
0
100
AcDbBlockEnd
  0
BLOCK
  5
61C
100
AcDbEntity
  8
0
100
AcDbBlockBegin
  2
*X23
 70
    65
 10
0.0
 20
0.0
 30
0.0
  3
*X23
  1

  0
LINE
  5
5DD
100
AcDbEntity
  8
0
 62
     0
100
AcDbLine
 10
-368.231024
 20
278.771681
 30
0.0
 11
-363.231024
 21
283.771681
 31
0.0
  0
LINE
  5
5DE
100
AcDbEntity
  8
0
 62
     0
100
AcDbLine
 10
-346.213063
 20
300.789642
 30
0.0
 11
-341.213063
 21
305.789642
 31
0.0
  0
LINE
  5
5DF
100
AcDbEntity
  8
0
 62
     0
100
AcDbLine
 10
-368.231024
 20
280.539448
 30
0.0
 11
-363.231024
 21
285.539448
 31
0.0
  0
LINE
  5
5E0
100
AcDbEntity
  8
0
 62
     0
100
AcDbLine
 10
-346.213063
 20
302.557409
 30
0.0
 11
-341.213063
 21
307.557409
 31
0.0
  0
LINE
  5
5E1
100
AcDbEntity
  8
0
 62
     0
100
AcDbLine
 10
-368.231024
 20
282.307215
 30
0.0
 11
-364.548658
 21
285.989581
 31
0.0
  0
LINE
  5
5E2
100
AcDbEntity
  8
0
 62
     0
100
AcDbLine
 10
-346.213063
 20
304.325176
 30
0.0
 11
-341.213063
 21
309.325176
 31
0.0
  0
LINE
  5
5E3
100
AcDbEntity
  8
0
 62
     0
100
AcDbLine
 10
-364.548658
 20
285.989581
 30
0.0
 11
-363.231024
 21
287.307215
 31
0.0
  0
LINE
  5
5E4
100
AcDbEntity
  8
0
 62
     0
100
AcDbLine
 10
-368.231024
 20
284.074982
 30
0.0
 11
-366.316425
 21
285.989581
 31
0.0
  0
LINE
  5
5E5
100
AcDbEntity
  8
0
 62
     0
100
AcDbLine
 10
-346.213063
 20
306.092943
 30
0.0
 11
-341.213063
 21
311.092943
 31
0.0
  0
LINE
  5
5E6
100
AcDbEntity
  8
0
 62
     0
100
AcDbLine
 10
-366.316425
 20
285.989581
 30
0.0
 11
-363.231024
 21
289.074982
 31
0.0
  0
LINE
  5
5E7
100
AcDbEntity
  8
0
 62
     0
100
AcDbLine
 10
-368.231024
 20
285.842749
 30
0.0
 11
-368.084192
 21
285.989581
 31
0.0
  0
LINE
  5
5E8
100
AcDbEntity
  8
0
 62
     0
100
AcDbLine
 10
-346.213063
 20
307.86071
 30
0.0
 11
-341.213063
 21
312.86071
 31
0.0
  0
LINE
  5
5E9
100
AcDbEntity
  8
0
 62
     0
100
AcDbLine
 10
-368.084192
 20
285.989581
 30
0.0
 11
-363.231024
 21
290.842749
 31
0.0
  0
LINE
  5
5EA
100
AcDbEntity
  8
0
 62
     0
100
AcDbLine
 10
-368.231024
 20
287.610516
 30
0.0
 11
-363.231024
 21
292.610516
 31
0.0
  0
LINE
  5
5EB
100
AcDbEntity
  8
0
 62
     0
100
AcDbLine
 10
-346.213063
 20
309.628477
 30
0.0
 11
-341.213063
 21
314.628477
 31
0.0
  0
LINE
  5
5EC
100
AcDbEntity
  8
0
 62
     0
100
AcDbLine
 10
-368.231024
 20
289.378283
 30
0.0
 11
-363.231024
 21
294.378283
 31
0.0
  0
LINE
  5
5ED
100
AcDbEntity
  8
0
 62
     0
100
AcDbLine
 10
-346.213063
 20
311.396244
 30
0.0
 11
-341.213063
 21
316.396244
 31
0.0
  0
LINE
  5
5EE
100
AcDbEntity
  8
0
 62
     0
100
AcDbLine
 10
-368.231024
 20
291.14605
 30
0.0
 11
-363.231024
 21
296.14605
 31
0.0
  0
LINE
  5
5EF
100
AcDbEntity
  8
0
 62
     0
100
AcDbLine
 10
-346.213063
 20
313.164011
 30
0.0
 11
-341.817503
 21
317.559571
 31
0.0
  0
LINE
  5
5F0
100
AcDbEntity
  8
0
 62
     0
100
AcDbLine
 10
-368.231024
 20
292.913817
 30
0.0
 11
-363.231024
 21
297.913817
 31
0.0
  0
LINE
  5
5F1
100
AcDbEntity
  8
0
 62
     0
100
AcDbLine
 10
-346.213063
 20
314.931778
 30
0.0
 11
-343.58527
 21
317.559571
 31
0.0
  0
LINE
  5
5F2
100
AcDbEntity
  8
0
 62
     0
100
AcDbLine
 10
-368.231024
 20
294.681584
 30
0.0
 11
-363.231024
 21
299.681584
 31
0.0
  0
LINE
  5
5F3
100
AcDbEntity
  8
0
 62
     0
100
AcDbLine
 10
-346.213063
 20
316.699545
 30
0.0
 11
-345.353037
 21
317.559571
 31
0.0
  0
LINE
  5
5F4
100
AcDbEntity
  8
0
 62
     0
100
AcDbLine
 10
-368.231024
 20
296.449351
 30
0.0
 11
-363.231024
 21
301.449351
 31
0.0
  0
LINE
  5
5F5
100
AcDbEntity
  8
0
 62
     0
100
AcDbLine
 10
-368.231024
 20
298.217118
 30
0.0
 11
-363.231024
 21
303.217118
 31
0.0
  0
LINE
  5
5F6
100
AcDbEntity
  8
0
 62
     0
100
AcDbLine
 10
-368.231024
 20
299.984885
 30
0.0
 11
-363.231024
 21
304.984885
 31
0.0
  0
LINE
  5
5F7
100
AcDbEntity
  8
0
 62
     0
100
AcDbLine
 10
-368.231024
 20
301.752652
 30
0.0
 11
-363.231024
 21
306.752652
 31
0.0
  0
LINE
  5
5F8
100
AcDbEntity
  8
0
 62
     0
100
AcDbLine
 10
-368.231024
 20
303.520419
 30
0.0
 11
-363.231024
 21
308.520419
 31
0.0
  0
LINE
  5
5F9
100
AcDbEntity
  8
0
 62
     0
100
AcDbLine
 10
-368.231024
 20
305.288186
 30
0.0
 11
-363.231024
 21
310.288186
 31
0.0
  0
LINE
  5
5FA
100
AcDbEntity
  8
0
 62
     0
100
AcDbLine
 10
-368.231024
 20
307.055952
 30
0.0
 11
-363.231024
 21
312.055952
 31
0.0
  0
LINE
  5
5FB
100
AcDbEntity
  8
0
 62
     0
100
AcDbLine
 10
-368.231024
 20
308.823719
 30
0.0
 11
-363.425162
 21
313.629581
 31
0.0
  0
LINE
  5
5FC
100
AcDbEntity
  8
0
 62
     0
100
AcDbLine
 10
-368.231024
 20
310.591486
 30
0.0
 11
-365.192929
 21
313.629581
 31
0.0
  0
LINE
  5
5FD
100
AcDbEntity
  8
0
 62
     0
100
AcDbLine
 10
-368.231024
 20
312.359253
 30
0.0
 11
-366.960696
 21
313.629581
 31
0.0
  0
LINE
  5
5FE
100
AcDbEntity
  8
0
 62
     0
100
AcDbLine
 10
-368.231024
 20
277.003914
 30
0.0
 11
-363.231024
 21
282.003914
 31
0.0
  0
LINE
  5
5FF
100
AcDbEntity
  8
0
 62
     0
100
AcDbLine
 10
-346.213063
 20
299.021875
 30
0.0
 11
-341.213063
 21
304.021875
 31
0.0
  0
LINE
  5
600
100
AcDbEntity
  8
0
 62
     0
100
AcDbLine
 10
-368.231024
 20
275.236147
 30
0.0
 11
-363.231024
 21
280.236147
 31
0.0
  0
LINE
  5
601
100
AcDbEntity
  8
0
 62
     0
100
AcDbLine
 10
-346.213063
 20
297.254108
 30
0.0
 11
-341.213063
 21
302.254108
 31
0.0
  0
LINE
  5
602
100
AcDbEntity
  8
0
 62
     0
100
AcDbLine
 10
-368.231024
 20
273.46838
 30
0.0
 11
-363.231024
 21
278.46838
 31
0.0
  0
LINE
  5
603
100
AcDbEntity
  8
0
 62
     0
100
AcDbLine
 10
-346.213063
 20
295.486341
 30
0.0
 11
-341.213063
 21
300.486341
 31
0.0
  0
LINE
  5
604
100
AcDbEntity
  8
0
 62
     0
100
AcDbLine
 10
-368.231024
 20
271.700613
 30
0.0
 11
-363.231024
 21
276.700613
 31
0.0
  0
LINE
  5
605
100
AcDbEntity
  8
0
 62
     0
100
AcDbLine
 10
-346.213063
 20
293.718574
 30
0.0
 11
-341.213063
 21
298.718574
 31
0.0
  0
LINE
  5
606
100
AcDbEntity
  8
0
 62
     0
100
AcDbLine
 10
-368.231024
 20
269.932846
 30
0.0
 11
-363.231024
 21
274.932846
 31
0.0
  0
LINE
  5
607
100
AcDbEntity
  8
0
 62
     0
100
AcDbLine
 10
-346.213063
 20
291.950807
 30
0.0
 11
-341.213063
 21
296.950807
 31
0.0
  0
LINE
  5
608
100
AcDbEntity
  8
0
 62
     0
100
AcDbLine
 10
-367.166522
 20
269.229581
 30
0.0
 11
-363.231024
 21
273.16508
 31
0.0
  0
LINE
  5
609
100
AcDbEntity
  8
0
 62
     0
100
AcDbLine
 10
-346.213063
 20
290.18304
 30
0.0
 11
-341.213063
 21
295.18304
 31
0.0
  0
LINE
  5
60A
100
AcDbEntity
  8
0
 62
     0
100
AcDbLine
 10
-365.398755
 20
269.229581
 30
0.0
 11
-363.231024
 21
271.397313
 31
0.0
  0
LINE
  5
60B
100
AcDbEntity
  8
0
 62
     0
100
AcDbLine
 10
-346.213063
 20
288.415273
 30
0.0
 11
-341.213063
 21
293.415273
 31
0.0
  0
LINE
  5
60C
100
AcDbEntity
  8
0
 62
     0
100
AcDbLine
 10
-363.630988
 20
269.229581
 30
0.0
 11
-363.231024
 21
269.629546
 31
0.0
  0
LINE
  5
60D
100
AcDbEntity
  8
0
 62
     0
100
AcDbLine
 10
-346.213063
 20
286.647506
 30
0.0
 11
-341.213063
 21
291.647506
 31
0.0
  0
LINE
  5
60E
100
AcDbEntity
  8
0
 62
     0
100
AcDbLine
 10
-346.213063
 20
284.879739
 30
0.0
 11
-345.103222
 21
285.989581
 31
0.0
  0
LINE
  5
60F
100
AcDbEntity
  8
0
 62
     0
100
AcDbLine
 10
-345.103222
 20
285.989581
 30
0.0
 11
-341.213063
 21
289.879739
 31
0.0
  0
LINE
  5
610
100
AcDbEntity
  8
0
 62
     0
100
AcDbLine
 10
-346.213063
 20
283.111972
 30
0.0
 11
-343.335455
 21
285.989581
 31
0.0
  0
LINE
  5
611
100
AcDbEntity
  8
0
 62
     0
100
AcDbLine
 10
-343.335455
 20
285.989581
 30
0.0
 11
-341.213063
 21
288.111972
 31
0.0
  0
LINE
  5
612
100
AcDbEntity
  8
0
 62
     0
100
AcDbLine
 10
-346.213063
 20
281.344205
 30
0.0
 11
-341.567688
 21
285.989581
 31
0.0
  0
LINE
  5
613
100
AcDbEntity
  8
0
 62
     0
100
AcDbLine
 10
-341.567688
 20
285.989581
 30
0.0
 11
-341.213063
 21
286.344205
 31
0.0
  0
LINE
  5
614
100
AcDbEntity
  8
0
 62
     0
100
AcDbLine
 10
-346.213063
 20
279.576439
 30
0.0
 11
-341.213063
 21
284.576439
 31
0.0
  0
LINE
  5
615
100
AcDbEntity
  8
0
 62
     0
100
AcDbLine
 10
-346.213063
 20
277.808672
 30
0.0
 11
-341.213063
 21
282.808672
 31
0.0
  0
LINE
  5
616
100
AcDbEntity
  8
0
 62
     0
100
AcDbLine
 10
-346.213063
 20
276.040905
 30
0.0
 11
-341.213063
 21
281.040905
 31
0.0
  0
LINE
  5
617
100
AcDbEntity
  8
0
 62
     0
100
AcDbLine
 10
-346.213063
 20
274.273138
 30
0.0
 11
-341.213063
 21
279.273138
 31
0.0
  0
LINE
  5
618
100
AcDbEntity
  8
0
 62
     0
100
AcDbLine
 10
-346.213063
 20
272.505371
 30
0.0
 11
-341.213063
 21
277.505371
 31
0.0
  0
LINE
  5
619
100
AcDbEntity
  8
0
 62
     0
100
AcDbLine
 10
-344.791096
 20
272.159571
 30
0.0
 11
-341.213063
 21
275.737604
 31
0.0
  0
LINE
  5
61A
100
AcDbEntity
  8
0
 62
     0
100
AcDbLine
 10
-343.023329
 20
272.159571
 30
0.0
 11
-341.213063
 21
273.969837
 31
0.0
  0
LINE
  5
61B
100
AcDbEntity
  8
0
 62
     0
100
AcDbLine
 10
-341.255562
 20
272.159571
 30
0.0
 11
-341.213063
 21
272.20207
 31
0.0
  0
ENDBLK
  5
61D
100
AcDbEntity
  8
0
100
AcDbBlockEnd
  0
BLOCK
  5
62A
100
AcDbEntity
  8
0
100
AcDbBlockBegin
  2
*D24
 70
    65
 10
0.0
 20
0.0
 30
0.0
  3
*D24
  1

  0
LINE
  5
61F
100
AcDbEntity
  8
0
  6
BYBLOCK
 62
     0
100
AcDbLine
 10
-357.762274
 20
190.776177
 30
0.0
 11
-351.080413
 21
190.776177
 31
0.0
  0
LINE
  5
620
100
AcDbEntity
  8
0
  6
BYBLOCK
 62
     0
100
AcDbLine
 10
-362.762274
 20
188.276177
 30
0.0
 11
-351.080413
 21
188.276177
 31
0.0
  0
LINE
  5
621
100
AcDbEntity
  8
0
  6
BYBLOCK
 62
     0
100
AcDbLine
 10
-352.430413
 20
192.126177
 30
0.0
 11
-352.430413
 21
193.476177
 31
0.0
  0
LINE
  5
622
100
AcDbEntity
  8
0
  6
BYBLOCK
 62
     0
100
AcDbLine
 10
-352.430413
 20
186.926177
 30
0.0
 11
-352.430413
 21
185.576177
 31
0.0
  0
LINE
  5
623
100
AcDbEntity
  8
0
  6
BYBLOCK
 62
     0
100
AcDbLine
 10
-352.430413
 20
185.576177
 30
0.0
 11
-353.780413
 21
185.576177
 31
0.0
  0
SOLID
  5
624
100
AcDbEntity
  8
0
  6
BYBLOCK
 62
     0
100
AcDbTrace
 10
-352.655413
 20
192.126177
 30
0.0
 11
-352.205413
 21
192.126177
 31
0.0
 12
-352.430413
 22
190.776177
 32
0.0
 13
-352.430413
 23
190.776177
 33
0.0
  0
SOLID
  5
625
100
AcDbEntity
  8
0
  6
BYBLOCK
 62
     0
100
AcDbTrace
 10
-352.655413
 20
186.926177
 30
0.0
 11
-352.205413
 21
186.926177
 31
0.0
 12
-352.430413
 22
188.276177
 32
0.0
 13
-352.430413
 23
188.276177
 33
0.0
  0
MTEXT
  5
626
100
AcDbEntity
  8
0
  6
BYBLOCK
 62
     0
100
AcDbMText
 10
-367.767913
 20
185.576177
 30
0.0
 40
2.25
 41
0.0
 71
     5
 72
     1
  1
\A1;2.50mm[0.098"]
  0
POINT
  5
627
100
AcDbEntity
  8
DEFPOINTS
  6
BYBLOCK
 62
     0
100
AcDbPoint
 10
-358.231024
 20
190.776177
 30
0.0
  0
POINT
  5
628
100
AcDbEntity
  8
DEFPOINTS
  6
BYBLOCK
 62
     0
100
AcDbPoint
 10
-363.231024
 20
188.276177
 30
0.0
  0
POINT
  5
629
100
AcDbEntity
  8
DEFPOINTS
  6
BYBLOCK
 62
     0
100
AcDbPoint
 10
-352.430413
 20
188.276177
 30
0.0
  0
ENDBLK
  5
62B
100
AcDbEntity
  8
0
100
AcDbBlockEnd
  0
BLOCK
  5
638
100
AcDbEntity
  8
0
100
AcDbBlockBegin
  2
*D25
 70
    65
 10
0.0
 20
0.0
 30
0.0
  3
*D25
  1

  0
LINE
  5
62D
100
AcDbEntity
  8
0
  6
BYBLOCK
 62
     0
100
AcDbLine
 10
-357.762274
 20
269.229581
 30
0.0
 11
-352.165019
 21
269.229581
 31
0.0
  0
LINE
  5
62E
100
AcDbEntity
  8
0
  6
BYBLOCK
 62
     0
100
AcDbLine
 10
-362.762274
 20
266.729581
 30
0.0
 11
-352.165019
 21
266.729581
 31
0.0
  0
LINE
  5
62F
100
AcDbEntity
  8
0
  6
BYBLOCK
 62
     0
100
AcDbLine
 10
-353.515019
 20
270.579581
 30
0.0
 11
-353.515019
 21
271.929581
 31
0.0
  0
LINE
  5
630
100
AcDbEntity
  8
0
  6
BYBLOCK
 62
     0
100
AcDbLine
 10
-353.515019
 20
265.379581
 30
0.0
 11
-353.515019
 21
264.029581
 31
0.0
  0
LINE
  5
631
100
AcDbEntity
  8
0
  6
BYBLOCK
 62
     0
100
AcDbLine
 10
-353.515019
 20
264.029581
 30
0.0
 11
-354.865019
 21
264.029581
 31
0.0
  0
SOLID
  5
632
100
AcDbEntity
  8
0
  6
BYBLOCK
 62
     0
100
AcDbTrace
 10
-353.740019
 20
270.579581
 30
0.0
 11
-353.290019
 21
270.579581
 31
0.0
 12
-353.515019
 22
269.229581
 32
0.0
 13
-353.515019
 23
269.229581
 33
0.0
  0
SOLID
  5
633
100
AcDbEntity
  8
0
  6
BYBLOCK
 62
     0
100
AcDbTrace
 10
-353.740019
 20
265.379581
 30
0.0
 11
-353.290019
 21
265.379581
 31
0.0
 12
-353.515019
 22
266.729581
 32
0.0
 13
-353.515019
 23
266.729581
 33
0.0
  0
MTEXT
  5
634
100
AcDbEntity
  8
0
  6
BYBLOCK
 62
     0
100
AcDbMText
 10
-368.852519
 20
264.029581
 30
0.0
 40
2.25
 41
0.0
 71
     5
 72
     1
  1
\A1;2.50mm[0.098"]
  0
POINT
  5
635
100
AcDbEntity
  8
DEFPOINTS
  6
BYBLOCK
 62
     0
100
AcDbPoint
 10
-358.231024
 20
269.229581
 30
0.0
  0
POINT
  5
636
100
AcDbEntity
  8
DEFPOINTS
  6
BYBLOCK
 62
     0
100
AcDbPoint
 10
-363.231024
 20
266.729581
 30
0.0
  0
POINT
  5
637
100
AcDbEntity
  8
DEFPOINTS
  6
BYBLOCK
 62
     0
100
AcDbPoint
 10
-353.515019
 20
266.729581
 30
0.0
  0
ENDBLK
  5
639
100
AcDbEntity
  8
0
100
AcDbBlockEnd
  0
BLOCK
  5
679
100
AcDbEntity
  8
TEXT
100
AcDbBlockBegin
  2
UPI-L2F
 70
     0
 10
0.0
 20
0.0
 30
0.0
  3
UPI-L2F
  1

  0
LINE
  5
63C
100
AcDbEntity
  8
HIDDEN
100
AcDbLine
 10
0.0
 20
122.853404
 30
0.0
 11
52.6
 21
122.853404
 31
0.0
  0
LINE
  5
63D
100
AcDbEntity
  8
HIDDEN
100
AcDbLine
 10
0.0
 20
83.453404
 30
0.0
 11
52.6
 21
83.453404
 31
0.0
  0
LINE
  5
63E
100
AcDbEntity
  8
L2_
100
AcDbLine
 10
0.0
 20
127.853404
 30
0.0
 11
60.6
 21
127.853404
 31
0.0
  0
LINE
  5
63F
100
AcDbEntity
  8
L2_
100
AcDbLine
 10
0.0
 20
78.453404
 30
0.0
 11
60.6
 21
78.453404
 31
0.0
  0
LINE
  5
640
100
AcDbEntity
  8
L2_
100
AcDbLine
 10
-0.075
 20
78.453404
 30
0.0
 11
-0.075
 21
127.853404
 31
0.0
  0
LINE
  5
641
100
AcDbEntity
  8
L2_
100
AcDbLine
 10
0.0
 20
78.453404
 30
0.0
 11
0.0
 21
127.853404
 31
0.0
  0
INSERT
  5
642
100
AcDbEntity
  8
AIN
100
AcDbBlockReference
  2
HYBR-12
 10
77.617961
 20
83.183394
 30
0.0
  0
INSERT
  5
643
100
AcDbEntity
  8
CENTER
100
AcDbBlockReference
  2
POST-1
 10
100.417961
 20
107.710394
 30
0.0
  0
LINE
  5
644
100
AcDbEntity
  8
HIDDEN
100
AcDbLine
 10
52.6
 20
83.453404
 30
0.0
 11
52.6
 21
122.853404
 31
0.0
  0
LINE
  5
645
100
AcDbEntity
  8
L2_
100
AcDbLine
 10
60.6
 20
78.453404
 30
0.0
 11
60.6
 21
127.853404
 31
0.0
  0
INSERT
  5
646
100
AcDbEntity
  8
CENTER
100
AcDbBlockReference
  2
POST-1
 10
100.417961
 20
89.010394
 30
0.0
  0
LINE
  5
647
100
AcDbEntity
  8
CENTER
100
AcDbLine
 10
-214.373159
 20
97.713404
 30
0.0
 11
141.912009
 21
97.713404
 31
0.0
1001
ACAD
1000
ASC_BOUNDS
1002
{
1070
    19
1005
676
1005
0
1005
0
1005
0
1005
0
1005
0
1005
0
1005
0
1005
0
1005
0
1005
0
1005
0
1005
0
1005
0
1005
0
1005
0
1005
0
1005
0
1005
0
1005
0
1005
0
1005
0
1005
0
1005
0
1005
0
1005
0
1005
676
1005
676
1005
676
1005
0
1005
0
1005
0
1005
0
1005
0
1005
0
1005
0
1005
0
1005
0
1005
0
1005
0
1005
0
1005
0
1005
0
1005
0
1005
0
1005
0
1005
0
1005
0
1005
0
1005
0
1005
0
1005
0
1005
0
1005
0
1005
0
1005
0
1005
0
1005
0
1005
0
1005
0
1005
0
1005
0
1002
}
  0
LINE
  5
648
100
AcDbEntity
  8
UPILEX
100
AcDbLine
 10
60.6
 20
80.953404
 30
0.0
 11
60.6
 21
125.353404
 31
0.0
1001
ACAD
1000
ASC_BOUNDS
1002
{
1070
    19
1005
676
1005
0
1005
0
1005
0
1005
0
1005
0
1005
0
1005
676
1002
}
  0
LINE
  5
649
100
AcDbEntity
  8
UPILEX
100
AcDbLine
 10
60.6
 20
125.353404
 30
0.0
 11
55.6
 21
125.353404
 31
0.0
1001
ACAD
1000
ASC_BOUNDS
1002
{
1070
    19
1005
676
1002
}
  0
LINE
  5
64A
100
AcDbEntity
  8
UPILEX
100
AcDbLine
 10
55.6
 20
125.353404
 30
0.0
 11
55.6
 21
80.953404
 31
0.0
1001
ACAD
1000
ASC_BOUNDS
1002
{
1070
    19
1005
676
1005
0
1005
0
1005
0
1005
0
1005
0
1005
0
1005
676
1002
}
  0
LINE
  5
64B
100
AcDbEntity
  8
UPILEX
100
AcDbLine
 10
55.6
 20
80.953404
 30
0.0
 11
65.6
 21
80.953404
 31
0.0
1001
ACAD
1000
ASC_BOUNDS
1002
{
1070
    19
1005
676
1002
}
  0
LINE
  5
64C
100
AcDbEntity
  8
UPILEX
100
AcDbLine
 10
68.52999
 20
83.883394
 30
0.0
 11
82.617961
 21
83.883394
 31
0.0
1001
ACAD
1000
ASC_BOUNDS
1002
{
1070
    19
1005
676
1002
}
  0
LINE
  5
64D
100
AcDbEntity
  8
UPILEX
100
AcDbLine
 10
82.617961
 20
83.883394
 30
0.0
 11
82.617961
 21
129.283394
 31
0.0
1001
ACAD
1000
ASC_BOUNDS
1002
{
1070
    19
1005
676
1005
0
1005
0
1005
0
1005
0
1005
0
1005
0
1005
676
1002
}
  0
LINE
  5
64E
100
AcDbEntity
  8
UPILEX
100
AcDbLine
 10
82.617961
 20
129.283394
 30
0.0
 11
69.52999
 21
129.283394
 31
0.0
1001
ACAD
1000
ASC_BOUNDS
1002
{
1070
    19
1005
676
1002
}
  0
LINE
  5
64F
100
AcDbEntity
  8
UPILEX
100
AcDbLine
 10
77.617961
 20
129.283394
 30
0.0
 11
77.617961
 21
83.883394
 31
0.0
1001
ACAD
1000
ASC_BOUNDS
1002
{
1070
    19
1005
676
1005
0
1005
0
1005
0
1005
0
1005
0
1005
0
1005
676
1002
}
  0
LINE
  5
650
100
AcDbEntity
  8
UPILEX
100
AcDbLine
 10
60.6
 20
125.353404
 30
0.0
 11
65.6
 21
125.353404
 31
0.0
  0
LINE
  5
651
100
AcDbEntity
  8
UPILEX
100
AcDbLine
 10
65.6
 20
125.353404
 30
0.0
 11
69.52999
 21
129.283394
 31
0.0
  0
DIMENSION
  5
652
100
AcDbEntity
  8
DIM
100
AcDbDimension
  2
*D16
 10
55.6
 20
132.825868
 30
0.0
 11
39.1
 21
132.825868
 31
0.0
 12
423.831024
 22
-112.111454
 32
0.0
  3
STANDARD
100
AcDbAlignedDimension
 13
60.6
 23
122.853404
 33
0.0
 14
55.6
 24
122.853404
 34
0.0
100
AcDbRotatedDimension
1001
ACAD
1000
DSTYLE
1002
{
1070
   140
1040
0.3
1070
   272
1070
     2
1070
    40
1040
7.5
1070
     3
1000
mm
1070
   287
1070
     0
1070
   271
1070
     2
1070
     4
1000
"
1070
   143
1040
0.03937
1070
   171
1070
     3
1070
   170
1070
     1
1002
}
  0
DIMENSION
  5
653
100
AcDbEntity
  8
DIM
100
AcDbDimension
  2
*D17
 10
82.617961
 20
134.090296
 30
0.0
 11
99.117961
 21
134.090296
 31
0.0
 12
423.831024
 22
-188.276177
 32
0.0
  3
STANDARD
100
AcDbAlignedDimension
 13
77.617961
 23
129.283394
 33
0.0
 14
82.617961
 24
129.283394
 34
0.0
100
AcDbRotatedDimension
1001
ACAD
1000
DSTYLE
1002
{
1070
   140
1040
0.3
1070
   272
1070
     2
1070
    40
1040
7.5
1070
     3
1000
mm
1070
   287
1070
     0
1070
   271
1070
     2
1070
     4
1000
"
1070
   143
1040
0.03937
1070
   171
1070
     3
1070
   170
1070
     1
1002
}
  0
DIMENSION
  5
654
100
AcDbEntity
  8
DIM
100
AcDbDimension
  2
*D18
 10
77.617961
 20
140.606957
 30
0.0
 11
95.242961
 21
140.606957
 31
0.0
 12
423.831024
 22
-112.111454
 32
0.0
  3
STANDARD
100
AcDbAlignedDimension
 13
60.6
 23
122.853404
 33
0.0
 14
77.617961
 24
129.283394
 34
0.0
100
AcDbRotatedDimension
1001
ACAD
1000
DSTYLE
1002
{
1070
   140
1040
0.3
1070
   272
1070
     2
1070
    40
1040
7.5
1070
     3
1000
mm
1070
   287
1070
     0
1070
   271
1070
     2
1070
     4
1000
"
1070
   143
1040
0.03937
1070
   171
1070
     3
1070
   170
1070
     1
1002
}
  0
LINE
  5
655
100
AcDbEntity
  8
UPILEX
100
AcDbLine
 10
-0.075
 20
46.9
 30
0.0
 11
-0.075
 21
2.5
 31
0.0
1001
ACAD
1000
ASC_BOUNDS
1002
{
1070
    19
1005
0
1005
0
1005
0
1005
0
1005
0
1005
0
1005
0
1005
0
1005
0
1005
0
1005
0
1002
}
  0
INSERT
  5
656
100
AcDbEntity
  8
AIN
100
AcDbBlockReference
  2
HYBR-12
 10
76.855961
 20
44.67001
 30
0.0
 41
-1.0
 50
180.0
  0
LINE
  5
657
100
AcDbEntity
  8
UPILEX
100
AcDbLine
 10
68.52999
 20
43.97001
 30
0.0
 11
81.855961
 21
43.97001
 31
0.0
1001
ACAD
1000
ASC_BOUNDS
1002
{
1070
    19
1005
675
1002
}
  0
LINE
  5
658
100
AcDbEntity
  8
UPILEX
100
AcDbLine
 10
81.855961
 20
-1.42999
 30
0.0
 11
69.52999
 21
-1.42999
 31
0.0
1001
ACAD
1000
ASC_BOUNDS
1002
{
1070
    19
1005
675
1002
}
  0
LINE
  5
659
100
AcDbEntity
  8
L2_
100
AcDbLine
 10
-0.075
 20
49.4
 30
0.0
 11
-0.075
 21
0.0
 31
0.0
  0
LINE
  5
65A
100
AcDbEntity
  8
L2_
100
AcDbLine
 10
0.0
 20
49.4
 30
0.0
 11
0.0
 21
0.0
 31
0.0
  0
LINE
  5
65B
100
AcDbEntity
  8
HIDDEN
100
AcDbLine
 10
52.6
 20
44.4
 30
0.0
 11
52.6
 21
5.0
 31
0.0
  0
LINE
  5
65C
100
AcDbEntity
  8
L2_
100
AcDbLine
 10
60.6
 20
49.4
 30
0.0
 11
60.6
 21
0.0
 31
0.0
  0
LINE
  5
65D
100
AcDbEntity
  8
UPILEX
100
AcDbLine
 10
60.6
 20
46.9
 30
0.0
 11
60.6
 21
2.5
 31
0.0
1001
ACAD
1000
ASC_BOUNDS
1002
{
1070
    19
1005
675
1005
0
1005
0
1005
0
1005
0
1005
0
1005
0
1005
0
1005
0
1005
0
1005
0
1005
0
1005
675
1002
}
  0
LINE
  5
65E
100
AcDbEntity
  8
UPILEX
100
AcDbLine
 10
0.0
 20
2.5
 30
0.0
 11
0.0
 21
46.9
 31
0.0
1001
ACAD
1000
ASC_BOUNDS
1002
{
1070
    19
1005
675
1005
0
1005
0
1005
0
1005
0
1005
0
1005
0
1005
0
1005
0
1005
0
1005
0
1005
0
1005
675
1002
}
  0
LINE
  5
65F
100
AcDbEntity
  8
UPILEX
100
AcDbLine
 10
76.855961
 20
-1.42999
 30
0.0
 11
76.855961
 21
43.97001
 31
0.0
1001
ACAD
1000
ASC_BOUNDS
1002
{
1070
    19
1005
675
1005
0
1005
0
1005
0
1005
0
1005
0
1005
0
1005
0
1005
0
1005
0
1005
0
1005
0
1005
675
1002
}
  0
LINE
  5
660
100
AcDbEntity
  8
HIDDEN
100
AcDbLine
 10
0.0
 20
44.4
 30
0.0
 11
52.6
 21
44.4
 31
0.0
  0
LINE
  5
661
100
AcDbEntity
  8
L2_
100
AcDbLine
 10
0.0
 20
49.4
 30
0.0
 11
60.6
 21
49.4
 31
0.0
  0
LINE
  5
662
100
AcDbEntity
  8
UPILEX
100
AcDbLine
 10
0.0
 20
46.9
 30
0.0
 11
65.6
 21
46.9
 31
0.0
1001
ACAD
1000
ASC_BOUNDS
1002
{
1070
    19
1005
675
1002
}
  0
LINE
  5
663
100
AcDbEntity
  8
HIDDEN
100
AcDbLine
 10
0.0
 20
5.0
 30
0.0
 11
52.6
 21
5.0
 31
0.0
  0
LINE
  5
664
100
AcDbEntity
  8
L2_
100
AcDbLine
 10
0.0
 20
0.0
 30
0.0
 11
60.6
 21
0.0
 31
0.0
  0
LINE
  5
665
100
AcDbEntity
  8
UPILEX
100
AcDbLine
 10
60.6
 20
2.5
 30
0.0
 11
0.0
 21
2.5
 31
0.0
1001
ACAD
1000
ASC_BOUNDS
1002
{
1070
    19
1005
675
1002
}
  0
LINE
  5
666
100
AcDbEntity
  8
UPILEX
100
AcDbLine
 10
65.6
 20
2.5
 30
0.0
 11
69.52999
 21
-1.42999
 31
0.0
  0
LINE
  5
667
100
AcDbEntity
  8
UPILEX
100
AcDbLine
 10
60.6
 20
2.5
 30
0.0
 11
65.6
 21
2.5
 31
0.0
  0
LINE
  5
668
100
AcDbEntity
  8
UPILEX
100
AcDbLine
 10
81.855961
 20
43.97001
 30
0.0
 11
81.855961
 21
-1.42999
 31
0.0
1001
ACAD
1000
ASC_BOUNDS
1002
{
1070
    19
1005
675
1005
0
1005
0
1005
0
1005
0
1005
0
1005
0
1005
0
1005
0
1005
0
1005
0
1005
0
1005
675
1002
}
  0
INSERT
  5
669
100
AcDbEntity
  8
CENTER
100
AcDbBlockReference
  2
POST-1
 10
99.655961
 20
38.84301
 30
0.0
 41
-1.0
 50
180.0
  0
INSERT
  5
66A
100
AcDbEntity
  8
CENTER
100
AcDbBlockReference
  2
POST-1
 10
99.655961
 20
20.14301
 30
0.0
 41
-1.0
 50
180.0
  0
LINE
  5
66B
100
AcDbEntity
  8
CENTER
100
AcDbLine
 10
-214.373159
 20
30.14
 30
0.0
 11
141.912009
 21
30.14
 31
0.0
1001
ACAD
1000
ASC_BOUNDS
1002
{
1070
    19
1005
675
1005
0
1005
0
1005
0
1005
0
1005
0
1005
0
1005
0
1005
0
1005
0
1005
0
1005
0
1005
0
1005
0
1005
0
1005
0
1005
0
1005
0
1005
0
1005
0
1005
0
1005
0
1005
0
1005
0
1005
0
1005
0
1005
0
1005
0
1005
0
1005
0
1005
0
1005
0
1005
0
1005
0
1005
0
1005
0
1005
0
1005
0
1005
0
1005
0
1005
0
1005
0
1005
0
1005
0
1005
0
1005
0
1005
0
1005
0
1005
0
1005
0
1005
0
1005
0
1005
0
1005
0
1005
0
1005
0
1005
0
1005
0
1005
0
1005
0
1005
0
1005
0
1005
0
1005
0
1005
0
1005
675
1005
675
1005
675
1002
}
  0
DIMENSION
  5
66C
100
AcDbEntity
  8
TEXT
100
AcDbDimension
  2
*D19
 10
81.855961
 20
48.910342
 30
0.0
 11
98.355961
 21
48.910342
 31
0.0
 12
423.831024
 22
-188.276177
 32
0.0
  3
STANDARD
100
AcDbAlignedDimension
 13
76.855961
 23
44.67001
 33
0.0
 14
81.855961
 24
43.97001
 34
0.0
100
AcDbRotatedDimension
1001
ACAD
1000
DSTYLE
1002
{
1070
   140
1040
0.3
1070
   272
1070
     2
1070
    40
1040
7.5
1070
     3
1000
mm
1070
   287
1070
     0
1070
   271
1070
     2
1070
     4
1000
"
1070
   143
1040
0.03937
1070
   171
1070
     3
1070
   170
1070
     1
1002
}
  0
DIMENSION
  5
66D
100
AcDbEntity
  8
TEXT
100
AcDbDimension
  2
*D20
 10
0.0
 20
53.740142
 30
0.0
 11
30.3
 21
53.740142
 31
0.0
 12
423.831024
 22
-188.276177
 32
0.0
  3
STANDARD
100
AcDbAlignedDimension
 13
60.6
 23
49.4
 33
0.0
 14
0.0
 24
44.4
 34
0.0
100
AcDbRotatedDimension
1001
ACAD
1000
DSTYLE
1002
{
1070
   140
1040
0.3
1070
   272
1070
     2
1070
    40
1040
7.5
1070
     3
1000
mm
1070
   287
1070
     0
1070
   271
1070
     2
1070
     4
1000
"
1070
   143
1040
0.03937
1070
   171
1070
     3
1070
   170
1070
     1
1002
}
  0
DIMENSION
  5
66E
100
AcDbEntity
  8
TEXT
100
AcDbDimension
  2
*D21
 10
76.855961
 20
58.972421
 30
0.0
 11
94.668461
 21
58.972421
 31
0.0
 12
423.831024
 22
-188.276177
 32
0.0
  3
STANDARD
100
AcDbAlignedDimension
 13
60.6
 23
49.4
 33
0.0
 14
76.855961
 24
44.67001
 34
0.0
100
AcDbRotatedDimension
1001
ACAD
1000
DSTYLE
1002
{
1070
   140
1040
0.3
1070
   272
1070
     2
1070
    40
1040
7.5
1070
     3
1000
mm
1070
   287
1070
     0
1070
   271
1070
     2
1070
     4
1000
"
1070
   143
1040
0.03937
1070
   171
1070
     3
1070
   170
1070
     1
1002
}
  0
LINE
  5
66F
100
AcDbEntity
  8
UPILEX
100
AcDbLine
 10
65.6
 20
46.9
 30
0.0
 11
68.52999
 21
43.97001
 31
0.0
  0
LINE
  5
670
100
AcDbEntity
  8
UPILEX
100
AcDbLine
 10
65.6
 20
80.953404
 30
0.0
 11
68.52999
 21
83.883394
 31
0.0
  0
TEXT
  5
671
100
AcDbEntity
  8
UPILEX
100
AcDbText
 10
61.311536
 20
22.164613
 30
0.0
 40
1.5
  1
L2 FORWARD
  7
CIM_TB
100
AcDbText
  0
TEXT
  5
672
100
AcDbEntity
  8
UPILEX
100
AcDbText
 10
61.311536
 20
19.736042
 30
0.0
 40
1.5
  1
BOTTOM
  7
CIM_TB
100
AcDbText
  0
TEXT
  5
673
100
AcDbEntity
  8
UPILEX
100
AcDbText
 10
61.311536
 20
103.755867
 30
0.0
 40
1.5
  1
L2 FORWARD
  7
CIM_TB
100
AcDbText
  0
TEXT
  5
674
100
AcDbEntity
  8
UPILEX
100
AcDbText
 10
61.311536
 20
101.327296
 30
0.0
 40
1.5
  1
TOP
  7
CIM_TB
100
AcDbText
  0
INSERT
  5
675
100
AcDbEntity
  8
UPILEX
100
AcDbBlockReference
  2
*X22
 10
423.831024
 20
-188.276177
 30
0.0
1001
ACAD
1000
HATCH
1002
{
1070
    19
1000
ANSI31
1040
10.0
1040
1.570796
1000
ASC_BOUNDS
1070
     4
1070
     1
1070
     4
1005
665
1005
65E
1005
66B
1005
65D
1070
     1
1070
     4
1005
66B
1005
65E
1005
662
1005
65D
1070
     1
1070
     4
1005
66B
1005
65F
1005
657
1005
668
1070
     1
1070
     4
1005
658
1005
65F
1005
66B
1005
668
1000
ASC_SEEDPOINT
1011
47.270726
1021
16.810726
1031
0.0
1002
}
  0
INSERT
  5
676
100
AcDbEntity
  8
UPILEX
100
AcDbBlockReference
  2
*X23
 10
423.831024
 20
-188.276177
 30
0.0
1001
ACAD
1000
HATCH
1002
{
1070
    19
1000
ANSI31
1040
10.0
1040
0.0
1000
ASC_BOUNDS
1070
     4
1070
     1
1070
     4
1005
649
1005
64A
1005
647
1005
648
1070
     1
1070
     4
1005
647
1005
64A
1005
64B
1005
648
1070
     1
1070
     4
1005
647
1005
64F
1005
64C
1005
64D
1070
     1
1070
     4
1005
64E
1005
64F
1005
647
1005
64D
1000
ASC_SEEDPOINT
1011
58.1
1021
92.995504
1031
0.0
1002
}
  0
DIMENSION
  5
677
100
AcDbEntity
  8
DIM
100
AcDbDimension
  2
*D24
 10
71.400611
 20
0.0
 30
0.0
 11
56.063111
 21
-2.7
 31
0.0
 12
423.831024
 22
-188.276177
 32
0.0
  3
STANDARD
100
AcDbAlignedDimension
 13
65.6
 23
2.5
 33
0.0
 14
60.6
 24
0.0
 34
0.0
 50
90.0
100
AcDbRotatedDimension
1001
ACAD
1000
DSTYLE
1002
{
1070
   140
1040
0.3
1070
   272
1070
     2
1070
    40
1040
7.5
1070
     3
1000
mm
1070
   287
1070
     0
1070
   271
1070
     2
1070
     4
1000
"
1070
   143
1040
0.03937
1070
   171
1070
     3
1070
   170
1070
     1
1002
}
  0
DIMENSION
  5
678
100
AcDbEntity
  8
DIM
100
AcDbDimension
  2
*D25
 10
70.316005
 20
78.453404
 30
0.0
 11
54.978505
 21
75.753404
 31
0.0
 12
423.831024
 22
-188.276177
 32
0.0
  3
STANDARD
100
AcDbAlignedDimension
 13
65.6
 23
80.953404
 33
0.0
 14
60.6
 24
78.453404
 34
0.0
 50
90.0
100
AcDbRotatedDimension
1001
ACAD
1000
DSTYLE
1002
{
1070
   140
1040
0.3
1070
   272
1070
     2
1070
    40
1040
7.5
1070
     3
1000
mm
1070
   287
1070
     0
1070
   271
1070
     2
1070
     4
1000
"
1070
   143
1040
0.03937
1070
   171
1070
     3
1070
   170
1070
     1
1002
}
  0
ENDBLK
  5
67A
100
AcDbEntity
  8
TEXT
100
AcDbBlockEnd
  0
BLOCK
  5
962
100
AcDbEntity
  8
0
100
AcDbBlockBegin
  2
*D27
 70
    65
 10
0.0
 20
0.0
 30
0.0
  3
*D27
  1

  0
LINE
  5
958
100
AcDbEntity
  8
0
  6
BYBLOCK
 62
     0
100
AcDbLine
 10
-533.061024
 20
148.806798
 30
0.0
 11
-533.061024
 21
158.894488
 31
0.0
  0
LINE
  5
959
100
AcDbEntity
  8
0
  6
BYBLOCK
 62
     0
100
AcDbLine
 10
-528.061024
 20
148.806798
 30
0.0
 11
-528.061024
 21
158.894488
 31
0.0
  0
LINE
  5
95A
100
AcDbEntity
  8
0
  6
BYBLOCK
 62
     0
100
AcDbLine
 10
-534.411024
 20
157.544488
 30
0.0
 11
-535.761024
 21
157.544488
 31
0.0
  0
LINE
  5
95B
100
AcDbEntity
  8
0
  6
BYBLOCK
 62
     0
100
AcDbLine
 10
-526.711024
 20
157.544488
 30
0.0
 11
-525.361024
 21
157.544488
 31
0.0
  0
SOLID
  5
95C
100
AcDbEntity
  8
0
  6
BYBLOCK
 62
     0
100
AcDbTrace
 10
-534.411024
 20
157.769488
 30
0.0
 11
-534.411024
 21
157.319488
 31
0.0
 12
-533.061024
 22
157.544488
 32
0.0
 13
-533.061024
 23
157.544488
 33
0.0
  0
SOLID
  5
95D
100
AcDbEntity
  8
0
  6
BYBLOCK
 62
     0
100
AcDbTrace
 10
-526.711024
 20
157.769488
 30
0.0
 11
-526.711024
 21
157.319488
 31
0.0
 12
-528.061024
 22
157.544488
 32
0.0
 13
-528.061024
 23
157.544488
 33
0.0
  0
MTEXT
  5
95E
100
AcDbEntity
  8
0
  6
BYBLOCK
 62
     0
100
AcDbMText
 10
-511.561024
 20
157.544488
 30
0.0
 40
2.25
 41
0.0
 71
     5
 72
     1
  1
\A1;5.00mm[0.197"]
  0
POINT
  5
95F
100
AcDbEntity
  8
DEFPOINTS
  6
BYBLOCK
 62
     0
100
AcDbPoint
 10
-533.061024
 20
148.338048
 30
0.0
  0
POINT
  5
960
100
AcDbEntity
  8
DEFPOINTS
  6
BYBLOCK
 62
     0
100
AcDbPoint
 10
-528.061024
 20
148.338048
 30
0.0
  0
POINT
  5
961
100
AcDbEntity
  8
DEFPOINTS
  6
BYBLOCK
 62
     0
100
AcDbPoint
 10
-528.061024
 20
157.544488
 30
0.0
  0
ENDBLK
  5
963
100
AcDbEntity
  8
0
100
AcDbBlockEnd
  0
BLOCK
  5
96F
100
AcDbEntity
  8
0
100
AcDbBlockBegin
  2
*D28
 70
    65
 10
0.0
 20
0.0
 30
0.0
  3
*D28
  1

  0
LINE
  5
965
100
AcDbEntity
  8
0
  6
BYBLOCK
 62
     0
100
AcDbLine
 10
-568.417817
 20
161.056798
 30
0.0
 11
-568.417817
 21
166.912872
 31
0.0
  0
LINE
  5
966
100
AcDbEntity
  8
0
  6
BYBLOCK
 62
     0
100
AcDbLine
 10
-573.417817
 20
161.056798
 30
0.0
 11
-573.417817
 21
166.912872
 31
0.0
  0
LINE
  5
967
100
AcDbEntity
  8
0
  6
BYBLOCK
 62
     0
100
AcDbLine
 10
-567.067817
 20
165.562872
 30
0.0
 11
-565.717817
 21
165.562872
 31
0.0
  0
LINE
  5
968
100
AcDbEntity
  8
0
  6
BYBLOCK
 62
     0
100
AcDbLine
 10
-574.767817
 20
165.562872
 30
0.0
 11
-576.117817
 21
165.562872
 31
0.0
  0
SOLID
  5
969
100
AcDbEntity
  8
0
  6
BYBLOCK
 62
     0
100
AcDbTrace
 10
-567.067817
 20
165.787872
 30
0.0
 11
-567.067817
 21
165.337872
 31
0.0
 12
-568.417817
 22
165.562872
 32
0.0
 13
-568.417817
 23
165.562872
 33
0.0
  0
SOLID
  5
96A
100
AcDbEntity
  8
0
  6
BYBLOCK
 62
     0
100
AcDbTrace
 10
-574.767817
 20
165.787872
 30
0.0
 11
-574.767817
 21
165.337872
 31
0.0
 12
-573.417817
 22
165.562872
 32
0.0
 13
-573.417817
 23
165.562872
 33
0.0
  0
MTEXT
  5
96B
100
AcDbEntity
  8
0
  6
BYBLOCK
 62
     0
100
AcDbMText
 10
-589.917817
 20
165.562872
 30
0.0
 40
2.25
 41
0.0
 71
     5
 72
     1
  1
\A1;5.00mm[0.197"]
  0
POINT
  5
96C
100
AcDbEntity
  8
DEFPOINTS
  6
BYBLOCK
 62
     0
100
AcDbPoint
 10
-568.417817
 20
160.588048
 30
0.0
  0
POINT
  5
96D
100
AcDbEntity
  8
DEFPOINTS
  6
BYBLOCK
 62
     0
100
AcDbPoint
 10
-573.417817
 20
160.588048
 30
0.0
  0
POINT
  5
96E
100
AcDbEntity
  8
DEFPOINTS
  6
BYBLOCK
 62
     0
100
AcDbPoint
 10
-573.417817
 20
165.562872
 30
0.0
  0
ENDBLK
  5
970
100
AcDbEntity
  8
0
100
AcDbBlockEnd
  0
BLOCK
  5
97C
100
AcDbEntity
  8
0
100
AcDbBlockBegin
  2
*D29
 70
    65
 10
0.0
 20
0.0
 30
0.0
  3
*D29
  1

  0
LINE
  5
972
100
AcDbEntity
  8
0
  6
BYBLOCK
 62
     0
100
AcDbLine
 10
-568.417817
 20
161.056798
 30
0.0
 11
-568.417817
 21
175.067162
 31
0.0
  0
LINE
  5
973
100
AcDbEntity
  8
0
  6
BYBLOCK
 62
     0
100
AcDbLine
 10
-533.061024
 20
148.806798
 30
0.0
 11
-533.061024
 21
175.067162
 31
0.0
  0
LINE
  5
974
100
AcDbEntity
  8
0
  6
BYBLOCK
 62
     0
100
AcDbLine
 10
-567.067817
 20
173.717162
 30
0.0
 11
-566.22692
 21
173.717162
 31
0.0
  0
LINE
  5
975
100
AcDbEntity
  8
0
  6
BYBLOCK
 62
     0
100
AcDbLine
 10
-534.411024
 20
173.717162
 30
0.0
 11
-535.25192
 21
173.717162
 31
0.0
  0
SOLID
  5
976
100
AcDbEntity
  8
0
  6
BYBLOCK
 62
     0
100
AcDbTrace
 10
-567.067817
 20
173.942162
 30
0.0
 11
-567.067817
 21
173.492162
 31
0.0
 12
-568.417817
 22
173.717162
 32
0.0
 13
-568.417817
 23
173.717162
 33
0.0
  0
SOLID
  5
977
100
AcDbEntity
  8
0
  6
BYBLOCK
 62
     0
100
AcDbTrace
 10
-534.411024
 20
173.942162
 30
0.0
 11
-534.411024
 21
173.492162
 31
0.0
 12
-533.061024
 22
173.717162
 32
0.0
 13
-533.061024
 23
173.717162
 33
0.0
  0
MTEXT
  5
978
100
AcDbEntity
  8
0
  6
BYBLOCK
 62
     0
100
AcDbMText
 10
-550.73942
 20
173.717162
 30
0.0
 40
2.25
 41
0.0
 71
     5
 72
     1
  1
\A1;35.36mm[1.392"]
  0
POINT
  5
979
100
AcDbEntity
  8
DEFPOINTS
  6
BYBLOCK
 62
     0
100
AcDbPoint
 10
-568.417817
 20
160.588048
 30
0.0
  0
POINT
  5
97A
100
AcDbEntity
  8
DEFPOINTS
  6
BYBLOCK
 62
     0
100
AcDbPoint
 10
-533.061024
 20
148.338048
 30
0.0
  0
POINT
  5
97B
100
AcDbEntity
  8
DEFPOINTS
  6
BYBLOCK
 62
     0
100
AcDbPoint
 10
-533.061024
 20
173.717162
 30
0.0
  0
ENDBLK
  5
97D
100
AcDbEntity
  8
0
100
AcDbBlockEnd
  0
BLOCK
  5
989
100
AcDbEntity
  8
0
100
AcDbBlockBegin
  2
*D30
 70
    65
 10
0.0
 20
0.0
 30
0.0
  3
*D30
  1

  0
LINE
  5
97F
100
AcDbEntity
  8
0
  6
BYBLOCK
 62
     0
100
AcDbLine
 10
-533.061024
 20
87.014238
 30
0.0
 11
-533.061024
 21
96.65914
 31
0.0
  0
LINE
  5
980
100
AcDbEntity
  8
0
  6
BYBLOCK
 62
     0
100
AcDbLine
 10
-419.829441
 20
87.014238
 30
0.0
 11
-419.829441
 21
96.65914
 31
0.0
  0
LINE
  5
981
100
AcDbEntity
  8
0
  6
BYBLOCK
 62
     0
100
AcDbLine
 10
-531.711024
 20
95.30914
 30
0.0
 11
-492.870232
 21
95.30914
 31
0.0
  0
LINE
  5
982
100
AcDbEntity
  8
0
  6
BYBLOCK
 62
     0
100
AcDbLine
 10
-421.179441
 20
95.30914
 30
0.0
 11
-460.020232
 21
95.30914
 31
0.0
  0
SOLID
  5
983
100
AcDbEntity
  8
0
  6
BYBLOCK
 62
     0
100
AcDbTrace
 10
-531.711024
 20
95.53414
 30
0.0
 11
-531.711024
 21
95.08414
 31
0.0
 12
-533.061024
 22
95.30914
 32
0.0
 13
-533.061024
 23
95.30914
 33
0.0
  0
SOLID
  5
984
100
AcDbEntity
  8
0
  6
BYBLOCK
 62
     0
100
AcDbTrace
 10
-421.179441
 20
95.53414
 30
0.0
 11
-421.179441
 21
95.08414
 31
0.0
 12
-419.829441
 22
95.30914
 32
0.0
 13
-419.829441
 23
95.30914
 33
0.0
  0
MTEXT
  5
985
100
AcDbEntity
  8
0
  6
BYBLOCK
 62
     0
100
AcDbMText
 10
-476.445232
 20
95.30914
 30
0.0
 40
2.25
 41
0.0
 71
     5
 72
     1
  1
\A1;113.23mm[4.458"]
  0
POINT
  5
986
100
AcDbEntity
  8
DEFPOINTS
  6
BYBLOCK
 62
     0
100
AcDbPoint
 10
-533.061024
 20
86.545488
 30
0.0
  0
POINT
  5
987
100
AcDbEntity
  8
DEFPOINTS
  6
BYBLOCK
 62
     0
100
AcDbPoint
 10
-419.829441
 20
86.545488
 30
0.0
  0
POINT
  5
988
100
AcDbEntity
  8
DEFPOINTS
  6
BYBLOCK
 62
     0
100
AcDbPoint
 10
-419.829441
 20
95.30914
 30
0.0
  0
ENDBLK
  5
98A
100
AcDbEntity
  8
0
100
AcDbBlockEnd
  0
BLOCK
  5
996
100
AcDbEntity
  8
0
100
AcDbBlockBegin
  2
*D31
 70
    65
 10
0.0
 20
0.0
 30
0.0
  3
*D31
  1

  0
LINE
  5
98C
100
AcDbEntity
  8
0
  6
BYBLOCK
 62
     0
100
AcDbLine
 10
-568.062217
 20
88.884238
 30
0.0
 11
-568.062217
 21
94.771684
 31
0.0
  0
LINE
  5
98D
100
AcDbEntity
  8
0
  6
BYBLOCK
 62
     0
100
AcDbLine
 10
-573.062217
 20
88.783607
 30
0.0
 11
-573.062217
 21
94.771684
 31
0.0
  0
LINE
  5
98E
100
AcDbEntity
  8
0
  6
BYBLOCK
 62
     0
100
AcDbLine
 10
-566.712217
 20
93.421684
 30
0.0
 11
-565.362217
 21
93.421684
 31
0.0
  0
LINE
  5
98F
100
AcDbEntity
  8
0
  6
BYBLOCK
 62
     0
100
AcDbLine
 10
-574.412217
 20
93.421684
 30
0.0
 11
-575.762217
 21
93.421684
 31
0.0
  0
SOLID
  5
990
100
AcDbEntity
  8
0
  6
BYBLOCK
 62
     0
100
AcDbTrace
 10
-566.712217
 20
93.646684
 30
0.0
 11
-566.712217
 21
93.196684
 31
0.0
 12
-568.062217
 22
93.421684
 32
0.0
 13
-568.062217
 23
93.421684
 33
0.0
  0
SOLID
  5
991
100
AcDbEntity
  8
0
  6
BYBLOCK
 62
     0
100
AcDbTrace
 10
-574.412217
 20
93.646684
 30
0.0
 11
-574.412217
 21
93.196684
 31
0.0
 12
-573.062217
 22
93.421684
 32
0.0
 13
-573.062217
 23
93.421684
 33
0.0
  0
MTEXT
  5
992
100
AcDbEntity
  8
0
  6
BYBLOCK
 62
     0
100
AcDbMText
 10
-589.562217
 20
93.421684
 30
0.0
 40
2.25
 41
0.0
 71
     5
 72
     1
  1
\A1;5.00mm[0.197"]
  0
POINT
  5
993
100
AcDbEntity
  8
DEFPOINTS
  6
BYBLOCK
 62
     0
100
AcDbPoint
 10
-568.062217
 20
88.415488
 30
0.0
  0
POINT
  5
994
100
AcDbEntity
  8
DEFPOINTS
  6
BYBLOCK
 62
     0
100
AcDbPoint
 10
-573.062217
 20
88.314857
 30
0.0
  0
POINT
  5
995
100
AcDbEntity
  8
DEFPOINTS
  6
BYBLOCK
 62
     0
100
AcDbPoint
 10
-573.062217
 20
93.421684
 30
0.0
  0
ENDBLK
  5
997
100
AcDbEntity
  8
0
100
AcDbBlockEnd
  0
BLOCK
  5
9A3
100
AcDbEntity
  8
0
100
AcDbBlockBegin
  2
*D32
 70
    65
 10
0.0
 20
0.0
 30
0.0
  3
*D32
  1

  0
LINE
  5
999
100
AcDbEntity
  8
0
  6
BYBLOCK
 62
     0
100
AcDbLine
 10
-568.062217
 20
88.884238
 30
0.0
 11
-568.062217
 21
104.397712
 31
0.0
  0
LINE
  5
99A
100
AcDbEntity
  8
0
  6
BYBLOCK
 62
     0
100
AcDbLine
 10
-533.061024
 20
87.482988
 30
0.0
 11
-533.061024
 21
104.397712
 31
0.0
  0
LINE
  5
99B
100
AcDbEntity
  8
0
  6
BYBLOCK
 62
     0
100
AcDbLine
 10
-566.712217
 20
103.047712
 30
0.0
 11
-565.67412
 21
103.047712
 31
0.0
  0
LINE
  5
99C
100
AcDbEntity
  8
0
  6
BYBLOCK
 62
     0
100
AcDbLine
 10
-534.411024
 20
103.047712
 30
0.0
 11
-535.44912
 21
103.047712
 31
0.0
  0
SOLID
  5
99D
100
AcDbEntity
  8
0
  6
BYBLOCK
 62
     0
100
AcDbTrace
 10
-566.712217
 20
103.272712
 30
0.0
 11
-566.712217
 21
102.822712
 31
0.0
 12
-568.062217
 22
103.047712
 32
0.0
 13
-568.062217
 23
103.047712
 33
0.0
  0
SOLID
  5
99E
100
AcDbEntity
  8
0
  6
BYBLOCK
 62
     0
100
AcDbTrace
 10
-534.411024
 20
103.272712
 30
0.0
 11
-534.411024
 21
102.822712
 31
0.0
 12
-533.061024
 22
103.047712
 32
0.0
 13
-533.061024
 23
103.047712
 33
0.0
  0
MTEXT
  5
99F
100
AcDbEntity
  8
0
  6
BYBLOCK
 62
     0
100
AcDbMText
 10
-550.56162
 20
103.047712
 30
0.0
 40
2.25
 41
0.0
 71
     5
 72
     1
  1
\A1;35.00mm[1.378"]
  0
POINT
  5
9A0
100
AcDbEntity
  8
DEFPOINTS
  6
BYBLOCK
 62
     0
100
AcDbPoint
 10
-568.062217
 20
88.415488
 30
0.0
  0
POINT
  5
9A1
100
AcDbEntity
  8
DEFPOINTS
  6
BYBLOCK
 62
     0
100
AcDbPoint
 10
-533.061024
 20
87.014238
 30
0.0
  0
POINT
  5
9A2
100
AcDbEntity
  8
DEFPOINTS
  6
BYBLOCK
 62
     0
100
AcDbPoint
 10
-533.061024
 20
103.047712
 30
0.0
  0
ENDBLK
  5
9A4
100
AcDbEntity
  8
0
100
AcDbBlockEnd
  0
BLOCK
  5
A17
100
AcDbEntity
  8
0
100
AcDbBlockBegin
  2
*X33
 70
    65
 10
0.0
 20
0.0
 30
0.0
  3
*X33
  1

  0
LINE
  5
9A6
100
AcDbEntity
  8
0
 62
     0
100
AcDbLine
 10
-509.384403
 20
52.765488
 30
0.0
 11
-473.104403
 21
89.045488
 31
0.0
  0
LINE
  5
9A7
100
AcDbEntity
  8
0
 62
     0
100
AcDbLine
 10
-511.15217
 20
52.765488
 30
0.0
 11
-474.87217
 21
89.045488
 31
0.0
  0
LINE
  5
9A8
100
AcDbEntity
  8
0
 62
     0
100
AcDbLine
 10
-512.919937
 20
52.765488
 30
0.0
 11
-476.639937
 21
89.045488
 31
0.0
  0
LINE
  5
9A9
100
AcDbEntity
  8
0
 62
     0
100
AcDbLine
 10
-514.687703
 20
52.765488
 30
0.0
 11
-478.407703
 21
89.045488
 31
0.0
  0
LINE
  5
9AA
100
AcDbEntity
  8
0
 62
     0
100
AcDbLine
 10
-516.45547
 20
52.765488
 30
0.0
 11
-480.17547
 21
89.045488
 31
0.0
  0
LINE
  5
9AB
100
AcDbEntity
  8
0
 62
     0
100
AcDbLine
 10
-518.223237
 20
52.765488
 30
0.0
 11
-481.943237
 21
89.045488
 31
0.0
  0
LINE
  5
9AC
100
AcDbEntity
  8
0
 62
     0
100
AcDbLine
 10
-519.991004
 20
52.765488
 30
0.0
 11
-483.711004
 21
89.045488
 31
0.0
  0
LINE
  5
9AD
100
AcDbEntity
  8
0
 62
     0
100
AcDbLine
 10
-521.758771
 20
52.765488
 30
0.0
 11
-485.478771
 21
89.045488
 31
0.0
  0
LINE
  5
9AE
100
AcDbEntity
  8
0
 62
     0
100
AcDbLine
 10
-523.526538
 20
52.765488
 30
0.0
 11
-487.246538
 21
89.045488
 31
0.0
  0
LINE
  5
9AF
100
AcDbEntity
  8
0
 62
     0
100
AcDbLine
 10
-525.294305
 20
52.765488
 30
0.0
 11
-489.014305
 21
89.045488
 31
0.0
  0
LINE
  5
9B0
100
AcDbEntity
  8
0
 62
     0
100
AcDbLine
 10
-527.062072
 20
52.765488
 30
0.0
 11
-490.782072
 21
89.045488
 31
0.0
  0
LINE
  5
9B1
100
AcDbEntity
  8
0
 62
     0
100
AcDbLine
 10
-528.829839
 20
52.765488
 30
0.0
 11
-492.549839
 21
89.045488
 31
0.0
  0
LINE
  5
9B2
100
AcDbEntity
  8
0
 62
     0
100
AcDbLine
 10
-530.597606
 20
52.765488
 30
0.0
 11
-494.317606
 21
89.045488
 31
0.0
  0
LINE
  5
9B3
100
AcDbEntity
  8
0
 62
     0
100
AcDbLine
 10
-532.365373
 20
52.765488
 30
0.0
 11
-496.085373
 21
89.045488
 31
0.0
  0
LINE
  5
9B4
100
AcDbEntity
  8
0
 62
     0
100
AcDbLine
 10
-533.061024
 20
53.837605
 30
0.0
 11
-497.85314
 21
89.045488
 31
0.0
  0
LINE
  5
9B5
100
AcDbEntity
  8
0
 62
     0
100
AcDbLine
 10
-533.061024
 20
55.605372
 30
0.0
 11
-499.620907
 21
89.045488
 31
0.0
  0
LINE
  5
9B6
100
AcDbEntity
  8
0
 62
     0
100
AcDbLine
 10
-533.061024
 20
57.373139
 30
0.0
 11
-501.388674
 21
89.045488
 31
0.0
  0
LINE
  5
9B7
100
AcDbEntity
  8
0
 62
     0
100
AcDbLine
 10
-533.061024
 20
59.140906
 30
0.0
 11
-503.156441
 21
89.045488
 31
0.0
  0
LINE
  5
9B8
100
AcDbEntity
  8
0
 62
     0
100
AcDbLine
 10
-533.061024
 20
60.908673
 30
0.0
 11
-504.924208
 21
89.045488
 31
0.0
  0
LINE
  5
9B9
100
AcDbEntity
  8
0
 62
     0
100
AcDbLine
 10
-533.061024
 20
62.67644
 30
0.0
 11
-506.691975
 21
89.045488
 31
0.0
  0
LINE
  5
9BA
100
AcDbEntity
  8
0
 62
     0
100
AcDbLine
 10
-533.061024
 20
64.444207
 30
0.0
 11
-508.459742
 21
89.045488
 31
0.0
  0
LINE
  5
9BB
100
AcDbEntity
  8
0
 62
     0
100
AcDbLine
 10
-533.061024
 20
66.211973
 30
0.0
 11
-510.227509
 21
89.045488
 31
0.0
  0
LINE
  5
9BC
100
AcDbEntity
  8
0
 62
     0
100
AcDbLine
 10
-533.061024
 20
67.97974
 30
0.0
 11
-511.995276
 21
89.045488
 31
0.0
  0
LINE
  5
9BD
100
AcDbEntity
  8
0
 62
     0
100
AcDbLine
 10
-533.061024
 20
69.747507
 30
0.0
 11
-513.763043
 21
89.045488
 31
0.0
  0
LINE
  5
9BE
100
AcDbEntity
  8
0
 62
     0
100
AcDbLine
 10
-533.061024
 20
71.515274
 30
0.0
 11
-515.530809
 21
89.045488
 31
0.0
  0
LINE
  5
9BF
100
AcDbEntity
  8
0
 62
     0
100
AcDbLine
 10
-533.061024
 20
73.283041
 30
0.0
 11
-517.298576
 21
89.045488
 31
0.0
  0
LINE
  5
9C0
100
AcDbEntity
  8
0
 62
     0
100
AcDbLine
 10
-533.061024
 20
75.050808
 30
0.0
 11
-519.066343
 21
89.045488
 31
0.0
  0
LINE
  5
9C1
100
AcDbEntity
  8
0
 62
     0
100
AcDbLine
 10
-533.061024
 20
76.818575
 30
0.0
 11
-520.83411
 21
89.045488
 31
0.0
  0
LINE
  5
9C2
100
AcDbEntity
  8
0
 62
     0
100
AcDbLine
 10
-568.631877
 20
43.015488
 30
0.0
 11
-568.062217
 21
43.585149
 31
0.0
  0
LINE
  5
9C3
100
AcDbEntity
  8
0
 62
     0
100
AcDbLine
 10
-533.061024
 20
78.586342
 30
0.0
 11
-522.601877
 21
89.045488
 31
0.0
  0
LINE
  5
9C4
100
AcDbEntity
  8
0
 62
     0
100
AcDbLine
 10
-570.399644
 20
43.015488
 30
0.0
 11
-568.062217
 21
45.352916
 31
0.0
  0
LINE
  5
9C5
100
AcDbEntity
  8
0
 62
     0
100
AcDbLine
 10
-533.061024
 20
80.354109
 30
0.0
 11
-524.369644
 21
89.045488
 31
0.0
  0
LINE
  5
9C6
100
AcDbEntity
  8
0
 62
     0
100
AcDbLine
 10
-572.167411
 20
43.015488
 30
0.0
 11
-568.062217
 21
47.120683
 31
0.0
  0
LINE
  5
9C7
100
AcDbEntity
  8
0
 62
     0
100
AcDbLine
 10
-533.061024
 20
82.121876
 30
0.0
 11
-526.137411
 21
89.045488
 31
0.0
  0
LINE
  5
9C8
100
AcDbEntity
  8
0
 62
     0
100
AcDbLine
 10
-573.062217
 20
43.88845
 30
0.0
 11
-568.062217
 21
48.88845
 31
0.0
  0
LINE
  5
9C9
100
AcDbEntity
  8
0
 62
     0
100
AcDbLine
 10
-533.061024
 20
83.889643
 30
0.0
 11
-527.905178
 21
89.045488
 31
0.0
  0
LINE
  5
9CA
100
AcDbEntity
  8
0
 62
     0
100
AcDbLine
 10
-573.062217
 20
45.656217
 30
0.0
 11
-568.062217
 21
50.656217
 31
0.0
  0
LINE
  5
9CB
100
AcDbEntity
  8
0
 62
     0
100
AcDbLine
 10
-533.061024
 20
85.65741
 30
0.0
 11
-529.672945
 21
89.045488
 31
0.0
  0
LINE
  5
9CC
100
AcDbEntity
  8
0
 62
     0
100
AcDbLine
 10
-573.062217
 20
47.423984
 30
0.0
 11
-568.062217
 21
52.423984
 31
0.0
  0
LINE
  5
9CD
100
AcDbEntity
  8
0
 62
     0
100
AcDbLine
 10
-533.061024
 20
87.425177
 30
0.0
 11
-531.440712
 21
89.045488
 31
0.0
  0
LINE
  5
9CE
100
AcDbEntity
  8
0
 62
     0
100
AcDbLine
 10
-573.062217
 20
49.191751
 30
0.0
 11
-568.062217
 21
54.191751
 31
0.0
  0
LINE
  5
9CF
100
AcDbEntity
  8
0
 62
     0
100
AcDbLine
 10
-573.062217
 20
50.959518
 30
0.0
 11
-568.062217
 21
55.959518
 31
0.0
  0
LINE
  5
9D0
100
AcDbEntity
  8
0
 62
     0
100
AcDbLine
 10
-573.062217
 20
52.727285
 30
0.0
 11
-568.062217
 21
57.727285
 31
0.0
  0
LINE
  5
9D1
100
AcDbEntity
  8
0
 62
     0
100
AcDbLine
 10
-573.062217
 20
54.495052
 30
0.0
 11
-568.062217
 21
59.495052
 31
0.0
  0
LINE
  5
9D2
100
AcDbEntity
  8
0
 62
     0
100
AcDbLine
 10
-573.062217
 20
56.262819
 30
0.0
 11
-568.062217
 21
61.262819
 31
0.0
  0
LINE
  5
9D3
100
AcDbEntity
  8
0
 62
     0
100
AcDbLine
 10
-573.062217
 20
58.030586
 30
0.0
 11
-568.062217
 21
63.030586
 31
0.0
  0
LINE
  5
9D4
100
AcDbEntity
  8
0
 62
     0
100
AcDbLine
 10
-573.062217
 20
59.798353
 30
0.0
 11
-568.062217
 21
64.798353
 31
0.0
  0
LINE
  5
9D5
100
AcDbEntity
  8
0
 62
     0
100
AcDbLine
 10
-573.062217
 20
61.566119
 30
0.0
 11
-568.062217
 21
66.566119
 31
0.0
  0
LINE
  5
9D6
100
AcDbEntity
  8
0
 62
     0
100
AcDbLine
 10
-573.062217
 20
63.333886
 30
0.0
 11
-568.062217
 21
68.333886
 31
0.0
  0
LINE
  5
9D7
100
AcDbEntity
  8
0
 62
     0
100
AcDbLine
 10
-573.062217
 20
65.101653
 30
0.0
 11
-568.062217
 21
70.101653
 31
0.0
  0
LINE
  5
9D8
100
AcDbEntity
  8
0
 62
     0
100
AcDbLine
 10
-573.062217
 20
66.86942
 30
0.0
 11
-568.062217
 21
71.86942
 31
0.0
  0
LINE
  5
9D9
100
AcDbEntity
  8
0
 62
     0
100
AcDbLine
 10
-573.062217
 20
68.637187
 30
0.0
 11
-568.062217
 21
73.637187
 31
0.0
  0
LINE
  5
9DA
100
AcDbEntity
  8
0
 62
     0
100
AcDbLine
 10
-573.062217
 20
70.404954
 30
0.0
 11
-568.062217
 21
75.404954
 31
0.0
  0
LINE
  5
9DB
100
AcDbEntity
  8
0
 62
     0
100
AcDbLine
 10
-573.062217
 20
72.172721
 30
0.0
 11
-568.062217
 21
77.172721
 31
0.0
  0
LINE
  5
9DC
100
AcDbEntity
  8
0
 62
     0
100
AcDbLine
 10
-573.062217
 20
73.940488
 30
0.0
 11
-568.062217
 21
78.940488
 31
0.0
  0
LINE
  5
9DD
100
AcDbEntity
  8
0
 62
     0
100
AcDbLine
 10
-573.062217
 20
75.708255
 30
0.0
 11
-568.062217
 21
80.708255
 31
0.0
  0
LINE
  5
9DE
100
AcDbEntity
  8
0
 62
     0
100
AcDbLine
 10
-573.062217
 20
77.476022
 30
0.0
 11
-568.062217
 21
82.476022
 31
0.0
  0
LINE
  5
9DF
100
AcDbEntity
  8
0
 62
     0
100
AcDbLine
 10
-573.062217
 20
79.243789
 30
0.0
 11
-568.062217
 21
84.243789
 31
0.0
  0
LINE
  5
9E0
100
AcDbEntity
  8
0
 62
     0
100
AcDbLine
 10
-573.062217
 20
81.011556
 30
0.0
 11
-568.062217
 21
86.011556
 31
0.0
  0
LINE
  5
9E1
100
AcDbEntity
  8
0
 62
     0
100
AcDbLine
 10
-573.062217
 20
82.779323
 30
0.0
 11
-568.062217
 21
87.779323
 31
0.0
  0
LINE
  5
9E2
100
AcDbEntity
  8
0
 62
     0
100
AcDbLine
 10
-573.062217
 20
84.54709
 30
0.0
 11
-569.193818
 21
88.415488
 31
0.0
  0
LINE
  5
9E3
100
AcDbEntity
  8
0
 62
     0
100
AcDbLine
 10
-573.062217
 20
86.314857
 30
0.0
 11
-570.961585
 21
88.415488
 31
0.0
  0
LINE
  5
9E4
100
AcDbEntity
  8
0
 62
     0
100
AcDbLine
 10
-573.062217
 20
88.082624
 30
0.0
 11
-572.729352
 21
88.415488
 31
0.0
  0
LINE
  5
9E5
100
AcDbEntity
  8
0
 62
     0
100
AcDbLine
 10
-507.616636
 20
52.765488
 30
0.0
 11
-471.336636
 21
89.045488
 31
0.0
  0
LINE
  5
9E6
100
AcDbEntity
  8
0
 62
     0
100
AcDbLine
 10
-505.848869
 20
52.765488
 30
0.0
 11
-469.568869
 21
89.045488
 31
0.0
  0
LINE
  5
9E7
100
AcDbEntity
  8
0
 62
     0
100
AcDbLine
 10
-504.081102
 20
52.765488
 30
0.0
 11
-467.801102
 21
89.045488
 31
0.0
  0
LINE
  5
9E8
100
AcDbEntity
  8
0
 62
     0
100
AcDbLine
 10
-502.313335
 20
52.765488
 30
0.0
 11
-466.033335
 21
89.045488
 31
0.0
  0
LINE
  5
9E9
100
AcDbEntity
  8
0
 62
     0
100
AcDbLine
 10
-500.545568
 20
52.765488
 30
0.0
 11
-464.265568
 21
89.045488
 31
0.0
  0
LINE
  5
9EA
100
AcDbEntity
  8
0
 62
     0
100
AcDbLine
 10
-498.777801
 20
52.765488
 30
0.0
 11
-462.497801
 21
89.045488
 31
0.0
  0
LINE
  5
9EB
100
AcDbEntity
  8
0
 62
     0
100
AcDbLine
 10
-497.010034
 20
52.765488
 30
0.0
 11
-460.730034
 21
89.045488
 31
0.0
  0
LINE
  5
9EC
100
AcDbEntity
  8
0
 62
     0
100
AcDbLine
 10
-495.242267
 20
52.765488
 30
0.0
 11
-458.962267
 21
89.045488
 31
0.0
  0
LINE
  5
9ED
100
AcDbEntity
  8
0
 62
     0
100
AcDbLine
 10
-493.4745
 20
52.765488
 30
0.0
 11
-457.1945
 21
89.045488
 31
0.0
  0
LINE
  5
9EE
100
AcDbEntity
  8
0
 62
     0
100
AcDbLine
 10
-491.706733
 20
52.765488
 30
0.0
 11
-455.426733
 21
89.045488
 31
0.0
  0
LINE
  5
9EF
100
AcDbEntity
  8
0
 62
     0
100
AcDbLine
 10
-489.938966
 20
52.765488
 30
0.0
 11
-453.658966
 21
89.045488
 31
0.0
  0
LINE
  5
9F0
100
AcDbEntity
  8
0
 62
     0
100
AcDbLine
 10
-488.171199
 20
52.765488
 30
0.0
 11
-451.891199
 21
89.045488
 31
0.0
  0
LINE
  5
9F1
100
AcDbEntity
  8
0
 62
     0
100
AcDbLine
 10
-486.403432
 20
52.765488
 30
0.0
 11
-450.123432
 21
89.045488
 31
0.0
  0
LINE
  5
9F2
100
AcDbEntity
  8
0
 62
     0
100
AcDbLine
 10
-484.635665
 20
52.765488
 30
0.0
 11
-448.355665
 21
89.045488
 31
0.0
  0
LINE
  5
9F3
100
AcDbEntity
  8
0
 62
     0
100
AcDbLine
 10
-482.867898
 20
52.765488
 30
0.0
 11
-446.587898
 21
89.045488
 31
0.0
  0
LINE
  5
9F4
100
AcDbEntity
  8
0
 62
     0
100
AcDbLine
 10
-481.100131
 20
52.765488
 30
0.0
 11
-444.820131
 21
89.045488
 31
0.0
  0
LINE
  5
9F5
100
AcDbEntity
  8
0
 62
     0
100
AcDbLine
 10
-479.332364
 20
52.765488
 30
0.0
 11
-443.052364
 21
89.045488
 31
0.0
  0
LINE
  5
9F6
100
AcDbEntity
  8
0
 62
     0
100
AcDbLine
 10
-477.564597
 20
52.765488
 30
0.0
 11
-441.284597
 21
89.045488
 31
0.0
  0
LINE
  5
9F7
100
AcDbEntity
  8
0
 62
     0
100
AcDbLine
 10
-475.796831
 20
52.765488
 30
0.0
 11
-439.516831
 21
89.045488
 31
0.0
  0
LINE
  5
9F8
100
AcDbEntity
  8
0
 62
     0
100
AcDbLine
 10
-474.029064
 20
52.765488
 30
0.0
 11
-437.749064
 21
89.045488
 31
0.0
  0
LINE
  5
9F9
100
AcDbEntity
  8
0
 62
     0
100
AcDbLine
 10
-472.261297
 20
52.765488
 30
0.0
 11
-435.981297
 21
89.045488
 31
0.0
  0
LINE
  5
9FA
100
AcDbEntity
  8
0
 62
     0
100
AcDbLine
 10
-470.49353
 20
52.765488
 30
0.0
 11
-434.21353
 21
89.045488
 31
0.0
  0
LINE
  5
9FB
100
AcDbEntity
  8
0
 62
     0
100
AcDbLine
 10
-468.725763
 20
52.765488
 30
0.0
 11
-432.445763
 21
89.045488
 31
0.0
  0
LINE
  5
9FC
100
AcDbEntity
  8
0
 62
     0
100
AcDbLine
 10
-466.957996
 20
52.765488
 30
0.0
 11
-430.677996
 21
89.045488
 31
0.0
  0
LINE
  5
9FD
100
AcDbEntity
  8
0
 62
     0
100
AcDbLine
 10
-465.190229
 20
52.765488
 30
0.0
 11
-428.910229
 21
89.045488
 31
0.0
  0
LINE
  5
9FE
100
AcDbEntity
  8
0
 62
     0
100
AcDbLine
 10
-463.422462
 20
52.765488
 30
0.0
 11
-427.142462
 21
89.045488
 31
0.0
  0
LINE
  5
9FF
100
AcDbEntity
  8
0
 62
     0
100
AcDbLine
 10
-461.654695
 20
52.765488
 30
0.0
 11
-425.374695
 21
89.045488
 31
0.0
  0
LINE
  5
A00
100
AcDbEntity
  8
0
 62
     0
100
AcDbLine
 10
-459.886928
 20
52.765488
 30
0.0
 11
-423.606928
 21
89.045488
 31
0.0
  0
LINE
  5
A01
100
AcDbEntity
  8
0
 62
     0
100
AcDbLine
 10
-458.119161
 20
52.765488
 30
0.0
 11
-421.839161
 21
89.045488
 31
0.0
  0
LINE
  5
A02
100
AcDbEntity
  8
0
 62
     0
100
AcDbLine
 10
-456.351394
 20
52.765488
 30
0.0
 11
-420.071394
 21
89.045488
 31
0.0
  0
LINE
  5
A03
100
AcDbEntity
  8
0
 62
     0
100
AcDbLine
 10
-454.583627
 20
52.765488
 30
0.0
 11
-419.829441
 21
87.519674
 31
0.0
  0
LINE
  5
A04
100
AcDbEntity
  8
0
 62
     0
100
AcDbLine
 10
-452.81586
 20
52.765488
 30
0.0
 11
-419.829441
 21
85.751907
 31
0.0
  0
LINE
  5
A05
100
AcDbEntity
  8
0
 62
     0
100
AcDbLine
 10
-451.048093
 20
52.765488
 30
0.0
 11
-419.829441
 21
83.984141
 31
0.0
  0
LINE
  5
A06
100
AcDbEntity
  8
0
 62
     0
100
AcDbLine
 10
-449.280326
 20
52.765488
 30
0.0
 11
-419.829441
 21
82.216374
 31
0.0
  0
LINE
  5
A07
100
AcDbEntity
  8
0
 62
     0
100
AcDbLine
 10
-447.512559
 20
52.765488
 30
0.0
 11
-419.829441
 21
80.448607
 31
0.0
  0
LINE
  5
A08
100
AcDbEntity
  8
0
 62
     0
100
AcDbLine
 10
-445.744792
 20
52.765488
 30
0.0
 11
-419.829441
 21
78.68084
 31
0.0
  0
LINE
  5
A09
100
AcDbEntity
  8
0
 62
     0
100
AcDbLine
 10
-443.977025
 20
52.765488
 30
0.0
 11
-419.829441
 21
76.913073
 31
0.0
  0
LINE
  5
A0A
100
AcDbEntity
  8
0
 62
     0
100
AcDbLine
 10
-442.209258
 20
52.765488
 30
0.0
 11
-419.829441
 21
75.145306
 31
0.0
  0
LINE
  5
A0B
100
AcDbEntity
  8
0
 62
     0
100
AcDbLine
 10
-440.441491
 20
52.765488
 30
0.0
 11
-419.829441
 21
73.377539
 31
0.0
  0
LINE
  5
A0C
100
AcDbEntity
  8
0
 62
     0
100
AcDbLine
 10
-438.673725
 20
52.765488
 30
0.0
 11
-419.829441
 21
71.609772
 31
0.0
  0
LINE
  5
A0D
100
AcDbEntity
  8
0
 62
     0
100
AcDbLine
 10
-436.905958
 20
52.765488
 30
0.0
 11
-419.829441
 21
69.842005
 31
0.0
  0
LINE
  5
A0E
100
AcDbEntity
  8
0
 62
     0
100
AcDbLine
 10
-435.138191
 20
52.765488
 30
0.0
 11
-419.829441
 21
68.074238
 31
0.0
  0
LINE
  5
A0F
100
AcDbEntity
  8
0
 62
     0
100
AcDbLine
 10
-433.370424
 20
52.765488
 30
0.0
 11
-419.829441
 21
66.306471
 31
0.0
  0
LINE
  5
A10
100
AcDbEntity
  8
0
 62
     0
100
AcDbLine
 10
-431.602657
 20
52.765488
 30
0.0
 11
-419.829441
 21
64.538704
 31
0.0
  0
LINE
  5
A11
100
AcDbEntity
  8
0
 62
     0
100
AcDbLine
 10
-429.83489
 20
52.765488
 30
0.0
 11
-419.829441
 21
62.770937
 31
0.0
  0
LINE
  5
A12
100
AcDbEntity
  8
0
 62
     0
100
AcDbLine
 10
-428.067123
 20
52.765488
 30
0.0
 11
-419.829441
 21
61.00317
 31
0.0
  0
LINE
  5
A13
100
AcDbEntity
  8
0
 62
     0
100
AcDbLine
 10
-426.299356
 20
52.765488
 30
0.0
 11
-419.829441
 21
59.235403
 31
0.0
  0
LINE
  5
A14
100
AcDbEntity
  8
0
 62
     0
100
AcDbLine
 10
-424.531589
 20
52.765488
 30
0.0
 11
-419.829441
 21
57.467636
 31
0.0
  0
LINE
  5
A15
100
AcDbEntity
  8
0
 62
     0
100
AcDbLine
 10
-422.763822
 20
52.765488
 30
0.0
 11
-419.829441
 21
55.699869
 31
0.0
  0
LINE
  5
A16
100
AcDbEntity
  8
0
 62
     0
100
AcDbLine
 10
-420.996055
 20
52.765488
 30
0.0
 11
-419.829441
 21
53.932102
 31
0.0
  0
ENDBLK
  5
A18
100
AcDbEntity
  8
0
100
AcDbBlockEnd
  0
BLOCK
  5
A54
100
AcDbEntity
  8
0
100
AcDbBlockBegin
  2
*X34
 70
    65
 10
0.0
 20
0.0
 30
0.0
  3
*X34
  1

  0
LINE
  5
A1A
100
AcDbEntity
  8
0
 62
     0
100
AcDbLine
 10
-572.473297
 20
115.188048
 30
0.0
 11
-568.417817
 21
119.243528
 31
0.0
  0
LINE
  5
A1B
100
AcDbEntity
  8
0
 62
     0
100
AcDbLine
 10
-573.417817
 20
116.011295
 30
0.0
 11
-568.417817
 21
121.011295
 31
0.0
  0
LINE
  5
A1C
100
AcDbEntity
  8
0
 62
     0
100
AcDbLine
 10
-573.417817
 20
117.779062
 30
0.0
 11
-568.417817
 21
122.779062
 31
0.0
  0
LINE
  5
A1D
100
AcDbEntity
  8
0
 62
     0
100
AcDbLine
 10
-573.417817
 20
119.546829
 30
0.0
 11
-568.417817
 21
124.546829
 31
0.0
  0
LINE
  5
A1E
100
AcDbEntity
  8
0
 62
     0
100
AcDbLine
 10
-573.417817
 20
121.314596
 30
0.0
 11
-568.417817
 21
126.314596
 31
0.0
  0
LINE
  5
A1F
100
AcDbEntity
  8
0
 62
     0
100
AcDbLine
 10
-573.417817
 20
123.082363
 30
0.0
 11
-568.417817
 21
128.082363
 31
0.0
  0
LINE
  5
A20
100
AcDbEntity
  8
0
 62
     0
100
AcDbLine
 10
-573.417817
 20
124.85013
 30
0.0
 11
-569.249899
 21
129.018048
 31
0.0
  0
LINE
  5
A21
100
AcDbEntity
  8
0
 62
     0
100
AcDbLine
 10
-569.249899
 20
129.018048
 30
0.0
 11
-568.417817
 21
129.85013
 31
0.0
  0
LINE
  5
A22
100
AcDbEntity
  8
0
 62
     0
100
AcDbLine
 10
-573.417817
 20
126.617897
 30
0.0
 11
-571.017666
 21
129.018048
 31
0.0
  0
LINE
  5
A23
100
AcDbEntity
  8
0
 62
     0
100
AcDbLine
 10
-571.017666
 20
129.018048
 30
0.0
 11
-568.417817
 21
131.617897
 31
0.0
  0
LINE
  5
A24
100
AcDbEntity
  8
0
 62
     0
100
AcDbLine
 10
-573.417817
 20
128.385664
 30
0.0
 11
-572.785433
 21
129.018048
 31
0.0
  0
LINE
  5
A25
100
AcDbEntity
  8
0
 62
     0
100
AcDbLine
 10
-572.785433
 20
129.018048
 30
0.0
 11
-568.417817
 21
133.385664
 31
0.0
  0
LINE
  5
A26
100
AcDbEntity
  8
0
 62
     0
100
AcDbLine
 10
-573.417817
 20
130.153431
 30
0.0
 11
-568.417817
 21
135.153431
 31
0.0
  0
LINE
  5
A27
100
AcDbEntity
  8
0
 62
     0
100
AcDbLine
 10
-573.417817
 20
131.921198
 30
0.0
 11
-568.417817
 21
136.921198
 31
0.0
  0
LINE
  5
A28
100
AcDbEntity
  8
0
 62
     0
100
AcDbLine
 10
-573.417817
 20
133.688965
 30
0.0
 11
-568.417817
 21
138.688965
 31
0.0
  0
LINE
  5
A29
100
AcDbEntity
  8
0
 62
     0
100
AcDbLine
 10
-573.417817
 20
135.456732
 30
0.0
 11
-568.417817
 21
140.456732
 31
0.0
  0
LINE
  5
A2A
100
AcDbEntity
  8
0
 62
     0
100
AcDbLine
 10
-573.417817
 20
137.224498
 30
0.0
 11
-568.417817
 21
142.224498
 31
0.0
  0
LINE
  5
A2B
100
AcDbEntity
  8
0
 62
     0
100
AcDbLine
 10
-573.417817
 20
138.992265
 30
0.0
 11
-568.417817
 21
143.992265
 31
0.0
  0
LINE
  5
A2C
100
AcDbEntity
  8
0
 62
     0
100
AcDbLine
 10
-573.417817
 20
140.760032
 30
0.0
 11
-568.417817
 21
145.760032
 31
0.0
  0
LINE
  5
A2D
100
AcDbEntity
  8
0
 62
     0
100
AcDbLine
 10
-573.417817
 20
142.527799
 30
0.0
 11
-568.417817
 21
147.527799
 31
0.0
  0
LINE
  5
A2E
100
AcDbEntity
  8
0
 62
     0
100
AcDbLine
 10
-573.417817
 20
144.295566
 30
0.0
 11
-568.417817
 21
149.295566
 31
0.0
  0
LINE
  5
A2F
100
AcDbEntity
  8
0
 62
     0
100
AcDbLine
 10
-573.417817
 20
146.063333
 30
0.0
 11
-568.417817
 21
151.063333
 31
0.0
  0
LINE
  5
A30
100
AcDbEntity
  8
0
 62
     0
100
AcDbLine
 10
-573.417817
 20
147.8311
 30
0.0
 11
-568.417817
 21
152.8311
 31
0.0
  0
LINE
  5
A31
100
AcDbEntity
  8
0
 62
     0
100
AcDbLine
 10
-573.417817
 20
149.598867
 30
0.0
 11
-568.417817
 21
154.598867
 31
0.0
  0
LINE
  5
A32
100
AcDbEntity
  8
0
 62
     0
100
AcDbLine
 10
-573.417817
 20
151.366634
 30
0.0
 11
-568.417817
 21
156.366634
 31
0.0
  0
LINE
  5
A33
100
AcDbEntity
  8
0
 62
     0
100
AcDbLine
 10
-573.417817
 20
153.134401
 30
0.0
 11
-568.417817
 21
158.134401
 31
0.0
  0
LINE
  5
A34
100
AcDbEntity
  8
0
 62
     0
100
AcDbLine
 10
-573.417817
 20
154.902168
 30
0.0
 11
-568.417817
 21
159.902168
 31
0.0
  0
LINE
  5
A35
100
AcDbEntity
  8
0
 62
     0
100
AcDbLine
 10
-573.417817
 20
156.669935
 30
0.0
 11
-569.499704
 21
160.588048
 31
0.0
  0
LINE
  5
A36
100
AcDbEntity
  8
0
 62
     0
100
AcDbLine
 10
-573.417817
 20
158.437702
 30
0.0
 11
-571.267471
 21
160.588048
 31
0.0
  0
LINE
  5
A37
100
AcDbEntity
  8
0
 62
     0
100
AcDbLine
 10
-573.417817
 20
160.205469
 30
0.0
 11
-573.035238
 21
160.588048
 31
0.0
  0
LINE
  5
A38
100
AcDbEntity
  8
0
 62
     0
100
AcDbLine
 10
-570.70553
 20
115.188048
 30
0.0
 11
-568.417817
 21
117.475761
 31
0.0
  0
LINE
  5
A39
100
AcDbEntity
  8
0
 62
     0
100
AcDbLine
 10
-568.937763
 20
115.188048
 30
0.0
 11
-568.417817
 21
115.707994
 31
0.0
  0
LINE
  5
A3A
100
AcDbEntity
  8
0
 62
     0
100
AcDbLine
 10
-533.061024
 20
149.29702
 30
0.0
 11
-531.519996
 21
150.838048
 31
0.0
  0
LINE
  5
A3B
100
AcDbEntity
  8
0
 62
     0
100
AcDbLine
 10
-533.061024
 20
147.529253
 30
0.0
 11
-529.752229
 21
150.838048
 31
0.0
  0
LINE
  5
A3C
100
AcDbEntity
  8
0
 62
     0
100
AcDbLine
 10
-533.061024
 20
145.761486
 30
0.0
 11
-528.061024
 21
150.761486
 31
0.0
  0
LINE
  5
A3D
100
AcDbEntity
  8
0
 62
     0
100
AcDbLine
 10
-533.061024
 20
143.993719
 30
0.0
 11
-528.061024
 21
148.993719
 31
0.0
  0
LINE
  5
A3E
100
AcDbEntity
  8
0
 62
     0
100
AcDbLine
 10
-533.061024
 20
142.225952
 30
0.0
 11
-528.061024
 21
147.225952
 31
0.0
  0
LINE
  5
A3F
100
AcDbEntity
  8
0
 62
     0
100
AcDbLine
 10
-533.061024
 20
140.458186
 30
0.0
 11
-528.061024
 21
145.458186
 31
0.0
  0
LINE
  5
A40
100
AcDbEntity
  8
0
 62
     0
100
AcDbLine
 10
-533.061024
 20
138.690419
 30
0.0
 11
-528.061024
 21
143.690419
 31
0.0
  0
LINE
  5
A41
100
AcDbEntity
  8
0
 62
     0
100
AcDbLine
 10
-533.061024
 20
136.922652
 30
0.0
 11
-528.061024
 21
141.922652
 31
0.0
  0
LINE
  5
A42
100
AcDbEntity
  8
0
 62
     0
100
AcDbLine
 10
-533.061024
 20
135.154885
 30
0.0
 11
-528.061024
 21
140.154885
 31
0.0
  0
LINE
  5
A43
100
AcDbEntity
  8
0
 62
     0
100
AcDbLine
 10
-533.061024
 20
133.387118
 30
0.0
 11
-528.061024
 21
138.387118
 31
0.0
  0
LINE
  5
A44
100
AcDbEntity
  8
0
 62
     0
100
AcDbLine
 10
-533.061024
 20
131.619351
 30
0.0
 11
-528.061024
 21
136.619351
 31
0.0
  0
LINE
  5
A45
100
AcDbEntity
  8
0
 62
     0
100
AcDbLine
 10
-533.061024
 20
129.851584
 30
0.0
 11
-528.061024
 21
134.851584
 31
0.0
  0
LINE
  5
A46
100
AcDbEntity
  8
0
 62
     0
100
AcDbLine
 10
-533.061024
 20
128.083817
 30
0.0
 11
-532.126793
 21
129.018048
 31
0.0
  0
LINE
  5
A47
100
AcDbEntity
  8
0
 62
     0
100
AcDbLine
 10
-532.126793
 20
129.018048
 30
0.0
 11
-528.061024
 21
133.083817
 31
0.0
  0
LINE
  5
A48
100
AcDbEntity
  8
0
 62
     0
100
AcDbLine
 10
-533.061024
 20
126.31605
 30
0.0
 11
-530.359026
 21
129.018048
 31
0.0
  0
LINE
  5
A49
100
AcDbEntity
  8
0
 62
     0
100
AcDbLine
 10
-530.359026
 20
129.018048
 30
0.0
 11
-528.061024
 21
131.31605
 31
0.0
  0
LINE
  5
A4A
100
AcDbEntity
  8
0
 62
     0
100
AcDbLine
 10
-533.061024
 20
124.548283
 30
0.0
 11
-528.591259
 21
129.018048
 31
0.0
  0
LINE
  5
A4B
100
AcDbEntity
  8
0
 62
     0
100
AcDbLine
 10
-528.591259
 20
129.018048
 30
0.0
 11
-528.061024
 21
129.548283
 31
0.0
  0
LINE
  5
A4C
100
AcDbEntity
  8
0
 62
     0
100
AcDbLine
 10
-533.061024
 20
122.780516
 30
0.0
 11
-528.061024
 21
127.780516
 31
0.0
  0
LINE
  5
A4D
100
AcDbEntity
  8
0
 62
     0
100
AcDbLine
 10
-533.061024
 20
121.012749
 30
0.0
 11
-528.061024
 21
126.012749
 31
0.0
  0
LINE
  5
A4E
100
AcDbEntity
  8
0
 62
     0
100
AcDbLine
 10
-533.061024
 20
119.244982
 30
0.0
 11
-528.061024
 21
124.244982
 31
0.0
  0
LINE
  5
A4F
100
AcDbEntity
  8
0
 62
     0
100
AcDbLine
 10
-533.061024
 20
117.477215
 30
0.0
 11
-528.061024
 21
122.477215
 31
0.0
  0
LINE
  5
A50
100
AcDbEntity
  8
0
 62
     0
100
AcDbLine
 10
-533.061024
 20
115.709448
 30
0.0
 11
-528.061024
 21
120.709448
 31
0.0
  0
LINE
  5
A51
100
AcDbEntity
  8
0
 62
     0
100
AcDbLine
 10
-532.444657
 20
114.558048
 30
0.0
 11
-528.061024
 21
118.941681
 31
0.0
  0
LINE
  5
A52
100
AcDbEntity
  8
0
 62
     0
100
AcDbLine
 10
-530.67689
 20
114.558048
 30
0.0
 11
-528.061024
 21
117.173914
 31
0.0
  0
LINE
  5
A53
100
AcDbEntity
  8
0
 62
     0
100
AcDbLine
 10
-528.909123
 20
114.558048
 30
0.0
 11
-528.061024
 21
115.406147
 31
0.0
  0
ENDBLK
  5
A55
100
AcDbEntity
  8
0
100
AcDbBlockEnd
  0
BLOCK
  5
AA0
100
AcDbEntity
  8
TEXT
100
AcDbBlockBegin
  2
UPI-L1B
 70
     0
 10
0.0
 20
0.0
 30
0.0
  3
UPI-L1B
  1

  0
INSERT
  5
A57
100
AcDbEntity
  8
CENTER
100
AcDbBlockReference
  2
POST-1
 10
-171.351793
 20
88.749559
 30
0.0
 41
-1.0
  0
INSERT
  5
A58
100
AcDbEntity
  8
CENTER
100
AcDbBlockReference
  2
POST-1
 10
-171.351793
 20
70.049559
 30
0.0
 41
-1.0
  0
INSERT
  5
A59
100
AcDbEntity
  8
AIN
100
AcDbBlockReference
  2
HYBR-12
 10
-148.551793
 20
64.222559
 30
0.0
 41
-1.0
  0
LINE
  5
A5A
100
AcDbEntity
  8
CENTER
100
AcDbLine
 10
-113.195
 20
78.752559
 30
0.0
 11
110.619461
 21
78.752559
 31
0.0
1001
ACAD
1000
ASC_BOUNDS
1002
{
1070
    19
1005
0
1005
0
1005
0
1005
0
1005
A9F
1005
0
1005
0
1005
0
1005
0
1005
0
1005
0
1005
0
1005
0
1005
0
1005
0
1005
0
1005
0
1005
0
1005
0
1005
0
1005
0
1005
A9F
1005
0
1005
0
1005
0
1005
0
1005
0
1005
0
1002
}
  0
LINE
  5
A5B
100
AcDbEntity
  8
L1_
100
AcDbLine
 10
-56.56
 20
61.792559
 30
0.0
 11
-56.56
 21
103.072559
 31
0.0
  0
LINE
  5
A5C
100
AcDbEntity
  8
L1_
100
AcDbLine
 10
0.0
 20
61.792559
 30
0.0
 11
0.0
 21
103.072559
 31
0.0
  0
LINE
  5
A5D
100
AcDbEntity
  8
L1_
100
AcDbLine
 10
0.075
 20
61.792559
 30
0.0
 11
0.075
 21
103.072559
 31
0.0
  0
LINE
  5
A5E
100
AcDbEntity
  8
L1_
100
AcDbLine
 10
-56.635
 20
61.792559
 30
0.0
 11
-56.635
 21
103.072559
 31
0.0
  0
LINE
  5
A5F
100
AcDbEntity
  8
L1_
100
AcDbLine
 10
-113.195
 20
61.792559
 30
0.0
 11
-113.195
 21
103.072559
 31
0.0
  0
LINE
  5
A60
100
AcDbEntity
  8
L1_
100
AcDbLine
 10
-113.195
 20
61.792559
 30
0.0
 11
-56.635
 21
61.792559
 31
0.0
  0
LINE
  5
A61
100
AcDbEntity
  8
L1_
100
AcDbLine
 10
-56.56
 20
61.792559
 30
0.0
 11
0.0
 21
61.792559
 31
0.0
  0
LINE
  5
A62
100
AcDbEntity
  8
HIDDEN
100
AcDbLine
 10
-105.195
 20
66.792559
 30
0.0
 11
-56.635
 21
66.792559
 31
0.0
  0
LINE
  5
A63
100
AcDbEntity
  8
HIDDEN
100
AcDbLine
 10
-105.195
 20
98.072559
 30
0.0
 11
-56.635
 21
98.072559
 31
0.0
  0
LINE
  5
A64
100
AcDbEntity
  8
L1_
100
AcDbLine
 10
-113.195
 20
103.072559
 30
0.0
 11
-56.635
 21
103.072559
 31
0.0
  0
LINE
  5
A65
100
AcDbEntity
  8
HIDDEN
100
AcDbLine
 10
-105.195
 20
66.792559
 30
0.0
 11
-105.195
 21
98.072559
 31
0.0
  0
TEXT
  5
A66
100
AcDbEntity
  8
TEXT
100
AcDbText
 10
-50.233035
 20
86.732215
 30
0.0
 40
3.0
  1
TOP VIEW
100
AcDbText
  0
TEXT
  5
A67
100
AcDbEntity
  8
TEXT
100
AcDbText
 10
-50.233035
 20
91.732215
 30
0.0
 40
3.0
  1
LAYER 1
100
AcDbText
  0
LINE
  5
A68
100
AcDbEntity
  8
HIDDEN
100
AcDbLine
 10
-56.56
 20
66.792559
 30
0.0
 11
0.0
 21
66.792559
 31
0.0
  0
LINE
  5
A69
100
AcDbEntity
  8
HIDDEN
100
AcDbLine
 10
0.0
 20
98.072559
 30
0.0
 11
-56.56
 21
98.072559
 31
0.0
  0
LINE
  5
A6A
100
AcDbEntity
  8
L1_
100
AcDbLine
 10
0.0
 20
103.072559
 30
0.0
 11
-56.56
 21
103.072559
 31
0.0
  0
LINE
  5
A6B
100
AcDbEntity
  8
UPILEX
100
AcDbLine
 10
-123.195
 20
64.292559
 30
0.0
 11
-108.195
 21
64.292559
 31
0.0
1001
ACAD
1000
ASC_BOUNDS
1002
{
1070
    19
1005
A9F
1002
}
  0
LINE
  5
A6C
100
AcDbEntity
  8
UPILEX
100
AcDbLine
 10
-108.195
 20
64.292559
 30
0.0
 11
-108.195
 21
100.572559
 31
0.0
1001
ACAD
1000
ASC_BOUNDS
1002
{
1070
    19
1005
A9F
1005
0
1005
0
1005
0
1005
0
1005
A9F
1002
}
  0
LINE
  5
A6D
100
AcDbEntity
  8
UPILEX
100
AcDbLine
 10
-108.195
 20
100.572559
 30
0.0
 11
-123.195
 21
100.572559
 31
0.0
1001
ACAD
1000
ASC_BOUNDS
1002
{
1070
    19
1005
A9F
1002
}
  0
LINE
  5
A6E
100
AcDbEntity
  8
UPILEX
100
AcDbLine
 10
-148.551793
 20
64.922559
 30
0.0
 11
-148.551793
 21
110.322559
 31
0.0
1001
ACAD
1000
ASC_BOUNDS
1002
{
1070
    19
1005
A9F
1005
0
1005
0
1005
0
1005
0
1005
A9F
1002
}
  0
LINE
  5
A6F
100
AcDbEntity
  8
UPILEX
100
AcDbLine
 10
-132.945
 20
110.322559
 30
0.0
 11
-153.551793
 21
110.322559
 31
0.0
1001
ACAD
1000
ASC_BOUNDS
1002
{
1070
    19
1005
A9F
1002
}
  0
LINE
  5
A70
100
AcDbEntity
  8
UPILEX
100
AcDbLine
 10
-153.551793
 20
110.322559
 30
0.0
 11
-153.551793
 21
64.922559
 31
0.0
1001
ACAD
1000
ASC_BOUNDS
1002
{
1070
    19
1005
A9F
1005
0
1005
0
1005
0
1005
0
1005
A9F
1002
}
  0
LINE
  5
A71
100
AcDbEntity
  8
UPILEX
100
AcDbLine
 10
-153.551793
 20
64.922559
 30
0.0
 11
-123.825
 21
64.922559
 31
0.0
1001
ACAD
1000
ASC_BOUNDS
1002
{
1070
    19
1005
A9F
1002
}
  0
LINE
  5
A72
100
AcDbEntity
  8
UPILEX
100
AcDbLine
 10
-123.195
 20
100.572559
 30
0.0
 11
-132.945
 21
110.322559
 31
0.0
  0
LINE
  5
A73
100
AcDbEntity
  8
UPILEX
100
AcDbLine
 10
-113.195
 20
64.292559
 30
0.0
 11
-113.195
 21
100.572559
 31
0.0
1001
ACAD
1000
ASC_BOUNDS
1002
{
1070
    19
1005
A9F
1005
0
1005
0
1005
0
1005
0
1005
A9F
1002
}
  0
DIMENSION
  5
A74
100
AcDbEntity
  8
DIM
100
AcDbDimension
  2
*D27
 10
-108.195
 20
107.279
 30
0.0
 11
-91.695
 21
107.279
 31
0.0
 12
419.866024
 22
-50.265488
 32
0.0
  3
STANDARD
100
AcDbAlignedDimension
 13
-113.195
 23
98.072559
 33
0.0
 14
-108.195
 24
98.072559
 34
0.0
100
AcDbRotatedDimension
1001
ACAD
1000
DSTYLE
1002
{
1070
   140
1040
0.3
1070
   272
1070
     2
1070
    40
1040
7.5
1070
     3
1000
mm
1070
   287
1070
     0
1070
   271
1070
     2
1070
     4
1000
"
1070
   143
1040
0.03937
1070
   171
1070
     3
1070
   170
1070
     1
1002
}
  0
DIMENSION
  5
A75
100
AcDbEntity
  8
DIM
100
AcDbDimension
  2
*D28
 10
-153.551793
 20
115.297384
 30
0.0
 11
-170.051793
 21
115.297384
 31
0.0
 12
419.866024
 22
-50.265488
 32
0.0
  3
STANDARD
100
AcDbAlignedDimension
 13
-148.551793
 23
110.322559
 33
0.0
 14
-153.551793
 24
110.322559
 34
0.0
100
AcDbRotatedDimension
1001
ACAD
1000
DSTYLE
1002
{
1070
   140
1040
0.3
1070
   272
1070
     2
1070
    40
1040
7.5
1070
     3
1000
mm
1070
   287
1070
     0
1070
   271
1070
     2
1070
     4
1000
"
1070
   143
1040
0.03937
1070
   171
1070
     3
1070
   170
1070
     1
1002
}
  0
DIMENSION
  5
A76
100
AcDbEntity
  8
DIM
100
AcDbDimension
  2
*D29
 10
-113.195
 20
123.451674
 30
0.0
 11
-130.873397
 21
123.451674
 31
0.0
 12
419.866024
 22
-50.265488
 32
0.0
  3
STANDARD
100
AcDbAlignedDimension
 13
-148.551793
 23
110.322559
 33
0.0
 14
-113.195
 24
98.072559
 34
0.0
100
AcDbRotatedDimension
1001
ACAD
1000
DSTYLE
1002
{
1070
   140
1040
0.3
1070
   272
1070
     2
1070
    40
1040
7.5
1070
     3
1000
mm
1070
   287
1070
     0
1070
   271
1070
     2
1070
     4
1000
"
1070
   143
1040
0.03937
1070
   171
1070
     3
1070
   170
1070
     1
1002
}
  0
LINE
  5
A77
100
AcDbEntity
  8
L1_
100
AcDbLine
 10
-113.195
 20
0.0
 30
0.0
 11
-56.635
 21
0.0
 31
0.0
  0
LINE
  5
A78
100
AcDbEntity
  8
HIDDEN
100
AcDbLine
 10
-105.195
 20
5.0
 30
0.0
 11
-56.635
 21
5.0
 31
0.0
  0
LINE
  5
A79
100
AcDbEntity
  8
HIDDEN
100
AcDbLine
 10
-105.195
 20
36.28
 30
0.0
 11
-56.635
 21
36.28
 31
0.0
  0
LINE
  5
A7A
100
AcDbEntity
  8
L1_
100
AcDbLine
 10
-113.195
 20
41.28
 30
0.0
 11
-56.635
 21
41.28
 31
0.0
  0
LINE
  5
A7B
100
AcDbEntity
  8
CENTER
100
AcDbLine
 10
-218.079026
 20
24.32
 30
0.0
 11
110.619461
 21
24.32
 31
0.0
1001
ACAD
1000
ASC_BOUNDS
1002
{
1070
    19
1005
0
1005
0
1005
0
1005
0
1005
0
1005
0
1005
0
1005
0
1005
0
1005
0
1005
0
1005
0
1005
0
1005
0
1005
0
1005
0
1005
0
1005
0
1005
0
1005
0
1005
0
1005
0
1005
0
1005
0
1005
0
1005
0
1005
0
1005
0
1005
0
1005
0
1005
0
1005
0
1005
0
1005
0
1005
0
1002
}
  0
LINE
  5
A7C
100
AcDbEntity
  8
L1_
100
AcDbLine
 10
-113.195
 20
41.28
 30
0.0
 11
-113.195
 21
0.0
 31
0.0
  0
INSERT
  5
A7D
100
AcDbEntity
  8
AIN
100
AcDbBlockReference
  2
HYBR-12
 10
-148.196193
 20
38.85
 30
0.0
 50
180.0
  0
INSERT
  5
A7E
100
AcDbEntity
  8
CENTER
100
AcDbBlockReference
  2
POST-1
 10
-170.996193
 20
33.023
 30
0.0
 50
180.0
  0
INSERT
  5
A7F
100
AcDbEntity
  8
CENTER
100
AcDbBlockReference
  2
POST-1
 10
-170.996193
 20
14.323
 30
0.0
 50
180.0
  0
LINE
  5
A80
100
AcDbEntity
  8
UPILEX
100
AcDbLine
 10
-153.196193
 20
-7.25
 30
0.0
 11
-153.196193
 21
38.15
 31
0.0
1001
ACAD
1000
ASC_BOUNDS
1002
{
1070
    19
1005
A9D
1002
}
  0
LINE
  5
A81
100
AcDbEntity
  8
UPILEX
100
AcDbLine
 10
-148.196193
 20
38.15
 30
0.0
 11
-148.196193
 21
-7.25
 31
0.0
1001
ACAD
1000
ASC_BOUNDS
1002
{
1070
    19
1005
A9D
1002
}
  0
LINE
  5
A82
100
AcDbEntity
  8
UPILEX
100
AcDbLine
 10
-113.195
 20
38.78
 30
0.0
 11
-113.195
 21
2.5
 31
0.0
1001
ACAD
1000
ASC_BOUNDS
1002
{
1070
    19
1005
0
1005
0
1005
0
1005
0
1005
0
1005
A9D
1002
}
  0
LINE
  5
A83
100
AcDbEntity
  8
UPILEX
100
AcDbLine
 10
0.036582
 20
38.78
 30
0.0
 11
0.036582
 21
2.5
 31
0.0
1001
ACAD
1000
ASC_BOUNDS
1002
{
1070
    19
1005
0
1005
0
1005
0
1005
0
1005
0
1005
A9D
1002
}
  0
LINE
  5
A84
100
AcDbEntity
  8
UPILEX
100
AcDbLine
 10
-123.195
 20
38.78
 30
0.0
 11
0.036582
 21
38.78
 31
0.0
1001
ACAD
1000
ASC_BOUNDS
1002
{
1070
    19
1005
A9D
1002
}
  0
LINE
  5
A85
100
AcDbEntity
  8
UPILEX
100
AcDbLine
 10
0.036582
 20
2.5
 30
0.0
 11
-123.195
 21
2.5
 31
0.0
1001
ACAD
1000
ASC_BOUNDS
1002
{
1070
    19
1005
A9D
1002
}
  0
LINE
  5
A86
100
AcDbEntity
  8
HIDDEN
100
AcDbLine
 10
-105.195
 20
36.28
 30
0.0
 11
-105.195
 21
5.0
 31
0.0
  0
LINE
  5
A87
100
AcDbEntity
  8
UPILEX
100
AcDbLine
 10
-132.945
 20
-7.25
 30
0.0
 11
-153.196193
 21
-7.25
 31
0.0
1001
ACAD
1000
ASC_BOUNDS
1002
{
1070
    19
1005
A9D
1002
}
  0
LINE
  5
A88
100
AcDbEntity
  8
L1_
100
AcDbLine
 10
-56.635
 20
41.28
 30
0.0
 11
-56.635
 21
0.0
 31
0.0
  0
LINE
  5
A89
100
AcDbEntity
  8
L1_
100
AcDbLine
 10
0.075
 20
41.28
 30
0.0
 11
0.075
 21
0.0
 31
0.0
  0
LINE
  5
A8A
100
AcDbEntity
  8
L1_
100
AcDbLine
 10
0.0
 20
41.28
 30
0.0
 11
0.0
 21
0.0
 31
0.0
  0
LINE
  5
A8B
100
AcDbEntity
  8
L1_
100
AcDbLine
 10
-56.56
 20
41.28
 30
0.0
 11
-56.56
 21
0.0
 31
0.0
  0
LINE
  5
A8C
100
AcDbEntity
  8
L1_
100
AcDbLine
 10
-56.56
 20
41.28
 30
0.0
 11
0.0
 21
41.28
 31
0.0
  0
LINE
  5
A8D
100
AcDbEntity
  8
HIDDEN
100
AcDbLine
 10
0.0
 20
5.0
 30
0.0
 11
-56.56
 21
5.0
 31
0.0
  0
LINE
  5
A8E
100
AcDbEntity
  8
HIDDEN
100
AcDbLine
 10
-56.56
 20
36.28
 30
0.0
 11
0.0
 21
36.28
 31
0.0
  0
LINE
  5
A8F
100
AcDbEntity
  8
L1_
100
AcDbLine
 10
0.0
 20
0.0
 30
0.0
 11
-56.56
 21
0.0
 31
0.0
  0
LINE
  5
A90
100
AcDbEntity
  8
UPILEX
100
AcDbLine
 10
0.075
 20
38.78
 30
0.0
 11
0.075
 21
2.5
 31
0.0
1001
ACAD
1000
ASC_BOUNDS
1002
{
1070
    19
1005
0
1005
0
1005
0
1005
0
1005
0
1005
0
1005
0
1005
0
1005
0
1005
0
1005
0
1002
}
  0
TEXT
  5
A91
100
AcDbEntity
  8
TEXT
100
AcDbText
 10
-50.233035
 20
18.73419
 30
0.0
 40
3.0
  1
LAYER 1
100
AcDbText
  0
TEXT
  5
A92
100
AcDbEntity
  8
TEXT
100
AcDbText
 10
-50.233035
 20
13.73419
 30
0.0
 40
3.0
  1
BOTTOM VIEW
100
AcDbText
  0
DIMENSION
  5
A93
100
AcDbEntity
  8
DIM
100
AcDbDimension
  2
*D30
 10
0.036582
 20
45.043652
 30
0.0
 11
-56.579209
 21
45.043652
 31
0.0
 12
419.866024
 22
-50.265488
 32
0.0
  3
STANDARD
100
AcDbAlignedDimension
 13
-113.195
 23
36.28
 33
0.0
 14
0.036582
 24
36.28
 34
0.0
100
AcDbRotatedDimension
1001
ACAD
1000
DSTYLE
1002
{
1070
   140
1040
0.3
1070
   272
1070
     2
1070
    40
1040
7.5
1070
     3
1000
mm
1070
   287
1070
     0
1070
   271
1070
     2
1070
     4
1000
"
1070
   143
1040
0.03937
1070
   171
1070
     3
1070
   170
1070
     1
1002
}
  0
DIMENSION
  5
A94
100
AcDbEntity
  8
DIM
100
AcDbDimension
  2
*D31
 10
-153.196193
 20
43.156195
 30
0.0
 11
-169.696193
 21
43.156195
 31
0.0
 12
419.866024
 22
-50.265488
 32
0.0
  3
STANDARD
100
AcDbAlignedDimension
 13
-148.196193
 23
38.15
 33
0.0
 14
-153.196193
 24
38.049368
 34
0.0
100
AcDbRotatedDimension
1001
ACAD
1000
DSTYLE
1002
{
1070
   140
1040
0.3
1070
   272
1070
     2
1070
    40
1040
7.5
1070
     3
1000
mm
1070
   287
1070
     0
1070
   271
1070
     2
1070
     4
1000
"
1070
   143
1040
0.03937
1070
   171
1070
     3
1070
   170
1070
     1
1002
}
  0
DIMENSION
  5
A95
100
AcDbEntity
  8
DIM
100
AcDbDimension
  2
*D32
 10
-113.195
 20
52.782224
 30
0.0
 11
-130.695597
 21
52.782224
 31
0.0
 12
419.866024
 22
-50.265488
 32
0.0
  3
STANDARD
100
AcDbAlignedDimension
 13
-148.196193
 23
38.15
 33
0.0
 14
-113.195
 24
36.74875
 34
0.0
100
AcDbRotatedDimension
1001
ACAD
1000
DSTYLE
1002
{
1070
   140
1040
0.3
1070
   272
1070
     2
1070
    40
1040
7.5
1070
     3
1000
mm
1070
   287
1070
     0
1070
   271
1070
     2
1070
     4
1000
"
1070
   143
1040
0.03937
1070
   171
1070
     3
1070
   170
1070
     1
1002
}
  0
LINE
  5
A96
100
AcDbEntity
  8
UPILEX
100
AcDbLine
 10
-123.195
 20
64.292559
 30
0.0
 11
-123.825
 21
64.922559
 31
0.0
  0
TEXT
  5
A97
100
AcDbEntity
  8
UPILEX
100
AcDbText
 10
-139.666114
 20
85.177101
 30
0.0
 40
1.5
  1
L1 BACKWARD
  7
CIM_TB
100
AcDbText
  0
TEXT
  5
A98
100
AcDbEntity
  8
UPILEX
100
AcDbText
 10
-139.666114
 20
82.74853
 30
0.0
 40
1.5
  1
TOP
  7
CIM_TB
100
AcDbText
  0
TEXT
  5
A99
100
AcDbEntity
  8
UPILEX
100
AcDbText
 10
-142.080971
 20
19.517868
 30
0.0
 40
1.5
  1
L1 BACKWARD
  7
CIM_TB
100
AcDbText
  0
TEXT
  5
A9A
100
AcDbEntity
  8
UPILEX
100
AcDbText
 10
-142.080971
 20
17.089296
 30
0.0
 40
1.5
  1
BOTTOM
  7
CIM_TB
100
AcDbText
  0
LINE
  5
A9B
100
AcDbEntity
  8
UPILEX
100
AcDbLine
 10
-123.195
 20
38.78
 30
0.0
 11
-123.825
 21
38.15
 31
0.0
  0
LINE
  5
A9C
100
AcDbEntity
  8
UPILEX
100
AcDbLine
 10
-153.196193
 20
38.15
 30
0.0
 11
-123.825
 21
38.15
 31
0.0
1001
ACAD
1000
ASC_BOUNDS
1002
{
1070
    19
1005
A9D
1002
}
  0
INSERT
  5
A9D
100
AcDbEntity
  8
UPILEX
100
AcDbBlockReference
  2
*X33
 10
419.866024
 20
-50.265488
 30
0.0
1001
ACAD
1000
HATCH
1002
{
1070
    19
1000
ANSI31
1040
10.0
1040
0.0
1000
ASC_BOUNDS
1070
     2
1070
     1
1070
     4
1005
A9C
1005
A80
1005
A87
1005
A81
1070
     1
1070
     4
1005
A84
1005
A82
1005
A85
1005
A83
1000
ASC_SEEDPOINT
1011
-71.378379
1021
20.64
1031
0.0
1002
}
  0
LINE
  5
A9E
100
AcDbEntity
  8
UPILEX
100
AcDbLine
 10
-123.195
 20
2.5
 30
0.0
 11
-132.945
 21
-7.25
 31
0.0
  0
INSERT
  5
A9F
100
AcDbEntity
  8
UPILEX
100
AcDbBlockReference
  2
*X34
 10
419.866024
 20
-50.265488
 30
0.0
1001
ACAD
1000
HATCH
1002
{
1070
    19
1000
ANSI31
1040
10.0
1040
0.0
1000
ASC_BOUNDS
1070
     4
1070
     1
1070
     4
1005
A6D
1005
A73
1005
A5A
1005
A6C
1070
     1
1070
     4
1005
A5A
1005
A73
1005
A6B
1005
A6C
1070
     1
1070
     4
1005
0
1005
A70
1005
A71
1005
A6E
1070
     1
1070
     4
1005
A6F
1005
A70
1005
0
1005
A6E
1000
ASC_SEEDPOINT
1011
-150.579533
1021
66.950299
1031
0.0
1002
}
  0
ENDBLK
  5
AA1
100
AcDbEntity
  8
TEXT
100
AcDbBlockEnd
  0
BLOCK
  5
CE1
100
AcDbEntity
  8
0
100
AcDbBlockBegin
  2
*D36
 70
    65
 10
0.0
 20
0.0
 30
0.0
  3
*D36
  1

  0
LINE
  5
CD7
100
AcDbEntity
  8
0
  6
BYBLOCK
 62
     0
100
AcDbLine
 10
-545.181024
 20
314.098331
 30
0.0
 11
-545.181024
 21
322.124145
 31
0.0
  0
LINE
  5
CD8
100
AcDbEntity
  8
0
  6
BYBLOCK
 62
     0
100
AcDbLine
 10
-540.181024
 20
314.098331
 30
0.0
 11
-540.181024
 21
322.124145
 31
0.0
  0
LINE
  5
CD9
100
AcDbEntity
  8
0
  6
BYBLOCK
 62
     0
100
AcDbLine
 10
-546.531024
 20
320.774145
 30
0.0
 11
-547.881024
 21
320.774145
 31
0.0
  0
LINE
  5
CDA
100
AcDbEntity
  8
0
  6
BYBLOCK
 62
     0
100
AcDbLine
 10
-538.831024
 20
320.774145
 30
0.0
 11
-537.481024
 21
320.774145
 31
0.0
  0
SOLID
  5
CDB
100
AcDbEntity
  8
0
  6
BYBLOCK
 62
     0
100
AcDbTrace
 10
-546.531024
 20
320.999145
 30
0.0
 11
-546.531024
 21
320.549145
 31
0.0
 12
-545.181024
 22
320.774145
 32
0.0
 13
-545.181024
 23
320.774145
 33
0.0
  0
SOLID
  5
CDC
100
AcDbEntity
  8
0
  6
BYBLOCK
 62
     0
100
AcDbTrace
 10
-538.831024
 20
320.999145
 30
0.0
 11
-538.831024
 21
320.549145
 31
0.0
 12
-540.181024
 22
320.774145
 32
0.0
 13
-540.181024
 23
320.774145
 33
0.0
  0
MTEXT
  5
CDD
100
AcDbEntity
  8
0
  6
BYBLOCK
 62
     0
100
AcDbMText
 10
-523.681024
 20
320.774145
 30
0.0
 40
2.25
 41
0.0
 71
     5
 72
     1
  1
\A1;5.00mm[0.197"]
  0
POINT
  5
CDE
100
AcDbEntity
  8
DEFPOINTS
  6
BYBLOCK
 62
     0
100
AcDbPoint
 10
-545.181024
 20
313.629581
 30
0.0
  0
POINT
  5
CDF
100
AcDbEntity
  8
DEFPOINTS
  6
BYBLOCK
 62
     0
100
AcDbPoint
 10
-540.181024
 20
313.629581
 30
0.0
  0
POINT
  5
CE0
100
AcDbEntity
  8
DEFPOINTS
  6
BYBLOCK
 62
     0
100
AcDbPoint
 10
-540.181024
 20
320.774145
 30
0.0
  0
ENDBLK
  5
CE2
100
AcDbEntity
  8
0
100
AcDbBlockEnd
  0
BLOCK
  5
CEE
100
AcDbEntity
  8
0
100
AcDbBlockBegin
  2
*D37
 70
    65
 10
0.0
 20
0.0
 30
0.0
  3
*D37
  1

  0
LINE
  5
CE4
100
AcDbEntity
  8
0
  6
BYBLOCK
 62
     0
100
AcDbLine
 10
-569.438017
 20
318.028321
 30
0.0
 11
-569.438017
 21
324.361208
 31
0.0
  0
LINE
  5
CE5
100
AcDbEntity
  8
0
  6
BYBLOCK
 62
     0
100
AcDbLine
 10
-574.438017
 20
318.028321
 30
0.0
 11
-574.438017
 21
324.361208
 31
0.0
  0
LINE
  5
CE6
100
AcDbEntity
  8
0
  6
BYBLOCK
 62
     0
100
AcDbLine
 10
-568.088017
 20
323.011208
 30
0.0
 11
-566.738017
 21
323.011208
 31
0.0
  0
LINE
  5
CE7
100
AcDbEntity
  8
0
  6
BYBLOCK
 62
     0
100
AcDbLine
 10
-575.788017
 20
323.011208
 30
0.0
 11
-577.138017
 21
323.011208
 31
0.0
  0
SOLID
  5
CE8
100
AcDbEntity
  8
0
  6
BYBLOCK
 62
     0
100
AcDbTrace
 10
-568.088017
 20
323.236208
 30
0.0
 11
-568.088017
 21
322.786208
 31
0.0
 12
-569.438017
 22
323.011208
 32
0.0
 13
-569.438017
 23
323.011208
 33
0.0
  0
SOLID
  5
CE9
100
AcDbEntity
  8
0
  6
BYBLOCK
 62
     0
100
AcDbTrace
 10
-575.788017
 20
323.236208
 30
0.0
 11
-575.788017
 21
322.786208
 31
0.0
 12
-574.438017
 22
323.011208
 32
0.0
 13
-574.438017
 23
323.011208
 33
0.0
  0
MTEXT
  5
CEA
100
AcDbEntity
  8
0
  6
BYBLOCK
 62
     0
100
AcDbMText
 10
-590.938017
 20
323.011208
 30
0.0
 40
2.25
 41
0.0
 71
     5
 72
     1
  1
\A1;5.00mm[0.197"]
  0
POINT
  5
CEB
100
AcDbEntity
  8
DEFPOINTS
  6
BYBLOCK
 62
     0
100
AcDbPoint
 10
-569.438017
 20
317.559571
 30
0.0
  0
POINT
  5
CEC
100
AcDbEntity
  8
DEFPOINTS
  6
BYBLOCK
 62
     0
100
AcDbPoint
 10
-574.438017
 20
317.559571
 30
0.0
  0
POINT
  5
CED
100
AcDbEntity
  8
DEFPOINTS
  6
BYBLOCK
 62
     0
100
AcDbPoint
 10
-574.438017
 20
323.011208
 30
0.0
  0
ENDBLK
  5
CEF
100
AcDbEntity
  8
0
100
AcDbBlockEnd
  0
BLOCK
  5
CFB
100
AcDbEntity
  8
0
100
AcDbBlockBegin
  2
*D38
 70
    65
 10
0.0
 20
0.0
 30
0.0
  3
*D38
  1

  0
LINE
  5
CF1
100
AcDbEntity
  8
0
  6
BYBLOCK
 62
     0
100
AcDbLine
 10
-569.438017
 20
318.028321
 30
0.0
 11
-569.438017
 21
331.850505
 31
0.0
  0
LINE
  5
CF2
100
AcDbEntity
  8
0
  6
BYBLOCK
 62
     0
100
AcDbLine
 10
-545.181024
 20
314.098331
 30
0.0
 11
-545.181024
 21
331.850505
 31
0.0
  0
LINE
  5
CF3
100
AcDbEntity
  8
0
  6
BYBLOCK
 62
     0
100
AcDbLine
 10
-570.788017
 20
330.500505
 30
0.0
 11
-572.138017
 21
330.500505
 31
0.0
  0
LINE
  5
CF4
100
AcDbEntity
  8
0
  6
BYBLOCK
 62
     0
100
AcDbLine
 10
-543.831024
 20
330.500505
 30
0.0
 11
-542.481024
 21
330.500505
 31
0.0
  0
SOLID
  5
CF5
100
AcDbEntity
  8
0
  6
BYBLOCK
 62
     0
100
AcDbTrace
 10
-570.788017
 20
330.725505
 30
0.0
 11
-570.788017
 21
330.275505
 31
0.0
 12
-569.438017
 22
330.500505
 32
0.0
 13
-569.438017
 23
330.500505
 33
0.0
  0
SOLID
  5
CF6
100
AcDbEntity
  8
0
  6
BYBLOCK
 62
     0
100
AcDbTrace
 10
-543.831024
 20
330.725505
 30
0.0
 11
-543.831024
 21
330.275505
 31
0.0
 12
-545.181024
 22
330.500505
 32
0.0
 13
-545.181024
 23
330.500505
 33
0.0
  0
MTEXT
  5
CF7
100
AcDbEntity
  8
0
  6
BYBLOCK
 62
     0
100
AcDbMText
 10
-526.993524
 20
330.500505
 30
0.0
 40
2.25
 41
0.0
 71
     5
 72
     1
  1
\A1;24.26mm[0.955"]
  0
POINT
  5
CF8
100
AcDbEntity
  8
DEFPOINTS
  6
BYBLOCK
 62
     0
100
AcDbPoint
 10
-569.438017
 20
317.559571
 30
0.0
  0
POINT
  5
CF9
100
AcDbEntity
  8
DEFPOINTS
  6
BYBLOCK
 62
     0
100
AcDbPoint
 10
-545.181024
 20
313.629581
 30
0.0
  0
POINT
  5
CFA
100
AcDbEntity
  8
DEFPOINTS
  6
BYBLOCK
 62
     0
100
AcDbPoint
 10
-545.181024
 20
330.500505
 30
0.0
  0
ENDBLK
  5
CFC
100
AcDbEntity
  8
0
100
AcDbBlockEnd
  0
BLOCK
  5
D08
100
AcDbEntity
  8
0
100
AcDbBlockBegin
  2
*D39
 70
    65
 10
0.0
 20
0.0
 30
0.0
  3
*D39
  1

  0
LINE
  5
CFE
100
AcDbEntity
  8
0
  6
BYBLOCK
 62
     0
100
AcDbLine
 10
-545.181024
 20
238.144927
 30
0.0
 11
-545.181024
 21
242.775898
 31
0.0
  0
LINE
  5
CFF
100
AcDbEntity
  8
0
  6
BYBLOCK
 62
     0
100
AcDbLine
 10
-423.906024
 20
233.144927
 30
0.0
 11
-423.906024
 21
242.775898
 31
0.0
  0
LINE
  5
D00
100
AcDbEntity
  8
0
  6
BYBLOCK
 62
     0
100
AcDbLine
 10
-543.831024
 20
241.425898
 30
0.0
 11
-500.968524
 21
241.425898
 31
0.0
  0
LINE
  5
D01
100
AcDbEntity
  8
0
  6
BYBLOCK
 62
     0
100
AcDbLine
 10
-425.256024
 20
241.425898
 30
0.0
 11
-468.118524
 21
241.425898
 31
0.0
  0
SOLID
  5
D02
100
AcDbEntity
  8
0
  6
BYBLOCK
 62
     0
100
AcDbTrace
 10
-543.831024
 20
241.650898
 30
0.0
 11
-543.831024
 21
241.200898
 31
0.0
 12
-545.181024
 22
241.425898
 32
0.0
 13
-545.181024
 23
241.425898
 33
0.0
  0
SOLID
  5
D03
100
AcDbEntity
  8
0
  6
BYBLOCK
 62
     0
100
AcDbTrace
 10
-425.256024
 20
241.650898
 30
0.0
 11
-425.256024
 21
241.200898
 31
0.0
 12
-423.906024
 22
241.425898
 32
0.0
 13
-423.906024
 23
241.425898
 33
0.0
  0
MTEXT
  5
D04
100
AcDbEntity
  8
0
  6
BYBLOCK
 62
     0
100
AcDbMText
 10
-484.543524
 20
241.425898
 30
0.0
 40
2.25
 41
0.0
 71
     5
 72
     1
  1
\A1;121.28mm[4.775"]
  0
POINT
  5
D05
100
AcDbEntity
  8
DEFPOINTS
  6
BYBLOCK
 62
     0
100
AcDbPoint
 10
-545.181024
 20
237.676177
 30
0.0
  0
POINT
  5
D06
100
AcDbEntity
  8
DEFPOINTS
  6
BYBLOCK
 62
     0
100
AcDbPoint
 10
-423.906024
 20
232.676177
 30
0.0
  0
POINT
  5
D07
100
AcDbEntity
  8
DEFPOINTS
  6
BYBLOCK
 62
     0
100
AcDbPoint
 10
-423.906024
 20
241.425898
 30
0.0
  0
ENDBLK
  5
D09
100
AcDbEntity
  8
0
100
AcDbBlockEnd
  0
BLOCK
  5
D15
100
AcDbEntity
  8
0
100
AcDbBlockBegin
  2
*D40
 70
    65
 10
0.0
 20
0.0
 30
0.0
  3
*D40
  1

  0
LINE
  5
D0B
100
AcDbEntity
  8
0
  6
BYBLOCK
 62
     0
100
AcDbLine
 10
-568.853817
 20
233.414937
 30
0.0
 11
-568.853817
 21
237.91296
 31
0.0
  0
LINE
  5
D0C
100
AcDbEntity
  8
0
  6
BYBLOCK
 62
     0
100
AcDbLine
 10
-573.853817
 20
232.714937
 30
0.0
 11
-573.853817
 21
237.91296
 31
0.0
  0
LINE
  5
D0D
100
AcDbEntity
  8
0
  6
BYBLOCK
 62
     0
100
AcDbLine
 10
-567.503817
 20
236.56296
 30
0.0
 11
-566.153817
 21
236.56296
 31
0.0
  0
LINE
  5
D0E
100
AcDbEntity
  8
0
  6
BYBLOCK
 62
     0
100
AcDbLine
 10
-575.203817
 20
236.56296
 30
0.0
 11
-576.553817
 21
236.56296
 31
0.0
  0
SOLID
  5
D0F
100
AcDbEntity
  8
0
  6
BYBLOCK
 62
     0
100
AcDbTrace
 10
-567.503817
 20
236.78796
 30
0.0
 11
-567.503817
 21
236.33796
 31
0.0
 12
-568.853817
 22
236.56296
 32
0.0
 13
-568.853817
 23
236.56296
 33
0.0
  0
SOLID
  5
D10
100
AcDbEntity
  8
0
  6
BYBLOCK
 62
     0
100
AcDbTrace
 10
-575.203817
 20
236.78796
 30
0.0
 11
-575.203817
 21
236.33796
 31
0.0
 12
-573.853817
 22
236.56296
 32
0.0
 13
-573.853817
 23
236.56296
 33
0.0
  0
MTEXT
  5
D11
100
AcDbEntity
  8
0
  6
BYBLOCK
 62
     0
100
AcDbMText
 10
-590.353817
 20
236.56296
 30
0.0
 40
2.25
 41
0.0
 71
     5
 72
     1
  1
\A1;5.00mm[0.197"]
  0
POINT
  5
D12
100
AcDbEntity
  8
DEFPOINTS
  6
BYBLOCK
 62
     0
100
AcDbPoint
 10
-568.853817
 20
232.946187
 30
0.0
  0
POINT
  5
D13
100
AcDbEntity
  8
DEFPOINTS
  6
BYBLOCK
 62
     0
100
AcDbPoint
 10
-573.853817
 20
232.246187
 30
0.0
  0
POINT
  5
D14
100
AcDbEntity
  8
DEFPOINTS
  6
BYBLOCK
 62
     0
100
AcDbPoint
 10
-573.853817
 20
236.56296
 30
0.0
  0
ENDBLK
  5
D16
100
AcDbEntity
  8
0
100
AcDbBlockEnd
  0
BLOCK
  5
D22
100
AcDbEntity
  8
0
100
AcDbBlockBegin
  2
*D41
 70
    65
 10
0.0
 20
0.0
 30
0.0
  3
*D41
  1

  0
LINE
  5
D18
100
AcDbEntity
  8
0
  6
BYBLOCK
 62
     0
100
AcDbLine
 10
-568.853817
 20
233.414937
 30
0.0
 11
-568.853817
 21
249.062137
 31
0.0
  0
LINE
  5
D19
100
AcDbEntity
  8
0
  6
BYBLOCK
 62
     0
100
AcDbLine
 10
-545.181024
 20
238.144927
 30
0.0
 11
-545.181024
 21
249.062137
 31
0.0
  0
LINE
  5
D1A
100
AcDbEntity
  8
0
  6
BYBLOCK
 62
     0
100
AcDbLine
 10
-570.203817
 20
247.712137
 30
0.0
 11
-571.553817
 21
247.712137
 31
0.0
  0
LINE
  5
D1B
100
AcDbEntity
  8
0
  6
BYBLOCK
 62
     0
100
AcDbLine
 10
-543.831024
 20
247.712137
 30
0.0
 11
-542.481024
 21
247.712137
 31
0.0
  0
SOLID
  5
D1C
100
AcDbEntity
  8
0
  6
BYBLOCK
 62
     0
100
AcDbTrace
 10
-570.203817
 20
247.937137
 30
0.0
 11
-570.203817
 21
247.487137
 31
0.0
 12
-568.853817
 22
247.712137
 32
0.0
 13
-568.853817
 23
247.712137
 33
0.0
  0
SOLID
  5
D1D
100
AcDbEntity
  8
0
  6
BYBLOCK
 62
     0
100
AcDbTrace
 10
-543.831024
 20
247.937137
 30
0.0
 11
-543.831024
 21
247.487137
 31
0.0
 12
-545.181024
 22
247.712137
 32
0.0
 13
-545.181024
 23
247.712137
 33
0.0
  0
MTEXT
  5
D1E
100
AcDbEntity
  8
0
  6
BYBLOCK
 62
     0
100
AcDbMText
 10
-526.993524
 20
247.712137
 30
0.0
 40
2.25
 41
0.0
 71
     5
 72
     1
  1
\A1;23.67mm[0.932"]
  0
POINT
  5
D1F
100
AcDbEntity
  8
DEFPOINTS
  6
BYBLOCK
 62
     0
100
AcDbPoint
 10
-568.853817
 20
232.946187
 30
0.0
  0
POINT
  5
D20
100
AcDbEntity
  8
DEFPOINTS
  6
BYBLOCK
 62
     0
100
AcDbPoint
 10
-545.181024
 20
237.676177
 30
0.0
  0
POINT
  5
D21
100
AcDbEntity
  8
DEFPOINTS
  6
BYBLOCK
 62
     0
100
AcDbPoint
 10
-545.181024
 20
247.712137
 30
0.0
  0
ENDBLK
  5
D23
100
AcDbEntity
  8
0
100
AcDbBlockEnd
  0
BLOCK
  5
DE6
100
AcDbEntity
  8
0
100
AcDbBlockBegin
  2
*X42
 70
    65
 10
0.0
 20
0.0
 30
0.0
  3
*X42
  1

  0
LINE
  5
D25
100
AcDbEntity
  8
0
 62
     0
100
AcDbLine
 10
-518.098371
 20
190.776177
 30
0.0
 11
-490.458371
 21
218.416177
 31
0.0
  0
LINE
  5
D26
100
AcDbEntity
  8
0
 62
     0
100
AcDbLine
 10
-490.458371
 20
218.416177
 30
0.0
 11
-473.698371
 21
235.176177
 31
0.0
  0
LINE
  5
D27
100
AcDbEntity
  8
0
 62
     0
100
AcDbLine
 10
-519.866138
 20
190.776177
 30
0.0
 11
-492.226138
 21
218.416177
 31
0.0
  0
LINE
  5
D28
100
AcDbEntity
  8
0
 62
     0
100
AcDbLine
 10
-492.226138
 20
218.416177
 30
0.0
 11
-475.466138
 21
235.176177
 31
0.0
  0
LINE
  5
D29
100
AcDbEntity
  8
0
 62
     0
100
AcDbLine
 10
-521.633905
 20
190.776177
 30
0.0
 11
-493.993905
 21
218.416177
 31
0.0
  0
LINE
  5
D2A
100
AcDbEntity
  8
0
 62
     0
100
AcDbLine
 10
-493.993905
 20
218.416177
 30
0.0
 11
-477.233905
 21
235.176177
 31
0.0
  0
LINE
  5
D2B
100
AcDbEntity
  8
0
 62
     0
100
AcDbLine
 10
-523.401672
 20
190.776177
 30
0.0
 11
-495.761672
 21
218.416177
 31
0.0
  0
LINE
  5
D2C
100
AcDbEntity
  8
0
 62
     0
100
AcDbLine
 10
-495.761672
 20
218.416177
 30
0.0
 11
-479.001672
 21
235.176177
 31
0.0
  0
LINE
  5
D2D
100
AcDbEntity
  8
0
 62
     0
100
AcDbLine
 10
-525.169439
 20
190.776177
 30
0.0
 11
-497.529439
 21
218.416177
 31
0.0
  0
LINE
  5
D2E
100
AcDbEntity
  8
0
 62
     0
100
AcDbLine
 10
-497.529439
 20
218.416177
 30
0.0
 11
-480.769439
 21
235.176177
 31
0.0
  0
LINE
  5
D2F
100
AcDbEntity
  8
0
 62
     0
100
AcDbLine
 10
-526.937206
 20
190.776177
 30
0.0
 11
-499.297206
 21
218.416177
 31
0.0
  0
LINE
  5
D30
100
AcDbEntity
  8
0
 62
     0
100
AcDbLine
 10
-499.297206
 20
218.416177
 30
0.0
 11
-482.537206
 21
235.176177
 31
0.0
  0
LINE
  5
D31
100
AcDbEntity
  8
0
 62
     0
100
AcDbLine
 10
-528.704973
 20
190.776177
 30
0.0
 11
-501.064973
 21
218.416177
 31
0.0
  0
LINE
  5
D32
100
AcDbEntity
  8
0
 62
     0
100
AcDbLine
 10
-501.064973
 20
218.416177
 30
0.0
 11
-484.304973
 21
235.176177
 31
0.0
  0
LINE
  5
D33
100
AcDbEntity
  8
0
 62
     0
100
AcDbLine
 10
-530.47274
 20
190.776177
 30
0.0
 11
-502.83274
 21
218.416177
 31
0.0
  0
LINE
  5
D34
100
AcDbEntity
  8
0
 62
     0
100
AcDbLine
 10
-502.83274
 20
218.416177
 30
0.0
 11
-486.07274
 21
235.176177
 31
0.0
  0
LINE
  5
D35
100
AcDbEntity
  8
0
 62
     0
100
AcDbLine
 10
-532.240507
 20
190.776177
 30
0.0
 11
-504.600507
 21
218.416177
 31
0.0
  0
LINE
  5
D36
100
AcDbEntity
  8
0
 62
     0
100
AcDbLine
 10
-504.600507
 20
218.416177
 30
0.0
 11
-487.840507
 21
235.176177
 31
0.0
  0
LINE
  5
D37
100
AcDbEntity
  8
0
 62
     0
100
AcDbLine
 10
-534.008274
 20
190.776177
 30
0.0
 11
-506.368274
 21
218.416177
 31
0.0
  0
LINE
  5
D38
100
AcDbEntity
  8
0
 62
     0
100
AcDbLine
 10
-506.368274
 20
218.416177
 30
0.0
 11
-489.608274
 21
235.176177
 31
0.0
  0
LINE
  5
D39
100
AcDbEntity
  8
0
 62
     0
100
AcDbLine
 10
-535.776041
 20
190.776177
 30
0.0
 11
-508.136041
 21
218.416177
 31
0.0
  0
LINE
  5
D3A
100
AcDbEntity
  8
0
 62
     0
100
AcDbLine
 10
-508.136041
 20
218.416177
 30
0.0
 11
-491.376041
 21
235.176177
 31
0.0
  0
LINE
  5
D3B
100
AcDbEntity
  8
0
 62
     0
100
AcDbLine
 10
-537.543808
 20
190.776177
 30
0.0
 11
-509.903808
 21
218.416177
 31
0.0
  0
LINE
  5
D3C
100
AcDbEntity
  8
0
 62
     0
100
AcDbLine
 10
-509.903808
 20
218.416177
 30
0.0
 11
-493.143808
 21
235.176177
 31
0.0
  0
LINE
  5
D3D
100
AcDbEntity
  8
0
 62
     0
100
AcDbLine
 10
-539.311575
 20
190.776177
 30
0.0
 11
-511.671575
 21
218.416177
 31
0.0
  0
LINE
  5
D3E
100
AcDbEntity
  8
0
 62
     0
100
AcDbLine
 10
-511.671575
 20
218.416177
 30
0.0
 11
-494.911575
 21
235.176177
 31
0.0
  0
LINE
  5
D3F
100
AcDbEntity
  8
0
 62
     0
100
AcDbLine
 10
-541.079342
 20
190.776177
 30
0.0
 11
-513.439342
 21
218.416177
 31
0.0
  0
LINE
  5
D40
100
AcDbEntity
  8
0
 62
     0
100
AcDbLine
 10
-513.439342
 20
218.416177
 30
0.0
 11
-496.679342
 21
235.176177
 31
0.0
  0
LINE
  5
D41
100
AcDbEntity
  8
0
 62
     0
100
AcDbLine
 10
-542.847109
 20
190.776177
 30
0.0
 11
-515.207109
 21
218.416177
 31
0.0
  0
LINE
  5
D42
100
AcDbEntity
  8
0
 62
     0
100
AcDbLine
 10
-515.207109
 20
218.416177
 30
0.0
 11
-498.447109
 21
235.176177
 31
0.0
  0
LINE
  5
D43
100
AcDbEntity
  8
0
 62
     0
100
AcDbLine
 10
-544.614876
 20
190.776177
 30
0.0
 11
-516.974876
 21
218.416177
 31
0.0
  0
LINE
  5
D44
100
AcDbEntity
  8
0
 62
     0
100
AcDbLine
 10
-516.974876
 20
218.416177
 30
0.0
 11
-500.214876
 21
235.176177
 31
0.0
  0
LINE
  5
D45
100
AcDbEntity
  8
0
 62
     0
100
AcDbLine
 10
-545.181024
 20
191.977796
 30
0.0
 11
-518.742642
 21
218.416177
 31
0.0
  0
LINE
  5
D46
100
AcDbEntity
  8
0
 62
     0
100
AcDbLine
 10
-518.742642
 20
218.416177
 30
0.0
 11
-501.982642
 21
235.176177
 31
0.0
  0
LINE
  5
D47
100
AcDbEntity
  8
0
 62
     0
100
AcDbLine
 10
-545.181024
 20
193.745563
 30
0.0
 11
-520.510409
 21
218.416177
 31
0.0
  0
LINE
  5
D48
100
AcDbEntity
  8
0
 62
     0
100
AcDbLine
 10
-520.510409
 20
218.416177
 30
0.0
 11
-503.750409
 21
235.176177
 31
0.0
  0
LINE
  5
D49
100
AcDbEntity
  8
0
 62
     0
100
AcDbLine
 10
-545.181024
 20
195.51333
 30
0.0
 11
-522.278176
 21
218.416177
 31
0.0
  0
LINE
  5
D4A
100
AcDbEntity
  8
0
 62
     0
100
AcDbLine
 10
-522.278176
 20
218.416177
 30
0.0
 11
-505.518176
 21
235.176177
 31
0.0
  0
LINE
  5
D4B
100
AcDbEntity
  8
0
 62
     0
100
AcDbLine
 10
-545.181024
 20
197.281097
 30
0.0
 11
-524.045943
 21
218.416177
 31
0.0
  0
LINE
  5
D4C
100
AcDbEntity
  8
0
 62
     0
100
AcDbLine
 10
-524.045943
 20
218.416177
 30
0.0
 11
-507.285943
 21
235.176177
 31
0.0
  0
LINE
  5
D4D
100
AcDbEntity
  8
0
 62
     0
100
AcDbLine
 10
-545.181024
 20
199.048864
 30
0.0
 11
-525.81371
 21
218.416177
 31
0.0
  0
LINE
  5
D4E
100
AcDbEntity
  8
0
 62
     0
100
AcDbLine
 10
-525.81371
 20
218.416177
 30
0.0
 11
-509.05371
 21
235.176177
 31
0.0
  0
LINE
  5
D4F
100
AcDbEntity
  8
0
 62
     0
100
AcDbLine
 10
-545.181024
 20
200.816631
 30
0.0
 11
-527.581477
 21
218.416177
 31
0.0
  0
LINE
  5
D50
100
AcDbEntity
  8
0
 62
     0
100
AcDbLine
 10
-527.581477
 20
218.416177
 30
0.0
 11
-510.821477
 21
235.176177
 31
0.0
  0
LINE
  5
D51
100
AcDbEntity
  8
0
 62
     0
100
AcDbLine
 10
-545.181024
 20
202.584398
 30
0.0
 11
-529.349244
 21
218.416177
 31
0.0
  0
LINE
  5
D52
100
AcDbEntity
  8
0
 62
     0
100
AcDbLine
 10
-529.349244
 20
218.416177
 30
0.0
 11
-512.589244
 21
235.176177
 31
0.0
  0
LINE
  5
D53
100
AcDbEntity
  8
0
 62
     0
100
AcDbLine
 10
-545.181024
 20
204.352164
 30
0.0
 11
-531.117011
 21
218.416177
 31
0.0
  0
LINE
  5
D54
100
AcDbEntity
  8
0
 62
     0
100
AcDbLine
 10
-531.117011
 20
218.416177
 30
0.0
 11
-514.357011
 21
235.176177
 31
0.0
  0
LINE
  5
D55
100
AcDbEntity
  8
0
 62
     0
100
AcDbLine
 10
-545.181024
 20
206.119931
 30
0.0
 11
-532.884778
 21
218.416177
 31
0.0
  0
LINE
  5
D56
100
AcDbEntity
  8
0
 62
     0
100
AcDbLine
 10
-532.884778
 20
218.416177
 30
0.0
 11
-516.124778
 21
235.176177
 31
0.0
  0
LINE
  5
D57
100
AcDbEntity
  8
0
 62
     0
100
AcDbLine
 10
-545.181024
 20
207.887698
 30
0.0
 11
-534.652545
 21
218.416177
 31
0.0
  0
LINE
  5
D58
100
AcDbEntity
  8
0
 62
     0
100
AcDbLine
 10
-534.652545
 20
218.416177
 30
0.0
 11
-517.892545
 21
235.176177
 31
0.0
  0
LINE
  5
D59
100
AcDbEntity
  8
0
 62
     0
100
AcDbLine
 10
-545.181024
 20
209.655465
 30
0.0
 11
-536.420312
 21
218.416177
 31
0.0
  0
LINE
  5
D5A
100
AcDbEntity
  8
0
 62
     0
100
AcDbLine
 10
-536.420312
 20
218.416177
 30
0.0
 11
-519.660312
 21
235.176177
 31
0.0
  0
LINE
  5
D5B
100
AcDbEntity
  8
0
 62
     0
100
AcDbLine
 10
-569.758069
 20
186.846187
 30
0.0
 11
-568.853817
 21
187.750439
 31
0.0
  0
LINE
  5
D5C
100
AcDbEntity
  8
0
 62
     0
100
AcDbLine
 10
-538.188079
 20
218.416177
 30
0.0
 11
-521.428079
 21
235.176177
 31
0.0
  0
LINE
  5
D5D
100
AcDbEntity
  8
0
 62
     0
100
AcDbLine
 10
-545.181024
 20
211.423232
 30
0.0
 11
-538.188079
 21
218.416177
 31
0.0
  0
LINE
  5
D5E
100
AcDbEntity
  8
0
 62
     0
100
AcDbLine
 10
-571.525836
 20
186.846187
 30
0.0
 11
-568.853817
 21
189.518206
 31
0.0
  0
LINE
  5
D5F
100
AcDbEntity
  8
0
 62
     0
100
AcDbLine
 10
-539.955846
 20
218.416177
 30
0.0
 11
-523.195846
 21
235.176177
 31
0.0
  0
LINE
  5
D60
100
AcDbEntity
  8
0
 62
     0
100
AcDbLine
 10
-545.181024
 20
213.190999
 30
0.0
 11
-539.955846
 21
218.416177
 31
0.0
  0
LINE
  5
D61
100
AcDbEntity
  8
0
 62
     0
100
AcDbLine
 10
-573.293603
 20
186.846187
 30
0.0
 11
-568.853817
 21
191.285973
 31
0.0
  0
LINE
  5
D62
100
AcDbEntity
  8
0
 62
     0
100
AcDbLine
 10
-541.723613
 20
218.416177
 30
0.0
 11
-524.963613
 21
235.176177
 31
0.0
  0
LINE
  5
D63
100
AcDbEntity
  8
0
 62
     0
100
AcDbLine
 10
-545.181024
 20
214.958766
 30
0.0
 11
-541.723613
 21
218.416177
 31
0.0
  0
LINE
  5
D64
100
AcDbEntity
  8
0
 62
     0
100
AcDbLine
 10
-573.853817
 20
188.05374
 30
0.0
 11
-568.853817
 21
193.05374
 31
0.0
  0
LINE
  5
D65
100
AcDbEntity
  8
0
 62
     0
100
AcDbLine
 10
-543.49138
 20
218.416177
 30
0.0
 11
-526.73138
 21
235.176177
 31
0.0
  0
LINE
  5
D66
100
AcDbEntity
  8
0
 62
     0
100
AcDbLine
 10
-545.181024
 20
216.726533
 30
0.0
 11
-543.49138
 21
218.416177
 31
0.0
  0
LINE
  5
D67
100
AcDbEntity
  8
0
 62
     0
100
AcDbLine
 10
-573.853817
 20
189.821507
 30
0.0
 11
-568.853817
 21
194.821507
 31
0.0
  0
LINE
  5
D68
100
AcDbEntity
  8
0
 62
     0
100
AcDbLine
 10
-545.181024
 20
218.4943
 30
0.0
 11
-528.499147
 21
235.176177
 31
0.0
  0
LINE
  5
D69
100
AcDbEntity
  8
0
 62
     0
100
AcDbLine
 10
-573.853817
 20
191.589274
 30
0.0
 11
-568.853817
 21
196.589274
 31
0.0
  0
LINE
  5
D6A
100
AcDbEntity
  8
0
 62
     0
100
AcDbLine
 10
-545.181024
 20
220.262067
 30
0.0
 11
-530.266914
 21
235.176177
 31
0.0
  0
LINE
  5
D6B
100
AcDbEntity
  8
0
 62
     0
100
AcDbLine
 10
-573.853817
 20
193.357041
 30
0.0
 11
-568.853817
 21
198.357041
 31
0.0
  0
LINE
  5
D6C
100
AcDbEntity
  8
0
 62
     0
100
AcDbLine
 10
-545.181024
 20
222.029834
 30
0.0
 11
-532.034681
 21
235.176177
 31
0.0
  0
LINE
  5
D6D
100
AcDbEntity
  8
0
 62
     0
100
AcDbLine
 10
-573.853817
 20
195.124808
 30
0.0
 11
-568.853817
 21
200.124808
 31
0.0
  0
LINE
  5
D6E
100
AcDbEntity
  8
0
 62
     0
100
AcDbLine
 10
-545.181024
 20
223.797601
 30
0.0
 11
-533.802448
 21
235.176177
 31
0.0
  0
LINE
  5
D6F
100
AcDbEntity
  8
0
 62
     0
100
AcDbLine
 10
-573.853817
 20
196.892575
 30
0.0
 11
-568.853817
 21
201.892575
 31
0.0
  0
LINE
  5
D70
100
AcDbEntity
  8
0
 62
     0
100
AcDbLine
 10
-545.181024
 20
225.565368
 30
0.0
 11
-535.570215
 21
235.176177
 31
0.0
  0
LINE
  5
D71
100
AcDbEntity
  8
0
 62
     0
100
AcDbLine
 10
-573.853817
 20
198.660342
 30
0.0
 11
-568.853817
 21
203.660342
 31
0.0
  0
LINE
  5
D72
100
AcDbEntity
  8
0
 62
     0
100
AcDbLine
 10
-545.181024
 20
227.333135
 30
0.0
 11
-537.337982
 21
235.176177
 31
0.0
  0
LINE
  5
D73
100
AcDbEntity
  8
0
 62
     0
100
AcDbLine
 10
-573.853817
 20
200.428109
 30
0.0
 11
-568.853817
 21
205.428109
 31
0.0
  0
LINE
  5
D74
100
AcDbEntity
  8
0
 62
     0
100
AcDbLine
 10
-545.181024
 20
229.100902
 30
0.0
 11
-539.105749
 21
235.176177
 31
0.0
  0
LINE
  5
D75
100
AcDbEntity
  8
0
 62
     0
100
AcDbLine
 10
-573.853817
 20
202.195876
 30
0.0
 11
-568.853817
 21
207.195876
 31
0.0
  0
LINE
  5
D76
100
AcDbEntity
  8
0
 62
     0
100
AcDbLine
 10
-545.181024
 20
230.868669
 30
0.0
 11
-540.873515
 21
235.176177
 31
0.0
  0
LINE
  5
D77
100
AcDbEntity
  8
0
 62
     0
100
AcDbLine
 10
-573.853817
 20
203.963643
 30
0.0
 11
-568.853817
 21
208.963643
 31
0.0
  0
LINE
  5
D78
100
AcDbEntity
  8
0
 62
     0
100
AcDbLine
 10
-545.181024
 20
232.636436
 30
0.0
 11
-542.641282
 21
235.176177
 31
0.0
  0
LINE
  5
D79
100
AcDbEntity
  8
0
 62
     0
100
AcDbLine
 10
-573.853817
 20
205.73141
 30
0.0
 11
-568.853817
 21
210.73141
 31
0.0
  0
LINE
  5
D7A
100
AcDbEntity
  8
0
 62
     0
100
AcDbLine
 10
-545.181024
 20
234.404203
 30
0.0
 11
-544.409049
 21
235.176177
 31
0.0
  0
LINE
  5
D7B
100
AcDbEntity
  8
0
 62
     0
100
AcDbLine
 10
-573.853817
 20
207.499177
 30
0.0
 11
-568.853817
 21
212.499177
 31
0.0
  0
LINE
  5
D7C
100
AcDbEntity
  8
0
 62
     0
100
AcDbLine
 10
-573.853817
 20
209.266944
 30
0.0
 11
-568.853817
 21
214.266944
 31
0.0
  0
LINE
  5
D7D
100
AcDbEntity
  8
0
 62
     0
100
AcDbLine
 10
-573.853817
 20
211.03471
 30
0.0
 11
-568.853817
 21
216.03471
 31
0.0
  0
LINE
  5
D7E
100
AcDbEntity
  8
0
 62
     0
100
AcDbLine
 10
-573.853817
 20
212.802477
 30
0.0
 11
-568.853817
 21
217.802477
 31
0.0
  0
LINE
  5
D7F
100
AcDbEntity
  8
0
 62
     0
100
AcDbLine
 10
-573.853817
 20
214.570244
 30
0.0
 11
-570.007884
 21
218.416177
 31
0.0
  0
LINE
  5
D80
100
AcDbEntity
  8
0
 62
     0
100
AcDbLine
 10
-570.007884
 20
218.416177
 30
0.0
 11
-568.853817
 21
219.570244
 31
0.0
  0
LINE
  5
D81
100
AcDbEntity
  8
0
 62
     0
100
AcDbLine
 10
-573.853817
 20
216.338011
 30
0.0
 11
-571.775651
 21
218.416177
 31
0.0
  0
LINE
  5
D82
100
AcDbEntity
  8
0
 62
     0
100
AcDbLine
 10
-571.775651
 20
218.416177
 30
0.0
 11
-568.853817
 21
221.338011
 31
0.0
  0
LINE
  5
D83
100
AcDbEntity
  8
0
 62
     0
100
AcDbLine
 10
-573.853817
 20
218.105778
 30
0.0
 11
-573.543418
 21
218.416177
 31
0.0
  0
LINE
  5
D84
100
AcDbEntity
  8
0
 62
     0
100
AcDbLine
 10
-573.543418
 20
218.416177
 30
0.0
 11
-568.853817
 21
223.105778
 31
0.0
  0
LINE
  5
D85
100
AcDbEntity
  8
0
 62
     0
100
AcDbLine
 10
-573.853817
 20
219.873545
 30
0.0
 11
-568.853817
 21
224.873545
 31
0.0
  0
LINE
  5
D86
100
AcDbEntity
  8
0
 62
     0
100
AcDbLine
 10
-573.853817
 20
221.641312
 30
0.0
 11
-568.853817
 21
226.641312
 31
0.0
  0
LINE
  5
D87
100
AcDbEntity
  8
0
 62
     0
100
AcDbLine
 10
-573.853817
 20
223.409079
 30
0.0
 11
-568.853817
 21
228.409079
 31
0.0
  0
LINE
  5
D88
100
AcDbEntity
  8
0
 62
     0
100
AcDbLine
 10
-573.853817
 20
225.176846
 30
0.0
 11
-568.853817
 21
230.176846
 31
0.0
  0
LINE
  5
D89
100
AcDbEntity
  8
0
 62
     0
100
AcDbLine
 10
-573.853817
 20
226.944613
 30
0.0
 11
-568.853817
 21
231.944613
 31
0.0
  0
LINE
  5
D8A
100
AcDbEntity
  8
0
 62
     0
100
AcDbLine
 10
-573.853817
 20
228.71238
 30
0.0
 11
-570.32001
 21
232.246187
 31
0.0
  0
LINE
  5
D8B
100
AcDbEntity
  8
0
 62
     0
100
AcDbLine
 10
-573.853817
 20
230.480147
 30
0.0
 11
-572.087777
 21
232.246187
 31
0.0
  0
LINE
  5
D8C
100
AcDbEntity
  8
0
 62
     0
100
AcDbLine
 10
-516.330604
 20
190.776177
 30
0.0
 11
-488.690604
 21
218.416177
 31
0.0
  0
LINE
  5
D8D
100
AcDbEntity
  8
0
 62
     0
100
AcDbLine
 10
-488.690604
 20
218.416177
 30
0.0
 11
-471.930604
 21
235.176177
 31
0.0
  0
LINE
  5
D8E
100
AcDbEntity
  8
0
 62
     0
100
AcDbLine
 10
-514.562837
 20
190.776177
 30
0.0
 11
-486.922837
 21
218.416177
 31
0.0
  0
LINE
  5
D8F
100
AcDbEntity
  8
0
 62
     0
100
AcDbLine
 10
-486.922837
 20
218.416177
 30
0.0
 11
-470.162837
 21
235.176177
 31
0.0
  0
LINE
  5
D90
100
AcDbEntity
  8
0
 62
     0
100
AcDbLine
 10
-512.79507
 20
190.776177
 30
0.0
 11
-485.15507
 21
218.416177
 31
0.0
  0
LINE
  5
D91
100
AcDbEntity
  8
0
 62
     0
100
AcDbLine
 10
-485.15507
 20
218.416177
 30
0.0
 11
-468.39507
 21
235.176177
 31
0.0
  0
LINE
  5
D92
100
AcDbEntity
  8
0
 62
     0
100
AcDbLine
 10
-511.027303
 20
190.776177
 30
0.0
 11
-483.387303
 21
218.416177
 31
0.0
  0
LINE
  5
D93
100
AcDbEntity
  8
0
 62
     0
100
AcDbLine
 10
-483.387303
 20
218.416177
 30
0.0
 11
-466.627303
 21
235.176177
 31
0.0
  0
LINE
  5
D94
100
AcDbEntity
  8
0
 62
     0
100
AcDbLine
 10
-509.259536
 20
190.776177
 30
0.0
 11
-481.619536
 21
218.416177
 31
0.0
  0
LINE
  5
D95
100
AcDbEntity
  8
0
 62
     0
100
AcDbLine
 10
-481.619536
 20
218.416177
 30
0.0
 11
-464.859536
 21
235.176177
 31
0.0
  0
LINE
  5
D96
100
AcDbEntity
  8
0
 62
     0
100
AcDbLine
 10
-507.49177
 20
190.776177
 30
0.0
 11
-479.85177
 21
218.416177
 31
0.0
  0
LINE
  5
D97
100
AcDbEntity
  8
0
 62
     0
100
AcDbLine
 10
-479.85177
 20
218.416177
 30
0.0
 11
-463.09177
 21
235.176177
 31
0.0
  0
LINE
  5
D98
100
AcDbEntity
  8
0
 62
     0
100
AcDbLine
 10
-505.724003
 20
190.776177
 30
0.0
 11
-478.084003
 21
218.416177
 31
0.0
  0
LINE
  5
D99
100
AcDbEntity
  8
0
 62
     0
100
AcDbLine
 10
-478.084003
 20
218.416177
 30
0.0
 11
-461.324003
 21
235.176177
 31
0.0
  0
LINE
  5
D9A
100
AcDbEntity
  8
0
 62
     0
100
AcDbLine
 10
-503.956236
 20
190.776177
 30
0.0
 11
-476.316236
 21
218.416177
 31
0.0
  0
LINE
  5
D9B
100
AcDbEntity
  8
0
 62
     0
100
AcDbLine
 10
-476.316236
 20
218.416177
 30
0.0
 11
-459.556236
 21
235.176177
 31
0.0
  0
LINE
  5
D9C
100
AcDbEntity
  8
0
 62
     0
100
AcDbLine
 10
-502.188469
 20
190.776177
 30
0.0
 11
-474.548469
 21
218.416177
 31
0.0
  0
LINE
  5
D9D
100
AcDbEntity
  8
0
 62
     0
100
AcDbLine
 10
-474.548469
 20
218.416177
 30
0.0
 11
-457.788469
 21
235.176177
 31
0.0
  0
LINE
  5
D9E
100
AcDbEntity
  8
0
 62
     0
100
AcDbLine
 10
-500.420702
 20
190.776177
 30
0.0
 11
-472.780702
 21
218.416177
 31
0.0
  0
LINE
  5
D9F
100
AcDbEntity
  8
0
 62
     0
100
AcDbLine
 10
-472.780702
 20
218.416177
 30
0.0
 11
-456.020702
 21
235.176177
 31
0.0
  0
LINE
  5
DA0
100
AcDbEntity
  8
0
 62
     0
100
AcDbLine
 10
-498.652935
 20
190.776177
 30
0.0
 11
-471.012935
 21
218.416177
 31
0.0
  0
LINE
  5
DA1
100
AcDbEntity
  8
0
 62
     0
100
AcDbLine
 10
-471.012935
 20
218.416177
 30
0.0
 11
-454.252935
 21
235.176177
 31
0.0
  0
LINE
  5
DA2
100
AcDbEntity
  8
0
 62
     0
100
AcDbLine
 10
-496.885168
 20
190.776177
 30
0.0
 11
-469.245168
 21
218.416177
 31
0.0
  0
LINE
  5
DA3
100
AcDbEntity
  8
0
 62
     0
100
AcDbLine
 10
-469.245168
 20
218.416177
 30
0.0
 11
-452.485168
 21
235.176177
 31
0.0
  0
LINE
  5
DA4
100
AcDbEntity
  8
0
 62
     0
100
AcDbLine
 10
-495.117401
 20
190.776177
 30
0.0
 11
-467.477401
 21
218.416177
 31
0.0
  0
LINE
  5
DA5
100
AcDbEntity
  8
0
 62
     0
100
AcDbLine
 10
-467.477401
 20
218.416177
 30
0.0
 11
-450.717401
 21
235.176177
 31
0.0
  0
LINE
  5
DA6
100
AcDbEntity
  8
0
 62
     0
100
AcDbLine
 10
-493.349634
 20
190.776177
 30
0.0
 11
-465.709634
 21
218.416177
 31
0.0
  0
LINE
  5
DA7
100
AcDbEntity
  8
0
 62
     0
100
AcDbLine
 10
-465.709634
 20
218.416177
 30
0.0
 11
-448.949634
 21
235.176177
 31
0.0
  0
LINE
  5
DA8
100
AcDbEntity
  8
0
 62
     0
100
AcDbLine
 10
-491.581867
 20
190.776177
 30
0.0
 11
-463.941867
 21
218.416177
 31
0.0
  0
LINE
  5
DA9
100
AcDbEntity
  8
0
 62
     0
100
AcDbLine
 10
-463.941867
 20
218.416177
 30
0.0
 11
-447.181867
 21
235.176177
 31
0.0
  0
LINE
  5
DAA
100
AcDbEntity
  8
0
 62
     0
100
AcDbLine
 10
-489.8141
 20
190.776177
 30
0.0
 11
-462.1741
 21
218.416177
 31
0.0
  0
LINE
  5
DAB
100
AcDbEntity
  8
0
 62
     0
100
AcDbLine
 10
-462.1741
 20
218.416177
 30
0.0
 11
-445.4141
 21
235.176177
 31
0.0
  0
LINE
  5
DAC
100
AcDbEntity
  8
0
 62
     0
100
AcDbLine
 10
-488.046333
 20
190.776177
 30
0.0
 11
-460.406333
 21
218.416177
 31
0.0
  0
LINE
  5
DAD
100
AcDbEntity
  8
0
 62
     0
100
AcDbLine
 10
-460.406333
 20
218.416177
 30
0.0
 11
-443.646333
 21
235.176177
 31
0.0
  0
LINE
  5
DAE
100
AcDbEntity
  8
0
 62
     0
100
AcDbLine
 10
-486.278566
 20
190.776177
 30
0.0
 11
-458.638566
 21
218.416177
 31
0.0
  0
LINE
  5
DAF
100
AcDbEntity
  8
0
 62
     0
100
AcDbLine
 10
-458.638566
 20
218.416177
 30
0.0
 11
-441.878566
 21
235.176177
 31
0.0
  0
LINE
  5
DB0
100
AcDbEntity
  8
0
 62
     0
100
AcDbLine
 10
-484.510799
 20
190.776177
 30
0.0
 11
-456.870799
 21
218.416177
 31
0.0
  0
LINE
  5
DB1
100
AcDbEntity
  8
0
 62
     0
100
AcDbLine
 10
-456.870799
 20
218.416177
 30
0.0
 11
-440.110799
 21
235.176177
 31
0.0
  0
LINE
  5
DB2
100
AcDbEntity
  8
0
 62
     0
100
AcDbLine
 10
-482.743032
 20
190.776177
 30
0.0
 11
-455.103032
 21
218.416177
 31
0.0
  0
LINE
  5
DB3
100
AcDbEntity
  8
0
 62
     0
100
AcDbLine
 10
-455.103032
 20
218.416177
 30
0.0
 11
-438.343032
 21
235.176177
 31
0.0
  0
LINE
  5
DB4
100
AcDbEntity
  8
0
 62
     0
100
AcDbLine
 10
-480.975265
 20
190.776177
 30
0.0
 11
-453.335265
 21
218.416177
 31
0.0
  0
LINE
  5
DB5
100
AcDbEntity
  8
0
 62
     0
100
AcDbLine
 10
-453.335265
 20
218.416177
 30
0.0
 11
-436.575265
 21
235.176177
 31
0.0
  0
LINE
  5
DB6
100
AcDbEntity
  8
0
 62
     0
100
AcDbLine
 10
-479.207498
 20
190.776177
 30
0.0
 11
-451.567498
 21
218.416177
 31
0.0
  0
LINE
  5
DB7
100
AcDbEntity
  8
0
 62
     0
100
AcDbLine
 10
-451.567498
 20
218.416177
 30
0.0
 11
-434.807498
 21
235.176177
 31
0.0
  0
LINE
  5
DB8
100
AcDbEntity
  8
0
 62
     0
100
AcDbLine
 10
-477.439731
 20
190.776177
 30
0.0
 11
-449.799731
 21
218.416177
 31
0.0
  0
LINE
  5
DB9
100
AcDbEntity
  8
0
 62
     0
100
AcDbLine
 10
-449.799731
 20
218.416177
 30
0.0
 11
-433.039731
 21
235.176177
 31
0.0
  0
LINE
  5
DBA
100
AcDbEntity
  8
0
 62
     0
100
AcDbLine
 10
-475.671964
 20
190.776177
 30
0.0
 11
-448.031964
 21
218.416177
 31
0.0
  0
LINE
  5
DBB
100
AcDbEntity
  8
0
 62
     0
100
AcDbLine
 10
-448.031964
 20
218.416177
 30
0.0
 11
-431.271964
 21
235.176177
 31
0.0
  0
LINE
  5
DBC
100
AcDbEntity
  8
0
 62
     0
100
AcDbLine
 10
-473.904197
 20
190.776177
 30
0.0
 11
-446.264197
 21
218.416177
 31
0.0
  0
LINE
  5
DBD
100
AcDbEntity
  8
0
 62
     0
100
AcDbLine
 10
-446.264197
 20
218.416177
 30
0.0
 11
-429.504197
 21
235.176177
 31
0.0
  0
LINE
  5
DBE
100
AcDbEntity
  8
0
 62
     0
100
AcDbLine
 10
-472.13643
 20
190.776177
 30
0.0
 11
-444.49643
 21
218.416177
 31
0.0
  0
LINE
  5
DBF
100
AcDbEntity
  8
0
 62
     0
100
AcDbLine
 10
-444.49643
 20
218.416177
 30
0.0
 11
-427.73643
 21
235.176177
 31
0.0
  0
LINE
  5
DC0
100
AcDbEntity
  8
0
 62
     0
100
AcDbLine
 10
-470.368664
 20
190.776177
 30
0.0
 11
-442.728664
 21
218.416177
 31
0.0
  0
LINE
  5
DC1
100
AcDbEntity
  8
0
 62
     0
100
AcDbLine
 10
-442.728664
 20
218.416177
 30
0.0
 11
-425.968664
 21
235.176177
 31
0.0
  0
LINE
  5
DC2
100
AcDbEntity
  8
0
 62
     0
100
AcDbLine
 10
-468.600897
 20
190.776177
 30
0.0
 11
-440.960897
 21
218.416177
 31
0.0
  0
LINE
  5
DC3
100
AcDbEntity
  8
0
 62
     0
100
AcDbLine
 10
-440.960897
 20
218.416177
 30
0.0
 11
-424.200897
 21
235.176177
 31
0.0
  0
LINE
  5
DC4
100
AcDbEntity
  8
0
 62
     0
100
AcDbLine
 10
-466.83313
 20
190.776177
 30
0.0
 11
-439.19313
 21
218.416177
 31
0.0
  0
LINE
  5
DC5
100
AcDbEntity
  8
0
 62
     0
100
AcDbLine
 10
-439.19313
 20
218.416177
 30
0.0
 11
-423.906024
 21
233.703283
 31
0.0
  0
LINE
  5
DC6
100
AcDbEntity
  8
0
 62
     0
100
AcDbLine
 10
-465.065363
 20
190.776177
 30
0.0
 11
-437.425363
 21
218.416177
 31
0.0
  0
LINE
  5
DC7
100
AcDbEntity
  8
0
 62
     0
100
AcDbLine
 10
-437.425363
 20
218.416177
 30
0.0
 11
-423.906024
 21
231.935516
 31
0.0
  0
LINE
  5
DC8
100
AcDbEntity
  8
0
 62
     0
100
AcDbLine
 10
-463.297596
 20
190.776177
 30
0.0
 11
-435.657596
 21
218.416177
 31
0.0
  0
LINE
  5
DC9
100
AcDbEntity
  8
0
 62
     0
100
AcDbLine
 10
-435.657596
 20
218.416177
 30
0.0
 11
-423.906024
 21
230.167749
 31
0.0
  0
LINE
  5
DCA
100
AcDbEntity
  8
0
 62
     0
100
AcDbLine
 10
-461.529829
 20
190.776177
 30
0.0
 11
-433.889829
 21
218.416177
 31
0.0
  0
LINE
  5
DCB
100
AcDbEntity
  8
0
 62
     0
100
AcDbLine
 10
-433.889829
 20
218.416177
 30
0.0
 11
-423.906024
 21
228.399982
 31
0.0
  0
LINE
  5
DCC
100
AcDbEntity
  8
0
 62
     0
100
AcDbLine
 10
-459.762062
 20
190.776177
 30
0.0
 11
-432.122062
 21
218.416177
 31
0.0
  0
LINE
  5
DCD
100
AcDbEntity
  8
0
 62
     0
100
AcDbLine
 10
-432.122062
 20
218.416177
 30
0.0
 11
-423.906024
 21
226.632215
 31
0.0
  0
LINE
  5
DCE
100
AcDbEntity
  8
0
 62
     0
100
AcDbLine
 10
-457.994295
 20
190.776177
 30
0.0
 11
-430.354295
 21
218.416177
 31
0.0
  0
LINE
  5
DCF
100
AcDbEntity
  8
0
 62
     0
100
AcDbLine
 10
-430.354295
 20
218.416177
 30
0.0
 11
-423.906024
 21
224.864448
 31
0.0
  0
LINE
  5
DD0
100
AcDbEntity
  8
0
 62
     0
100
AcDbLine
 10
-456.226528
 20
190.776177
 30
0.0
 11
-428.586528
 21
218.416177
 31
0.0
  0
LINE
  5
DD1
100
AcDbEntity
  8
0
 62
     0
100
AcDbLine
 10
-428.586528
 20
218.416177
 30
0.0
 11
-423.906024
 21
223.096681
 31
0.0
  0
LINE
  5
DD2
100
AcDbEntity
  8
0
 62
     0
100
AcDbLine
 10
-454.458761
 20
190.776177
 30
0.0
 11
-426.818761
 21
218.416177
 31
0.0
  0
LINE
  5
DD3
100
AcDbEntity
  8
0
 62
     0
100
AcDbLine
 10
-426.818761
 20
218.416177
 30
0.0
 11
-423.906024
 21
221.328914
 31
0.0
  0
LINE
  5
DD4
100
AcDbEntity
  8
0
 62
     0
100
AcDbLine
 10
-452.690994
 20
190.776177
 30
0.0
 11
-425.050994
 21
218.416177
 31
0.0
  0
LINE
  5
DD5
100
AcDbEntity
  8
0
 62
     0
100
AcDbLine
 10
-425.050994
 20
218.416177
 30
0.0
 11
-423.906024
 21
219.561147
 31
0.0
  0
LINE
  5
DD6
100
AcDbEntity
  8
0
 62
     0
100
AcDbLine
 10
-450.923227
 20
190.776177
 30
0.0
 11
-423.906024
 21
217.79338
 31
0.0
  0
LINE
  5
DD7
100
AcDbEntity
  8
0
 62
     0
100
AcDbLine
 10
-449.15546
 20
190.776177
 30
0.0
 11
-423.906024
 21
216.025613
 31
0.0
  0
LINE
  5
DD8
100
AcDbEntity
  8
0
 62
     0
100
AcDbLine
 10
-447.387693
 20
190.776177
 30
0.0
 11
-423.906024
 21
214.257846
 31
0.0
  0
LINE
  5
DD9
100
AcDbEntity
  8
0
 62
     0
100
AcDbLine
 10
-445.619926
 20
190.776177
 30
0.0
 11
-423.906024
 21
212.49008
 31
0.0
  0
LINE
  5
DDA
100
AcDbEntity
  8
0
 62
     0
100
AcDbLine
 10
-443.852159
 20
190.776177
 30
0.0
 11
-423.906024
 21
210.722313
 31
0.0
  0
LINE
  5
DDB
100
AcDbEntity
  8
0
 62
     0
100
AcDbLine
 10
-442.084392
 20
190.776177
 30
0.0
 11
-423.906024
 21
208.954546
 31
0.0
  0
LINE
  5
DDC
100
AcDbEntity
  8
0
 62
     0
100
AcDbLine
 10
-440.316625
 20
190.776177
 30
0.0
 11
-423.906024
 21
207.186779
 31
0.0
  0
LINE
  5
DDD
100
AcDbEntity
  8
0
 62
     0
100
AcDbLine
 10
-438.548858
 20
190.776177
 30
0.0
 11
-423.906024
 21
205.419012
 31
0.0
  0
LINE
  5
DDE
100
AcDbEntity
  8
0
 62
     0
100
AcDbLine
 10
-436.781091
 20
190.776177
 30
0.0
 11
-423.906024
 21
203.651245
 31
0.0
  0
LINE
  5
DDF
100
AcDbEntity
  8
0
 62
     0
100
AcDbLine
 10
-435.013324
 20
190.776177
 30
0.0
 11
-423.906024
 21
201.883478
 31
0.0
  0
LINE
  5
DE0
100
AcDbEntity
  8
0
 62
     0
100
AcDbLine
 10
-433.245557
 20
190.776177
 30
0.0
 11
-423.906024
 21
200.115711
 31
0.0
  0
LINE
  5
DE1
100
AcDbEntity
  8
0
 62
     0
100
AcDbLine
 10
-431.477791
 20
190.776177
 30
0.0
 11
-423.906024
 21
198.347944
 31
0.0
  0
LINE
  5
DE2
100
AcDbEntity
  8
0
 62
     0
100
AcDbLine
 10
-429.710024
 20
190.776177
 30
0.0
 11
-423.906024
 21
196.580177
 31
0.0
  0
LINE
  5
DE3
100
AcDbEntity
  8
0
 62
     0
100
AcDbLine
 10
-427.942257
 20
190.776177
 30
0.0
 11
-423.906024
 21
194.81241
 31
0.0
  0
LINE
  5
DE4
100
AcDbEntity
  8
0
 62
     0
100
AcDbLine
 10
-426.17449
 20
190.776177
 30
0.0
 11
-423.906024
 21
193.044643
 31
0.0
  0
LINE
  5
DE5
100
AcDbEntity
  8
0
 62
     0
100
AcDbLine
 10
-424.406723
 20
190.776177
 30
0.0
 11
-423.906024
 21
191.276876
 31
0.0
  0
ENDBLK
  5
DE7
100
AcDbEntity
  8
0
100
AcDbBlockEnd
  0
BLOCK
  5
E27
100
AcDbEntity
  8
0
100
AcDbBlockBegin
  2
*X43
 70
    65
 10
0.0
 20
0.0
 30
0.0
  3
*X43
  1

  0
LINE
  5
DE9
100
AcDbEntity
  8
0
 62
     0
100
AcDbLine
 10
-574.438017
 20
275.857888
 30
0.0
 11
-569.438017
 21
280.857888
 31
0.0
  0
LINE
  5
DEA
100
AcDbEntity
  8
0
 62
     0
100
AcDbLine
 10
-545.181024
 20
305.114881
 30
0.0
 11
-540.181024
 21
310.114881
 31
0.0
  0
LINE
  5
DEB
100
AcDbEntity
  8
0
 62
     0
100
AcDbLine
 10
-574.438017
 20
277.625655
 30
0.0
 11
-569.438017
 21
282.625655
 31
0.0
  0
LINE
  5
DEC
100
AcDbEntity
  8
0
 62
     0
100
AcDbLine
 10
-545.181024
 20
306.882648
 30
0.0
 11
-540.181024
 21
311.882648
 31
0.0
  0
LINE
  5
DED
100
AcDbEntity
  8
0
 62
     0
100
AcDbLine
 10
-574.438017
 20
279.393422
 30
0.0
 11
-569.438017
 21
284.393422
 31
0.0
  0
LINE
  5
DEE
100
AcDbEntity
  8
0
 62
     0
100
AcDbLine
 10
-545.181024
 20
308.650415
 30
0.0
 11
-540.201858
 21
313.629581
 31
0.0
  0
LINE
  5
DEF
100
AcDbEntity
  8
0
 62
     0
100
AcDbLine
 10
-574.438017
 20
281.161189
 30
0.0
 11
-569.609625
 21
285.989581
 31
0.0
  0
LINE
  5
DF0
100
AcDbEntity
  8
0
 62
     0
100
AcDbLine
 10
-545.181024
 20
310.418182
 30
0.0
 11
-541.969625
 21
313.629581
 31
0.0
  0
LINE
  5
DF1
100
AcDbEntity
  8
0
 62
     0
100
AcDbLine
 10
-569.609625
 20
285.989581
 30
0.0
 11
-569.438017
 21
286.161189
 31
0.0
  0
LINE
  5
DF2
100
AcDbEntity
  8
0
 62
     0
100
AcDbLine
 10
-574.438017
 20
282.928956
 30
0.0
 11
-571.377392
 21
285.989581
 31
0.0
  0
LINE
  5
DF3
100
AcDbEntity
  8
0
 62
     0
100
AcDbLine
 10
-545.181024
 20
312.185949
 30
0.0
 11
-543.737392
 21
313.629581
 31
0.0
  0
LINE
  5
DF4
100
AcDbEntity
  8
0
 62
     0
100
AcDbLine
 10
-571.377392
 20
285.989581
 30
0.0
 11
-569.438017
 21
287.928956
 31
0.0
  0
LINE
  5
DF5
100
AcDbEntity
  8
0
 62
     0
100
AcDbLine
 10
-574.438017
 20
284.696723
 30
0.0
 11
-573.145158
 21
285.989581
 31
0.0
  0
LINE
  5
DF6
100
AcDbEntity
  8
0
 62
     0
100
AcDbLine
 10
-573.145158
 20
285.989581
 30
0.0
 11
-569.438017
 21
289.696723
 31
0.0
  0
LINE
  5
DF7
100
AcDbEntity
  8
0
 62
     0
100
AcDbLine
 10
-574.438017
 20
286.464489
 30
0.0
 11
-569.438017
 21
291.464489
 31
0.0
  0
LINE
  5
DF8
100
AcDbEntity
  8
0
 62
     0
100
AcDbLine
 10
-574.438017
 20
288.232256
 30
0.0
 11
-569.438017
 21
293.232256
 31
0.0
  0
LINE
  5
DF9
100
AcDbEntity
  8
0
 62
     0
100
AcDbLine
 10
-574.438017
 20
290.000023
 30
0.0
 11
-569.438017
 21
295.000023
 31
0.0
  0
LINE
  5
DFA
100
AcDbEntity
  8
0
 62
     0
100
AcDbLine
 10
-574.438017
 20
291.76779
 30
0.0
 11
-569.438017
 21
296.76779
 31
0.0
  0
LINE
  5
DFB
100
AcDbEntity
  8
0
 62
     0
100
AcDbLine
 10
-574.438017
 20
293.535557
 30
0.0
 11
-569.438017
 21
298.535557
 31
0.0
  0
LINE
  5
DFC
100
AcDbEntity
  8
0
 62
     0
100
AcDbLine
 10
-574.438017
 20
295.303324
 30
0.0
 11
-569.438017
 21
300.303324
 31
0.0
  0
LINE
  5
DFD
100
AcDbEntity
  8
0
 62
     0
100
AcDbLine
 10
-574.438017
 20
297.071091
 30
0.0
 11
-569.438017
 21
302.071091
 31
0.0
  0
LINE
  5
DFE
100
AcDbEntity
  8
0
 62
     0
100
AcDbLine
 10
-574.438017
 20
298.838858
 30
0.0
 11
-569.438017
 21
303.838858
 31
0.0
  0
LINE
  5
DFF
100
AcDbEntity
  8
0
 62
     0
100
AcDbLine
 10
-574.438017
 20
300.606625
 30
0.0
 11
-569.438017
 21
305.606625
 31
0.0
  0
LINE
  5
E00
100
AcDbEntity
  8
0
 62
     0
100
AcDbLine
 10
-574.438017
 20
302.374392
 30
0.0
 11
-569.438017
 21
307.374392
 31
0.0
  0
LINE
  5
E01
100
AcDbEntity
  8
0
 62
     0
100
AcDbLine
 10
-574.438017
 20
304.142159
 30
0.0
 11
-569.438017
 21
309.142159
 31
0.0
  0
LINE
  5
E02
100
AcDbEntity
  8
0
 62
     0
100
AcDbLine
 10
-574.438017
 20
305.909926
 30
0.0
 11
-569.438017
 21
310.909926
 31
0.0
  0
LINE
  5
E03
100
AcDbEntity
  8
0
 62
     0
100
AcDbLine
 10
-574.438017
 20
307.677693
 30
0.0
 11
-569.438017
 21
312.677693
 31
0.0
  0
LINE
  5
E04
100
AcDbEntity
  8
0
 62
     0
100
AcDbLine
 10
-574.438017
 20
309.44546
 30
0.0
 11
-569.438017
 21
314.44546
 31
0.0
  0
LINE
  5
E05
100
AcDbEntity
  8
0
 62
     0
100
AcDbLine
 10
-574.438017
 20
311.213227
 30
0.0
 11
-569.438017
 21
316.213227
 31
0.0
  0
LINE
  5
E06
100
AcDbEntity
  8
0
 62
     0
100
AcDbLine
 10
-574.438017
 20
312.980994
 30
0.0
 11
-569.85944
 21
317.559571
 31
0.0
  0
LINE
  5
E07
100
AcDbEntity
  8
0
 62
     0
100
AcDbLine
 10
-574.438017
 20
314.748761
 30
0.0
 11
-571.627207
 21
317.559571
 31
0.0
  0
LINE
  5
E08
100
AcDbEntity
  8
0
 62
     0
100
AcDbLine
 10
-574.438017
 20
316.516528
 30
0.0
 11
-573.394974
 21
317.559571
 31
0.0
  0
LINE
  5
E09
100
AcDbEntity
  8
0
 62
     0
100
AcDbLine
 10
-574.438017
 20
274.090121
 30
0.0
 11
-569.438017
 21
279.090121
 31
0.0
  0
LINE
  5
E0A
100
AcDbEntity
  8
0
 62
     0
100
AcDbLine
 10
-545.181024
 20
303.347114
 30
0.0
 11
-540.181024
 21
308.347114
 31
0.0
  0
LINE
  5
E0B
100
AcDbEntity
  8
0
 62
     0
100
AcDbLine
 10
-574.438017
 20
272.322354
 30
0.0
 11
-569.438017
 21
277.322354
 31
0.0
  0
LINE
  5
E0C
100
AcDbEntity
  8
0
 62
     0
100
AcDbLine
 10
-545.181024
 20
301.579347
 30
0.0
 11
-540.181024
 21
306.579347
 31
0.0
  0
LINE
  5
E0D
100
AcDbEntity
  8
0
 62
     0
100
AcDbLine
 10
-572.833033
 20
272.159571
 30
0.0
 11
-569.438017
 21
275.554587
 31
0.0
  0
LINE
  5
E0E
100
AcDbEntity
  8
0
 62
     0
100
AcDbLine
 10
-545.181024
 20
299.81158
 30
0.0
 11
-540.181024
 21
304.81158
 31
0.0
  0
LINE
  5
E0F
100
AcDbEntity
  8
0
 62
     0
100
AcDbLine
 10
-571.065266
 20
272.159571
 30
0.0
 11
-569.438017
 21
273.78682
 31
0.0
  0
LINE
  5
E10
100
AcDbEntity
  8
0
 62
     0
100
AcDbLine
 10
-545.181024
 20
298.043813
 30
0.0
 11
-540.181024
 21
303.043813
 31
0.0
  0
LINE
  5
E11
100
AcDbEntity
  8
0
 62
     0
100
AcDbLine
 10
-545.181024
 20
296.276046
 30
0.0
 11
-540.181024
 21
301.276046
 31
0.0
  0
LINE
  5
E12
100
AcDbEntity
  8
0
 62
     0
100
AcDbLine
 10
-545.181024
 20
294.508279
 30
0.0
 11
-540.181024
 21
299.508279
 31
0.0
  0
LINE
  5
E13
100
AcDbEntity
  8
0
 62
     0
100
AcDbLine
 10
-545.181024
 20
292.740512
 30
0.0
 11
-540.181024
 21
297.740512
 31
0.0
  0
LINE
  5
E14
100
AcDbEntity
  8
0
 62
     0
100
AcDbLine
 10
-545.181024
 20
290.972745
 30
0.0
 11
-540.181024
 21
295.972745
 31
0.0
  0
LINE
  5
E15
100
AcDbEntity
  8
0
 62
     0
100
AcDbLine
 10
-545.181024
 20
289.204978
 30
0.0
 11
-540.181024
 21
294.204978
 31
0.0
  0
LINE
  5
E16
100
AcDbEntity
  8
0
 62
     0
100
AcDbLine
 10
-545.181024
 20
287.437211
 30
0.0
 11
-540.181024
 21
292.437211
 31
0.0
  0
LINE
  5
E17
100
AcDbEntity
  8
0
 62
     0
100
AcDbLine
 10
-545.181024
 20
285.669444
 30
0.0
 11
-544.860887
 21
285.989581
 31
0.0
  0
LINE
  5
E18
100
AcDbEntity
  8
0
 62
     0
100
AcDbLine
 10
-544.860887
 20
285.989581
 30
0.0
 11
-540.181024
 21
290.669444
 31
0.0
  0
LINE
  5
E19
100
AcDbEntity
  8
0
 62
     0
100
AcDbLine
 10
-545.181024
 20
283.901677
 30
0.0
 11
-543.09312
 21
285.989581
 31
0.0
  0
LINE
  5
E1A
100
AcDbEntity
  8
0
 62
     0
100
AcDbLine
 10
-543.09312
 20
285.989581
 30
0.0
 11
-540.181024
 21
288.901677
 31
0.0
  0
LINE
  5
E1B
100
AcDbEntity
  8
0
 62
     0
100
AcDbLine
 10
-545.181024
 20
282.13391
 30
0.0
 11
-541.325353
 21
285.989581
 31
0.0
  0
LINE
  5
E1C
100
AcDbEntity
  8
0
 62
     0
100
AcDbLine
 10
-541.325353
 20
285.989581
 30
0.0
 11
-540.181024
 21
287.13391
 31
0.0
  0
LINE
  5
E1D
100
AcDbEntity
  8
0
 62
     0
100
AcDbLine
 10
-545.181024
 20
280.366143
 30
0.0
 11
-540.181024
 21
285.366143
 31
0.0
  0
LINE
  5
E1E
100
AcDbEntity
  8
0
 62
     0
100
AcDbLine
 10
-545.181024
 20
278.598377
 30
0.0
 11
-540.181024
 21
283.598377
 31
0.0
  0
LINE
  5
E1F
100
AcDbEntity
  8
0
 62
     0
100
AcDbLine
 10
-545.181024
 20
276.83061
 30
0.0
 11
-540.181024
 21
281.83061
 31
0.0
  0
LINE
  5
E20
100
AcDbEntity
  8
0
 62
     0
100
AcDbLine
 10
-545.181024
 20
275.062843
 30
0.0
 11
-540.181024
 21
280.062843
 31
0.0
  0
LINE
  5
E21
100
AcDbEntity
  8
0
 62
     0
100
AcDbLine
 10
-545.181024
 20
273.295076
 30
0.0
 11
-540.181024
 21
278.295076
 31
0.0
  0
LINE
  5
E22
100
AcDbEntity
  8
0
 62
     0
100
AcDbLine
 10
-545.181024
 20
271.527309
 30
0.0
 11
-540.181024
 21
276.527309
 31
0.0
  0
LINE
  5
E23
100
AcDbEntity
  8
0
 62
     0
100
AcDbLine
 10
-545.181024
 20
269.759542
 30
0.0
 11
-540.181024
 21
274.759542
 31
0.0
  0
LINE
  5
E24
100
AcDbEntity
  8
0
 62
     0
100
AcDbLine
 10
-543.943218
 20
269.229581
 30
0.0
 11
-540.181024
 21
272.991775
 31
0.0
  0
LINE
  5
E25
100
AcDbEntity
  8
0
 62
     0
100
AcDbLine
 10
-542.175451
 20
269.229581
 30
0.0
 11
-540.181024
 21
271.224008
 31
0.0
  0
LINE
  5
E26
100
AcDbEntity
  8
0
 62
     0
100
AcDbLine
 10
-540.407684
 20
269.229581
 30
0.0
 11
-540.181024
 21
269.456241
 31
0.0
  0
ENDBLK
  5
E28
100
AcDbEntity
  8
0
100
AcDbBlockEnd
  0
BLOCK
  5
E77
100
AcDbEntity
  8
TEXT
100
AcDbBlockBegin
  2
UPI-L2B
 70
     0
 10
0.0
 20
0.0
 30
0.0
  3
UPI-L2B
  1

  0
INSERT
  5
E2A
100
AcDbEntity
  8
CENTER
100
AcDbBlockReference
  2
POST-1
 10
-168.331993
 20
89.010394
 30
0.0
 41
-1.0
  0
INSERT
  5
E2B
100
AcDbEntity
  8
CENTER
100
AcDbBlockReference
  2
POST-1
 10
-168.331993
 20
107.710394
 30
0.0
 41
-1.0
  0
INSERT
  5
E2C
100
AcDbEntity
  8
AIN
100
AcDbBlockReference
  2
HYBR-12
 10
-145.531993
 20
83.183394
 30
0.0
 41
-1.0
  0
LINE
  5
E2D
100
AcDbEntity
  8
HIDDEN
100
AcDbLine
 10
-113.275
 20
122.853404
 30
0.0
 11
-60.675
 21
122.853404
 31
0.0
  0
LINE
  5
E2E
100
AcDbEntity
  8
HIDDEN
100
AcDbLine
 10
-113.275
 20
83.453404
 30
0.0
 11
-60.675
 21
83.453404
 31
0.0
  0
LINE
  5
E2F
100
AcDbEntity
  8
L2_
100
AcDbLine
 10
-121.275
 20
127.853404
 30
0.0
 11
-60.675
 21
127.853404
 31
0.0
  0
LINE
  5
E30
100
AcDbEntity
  8
L2_
100
AcDbLine
 10
-121.275
 20
78.453404
 30
0.0
 11
-60.675
 21
78.453404
 31
0.0
  0
LINE
  5
E31
100
AcDbEntity
  8
HIDDEN
100
AcDbLine
 10
-103.275
 20
83.453404
 30
0.0
 11
-103.275
 21
122.853404
 31
0.0
  0
LINE
  5
E32
100
AcDbEntity
  8
HIDDEN
100
AcDbLine
 10
-113.275
 20
83.453404
 30
0.0
 11
-113.275
 21
122.853404
 31
0.0
  0
LINE
  5
E33
100
AcDbEntity
  8
L2_
100
AcDbLine
 10
-121.275
 20
78.453404
 30
0.0
 11
-121.275
 21
127.853404
 31
0.0
  0
TEXT
  5
E34
100
AcDbEntity
  8
TEXT
100
AcDbText
 10
-59.858602
 20
113.193722
 30
0.0
 40
3.0
  1
LAYER 2
100
AcDbText
  0
LINE
  5
E35
100
AcDbEntity
  8
L2_
100
AcDbLine
 10
-60.675
 20
127.853404
 30
0.0
 11
-60.675
 21
78.453404
 31
0.0
  0
LINE
  5
E36
100
AcDbEntity
  8
L2_
100
AcDbLine
 10
0.0
 20
78.453404
 30
0.0
 11
0.0
 21
127.853404
 31
0.0
  0
LINE
  5
E37
100
AcDbEntity
  8
L2_
100
AcDbLine
 10
-60.6
 20
78.453404
 30
0.0
 11
-60.6
 21
127.853404
 31
0.0
  0
LINE
  5
E38
100
AcDbEntity
  8
L2_
100
AcDbLine
 10
0.075
 20
78.453404
 30
0.0
 11
0.075
 21
127.853404
 31
0.0
  0
TEXT
  5
E39
100
AcDbEntity
  8
TEXT
100
AcDbText
 10
-59.716358
 20
107.925532
 30
0.0
 40
3.0
  1
TOP VIEW
100
AcDbText
  0
LINE
  5
E3A
100
AcDbEntity
  8
HIDDEN
100
AcDbLine
 10
-60.6
 20
83.453404
 30
0.0
 11
0.0
 21
83.453404
 31
0.0
  0
LINE
  5
E3B
100
AcDbEntity
  8
L2_
100
AcDbLine
 10
-60.6
 20
78.453404
 30
0.0
 11
0.0
 21
78.453404
 31
0.0
  0
LINE
  5
E3C
100
AcDbEntity
  8
HIDDEN
100
AcDbLine
 10
-60.6
 20
122.853404
 30
0.0
 11
0.0
 21
122.853404
 31
0.0
  0
LINE
  5
E3D
100
AcDbEntity
  8
L2_
100
AcDbLine
 10
-60.6
 20
127.853404
 30
0.0
 11
0.0
 21
127.853404
 31
0.0
  0
LINE
  5
E3E
100
AcDbEntity
  8
CENTER
100
AcDbLine
 10
-214.298159
 20
97.713404
 30
0.0
 11
141.987009
 21
97.713404
 31
0.0
1001
ACAD
1000
ASC_BOUNDS
1002
{
1070
    19
1005
0
1005
0
1005
0
1005
0
1005
0
1005
0
1005
0
1005
E76
1005
0
1005
0
1005
0
1005
0
1005
0
1005
0
1005
0
1005
0
1005
0
1005
0
1005
0
1005
0
1005
0
1005
0
1005
0
1005
0
1005
0
1005
0
1005
0
1005
0
1005
0
1005
0
1005
0
1005
0
1005
0
1005
0
1005
0
1005
0
1005
0
1005
0
1005
0
1005
0
1005
0
1005
0
1005
0
1005
0
1005
0
1005
0
1005
0
1005
0
1005
0
1005
0
1005
0
1005
0
1005
0
1005
0
1005
0
1005
0
1005
0
1005
0
1005
0
1005
E76
1005
E76
1005
E76
1002
}
  0
LINE
  5
E3F
100
AcDbEntity
  8
UPILEX
100
AcDbLine
 10
-145.531993
 20
83.883394
 30
0.0
 11
-145.531993
 21
129.283394
 31
0.0
1001
ACAD
1000
ASC_BOUNDS
1002
{
1070
    19
1005
E76
1005
0
1005
0
1005
0
1005
0
1005
0
1005
0
1005
0
1005
0
1005
0
1005
0
1005
0
1005
0
1005
E76
1002
}
  0
LINE
  5
E40
100
AcDbEntity
  8
UPILEX
100
AcDbLine
 10
-135.20499
 20
129.283394
 30
0.0
 11
-150.531993
 21
129.283394
 31
0.0
1001
ACAD
1000
ASC_BOUNDS
1002
{
1070
    19
1005
E76
1002
}
  0
LINE
  5
E41
100
AcDbEntity
  8
UPILEX
100
AcDbLine
 10
-150.531993
 20
129.283394
 30
0.0
 11
-150.531993
 21
83.883394
 31
0.0
1001
ACAD
1000
ASC_BOUNDS
1002
{
1070
    19
1005
E76
1005
0
1005
0
1005
0
1005
0
1005
0
1005
0
1005
0
1005
0
1005
0
1005
0
1005
0
1005
0
1005
E76
1002
}
  0
LINE
  5
E42
100
AcDbEntity
  8
UPILEX
100
AcDbLine
 10
-150.531993
 20
83.883394
 30
0.0
 11
-134.20499
 21
83.883394
 31
0.0
1001
ACAD
1000
ASC_BOUNDS
1002
{
1070
    19
1005
E76
1002
}
  0
LINE
  5
E43
100
AcDbEntity
  8
UPILEX
100
AcDbLine
 10
-131.275
 20
80.953404
 30
0.0
 11
-116.275
 21
80.953404
 31
0.0
1001
ACAD
1000
ASC_BOUNDS
1002
{
1070
    19
1005
E76
1002
}
  0
LINE
  5
E44
100
AcDbEntity
  8
UPILEX
100
AcDbLine
 10
-116.275
 20
80.953404
 30
0.0
 11
-116.275
 21
125.353404
 31
0.0
1001
ACAD
1000
ASC_BOUNDS
1002
{
1070
    19
1005
E76
1005
0
1005
0
1005
0
1005
0
1005
0
1005
0
1005
0
1005
0
1005
0
1005
0
1005
0
1005
0
1005
E76
1002
}
  0
LINE
  5
E45
100
AcDbEntity
  8
UPILEX
100
AcDbLine
 10
-116.275
 20
125.353404
 30
0.0
 11
-131.275
 21
125.353404
 31
0.0
1001
ACAD
1000
ASC_BOUNDS
1002
{
1070
    19
1005
E76
1002
}
  0
LINE
  5
E46
100
AcDbEntity
  8
UPILEX
100
AcDbLine
 10
-121.275
 20
125.353404
 30
0.0
 11
-121.275
 21
80.953404
 31
0.0
1001
ACAD
1000
ASC_BOUNDS
1002
{
1070
    19
1005
E76
1005
0
1005
0
1005
0
1005
0
1005
0
1005
0
1005
0
1005
0
1005
0
1005
0
1005
0
1005
0
1005
E76
1002
}
  0
LINE
  5
E47
100
AcDbEntity
  8
UPILEX
100
AcDbLine
 10
-131.275
 20
125.353404
 30
0.0
 11
-135.20499
 21
129.283394
 31
0.0
  0
DIMENSION
  5
E48
100
AcDbEntity
  8
DIM
100
AcDbDimension
  2
*D36
 10
-116.275
 20
132.497969
 30
0.0
 11
-99.775
 21
132.497969
 31
0.0
 12
423.906024
 22
-188.276177
 32
0.0
  3
STANDARD
100
AcDbAlignedDimension
 13
-121.275
 23
125.353404
 33
0.0
 14
-116.275
 24
125.353404
 34
0.0
100
AcDbRotatedDimension
1001
ACAD
1000
DSTYLE
1002
{
1070
   140
1040
0.3
1070
   272
1070
     2
1070
    40
1040
7.5
1070
     3
1000
mm
1070
   287
1070
     0
1070
   271
1070
     2
1070
     4
1000
"
1070
   143
1040
0.03937
1070
   171
1070
     3
1070
   170
1070
     1
1002
}
  0
DIMENSION
  5
E49
100
AcDbEntity
  8
DIM
100
AcDbDimension
  2
*D37
 10
-150.531993
 20
134.735031
 30
0.0
 11
-167.031993
 21
134.735031
 31
0.0
 12
423.906024
 22
-188.276177
 32
0.0
  3
STANDARD
100
AcDbAlignedDimension
 13
-145.531993
 23
129.283394
 33
0.0
 14
-150.531993
 24
129.283394
 34
0.0
100
AcDbRotatedDimension
1001
ACAD
1000
DSTYLE
1002
{
1070
   140
1040
0.3
1070
   272
1070
     2
1070
    40
1040
7.5
1070
     3
1000
mm
1070
   287
1070
     0
1070
   271
1070
     2
1070
     4
1000
"
1070
   143
1040
0.03937
1070
   171
1070
     3
1070
   170
1070
     1
1002
}
  0
DIMENSION
  5
E4A
100
AcDbEntity
  8
DIM
100
AcDbDimension
  2
*D38
 10
-121.275
 20
142.224329
 30
0.0
 11
-103.0875
 21
142.224329
 31
0.0
 12
423.906024
 22
-188.276177
 32
0.0
  3
STANDARD
100
AcDbAlignedDimension
 13
-145.531993
 23
129.283394
 33
0.0
 14
-121.275
 24
125.353404
 34
0.0
100
AcDbRotatedDimension
1001
ACAD
1000
DSTYLE
1002
{
1070
   140
1040
0.3
1070
   272
1070
     2
1070
    40
1040
7.5
1070
     3
1000
mm
1070
   287
1070
     0
1070
   271
1070
     2
1070
     4
1000
"
1070
   143
1040
0.03937
1070
   171
1070
     3
1070
   170
1070
     1
1002
}
  0
TEXT
  5
E4B
100
AcDbEntity
  8
TEXT
100
AcDbText
 10
-59.574115
 20
102.462814
 30
0.0
 40
3.0
  1
UPILEX TAIL EXTENDED
100
AcDbText
  0
LINE
  5
E4C
100
AcDbEntity
  8
HIDDEN
100
AcDbLine
 10
-60.6
 20
44.4
 30
0.0
 11
0.0
 21
44.4
 31
0.0
  0
LINE
  5
E4D
100
AcDbEntity
  8
L2_
100
AcDbLine
 10
-60.6
 20
49.4
 30
0.0
 11
0.0
 21
49.4
 31
0.0
  0
LINE
  5
E4E
100
AcDbEntity
  8
HIDDEN
100
AcDbLine
 10
-60.6
 20
5.0
 30
0.0
 11
0.0
 21
5.0
 31
0.0
  0
LINE
  5
E4F
100
AcDbEntity
  8
L2_
100
AcDbLine
 10
-60.6
 20
0.0
 30
0.0
 11
0.0
 21
0.0
 31
0.0
  0
TEXT
  5
E50
100
AcDbEntity
  8
TEXT
100
AcDbText
 10
-59.574115
 20
19.951033
 30
0.0
 40
3.0
  1
UPILEX TAIL EXTENDED
100
AcDbText
  0
INSERT
  5
E51
100
AcDbEntity
  8
AIN
100
AcDbBlockReference
  2
HYBR-12
 10
-144.947793
 20
44.67001
 30
0.0
 50
180.0
  0
LINE
  5
E52
100
AcDbEntity
  8
HIDDEN
100
AcDbLine
 10
-113.275
 20
5.0
 30
0.0
 11
-60.675
 21
5.0
 31
0.0
  0
LINE
  5
E53
100
AcDbEntity
  8
HIDDEN
100
AcDbLine
 10
-113.275
 20
44.4
 30
0.0
 11
-60.675
 21
44.4
 31
0.0
  0
LINE
  5
E54
100
AcDbEntity
  8
L2_
100
AcDbLine
 10
-121.275
 20
0.0
 30
0.0
 11
-60.675
 21
0.0
 31
0.0
  0
LINE
  5
E55
100
AcDbEntity
  8
L2_
100
AcDbLine
 10
-121.275
 20
49.4
 30
0.0
 11
-60.675
 21
49.4
 31
0.0
  0
LINE
  5
E56
100
AcDbEntity
  8
HIDDEN
100
AcDbLine
 10
-103.275
 20
44.4
 30
0.0
 11
-103.275
 21
5.0
 31
0.0
  0
LINE
  5
E57
100
AcDbEntity
  8
HIDDEN
100
AcDbLine
 10
-113.275
 20
44.4
 30
0.0
 11
-113.275
 21
5.0
 31
0.0
  0
LINE
  5
E58
100
AcDbEntity
  8
L2_
100
AcDbLine
 10
-121.275
 20
49.4
 30
0.0
 11
-121.275
 21
0.0
 31
0.0
  0
LINE
  5
E59
100
AcDbEntity
  8
UPILEX
100
AcDbLine
 10
-144.947793
 20
43.97001
 30
0.0
 11
-144.947793
 21
-1.42999
 31
0.0
1001
ACAD
1000
ASC_BOUNDS
1002
{
1070
    19
1005
E75
1005
0
1005
0
1005
0
1005
0
1005
0
1005
0
1005
0
1005
0
1005
0
1005
E75
1002
}
  0
LINE
  5
E5A
100
AcDbEntity
  8
UPILEX
100
AcDbLine
 10
-149.947793
 20
-1.42999
 30
0.0
 11
-149.947793
 21
43.97001
 31
0.0
1001
ACAD
1000
ASC_BOUNDS
1002
{
1070
    19
1005
E75
1005
0
1005
0
1005
0
1005
0
1005
0
1005
0
1005
0
1005
0
1005
0
1005
E75
1002
}
  0
LINE
  5
E5B
100
AcDbEntity
  8
UPILEX
100
AcDbLine
 10
0.0
 20
46.9
 30
0.0
 11
0.0
 21
2.5
 31
0.0
1001
ACAD
1000
ASC_BOUNDS
1002
{
1070
    19
1005
E75
1005
0
1005
0
1005
0
1005
0
1005
0
1005
0
1005
0
1005
0
1005
0
1005
E75
1002
}
  0
LINE
  5
E5C
100
AcDbEntity
  8
UPILEX
100
AcDbLine
 10
-121.275
 20
2.5
 30
0.0
 11
-121.275
 21
46.9
 31
0.0
1001
ACAD
1000
ASC_BOUNDS
1002
{
1070
    19
1005
E75
1005
0
1005
0
1005
0
1005
0
1005
0
1005
0
1005
0
1005
0
1005
0
1005
E75
1002
}
  0
LINE
  5
E5D
100
AcDbEntity
  8
UPILEX
100
AcDbLine
 10
-149.947793
 20
43.97001
 30
0.0
 11
-134.20499
 21
43.97001
 31
0.0
1001
ACAD
1000
ASC_BOUNDS
1002
{
1070
    19
1005
E75
1002
}
  0
INSERT
  5
E5E
100
AcDbEntity
  8
CENTER
100
AcDbBlockReference
  2
POST-1
 10
-167.747793
 20
38.84301
 30
0.0
 50
180.0
  0
LINE
  5
E5F
100
AcDbEntity
  8
UPILEX
100
AcDbLine
 10
-131.275
 20
46.9
 30
0.0
 11
0.0
 21
46.9
 31
0.0
1001
ACAD
1000
ASC_BOUNDS
1002
{
1070
    19
1005
E75
1002
}
  0
LINE
  5
E60
100
AcDbEntity
  8
UPILEX
100
AcDbLine
 10
-131.275
 20
2.5
 30
0.0
 11
-135.20499
 21
-1.42999
 31
0.0
  0
INSERT
  5
E61
100
AcDbEntity
  8
CENTER
100
AcDbBlockReference
  2
POST-1
 10
-167.747793
 20
20.14301
 30
0.0
 50
180.0
  0
LINE
  5
E62
100
AcDbEntity
  8
UPILEX
100
AcDbLine
 10
-135.20499
 20
-1.42999
 30
0.0
 11
-149.947793
 21
-1.42999
 31
0.0
1001
ACAD
1000
ASC_BOUNDS
1002
{
1070
    19
1005
E75
1002
}
  0
LINE
  5
E63
100
AcDbEntity
  8
UPILEX
100
AcDbLine
 10
0.0
 20
2.5
 30
0.0
 11
-131.275
 21
2.5
 31
0.0
1001
ACAD
1000
ASC_BOUNDS
1002
{
1070
    19
1005
E75
1002
}
  0
LINE
  5
E64
100
AcDbEntity
  8
L2_
100
AcDbLine
 10
-60.675
 20
0.0
 30
0.0
 11
-60.675
 21
49.4
 31
0.0
  0
LINE
  5
E65
100
AcDbEntity
  8
L2_
100
AcDbLine
 10
-60.6
 20
49.4
 30
0.0
 11
-60.6
 21
0.0
 31
0.0
  0
TEXT
  5
E66
100
AcDbEntity
  8
TEXT
100
AcDbText
 10
-59.858602
 20
30.681941
 30
0.0
 40
3.0
  1
LAYER 2
100
AcDbText
  0
TEXT
  5
E67
100
AcDbEntity
  8
TEXT
100
AcDbText
 10
-59.716358
 20
25.41375
 30
0.0
 40
3.0
  1
BOTTOM VIEW
100
AcDbText
  0
LINE
  5
E68
100
AcDbEntity
  8
L2_
100
AcDbLine
 10
0.0
 20
49.4
 30
0.0
 11
0.0
 21
0.0
 31
0.0
  0
LINE
  5
E69
100
AcDbEntity
  8
L2_
100
AcDbLine
 10
0.075
 20
49.4
 30
0.0
 11
0.075
 21
0.0
 31
0.0
  0
LINE
  5
E6A
100
AcDbEntity
  8
UPILEX
100
AcDbLine
 10
0.075
 20
2.5
 30
0.0
 11
0.075
 21
46.9
 31
0.0
1001
ACAD
1000
ASC_BOUNDS
1002
{
1070
    19
1005
0
1005
0
1005
0
1005
0
1005
0
1005
0
1005
0
1005
0
1005
0
1005
0
1005
0
1005
0
1005
0
1002
}
  0
LINE
  5
E6B
100
AcDbEntity
  8
CENTER
100
AcDbLine
 10
-214.298159
 20
30.14
 30
0.0
 11
141.987009
 21
30.14
 31
0.0
1001
ACAD
1000
ASC_BOUNDS
1002
{
1070
    19
1005
0
1005
0
1005
0
1005
0
1005
0
1005
0
1005
0
1005
E75
1005
0
1005
0
1005
0
1005
0
1005
0
1005
0
1005
0
1005
0
1005
0
1005
0
1005
0
1005
0
1005
0
1005
0
1005
0
1005
0
1005
0
1005
0
1005
0
1005
0
1005
0
1005
0
1005
0
1005
0
1005
0
1005
0
1005
0
1005
0
1005
0
1005
0
1005
0
1005
0
1005
0
1005
0
1005
0
1005
0
1005
0
1005
0
1005
0
1005
0
1005
0
1005
0
1005
0
1005
0
1005
0
1005
0
1005
0
1005
0
1005
0
1005
0
1005
0
1005
0
1005
0
1005
0
1005
E75
1005
E75
1005
E75
1005
0
1005
0
1005
0
1002
}
  0
DIMENSION
  5
E6C
100
AcDbEntity
  8
TEXT
100
AcDbDimension
  2
*D39
 10
0.0
 20
53.149721
 30
0.0
 11
-60.6375
 21
53.149721
 31
0.0
 12
423.906024
 22
-188.276177
 32
0.0
  3
STANDARD
100
AcDbAlignedDimension
 13
-121.275
 23
49.4
 33
0.0
 14
0.0
 24
44.4
 34
0.0
100
AcDbRotatedDimension
1001
ACAD
1000
DSTYLE
1002
{
1070
   140
1040
0.3
1070
   272
1070
     2
1070
    40
1040
7.5
1070
     3
1000
mm
1070
   287
1070
     0
1070
   271
1070
     2
1070
     4
1000
"
1070
   143
1040
0.03937
1070
   171
1070
     3
1070
   170
1070
     1
1002
}
  0
DIMENSION
  5
E6D
100
AcDbEntity
  8
TEXT
100
AcDbDimension
  2
*D40
 10
-149.947793
 20
48.286783
 30
0.0
 11
-166.447793
 21
48.286783
 31
0.0
 12
423.906024
 22
-188.276177
 32
0.0
  3
STANDARD
100
AcDbAlignedDimension
 13
-144.947793
 23
44.67001
 33
0.0
 14
-149.947793
 24
43.97001
 34
0.0
100
AcDbRotatedDimension
1001
ACAD
1000
DSTYLE
1002
{
1070
   140
1040
0.3
1070
   272
1070
     2
1070
    40
1040
7.5
1070
     3
1000
mm
1070
   287
1070
     0
1070
   271
1070
     2
1070
     4
1000
"
1070
   143
1040
0.03937
1070
   171
1070
     3
1070
   170
1070
     1
1002
}
  0
DIMENSION
  5
E6E
100
AcDbEntity
  8
TEXT
100
AcDbDimension
  2
*D41
 10
-121.275
 20
59.43596
 30
0.0
 11
-103.0875
 21
59.43596
 31
0.0
 12
423.906024
 22
-188.276177
 32
0.0
  3
STANDARD
100
AcDbAlignedDimension
 13
-144.947793
 23
44.67001
 33
0.0
 14
-121.275
 24
49.4
 34
0.0
100
AcDbRotatedDimension
1001
ACAD
1000
DSTYLE
1002
{
1070
   140
1040
0.3
1070
   272
1070
     2
1070
    40
1040
7.5
1070
     3
1000
mm
1070
   287
1070
     0
1070
   271
1070
     2
1070
     4
1000
"
1070
   143
1040
0.03937
1070
   171
1070
     3
1070
   170
1070
     1
1002
}
  0
LINE
  5
E6F
100
AcDbEntity
  8
UPILEX
100
AcDbLine
 10
-131.275
 20
80.953404
 30
0.0
 11
-134.20499
 21
83.883394
 31
0.0
  0
LINE
  5
E70
100
AcDbEntity
  8
UPILEX
100
AcDbLine
 10
-131.275
 20
46.9
 30
0.0
 11
-134.20499
 21
43.97001
 31
0.0
  0
TEXT
  5
E71
100
AcDbEntity
  8
UPILEX
100
AcDbText
 10
-140.455828
 20
24.895358
 30
0.0
 40
1.5
  1
L2 BACKWARD
  7
CIM_TB
100
AcDbText
  0
TEXT
  5
E72
100
AcDbEntity
  8
UPILEX
100
AcDbText
 10
-140.455828
 20
22.466786
 30
0.0
 40
1.5
  1
BOTTOM
  7
CIM_TB
100
AcDbText
  0
TEXT
  5
E73
100
AcDbEntity
  8
UPILEX
100
AcDbText
 10
-140.938799
 20
106.003823
 30
0.0
 40
1.5
  1
L2 BACKWARD
  7
CIM_TB
100
AcDbText
  0
TEXT
  5
E74
100
AcDbEntity
  8
UPILEX
100
AcDbText
 10
-140.938799
 20
103.575252
 30
0.0
 40
1.5
  1
TOP
  7
CIM_TB
100
AcDbText
  0
INSERT
  5
E75
100
AcDbEntity
  8
UPILEX
100
AcDbBlockReference
  2
*X42
 10
423.906024
 20
-188.276177
 30
0.0
1001
ACAD
1000
HATCH
1002
{
1070
    19
1000
ANSI31
1040
10.0
1040
0.0
1000
ASC_BOUNDS
1070
     4
1070
     1
1070
     4
1005
E62
1005
E5A
1005
E6B
1005
E59
1070
     1
1070
     4
1005
E6B
1005
E5A
1005
E5D
1005
E59
1070
     1
1070
     4
1005
E6B
1005
E5C
1005
E5F
1005
E5B
1070
     1
1070
     4
1005
E63
1005
E5C
1005
E6B
1005
E5B
1000
ASC_SEEDPOINT
1011
-80.372348
1021
16.32
1031
0.0
1002
}
  0
INSERT
  5
E76
100
AcDbEntity
  8
UPILEX
100
AcDbBlockReference
  2
*X43
 10
423.906024
 20
-188.276177
 30
0.0
1001
ACAD
1000
HATCH
1002
{
1070
    19
1000
ANSI31
1040
10.0
1040
0.0
1000
ASC_BOUNDS
1070
     4
1070
     1
1070
     4
1005
E40
1005
E41
1005
E3E
1005
E3F
1070
     1
1070
     4
1005
E3E
1005
E41
1005
E42
1005
E3F
1070
     1
1070
     4
1005
E3E
1005
E46
1005
E43
1005
E44
1070
     1
1070
     4
1005
E45
1005
E46
1005
E3E
1005
E44
1000
ASC_SEEDPOINT
1011
-148.031993
1021
90.081711
1031
0.0
1002
}
  0
ENDBLK
  5
E78
100
AcDbEntity
  8
TEXT
100
AcDbBlockEnd
  0
BLOCK
  5
F15
100
AcDbEntity
  8
0
100
AcDbBlockBegin
  2
*D45
 70
    65
 10
0.0
 20
0.0
 30
0.0
  3
*D45
  1

  0
LINE
  5
F16
100
AcDbEntity
  8
0
  6
BYBLOCK
 62
     0
100
AcDbLine
 10
95.538327
 20
237.920211
 30
0.0
 11
95.538327
 21
245.946026
 31
0.0
  0
LINE
  5
F17
100
AcDbEntity
  8
0
  6
BYBLOCK
 62
     0
100
AcDbLine
 10
100.538327
 20
237.920211
 30
0.0
 11
100.538327
 21
245.946026
 31
0.0
  0
LINE
  5
F18
100
AcDbEntity
  8
0
  6
BYBLOCK
 62
     0
100
AcDbLine
 10
94.188327
 20
244.596026
 30
0.0
 11
92.838327
 21
244.596026
 31
0.0
  0
LINE
  5
F19
100
AcDbEntity
  8
0
  6
BYBLOCK
 62
     0
100
AcDbLine
 10
101.888327
 20
244.596026
 30
0.0
 11
103.238327
 21
244.596026
 31
0.0
  0
SOLID
  5
F1A
100
AcDbEntity
  8
0
  6
BYBLOCK
 62
     0
100
AcDbTrace
 10
94.188327
 20
244.821026
 30
0.0
 11
94.188327
 21
244.371026
 31
0.0
 12
95.538327
 22
244.596026
 32
0.0
 13
95.538327
 23
244.596026
 33
0.0
  0
SOLID
  5
F1B
100
AcDbEntity
  8
0
  6
BYBLOCK
 62
     0
100
AcDbTrace
 10
101.888327
 20
244.821026
 30
0.0
 11
101.888327
 21
244.371026
 31
0.0
 12
100.538327
 22
244.596026
 32
0.0
 13
100.538327
 23
244.596026
 33
0.0
  0
MTEXT
  5
F1C
100
AcDbEntity
  8
0
  6
BYBLOCK
 62
     0
100
AcDbMText
 10
117.038327
 20
244.596026
 30
0.0
 40
2.25
 41
0.0
 71
     5
 72
     1
  1
\A1;5.00mm[0.197"]
  0
POINT
  5
F1D
100
AcDbEntity
  8
DEFPOINTS
  6
BYBLOCK
 62
     0
100
AcDbPoint
 10
95.538327
 20
237.451461
 30
0.0
  0
POINT
  5
F1E
100
AcDbEntity
  8
DEFPOINTS
  6
BYBLOCK
 62
     0
100
AcDbPoint
 10
100.538327
 20
237.451461
 30
0.0
  0
POINT
  5
F1F
100
AcDbEntity
  8
DEFPOINTS
  6
BYBLOCK
 62
     0
100
AcDbPoint
 10
100.538327
 20
244.596026
 30
0.0
  0
ENDBLK
  5
F20
100
AcDbEntity
  8
0
100
AcDbBlockEnd
  0
BLOCK
  5
F21
100
AcDbEntity
  8
0
100
AcDbBlockBegin
  2
*D46
 70
    65
 10
0.0
 20
0.0
 30
0.0
  3
*D46
  1

  0
LINE
  5
F22
100
AcDbEntity
  8
0
  6
BYBLOCK
 62
     0
100
AcDbLine
 10
71.281334
 20
241.850201
 30
0.0
 11
71.281334
 21
248.183088
 31
0.0
  0
LINE
  5
F23
100
AcDbEntity
  8
0
  6
BYBLOCK
 62
     0
100
AcDbLine
 10
66.281334
 20
241.850201
 30
0.0
 11
66.281334
 21
248.183088
 31
0.0
  0
LINE
  5
F24
100
AcDbEntity
  8
0
  6
BYBLOCK
 62
     0
100
AcDbLine
 10
72.631334
 20
246.833088
 30
0.0
 11
73.981334
 21
246.833088
 31
0.0
  0
LINE
  5
F25
100
AcDbEntity
  8
0
  6
BYBLOCK
 62
     0
100
AcDbLine
 10
64.931334
 20
246.833088
 30
0.0
 11
63.581334
 21
246.833088
 31
0.0
  0
SOLID
  5
F26
100
AcDbEntity
  8
0
  6
BYBLOCK
 62
     0
100
AcDbTrace
 10
72.631334
 20
247.058088
 30
0.0
 11
72.631334
 21
246.608088
 31
0.0
 12
71.281334
 22
246.833088
 32
0.0
 13
71.281334
 23
246.833088
 33
0.0
  0
SOLID
  5
F27
100
AcDbEntity
  8
0
  6
BYBLOCK
 62
     0
100
AcDbTrace
 10
64.931334
 20
247.058088
 30
0.0
 11
64.931334
 21
246.608088
 31
0.0
 12
66.281334
 22
246.833088
 32
0.0
 13
66.281334
 23
246.833088
 33
0.0
  0
MTEXT
  5
F28
100
AcDbEntity
  8
0
  6
BYBLOCK
 62
     0
100
AcDbMText
 10
49.781334
 20
246.833088
 30
0.0
 40
2.25
 41
0.0
 71
     5
 72
     1
  1
\A1;5.00mm[0.197"]
  0
POINT
  5
F29
100
AcDbEntity
  8
DEFPOINTS
  6
BYBLOCK
 62
     0
100
AcDbPoint
 10
71.281334
 20
241.381451
 30
0.0
  0
POINT
  5
F2A
100
AcDbEntity
  8
DEFPOINTS
  6
BYBLOCK
 62
     0
100
AcDbPoint
 10
66.281334
 20
241.381451
 30
0.0
  0
POINT
  5
F2B
100
AcDbEntity
  8
DEFPOINTS
  6
BYBLOCK
 62
     0
100
AcDbPoint
 10
66.281334
 20
246.833088
 30
0.0
  0
ENDBLK
  5
F2C
100
AcDbEntity
  8
0
100
AcDbBlockEnd
  0
BLOCK
  5
1A02
100
AcDbEntity
  8
0
100
AcDbBlockBegin
  2
*D47
 70
    65
 10
0.0
 20
0.0
 30
0.0
  3
*D47
  1

  0
LINE
  5
1A03
100
AcDbEntity
  8
0
  6
BYBLOCK
 62
     0
100
AcDbLine
 10
202.877106
 20
284.229687
 30
0.0
 11
202.877106
 21
298.051872
 31
0.0
  0
LINE
  5
1A04
100
AcDbEntity
  8
0
  6
BYBLOCK
 62
     0
100
AcDbLine
 10
221.719099
 20
280.299697
 30
0.0
 11
221.719099
 21
298.051872
 31
0.0
  0
LINE
  5
1A05
100
AcDbEntity
  8
0
  6
BYBLOCK
 62
     0
100
AcDbLine
 10
201.527106
 20
296.701872
 30
0.0
 11
200.177106
 21
296.701872
 31
0.0
  0
LINE
  5
1A06
100
AcDbEntity
  8
0
  6
BYBLOCK
 62
     0
100
AcDbLine
 10
223.069099
 20
296.701872
 30
0.0
 11
224.419099
 21
296.701872
 31
0.0
  0
SOLID
  5
1A07
100
AcDbEntity
  8
0
  6
BYBLOCK
 62
     0
100
AcDbTrace
 10
201.527106
 20
296.926872
 30
0.0
 11
201.527106
 21
296.476872
 31
0.0
 12
202.877106
 22
296.701872
 32
0.0
 13
202.877106
 23
296.701872
 33
0.0
  0
SOLID
  5
1A08
100
AcDbEntity
  8
0
  6
BYBLOCK
 62
     0
100
AcDbTrace
 10
223.069099
 20
296.926872
 30
0.0
 11
223.069099
 21
296.476872
 31
0.0
 12
221.719099
 22
296.701872
 32
0.0
 13
221.719099
 23
296.701872
 33
0.0
  0
MTEXT
  5
1A09
100
AcDbEntity
  8
0
  6
BYBLOCK
 62
     0
100
AcDbMText
 10
238.406599
 20
296.701872
 30
0.0
 40
2.25
 41
0.0
 71
     5
 72
     1
  1
\A1;18.84mm[0.742"]
  0
POINT
  5
1A0A
100
AcDbEntity
  8
DEFPOINTS
  6
BYBLOCK
 62
     0
100
AcDbPoint
 10
202.877106
 20
283.760937
 30
0.0
  0
POINT
  5
1A0B
100
AcDbEntity
  8
DEFPOINTS
  6
BYBLOCK
 62
     0
100
AcDbPoint
 10
221.719099
 20
279.830947
 30
0.0
  0
POINT
  5
1A0C
100
AcDbEntity
  8
DEFPOINTS
  6
BYBLOCK
 62
     0
100
AcDbPoint
 10
221.719099
 20
296.701872
 30
0.0
  0
ENDBLK
  5
1A0D
100
AcDbEntity
  8
0
100
AcDbBlockEnd
  0
BLOCK
  5
F45
100
AcDbEntity
  8
0
100
AcDbBlockBegin
  2
*D48
 70
    65
 10
0.0
 20
0.0
 30
0.0
  3
*D48
  1

  0
LINE
  5
F46
100
AcDbEntity
  8
0
  6
BYBLOCK
 62
     0
100
AcDbLine
 10
71.865534
 20
157.236817
 30
0.0
 11
71.865534
 21
161.73484
 31
0.0
  0
LINE
  5
F47
100
AcDbEntity
  8
0
  6
BYBLOCK
 62
     0
100
AcDbLine
 10
66.865534
 20
156.536817
 30
0.0
 11
66.865534
 21
161.73484
 31
0.0
  0
LINE
  5
F48
100
AcDbEntity
  8
0
  6
BYBLOCK
 62
     0
100
AcDbLine
 10
73.215534
 20
160.38484
 30
0.0
 11
74.565534
 21
160.38484
 31
0.0
  0
LINE
  5
F49
100
AcDbEntity
  8
0
  6
BYBLOCK
 62
     0
100
AcDbLine
 10
65.515534
 20
160.38484
 30
0.0
 11
64.165534
 21
160.38484
 31
0.0
  0
SOLID
  5
F4A
100
AcDbEntity
  8
0
  6
BYBLOCK
 62
     0
100
AcDbTrace
 10
73.215534
 20
160.60984
 30
0.0
 11
73.215534
 21
160.15984
 31
0.0
 12
71.865534
 22
160.38484
 32
0.0
 13
71.865534
 23
160.38484
 33
0.0
  0
SOLID
  5
F4B
100
AcDbEntity
  8
0
  6
BYBLOCK
 62
     0
100
AcDbTrace
 10
65.515534
 20
160.60984
 30
0.0
 11
65.515534
 21
160.15984
 31
0.0
 12
66.865534
 22
160.38484
 32
0.0
 13
66.865534
 23
160.38484
 33
0.0
  0
MTEXT
  5
F4C
100
AcDbEntity
  8
0
  6
BYBLOCK
 62
     0
100
AcDbMText
 10
50.365534
 20
160.38484
 30
0.0
 40
2.25
 41
0.0
 71
     5
 72
     1
  1
\A1;5.00mm[0.197"]
  0
POINT
  5
F4D
100
AcDbEntity
  8
DEFPOINTS
  6
BYBLOCK
 62
     0
100
AcDbPoint
 10
71.865534
 20
156.768067
 30
0.0
  0
POINT
  5
F4E
100
AcDbEntity
  8
DEFPOINTS
  6
BYBLOCK
 62
     0
100
AcDbPoint
 10
66.865534
 20
156.068067
 30
0.0
  0
POINT
  5
F4F
100
AcDbEntity
  8
DEFPOINTS
  6
BYBLOCK
 62
     0
100
AcDbPoint
 10
66.865534
 20
160.38484
 30
0.0
  0
ENDBLK
  5
F50
100
AcDbEntity
  8
0
100
AcDbBlockEnd
  0
BLOCK
  5
1A68
100
AcDbEntity
  8
0
100
AcDbBlockBegin
  2
*D49
 70
    65
 10
0.0
 20
0.0
 30
0.0
  3
*D49
  1

  0
LINE
  5
1A69
100
AcDbEntity
  8
0
  6
BYBLOCK
 62
     0
100
AcDbLine
 10
202.877106
 20
157.236817
 30
0.0
 11
202.877106
 21
172.884017
 31
0.0
  0
LINE
  5
1A6A
100
AcDbEntity
  8
0
  6
BYBLOCK
 62
     0
100
AcDbLine
 10
221.719099
 20
161.966807
 30
0.0
 11
221.719099
 21
172.884017
 31
0.0
  0
LINE
  5
1A6B
100
AcDbEntity
  8
0
  6
BYBLOCK
 62
     0
100
AcDbLine
 10
201.527106
 20
171.534017
 30
0.0
 11
200.177106
 21
171.534017
 31
0.0
  0
LINE
  5
1A6C
100
AcDbEntity
  8
0
  6
BYBLOCK
 62
     0
100
AcDbLine
 10
223.069099
 20
171.534017
 30
0.0
 11
224.419099
 21
171.534017
 31
0.0
  0
SOLID
  5
1A6D
100
AcDbEntity
  8
0
  6
BYBLOCK
 62
     0
100
AcDbTrace
 10
201.527106
 20
171.759017
 30
0.0
 11
201.527106
 21
171.309017
 31
0.0
 12
202.877106
 22
171.534017
 32
0.0
 13
202.877106
 23
171.534017
 33
0.0
  0
SOLID
  5
1A6E
100
AcDbEntity
  8
0
  6
BYBLOCK
 62
     0
100
AcDbTrace
 10
223.069099
 20
171.759017
 30
0.0
 11
223.069099
 21
171.309017
 31
0.0
 12
221.719099
 22
171.534017
 32
0.0
 13
221.719099
 23
171.534017
 33
0.0
  0
MTEXT
  5
1A6F
100
AcDbEntity
  8
0
  6
BYBLOCK
 62
     0
100
AcDbMText
 10
238.406599
 20
171.534017
 30
0.0
 40
2.25
 41
0.0
 71
     5
 72
     1
  1
\A1;18.84mm[0.742"]
  0
POINT
  5
1A70
100
AcDbEntity
  8
DEFPOINTS
  6
BYBLOCK
 62
     0
100
AcDbPoint
 10
202.877106
 20
156.768067
 30
0.0
  0
POINT
  5
1A71
100
AcDbEntity
  8
DEFPOINTS
  6
BYBLOCK
 62
     0
100
AcDbPoint
 10
221.719099
 20
161.498057
 30
0.0
  0
POINT
  5
1A72
100
AcDbEntity
  8
DEFPOINTS
  6
BYBLOCK
 62
     0
100
AcDbPoint
 10
221.719099
 20
171.534017
 30
0.0
  0
ENDBLK
  5
1A73
100
AcDbEntity
  8
0
100
AcDbBlockEnd
  0
BLOCK
  5
1678
100
AcDbEntity
  8
0
100
AcDbBlockBegin
  2
*X50
 70
    65
 10
0.0
 20
0.0
 30
0.0
  3
*X50
  1

  0
LINE
  5
167A
100
AcDbEntity
  8
0
 62
     0
100
AcDbLine
 10
234.80621
 20
114.598057
 30
0.0
 11
262.44621
 21
142.238057
 31
0.0
  0
LINE
  5
167B
100
AcDbEntity
  8
0
 62
     0
100
AcDbLine
 10
262.44621
 20
142.238057
 30
0.0
 11
279.20621
 21
158.998057
 31
0.0
  0
LINE
  5
167C
100
AcDbEntity
  8
0
 62
     0
100
AcDbLine
 10
233.038443
 20
114.598057
 30
0.0
 11
260.678443
 21
142.238057
 31
0.0
  0
LINE
  5
167D
100
AcDbEntity
  8
0
 62
     0
100
AcDbLine
 10
260.678443
 20
142.238057
 30
0.0
 11
277.438443
 21
158.998057
 31
0.0
  0
LINE
  5
167E
100
AcDbEntity
  8
0
 62
     0
100
AcDbLine
 10
231.270676
 20
114.598057
 30
0.0
 11
258.910676
 21
142.238057
 31
0.0
  0
LINE
  5
167F
100
AcDbEntity
  8
0
 62
     0
100
AcDbLine
 10
258.910676
 20
142.238057
 30
0.0
 11
275.670676
 21
158.998057
 31
0.0
  0
LINE
  5
1680
100
AcDbEntity
  8
0
 62
     0
100
AcDbLine
 10
229.502909
 20
114.598057
 30
0.0
 11
257.142909
 21
142.238057
 31
0.0
  0
LINE
  5
1681
100
AcDbEntity
  8
0
 62
     0
100
AcDbLine
 10
257.142909
 20
142.238057
 30
0.0
 11
273.902909
 21
158.998057
 31
0.0
  0
LINE
  5
1682
100
AcDbEntity
  8
0
 62
     0
100
AcDbLine
 10
227.735142
 20
114.598057
 30
0.0
 11
255.375142
 21
142.238057
 31
0.0
  0
LINE
  5
1683
100
AcDbEntity
  8
0
 62
     0
100
AcDbLine
 10
255.375142
 20
142.238057
 30
0.0
 11
272.135142
 21
158.998057
 31
0.0
  0
LINE
  5
1684
100
AcDbEntity
  8
0
 62
     0
100
AcDbLine
 10
225.967375
 20
114.598057
 30
0.0
 11
253.607375
 21
142.238057
 31
0.0
  0
LINE
  5
1685
100
AcDbEntity
  8
0
 62
     0
100
AcDbLine
 10
253.607375
 20
142.238057
 30
0.0
 11
270.367375
 21
158.998057
 31
0.0
  0
LINE
  5
1686
100
AcDbEntity
  8
0
 62
     0
100
AcDbLine
 10
224.199608
 20
114.598057
 30
0.0
 11
251.839608
 21
142.238057
 31
0.0
  0
LINE
  5
1687
100
AcDbEntity
  8
0
 62
     0
100
AcDbLine
 10
251.839608
 20
142.238057
 30
0.0
 11
268.599608
 21
158.998057
 31
0.0
  0
LINE
  5
1688
100
AcDbEntity
  8
0
 62
     0
100
AcDbLine
 10
222.431841
 20
114.598057
 30
0.0
 11
250.071841
 21
142.238057
 31
0.0
  0
LINE
  5
1689
100
AcDbEntity
  8
0
 62
     0
100
AcDbLine
 10
250.071841
 20
142.238057
 30
0.0
 11
266.831841
 21
158.998057
 31
0.0
  0
LINE
  5
168A
100
AcDbEntity
  8
0
 62
     0
100
AcDbLine
 10
221.719099
 20
115.653082
 30
0.0
 11
248.304074
 21
142.238057
 31
0.0
  0
LINE
  5
168B
100
AcDbEntity
  8
0
 62
     0
100
AcDbLine
 10
248.304074
 20
142.238057
 30
0.0
 11
265.064074
 21
158.998057
 31
0.0
  0
LINE
  5
168C
100
AcDbEntity
  8
0
 62
     0
100
AcDbLine
 10
221.719099
 20
117.420849
 30
0.0
 11
246.536307
 21
142.238057
 31
0.0
  0
LINE
  5
168D
100
AcDbEntity
  8
0
 62
     0
100
AcDbLine
 10
246.536307
 20
142.238057
 30
0.0
 11
263.296307
 21
158.998057
 31
0.0
  0
LINE
  5
168E
100
AcDbEntity
  8
0
 62
     0
100
AcDbLine
 10
221.719099
 20
119.188616
 30
0.0
 11
244.76854
 21
142.238057
 31
0.0
  0
LINE
  5
168F
100
AcDbEntity
  8
0
 62
     0
100
AcDbLine
 10
244.76854
 20
142.238057
 30
0.0
 11
261.52854
 21
158.998057
 31
0.0
  0
LINE
  5
1690
100
AcDbEntity
  8
0
 62
     0
100
AcDbLine
 10
221.719099
 20
120.956383
 30
0.0
 11
243.000773
 21
142.238057
 31
0.0
  0
LINE
  5
1691
100
AcDbEntity
  8
0
 62
     0
100
AcDbLine
 10
243.000773
 20
142.238057
 30
0.0
 11
259.760773
 21
158.998057
 31
0.0
  0
LINE
  5
1692
100
AcDbEntity
  8
0
 62
     0
100
AcDbLine
 10
221.719099
 20
122.72415
 30
0.0
 11
241.233006
 21
142.238057
 31
0.0
  0
LINE
  5
1693
100
AcDbEntity
  8
0
 62
     0
100
AcDbLine
 10
241.233006
 20
142.238057
 30
0.0
 11
257.993006
 21
158.998057
 31
0.0
  0
LINE
  5
1694
100
AcDbEntity
  8
0
 62
     0
100
AcDbLine
 10
221.719099
 20
124.491917
 30
0.0
 11
239.46524
 21
142.238057
 31
0.0
  0
LINE
  5
1695
100
AcDbEntity
  8
0
 62
     0
100
AcDbLine
 10
239.46524
 20
142.238057
 30
0.0
 11
256.22524
 21
158.998057
 31
0.0
  0
LINE
  5
1696
100
AcDbEntity
  8
0
 62
     0
100
AcDbLine
 10
221.719099
 20
126.259684
 30
0.0
 11
237.697473
 21
142.238057
 31
0.0
  0
LINE
  5
1697
100
AcDbEntity
  8
0
 62
     0
100
AcDbLine
 10
237.697473
 20
142.238057
 30
0.0
 11
254.457473
 21
158.998057
 31
0.0
  0
LINE
  5
1698
100
AcDbEntity
  8
0
 62
     0
100
AcDbLine
 10
221.719099
 20
128.027451
 30
0.0
 11
235.929706
 21
142.238057
 31
0.0
  0
LINE
  5
1699
100
AcDbEntity
  8
0
 62
     0
100
AcDbLine
 10
235.929706
 20
142.238057
 30
0.0
 11
252.689706
 21
158.998057
 31
0.0
  0
LINE
  5
169A
100
AcDbEntity
  8
0
 62
     0
100
AcDbLine
 10
202.591949
 20
110.668067
 30
0.0
 11
203.177106
 21
111.253225
 31
0.0
  0
LINE
  5
169B
100
AcDbEntity
  8
0
 62
     0
100
AcDbLine
 10
234.161939
 20
142.238057
 30
0.0
 11
250.921939
 21
158.998057
 31
0.0
  0
LINE
  5
169C
100
AcDbEntity
  8
0
 62
     0
100
AcDbLine
 10
221.719099
 20
129.795218
 30
0.0
 11
234.161939
 21
142.238057
 31
0.0
  0
LINE
  5
169D
100
AcDbEntity
  8
0
 62
     0
100
AcDbLine
 10
200.824182
 20
110.668067
 30
0.0
 11
203.177106
 21
113.020992
 31
0.0
  0
LINE
  5
169E
100
AcDbEntity
  8
0
 62
     0
100
AcDbLine
 10
232.394172
 20
142.238057
 30
0.0
 11
249.154172
 21
158.998057
 31
0.0
  0
LINE
  5
169F
100
AcDbEntity
  8
0
 62
     0
100
AcDbLine
 10
221.719099
 20
131.562985
 30
0.0
 11
232.394172
 21
142.238057
 31
0.0
  0
LINE
  5
16A0
100
AcDbEntity
  8
0
 62
     0
100
AcDbLine
 10
199.056415
 20
110.668067
 30
0.0
 11
203.177106
 21
114.788759
 31
0.0
  0
LINE
  5
16A1
100
AcDbEntity
  8
0
 62
     0
100
AcDbLine
 10
230.626405
 20
142.238057
 30
0.0
 11
247.386405
 21
158.998057
 31
0.0
  0
LINE
  5
16A2
100
AcDbEntity
  8
0
 62
     0
100
AcDbLine
 10
221.719099
 20
133.330752
 30
0.0
 11
230.626405
 21
142.238057
 31
0.0
  0
LINE
  5
16A3
100
AcDbEntity
  8
0
 62
     0
100
AcDbLine
 10
198.177106
 20
111.556526
 30
0.0
 11
203.177106
 21
116.556526
 31
0.0
  0
LINE
  5
16A4
100
AcDbEntity
  8
0
 62
     0
100
AcDbLine
 10
228.858638
 20
142.238057
 30
0.0
 11
245.618638
 21
158.998057
 31
0.0
  0
LINE
  5
16A5
100
AcDbEntity
  8
0
 62
     0
100
AcDbLine
 10
221.719099
 20
135.098519
 30
0.0
 11
228.858638
 21
142.238057
 31
0.0
  0
LINE
  5
16A6
100
AcDbEntity
  8
0
 62
     0
100
AcDbLine
 10
198.177106
 20
113.324293
 30
0.0
 11
203.177106
 21
118.324293
 31
0.0
  0
LINE
  5
16A7
100
AcDbEntity
  8
0
 62
     0
100
AcDbLine
 10
227.090871
 20
142.238057
 30
0.0
 11
243.850871
 21
158.998057
 31
0.0
  0
LINE
  5
16A8
100
AcDbEntity
  8
0
 62
     0
100
AcDbLine
 10
221.719099
 20
136.866286
 30
0.0
 11
227.090871
 21
142.238057
 31
0.0
  0
LINE
  5
16A9
100
AcDbEntity
  8
0
 62
     0
100
AcDbLine
 10
198.177106
 20
115.09206
 30
0.0
 11
203.177106
 21
120.09206
 31
0.0
  0
LINE
  5
16AA
100
AcDbEntity
  8
0
 62
     0
100
AcDbLine
 10
225.323104
 20
142.238057
 30
0.0
 11
242.083104
 21
158.998057
 31
0.0
  0
LINE
  5
16AB
100
AcDbEntity
  8
0
 62
     0
100
AcDbLine
 10
221.719099
 20
138.634053
 30
0.0
 11
225.323104
 21
142.238057
 31
0.0
  0
LINE
  5
16AC
100
AcDbEntity
  8
0
 62
     0
100
AcDbLine
 10
198.177106
 20
116.859827
 30
0.0
 11
203.177106
 21
121.859827
 31
0.0
  0
LINE
  5
16AD
100
AcDbEntity
  8
0
 62
     0
100
AcDbLine
 10
223.555337
 20
142.238057
 30
0.0
 11
240.315337
 21
158.998057
 31
0.0
  0
LINE
  5
16AE
100
AcDbEntity
  8
0
 62
     0
100
AcDbLine
 10
221.719099
 20
140.40182
 30
0.0
 11
223.555337
 21
142.238057
 31
0.0
  0
LINE
  5
16AF
100
AcDbEntity
  8
0
 62
     0
100
AcDbLine
 10
198.177106
 20
118.627594
 30
0.0
 11
203.177106
 21
123.627594
 31
0.0
  0
LINE
  5
16B0
100
AcDbEntity
  8
0
 62
     0
100
AcDbLine
 10
221.78757
 20
142.238057
 30
0.0
 11
238.54757
 21
158.998057
 31
0.0
  0
LINE
  5
16B1
100
AcDbEntity
  8
0
 62
     0
100
AcDbLine
 10
221.719099
 20
142.169587
 30
0.0
 11
221.78757
 21
142.238057
 31
0.0
  0
LINE
  5
16B2
100
AcDbEntity
  8
0
 62
     0
100
AcDbLine
 10
198.177106
 20
120.39536
 30
0.0
 11
203.177106
 21
125.39536
 31
0.0
  0
LINE
  5
16B3
100
AcDbEntity
  8
0
 62
     0
100
AcDbLine
 10
221.719099
 20
143.937354
 30
0.0
 11
236.779803
 21
158.998057
 31
0.0
  0
LINE
  5
16B4
100
AcDbEntity
  8
0
 62
     0
100
AcDbLine
 10
198.177106
 20
122.163127
 30
0.0
 11
203.177106
 21
127.163127
 31
0.0
  0
LINE
  5
16B5
100
AcDbEntity
  8
0
 62
     0
100
AcDbLine
 10
221.719099
 20
145.705121
 30
0.0
 11
235.012036
 21
158.998057
 31
0.0
  0
LINE
  5
16B6
100
AcDbEntity
  8
0
 62
     0
100
AcDbLine
 10
198.177106
 20
123.930894
 30
0.0
 11
203.177106
 21
128.930894
 31
0.0
  0
LINE
  5
16B7
100
AcDbEntity
  8
0
 62
     0
100
AcDbLine
 10
221.719099
 20
147.472887
 30
0.0
 11
233.244269
 21
158.998057
 31
0.0
  0
LINE
  5
16B8
100
AcDbEntity
  8
0
 62
     0
100
AcDbLine
 10
198.177106
 20
125.698661
 30
0.0
 11
203.177106
 21
130.698661
 31
0.0
  0
LINE
  5
16B9
100
AcDbEntity
  8
0
 62
     0
100
AcDbLine
 10
221.719099
 20
149.240654
 30
0.0
 11
231.476502
 21
158.998057
 31
0.0
  0
LINE
  5
16BA
100
AcDbEntity
  8
0
 62
     0
100
AcDbLine
 10
198.177106
 20
127.466428
 30
0.0
 11
203.177106
 21
132.466428
 31
0.0
  0
LINE
  5
16BB
100
AcDbEntity
  8
0
 62
     0
100
AcDbLine
 10
221.719099
 20
151.008421
 30
0.0
 11
229.708735
 21
158.998057
 31
0.0
  0
LINE
  5
16BC
100
AcDbEntity
  8
0
 62
     0
100
AcDbLine
 10
198.177106
 20
129.234195
 30
0.0
 11
203.177106
 21
134.234195
 31
0.0
  0
LINE
  5
16BD
100
AcDbEntity
  8
0
 62
     0
100
AcDbLine
 10
221.719099
 20
152.776188
 30
0.0
 11
227.940968
 21
158.998057
 31
0.0
  0
LINE
  5
16BE
100
AcDbEntity
  8
0
 62
     0
100
AcDbLine
 10
198.177106
 20
131.001962
 30
0.0
 11
203.177106
 21
136.001962
 31
0.0
  0
LINE
  5
16BF
100
AcDbEntity
  8
0
 62
     0
100
AcDbLine
 10
221.719099
 20
154.543955
 30
0.0
 11
226.173201
 21
158.998057
 31
0.0
  0
LINE
  5
16C0
100
AcDbEntity
  8
0
 62
     0
100
AcDbLine
 10
198.177106
 20
132.769729
 30
0.0
 11
203.177106
 21
137.769729
 31
0.0
  0
LINE
  5
16C1
100
AcDbEntity
  8
0
 62
     0
100
AcDbLine
 10
221.719099
 20
156.311722
 30
0.0
 11
224.405434
 21
158.998057
 31
0.0
  0
LINE
  5
16C2
100
AcDbEntity
  8
0
 62
     0
100
AcDbLine
 10
198.177106
 20
134.537496
 30
0.0
 11
203.177106
 21
139.537496
 31
0.0
  0
LINE
  5
16C3
100
AcDbEntity
  8
0
 62
     0
100
AcDbLine
 10
221.719099
 20
158.079489
 30
0.0
 11
222.637667
 21
158.998057
 31
0.0
  0
LINE
  5
16C4
100
AcDbEntity
  8
0
 62
     0
100
AcDbLine
 10
198.177106
 20
136.305263
 30
0.0
 11
203.177106
 21
141.305263
 31
0.0
  0
LINE
  5
16C5
100
AcDbEntity
  8
0
 62
     0
100
AcDbLine
 10
198.177106
 20
138.07303
 30
0.0
 11
202.342134
 21
142.238057
 31
0.0
  0
LINE
  5
16C6
100
AcDbEntity
  8
0
 62
     0
100
AcDbLine
 10
202.342134
 20
142.238057
 30
0.0
 11
203.177106
 21
143.07303
 31
0.0
  0
LINE
  5
16C7
100
AcDbEntity
  8
0
 62
     0
100
AcDbLine
 10
198.177106
 20
139.840797
 30
0.0
 11
200.574367
 21
142.238057
 31
0.0
  0
LINE
  5
16C8
100
AcDbEntity
  8
0
 62
     0
100
AcDbLine
 10
200.574367
 20
142.238057
 30
0.0
 11
203.177106
 21
144.840797
 31
0.0
  0
LINE
  5
16C9
100
AcDbEntity
  8
0
 62
     0
100
AcDbLine
 10
198.177106
 20
141.608564
 30
0.0
 11
198.8066
 21
142.238057
 31
0.0
  0
LINE
  5
16CA
100
AcDbEntity
  8
0
 62
     0
100
AcDbLine
 10
198.8066
 20
142.238057
 30
0.0
 11
203.177106
 21
146.608564
 31
0.0
  0
LINE
  5
16CB
100
AcDbEntity
  8
0
 62
     0
100
AcDbLine
 10
198.177106
 20
143.376331
 30
0.0
 11
203.177106
 21
148.376331
 31
0.0
  0
LINE
  5
16CC
100
AcDbEntity
  8
0
 62
     0
100
AcDbLine
 10
198.177106
 20
145.144098
 30
0.0
 11
203.177106
 21
150.144098
 31
0.0
  0
LINE
  5
16CD
100
AcDbEntity
  8
0
 62
     0
100
AcDbLine
 10
198.177106
 20
146.911865
 30
0.0
 11
203.177106
 21
151.911865
 31
0.0
  0
LINE
  5
16CE
100
AcDbEntity
  8
0
 62
     0
100
AcDbLine
 10
198.177106
 20
148.679632
 30
0.0
 11
203.177106
 21
153.679632
 31
0.0
  0
LINE
  5
16CF
100
AcDbEntity
  8
0
 62
     0
100
AcDbLine
 10
198.177106
 20
150.447399
 30
0.0
 11
203.177106
 21
155.447399
 31
0.0
  0
LINE
  5
16D0
100
AcDbEntity
  8
0
 62
     0
100
AcDbLine
 10
198.177106
 20
152.215166
 30
0.0
 11
202.030008
 21
156.068067
 31
0.0
  0
LINE
  5
16D1
100
AcDbEntity
  8
0
 62
     0
100
AcDbLine
 10
198.177106
 20
153.982933
 30
0.0
 11
200.262241
 21
156.068067
 31
0.0
  0
LINE
  5
16D2
100
AcDbEntity
  8
0
 62
     0
100
AcDbLine
 10
198.177106
 20
155.7507
 30
0.0
 11
198.494474
 21
156.068067
 31
0.0
  0
LINE
  5
16D3
100
AcDbEntity
  8
0
 62
     0
100
AcDbLine
 10
236.573977
 20
114.598057
 30
0.0
 11
264.213977
 21
142.238057
 31
0.0
  0
LINE
  5
16D4
100
AcDbEntity
  8
0
 62
     0
100
AcDbLine
 10
264.213977
 20
142.238057
 30
0.0
 11
280.973977
 21
158.998057
 31
0.0
  0
LINE
  5
16D5
100
AcDbEntity
  8
0
 62
     0
100
AcDbLine
 10
238.341744
 20
114.598057
 30
0.0
 11
265.981744
 21
142.238057
 31
0.0
  0
LINE
  5
16D6
100
AcDbEntity
  8
0
 62
     0
100
AcDbLine
 10
265.981744
 20
142.238057
 30
0.0
 11
282.741744
 21
158.998057
 31
0.0
  0
LINE
  5
16D7
100
AcDbEntity
  8
0
 62
     0
100
AcDbLine
 10
240.109511
 20
114.598057
 30
0.0
 11
267.749511
 21
142.238057
 31
0.0
  0
LINE
  5
16D8
100
AcDbEntity
  8
0
 62
     0
100
AcDbLine
 10
267.749511
 20
142.238057
 30
0.0
 11
284.509511
 21
158.998057
 31
0.0
  0
LINE
  5
16D9
100
AcDbEntity
  8
0
 62
     0
100
AcDbLine
 10
241.877278
 20
114.598057
 30
0.0
 11
269.517278
 21
142.238057
 31
0.0
  0
LINE
  5
16DA
100
AcDbEntity
  8
0
 62
     0
100
AcDbLine
 10
269.517278
 20
142.238057
 30
0.0
 11
286.277278
 21
158.998057
 31
0.0
  0
LINE
  5
16DB
100
AcDbEntity
  8
0
 62
     0
100
AcDbLine
 10
243.645045
 20
114.598057
 30
0.0
 11
271.285045
 21
142.238057
 31
0.0
  0
LINE
  5
16DC
100
AcDbEntity
  8
0
 62
     0
100
AcDbLine
 10
271.285045
 20
142.238057
 30
0.0
 11
288.045045
 21
158.998057
 31
0.0
  0
LINE
  5
16DD
100
AcDbEntity
  8
0
 62
     0
100
AcDbLine
 10
245.412812
 20
114.598057
 30
0.0
 11
273.052812
 21
142.238057
 31
0.0
  0
LINE
  5
16DE
100
AcDbEntity
  8
0
 62
     0
100
AcDbLine
 10
273.052812
 20
142.238057
 30
0.0
 11
289.812812
 21
158.998057
 31
0.0
  0
LINE
  5
16DF
100
AcDbEntity
  8
0
 62
     0
100
AcDbLine
 10
247.180579
 20
114.598057
 30
0.0
 11
274.820579
 21
142.238057
 31
0.0
  0
LINE
  5
16E0
100
AcDbEntity
  8
0
 62
     0
100
AcDbLine
 10
274.820579
 20
142.238057
 30
0.0
 11
291.580579
 21
158.998057
 31
0.0
  0
LINE
  5
16E1
100
AcDbEntity
  8
0
 62
     0
100
AcDbLine
 10
248.948346
 20
114.598057
 30
0.0
 11
276.588346
 21
142.238057
 31
0.0
  0
LINE
  5
16E2
100
AcDbEntity
  8
0
 62
     0
100
AcDbLine
 10
276.588346
 20
142.238057
 30
0.0
 11
293.348346
 21
158.998057
 31
0.0
  0
LINE
  5
16E3
100
AcDbEntity
  8
0
 62
     0
100
AcDbLine
 10
250.716112
 20
114.598057
 30
0.0
 11
278.356112
 21
142.238057
 31
0.0
  0
LINE
  5
16E4
100
AcDbEntity
  8
0
 62
     0
100
AcDbLine
 10
278.356112
 20
142.238057
 30
0.0
 11
295.116112
 21
158.998057
 31
0.0
  0
LINE
  5
16E5
100
AcDbEntity
  8
0
 62
     0
100
AcDbLine
 10
252.483879
 20
114.598057
 30
0.0
 11
280.123879
 21
142.238057
 31
0.0
  0
LINE
  5
16E6
100
AcDbEntity
  8
0
 62
     0
100
AcDbLine
 10
280.123879
 20
142.238057
 30
0.0
 11
296.883879
 21
158.998057
 31
0.0
  0
LINE
  5
16E7
100
AcDbEntity
  8
0
 62
     0
100
AcDbLine
 10
254.251646
 20
114.598057
 30
0.0
 11
281.891646
 21
142.238057
 31
0.0
  0
LINE
  5
16E8
100
AcDbEntity
  8
0
 62
     0
100
AcDbLine
 10
281.891646
 20
142.238057
 30
0.0
 11
298.651646
 21
158.998057
 31
0.0
  0
LINE
  5
16E9
100
AcDbEntity
  8
0
 62
     0
100
AcDbLine
 10
256.019413
 20
114.598057
 30
0.0
 11
283.659413
 21
142.238057
 31
0.0
  0
LINE
  5
16EA
100
AcDbEntity
  8
0
 62
     0
100
AcDbLine
 10
283.659413
 20
142.238057
 30
0.0
 11
300.419413
 21
158.998057
 31
0.0
  0
LINE
  5
16EB
100
AcDbEntity
  8
0
 62
     0
100
AcDbLine
 10
257.78718
 20
114.598057
 30
0.0
 11
285.42718
 21
142.238057
 31
0.0
  0
LINE
  5
16EC
100
AcDbEntity
  8
0
 62
     0
100
AcDbLine
 10
285.42718
 20
142.238057
 30
0.0
 11
302.18718
 21
158.998057
 31
0.0
  0
LINE
  5
16ED
100
AcDbEntity
  8
0
 62
     0
100
AcDbLine
 10
259.554947
 20
114.598057
 30
0.0
 11
287.194947
 21
142.238057
 31
0.0
  0
LINE
  5
16EE
100
AcDbEntity
  8
0
 62
     0
100
AcDbLine
 10
287.194947
 20
142.238057
 30
0.0
 11
303.954947
 21
158.998057
 31
0.0
  0
LINE
  5
16EF
100
AcDbEntity
  8
0
 62
     0
100
AcDbLine
 10
261.322714
 20
114.598057
 30
0.0
 11
288.962714
 21
142.238057
 31
0.0
  0
LINE
  5
16F0
100
AcDbEntity
  8
0
 62
     0
100
AcDbLine
 10
288.962714
 20
142.238057
 30
0.0
 11
305.722714
 21
158.998057
 31
0.0
  0
LINE
  5
16F1
100
AcDbEntity
  8
0
 62
     0
100
AcDbLine
 10
263.090481
 20
114.598057
 30
0.0
 11
290.730481
 21
142.238057
 31
0.0
  0
LINE
  5
16F2
100
AcDbEntity
  8
0
 62
     0
100
AcDbLine
 10
290.730481
 20
142.238057
 30
0.0
 11
307.490481
 21
158.998057
 31
0.0
  0
LINE
  5
16F3
100
AcDbEntity
  8
0
 62
     0
100
AcDbLine
 10
264.858248
 20
114.598057
 30
0.0
 11
292.498248
 21
142.238057
 31
0.0
  0
LINE
  5
16F4
100
AcDbEntity
  8
0
 62
     0
100
AcDbLine
 10
292.498248
 20
142.238057
 30
0.0
 11
309.258248
 21
158.998057
 31
0.0
  0
LINE
  5
16F5
100
AcDbEntity
  8
0
 62
     0
100
AcDbLine
 10
266.626015
 20
114.598057
 30
0.0
 11
294.266015
 21
142.238057
 31
0.0
  0
LINE
  5
16F6
100
AcDbEntity
  8
0
 62
     0
100
AcDbLine
 10
294.266015
 20
142.238057
 30
0.0
 11
311.026015
 21
158.998057
 31
0.0
  0
LINE
  5
16F7
100
AcDbEntity
  8
0
 62
     0
100
AcDbLine
 10
268.393782
 20
114.598057
 30
0.0
 11
296.033782
 21
142.238057
 31
0.0
  0
LINE
  5
16F8
100
AcDbEntity
  8
0
 62
     0
100
AcDbLine
 10
296.033782
 20
142.238057
 30
0.0
 11
312.094099
 21
158.298375
 31
0.0
  0
LINE
  5
16F9
100
AcDbEntity
  8
0
 62
     0
100
AcDbLine
 10
270.161549
 20
114.598057
 30
0.0
 11
297.801549
 21
142.238057
 31
0.0
  0
LINE
  5
16FA
100
AcDbEntity
  8
0
 62
     0
100
AcDbLine
 10
297.801549
 20
142.238057
 30
0.0
 11
312.094099
 21
156.530608
 31
0.0
  0
LINE
  5
16FB
100
AcDbEntity
  8
0
 62
     0
100
AcDbLine
 10
271.929316
 20
114.598057
 30
0.0
 11
299.569316
 21
142.238057
 31
0.0
  0
LINE
  5
16FC
100
AcDbEntity
  8
0
 62
     0
100
AcDbLine
 10
299.569316
 20
142.238057
 30
0.0
 11
312.094099
 21
154.762841
 31
0.0
  0
LINE
  5
16FD
100
AcDbEntity
  8
0
 62
     0
100
AcDbLine
 10
273.697083
 20
114.598057
 30
0.0
 11
301.337083
 21
142.238057
 31
0.0
  0
LINE
  5
16FE
100
AcDbEntity
  8
0
 62
     0
100
AcDbLine
 10
301.337083
 20
142.238057
 30
0.0
 11
312.094099
 21
152.995074
 31
0.0
  0
LINE
  5
16FF
100
AcDbEntity
  8
0
 62
     0
100
AcDbLine
 10
275.46485
 20
114.598057
 30
0.0
 11
303.10485
 21
142.238057
 31
0.0
  0
LINE
  5
1700
100
AcDbEntity
  8
0
 62
     0
100
AcDbLine
 10
303.10485
 20
142.238057
 30
0.0
 11
312.094099
 21
151.227307
 31
0.0
  0
LINE
  5
1701
100
AcDbEntity
  8
0
 62
     0
100
AcDbLine
 10
277.232617
 20
114.598057
 30
0.0
 11
304.872617
 21
142.238057
 31
0.0
  0
LINE
  5
1702
100
AcDbEntity
  8
0
 62
     0
100
AcDbLine
 10
304.872617
 20
142.238057
 30
0.0
 11
312.094099
 21
149.45954
 31
0.0
  0
LINE
  5
1703
100
AcDbEntity
  8
0
 62
     0
100
AcDbLine
 10
279.000384
 20
114.598057
 30
0.0
 11
306.640384
 21
142.238057
 31
0.0
  0
LINE
  5
1704
100
AcDbEntity
  8
0
 62
     0
100
AcDbLine
 10
306.640384
 20
142.238057
 30
0.0
 11
312.094099
 21
147.691773
 31
0.0
  0
LINE
  5
1705
100
AcDbEntity
  8
0
 62
     0
100
AcDbLine
 10
280.768151
 20
114.598057
 30
0.0
 11
308.408151
 21
142.238057
 31
0.0
  0
LINE
  5
1706
100
AcDbEntity
  8
0
 62
     0
100
AcDbLine
 10
308.408151
 20
142.238057
 30
0.0
 11
312.094099
 21
145.924006
 31
0.0
  0
LINE
  5
1707
100
AcDbEntity
  8
0
 62
     0
100
AcDbLine
 10
282.535918
 20
114.598057
 30
0.0
 11
310.175918
 21
142.238057
 31
0.0
  0
LINE
  5
1708
100
AcDbEntity
  8
0
 62
     0
100
AcDbLine
 10
310.175918
 20
142.238057
 30
0.0
 11
312.094099
 21
144.156239
 31
0.0
  0
LINE
  5
1709
100
AcDbEntity
  8
0
 62
     0
100
AcDbLine
 10
284.303685
 20
114.598057
 30
0.0
 11
311.943685
 21
142.238057
 31
0.0
  0
LINE
  5
170A
100
AcDbEntity
  8
0
 62
     0
100
AcDbLine
 10
311.943685
 20
142.238057
 30
0.0
 11
312.094099
 21
142.388472
 31
0.0
  0
LINE
  5
170B
100
AcDbEntity
  8
0
 62
     0
100
AcDbLine
 10
286.071452
 20
114.598057
 30
0.0
 11
312.094099
 21
140.620705
 31
0.0
  0
LINE
  5
170C
100
AcDbEntity
  8
0
 62
     0
100
AcDbLine
 10
287.839219
 20
114.598057
 30
0.0
 11
312.094099
 21
138.852938
 31
0.0
  0
LINE
  5
170D
100
AcDbEntity
  8
0
 62
     0
100
AcDbLine
 10
289.606985
 20
114.598057
 30
0.0
 11
312.094099
 21
137.085171
 31
0.0
  0
LINE
  5
170E
100
AcDbEntity
  8
0
 62
     0
100
AcDbLine
 10
291.374752
 20
114.598057
 30
0.0
 11
312.094099
 21
135.317404
 31
0.0
  0
LINE
  5
170F
100
AcDbEntity
  8
0
 62
     0
100
AcDbLine
 10
293.142519
 20
114.598057
 30
0.0
 11
312.094099
 21
133.549637
 31
0.0
  0
LINE
  5
1710
100
AcDbEntity
  8
0
 62
     0
100
AcDbLine
 10
294.910286
 20
114.598057
 30
0.0
 11
312.094099
 21
131.78187
 31
0.0
  0
LINE
  5
1711
100
AcDbEntity
  8
0
 62
     0
100
AcDbLine
 10
296.678053
 20
114.598057
 30
0.0
 11
312.094099
 21
130.014103
 31
0.0
  0
LINE
  5
1712
100
AcDbEntity
  8
0
 62
     0
100
AcDbLine
 10
298.44582
 20
114.598057
 30
0.0
 11
312.094099
 21
128.246336
 31
0.0
  0
LINE
  5
1713
100
AcDbEntity
  8
0
 62
     0
100
AcDbLine
 10
300.213587
 20
114.598057
 30
0.0
 11
312.094099
 21
126.478569
 31
0.0
  0
LINE
  5
1714
100
AcDbEntity
  8
0
 62
     0
100
AcDbLine
 10
301.981354
 20
114.598057
 30
0.0
 11
312.094099
 21
124.710802
 31
0.0
  0
LINE
  5
1715
100
AcDbEntity
  8
0
 62
     0
100
AcDbLine
 10
303.749121
 20
114.598057
 30
0.0
 11
312.094099
 21
122.943036
 31
0.0
  0
LINE
  5
1716
100
AcDbEntity
  8
0
 62
     0
100
AcDbLine
 10
305.516888
 20
114.598057
 30
0.0
 11
312.094099
 21
121.175269
 31
0.0
  0
LINE
  5
1717
100
AcDbEntity
  8
0
 62
     0
100
AcDbLine
 10
307.284655
 20
114.598057
 30
0.0
 11
312.094099
 21
119.407502
 31
0.0
  0
LINE
  5
1718
100
AcDbEntity
  8
0
 62
     0
100
AcDbLine
 10
309.052422
 20
114.598057
 30
0.0
 11
312.094099
 21
117.639735
 31
0.0
  0
LINE
  5
1719
100
AcDbEntity
  8
0
 62
     0
100
AcDbLine
 10
310.820189
 20
114.598057
 30
0.0
 11
312.094099
 21
115.871968
 31
0.0
  0
ENDBLK
  5
171A
100
AcDbEntity
  8
0
100
AcDbBlockEnd
  0
BLOCK
  5
178E
100
AcDbEntity
  8
0
100
AcDbBlockBegin
  2
*X51
 70
    65
 10
0.0
 20
0.0
 30
0.0
  3
*X51
  1

  0
LINE
  5
1790
100
AcDbEntity
  8
0
 62
     0
100
AcDbLine
 10
198.177106
 20
265.352251
 30
0.0
 11
203.177106
 21
270.352251
 31
0.0
  0
LINE
  5
1791
100
AcDbEntity
  8
0
 62
     0
100
AcDbLine
 10
221.719099
 20
288.894244
 30
0.0
 11
226.719099
 21
293.894244
 31
0.0
  0
LINE
  5
1792
100
AcDbEntity
  8
0
 62
     0
100
AcDbLine
 10
198.177106
 20
267.120018
 30
0.0
 11
203.177106
 21
272.120018
 31
0.0
  0
LINE
  5
1793
100
AcDbEntity
  8
0
 62
     0
100
AcDbLine
 10
221.719099
 20
290.662011
 30
0.0
 11
226.719099
 21
295.662011
 31
0.0
  0
LINE
  5
1794
100
AcDbEntity
  8
0
 62
     0
100
AcDbLine
 10
198.177106
 20
268.887785
 30
0.0
 11
202.855269
 21
273.565947
 31
0.0
  0
LINE
  5
1795
100
AcDbEntity
  8
0
 62
     0
100
AcDbLine
 10
221.719099
 20
292.429778
 30
0.0
 11
226.719099
 21
297.429778
 31
0.0
  0
LINE
  5
1796
100
AcDbEntity
  8
0
 62
     0
100
AcDbLine
 10
202.855269
 20
273.565947
 30
0.0
 11
203.177106
 21
273.887785
 31
0.0
  0
LINE
  5
1797
100
AcDbEntity
  8
0
 62
     0
100
AcDbLine
 10
198.177106
 20
270.655551
 30
0.0
 11
201.087502
 21
273.565947
 31
0.0
  0
LINE
  5
1798
100
AcDbEntity
  8
0
 62
     0
100
AcDbLine
 10
221.719099
 20
294.197545
 30
0.0
 11
226.719099
 21
299.197545
 31
0.0
  0
LINE
  5
1799
100
AcDbEntity
  8
0
 62
     0
100
AcDbLine
 10
201.087502
 20
273.565947
 30
0.0
 11
203.177106
 21
275.655551
 31
0.0
  0
LINE
  5
179A
100
AcDbEntity
  8
0
 62
     0
100
AcDbLine
 10
198.177106
 20
272.423318
 30
0.0
 11
199.319735
 21
273.565947
 31
0.0
  0
LINE
  5
179B
100
AcDbEntity
  8
0
 62
     0
100
AcDbLine
 10
221.719099
 20
295.965312
 30
0.0
 11
226.719099
 21
300.965312
 31
0.0
  0
LINE
  5
179C
100
AcDbEntity
  8
0
 62
     0
100
AcDbLine
 10
199.319735
 20
273.565947
 30
0.0
 11
203.177106
 21
277.423318
 31
0.0
  0
LINE
  5
179D
100
AcDbEntity
  8
0
 62
     0
100
AcDbLine
 10
198.177106
 20
274.191085
 30
0.0
 11
203.177106
 21
279.191085
 31
0.0
  0
LINE
  5
179E
100
AcDbEntity
  8
0
 62
     0
100
AcDbLine
 10
221.719099
 20
297.733078
 30
0.0
 11
225.191968
 21
301.205947
 31
0.0
  0
LINE
  5
179F
100
AcDbEntity
  8
0
 62
     0
100
AcDbLine
 10
198.177106
 20
275.958852
 30
0.0
 11
203.177106
 21
280.958852
 31
0.0
  0
LINE
  5
17A0
100
AcDbEntity
  8
0
 62
     0
100
AcDbLine
 10
221.719099
 20
299.500845
 30
0.0
 11
223.424201
 21
301.205947
 31
0.0
  0
LINE
  5
17A1
100
AcDbEntity
  8
0
 62
     0
100
AcDbLine
 10
198.177106
 20
277.726619
 30
0.0
 11
203.177106
 21
282.726619
 31
0.0
  0
LINE
  5
17A2
100
AcDbEntity
  8
0
 62
     0
100
AcDbLine
 10
198.177106
 20
279.494386
 30
0.0
 11
203.177106
 21
284.494386
 31
0.0
  0
LINE
  5
17A3
100
AcDbEntity
  8
0
 62
     0
100
AcDbLine
 10
198.177106
 20
281.262153
 30
0.0
 11
203.177106
 21
286.262153
 31
0.0
  0
LINE
  5
17A4
100
AcDbEntity
  8
0
 62
     0
100
AcDbLine
 10
198.177106
 20
283.02992
 30
0.0
 11
203.177106
 21
288.02992
 31
0.0
  0
LINE
  5
17A5
100
AcDbEntity
  8
0
 62
     0
100
AcDbLine
 10
198.177106
 20
284.797687
 30
0.0
 11
203.177106
 21
289.797687
 31
0.0
  0
LINE
  5
17A6
100
AcDbEntity
  8
0
 62
     0
100
AcDbLine
 10
198.177106
 20
286.565454
 30
0.0
 11
203.177106
 21
291.565454
 31
0.0
  0
LINE
  5
17A7
100
AcDbEntity
  8
0
 62
     0
100
AcDbLine
 10
198.177106
 20
288.333221
 30
0.0
 11
203.177106
 21
293.333221
 31
0.0
  0
LINE
  5
17A8
100
AcDbEntity
  8
0
 62
     0
100
AcDbLine
 10
198.177106
 20
290.100988
 30
0.0
 11
203.177106
 21
295.100988
 31
0.0
  0
LINE
  5
17A9
100
AcDbEntity
  8
0
 62
     0
100
AcDbLine
 10
198.177106
 20
291.868755
 30
0.0
 11
203.177106
 21
296.868755
 31
0.0
  0
LINE
  5
17AA
100
AcDbEntity
  8
0
 62
     0
100
AcDbLine
 10
198.177106
 20
293.636522
 30
0.0
 11
203.177106
 21
298.636522
 31
0.0
  0
LINE
  5
17AB
100
AcDbEntity
  8
0
 62
     0
100
AcDbLine
 10
198.177106
 20
295.404289
 30
0.0
 11
203.177106
 21
300.404289
 31
0.0
  0
LINE
  5
17AC
100
AcDbEntity
  8
0
 62
     0
100
AcDbLine
 10
198.177106
 20
297.172056
 30
0.0
 11
203.177106
 21
302.172056
 31
0.0
  0
LINE
  5
17AD
100
AcDbEntity
  8
0
 62
     0
100
AcDbLine
 10
198.177106
 20
298.939823
 30
0.0
 11
203.177106
 21
303.939823
 31
0.0
  0
LINE
  5
17AE
100
AcDbEntity
  8
0
 62
     0
100
AcDbLine
 10
198.177106
 20
300.70759
 30
0.0
 11
202.605453
 21
305.135937
 31
0.0
  0
LINE
  5
17AF
100
AcDbEntity
  8
0
 62
     0
100
AcDbLine
 10
198.177106
 20
302.475357
 30
0.0
 11
200.837686
 21
305.135937
 31
0.0
  0
LINE
  5
17B0
100
AcDbEntity
  8
0
 62
     0
100
AcDbLine
 10
198.177106
 20
304.243124
 30
0.0
 11
199.06992
 21
305.135937
 31
0.0
  0
LINE
  5
17B1
100
AcDbEntity
  8
0
 62
     0
100
AcDbLine
 10
198.177106
 20
263.584484
 30
0.0
 11
203.177106
 21
268.584484
 31
0.0
  0
LINE
  5
17B2
100
AcDbEntity
  8
0
 62
     0
100
AcDbLine
 10
221.719099
 20
287.126477
 30
0.0
 11
226.719099
 21
292.126477
 31
0.0
  0
LINE
  5
17B3
100
AcDbEntity
  8
0
 62
     0
100
AcDbLine
 10
198.177106
 20
261.816717
 30
0.0
 11
203.177106
 21
266.816717
 31
0.0
  0
LINE
  5
17B4
100
AcDbEntity
  8
0
 62
     0
100
AcDbLine
 10
221.719099
 20
285.35871
 30
0.0
 11
226.719099
 21
290.35871
 31
0.0
  0
LINE
  5
17B5
100
AcDbEntity
  8
0
 62
     0
100
AcDbLine
 10
198.177106
 20
260.04895
 30
0.0
 11
203.177106
 21
265.04895
 31
0.0
  0
LINE
  5
17B6
100
AcDbEntity
  8
0
 62
     0
100
AcDbLine
 10
221.719099
 20
283.590943
 30
0.0
 11
226.719099
 21
288.590943
 31
0.0
  0
LINE
  5
17B7
100
AcDbEntity
  8
0
 62
     0
100
AcDbLine
 10
199.63186
 20
259.735937
 30
0.0
 11
203.177106
 21
263.281183
 31
0.0
  0
LINE
  5
17B8
100
AcDbEntity
  8
0
 62
     0
100
AcDbLine
 10
221.719099
 20
281.823176
 30
0.0
 11
226.719099
 21
286.823176
 31
0.0
  0
LINE
  5
17B9
100
AcDbEntity
  8
0
 62
     0
100
AcDbLine
 10
201.399627
 20
259.735937
 30
0.0
 11
203.177106
 21
261.513416
 31
0.0
  0
LINE
  5
17BA
100
AcDbEntity
  8
0
 62
     0
100
AcDbLine
 10
221.719099
 20
280.055409
 30
0.0
 11
226.719099
 21
285.055409
 31
0.0
  0
LINE
  5
17BB
100
AcDbEntity
  8
0
 62
     0
100
AcDbLine
 10
203.167394
 20
259.735937
 30
0.0
 11
203.177106
 21
259.745649
 31
0.0
  0
LINE
  5
17BC
100
AcDbEntity
  8
0
 62
     0
100
AcDbLine
 10
221.719099
 20
278.287642
 30
0.0
 11
226.719099
 21
283.287642
 31
0.0
  0
LINE
  5
17BD
100
AcDbEntity
  8
0
 62
     0
100
AcDbLine
 10
221.719099
 20
276.519875
 30
0.0
 11
226.719099
 21
281.519875
 31
0.0
  0
LINE
  5
17BE
100
AcDbEntity
  8
0
 62
     0
100
AcDbLine
 10
221.719099
 20
274.752108
 30
0.0
 11
226.719099
 21
279.752108
 31
0.0
  0
LINE
  5
17BF
100
AcDbEntity
  8
0
 62
     0
100
AcDbLine
 10
221.719099
 20
272.984341
 30
0.0
 11
222.300705
 21
273.565947
 31
0.0
  0
LINE
  5
17C0
100
AcDbEntity
  8
0
 62
     0
100
AcDbLine
 10
222.300705
 20
273.565947
 30
0.0
 11
226.719099
 21
277.984341
 31
0.0
  0
LINE
  5
17C1
100
AcDbEntity
  8
0
 62
     0
100
AcDbLine
 10
221.719099
 20
271.216574
 30
0.0
 11
224.068472
 21
273.565947
 31
0.0
  0
LINE
  5
17C2
100
AcDbEntity
  8
0
 62
     0
100
AcDbLine
 10
224.068472
 20
273.565947
 30
0.0
 11
226.719099
 21
276.216574
 31
0.0
  0
LINE
  5
17C3
100
AcDbEntity
  8
0
 62
     0
100
AcDbLine
 10
221.719099
 20
269.448807
 30
0.0
 11
225.836239
 21
273.565947
 31
0.0
  0
LINE
  5
17C4
100
AcDbEntity
  8
0
 62
     0
100
AcDbLine
 10
225.836239
 20
273.565947
 30
0.0
 11
226.719099
 21
274.448807
 31
0.0
  0
LINE
  5
17C5
100
AcDbEntity
  8
0
 62
     0
100
AcDbLine
 10
221.719099
 20
267.68104
 30
0.0
 11
226.719099
 21
272.68104
 31
0.0
  0
LINE
  5
17C6
100
AcDbEntity
  8
0
 62
     0
100
AcDbLine
 10
221.719099
 20
265.913273
 30
0.0
 11
226.719099
 21
270.913273
 31
0.0
  0
LINE
  5
17C7
100
AcDbEntity
  8
0
 62
     0
100
AcDbLine
 10
221.719099
 20
264.145506
 30
0.0
 11
226.719099
 21
269.145506
 31
0.0
  0
LINE
  5
17C8
100
AcDbEntity
  8
0
 62
     0
100
AcDbLine
 10
221.719099
 20
262.377739
 30
0.0
 11
226.719099
 21
267.377739
 31
0.0
  0
LINE
  5
17C9
100
AcDbEntity
  8
0
 62
     0
100
AcDbLine
 10
221.719099
 20
260.609972
 30
0.0
 11
226.719099
 21
265.609972
 31
0.0
  0
LINE
  5
17CA
100
AcDbEntity
  8
0
 62
     0
100
AcDbLine
 10
221.719099
 20
258.842206
 30
0.0
 11
226.719099
 21
263.842206
 31
0.0
  0
LINE
  5
17CB
100
AcDbEntity
  8
0
 62
     0
100
AcDbLine
 10
221.719099
 20
257.074439
 30
0.0
 11
226.719099
 21
262.074439
 31
0.0
  0
LINE
  5
17CC
100
AcDbEntity
  8
0
 62
     0
100
AcDbLine
 10
223.218375
 20
256.805947
 30
0.0
 11
226.719099
 21
260.306672
 31
0.0
  0
LINE
  5
17CD
100
AcDbEntity
  8
0
 62
     0
100
AcDbLine
 10
224.986142
 20
256.805947
 30
0.0
 11
226.719099
 21
258.538905
 31
0.0
  0
ENDBLK
  5
17CE
100
AcDbEntity
  8
0
100
AcDbBlockEnd
  0
BLOCK
  5
19EA
100
AcDbEntity
  8
TEXT
100
AcDbBlockBegin
  2
*U56
 70
     1
 10
0.0
 20
0.0
 30
0.0
  3
*U56
  1

  0
ENDBLK
  5
19EB
100
AcDbEntity
  8
TEXT
100
AcDbBlockEnd
  0
BLOCK
  5
1A27
100
AcDbEntity
  8
0
100
AcDbBlockBegin
  2
*X57
 70
    65
 10
0.0
 20
0.0
 30
0.0
  3
*X57
  1

  0
LINE
  5
1A29
100
AcDbEntity
  8
0
 62
     0
100
AcDbLine
 10
197.877106
 20
243.839047
 30
0.0
 11
202.877106
 21
248.839047
 31
0.0
  0
LINE
  5
1A2A
100
AcDbEntity
  8
0
 62
     0
100
AcDbLine
 10
221.719099
 20
267.68104
 30
0.0
 11
226.719099
 21
272.68104
 31
0.0
  0
LINE
  5
1A2B
100
AcDbEntity
  8
0
 62
     0
100
AcDbLine
 10
197.877106
 20
245.606814
 30
0.0
 11
202.877106
 21
250.606814
 31
0.0
  0
LINE
  5
1A2C
100
AcDbEntity
  8
0
 62
     0
100
AcDbLine
 10
221.719099
 20
269.448807
 30
0.0
 11
226.719099
 21
274.448807
 31
0.0
  0
LINE
  5
1A2D
100
AcDbEntity
  8
0
 62
     0
100
AcDbLine
 10
197.877106
 20
247.374581
 30
0.0
 11
202.693472
 21
252.190947
 31
0.0
  0
LINE
  5
1A2E
100
AcDbEntity
  8
0
 62
     0
100
AcDbLine
 10
221.719099
 20
271.216574
 30
0.0
 11
226.719099
 21
276.216574
 31
0.0
  0
LINE
  5
1A2F
100
AcDbEntity
  8
0
 62
     0
100
AcDbLine
 10
202.693472
 20
252.190947
 30
0.0
 11
202.877106
 21
252.374581
 31
0.0
  0
LINE
  5
1A30
100
AcDbEntity
  8
0
 62
     0
100
AcDbLine
 10
197.877106
 20
249.142348
 30
0.0
 11
200.925705
 21
252.190947
 31
0.0
  0
LINE
  5
1A31
100
AcDbEntity
  8
0
 62
     0
100
AcDbLine
 10
221.719099
 20
272.984341
 30
0.0
 11
226.719099
 21
277.984341
 31
0.0
  0
LINE
  5
1A32
100
AcDbEntity
  8
0
 62
     0
100
AcDbLine
 10
200.925705
 20
252.190947
 30
0.0
 11
202.877106
 21
254.142348
 31
0.0
  0
LINE
  5
1A33
100
AcDbEntity
  8
0
 62
     0
100
AcDbLine
 10
197.877106
 20
250.910115
 30
0.0
 11
199.157938
 21
252.190947
 31
0.0
  0
LINE
  5
1A34
100
AcDbEntity
  8
0
 62
     0
100
AcDbLine
 10
221.719099
 20
274.752108
 30
0.0
 11
226.719099
 21
279.752108
 31
0.0
  0
LINE
  5
1A35
100
AcDbEntity
  8
0
 62
     0
100
AcDbLine
 10
199.157938
 20
252.190947
 30
0.0
 11
202.877106
 21
255.910115
 31
0.0
  0
LINE
  5
1A36
100
AcDbEntity
  8
0
 62
     0
100
AcDbLine
 10
197.877106
 20
252.677882
 30
0.0
 11
202.877106
 21
257.677882
 31
0.0
  0
LINE
  5
1A37
100
AcDbEntity
  8
0
 62
     0
100
AcDbLine
 10
221.719099
 20
276.519875
 30
0.0
 11
225.030171
 21
279.830947
 31
0.0
  0
LINE
  5
1A38
100
AcDbEntity
  8
0
 62
     0
100
AcDbLine
 10
197.877106
 20
254.445649
 30
0.0
 11
202.877106
 21
259.445649
 31
0.0
  0
LINE
  5
1A39
100
AcDbEntity
  8
0
 62
     0
100
AcDbLine
 10
221.719099
 20
278.287642
 30
0.0
 11
223.262404
 21
279.830947
 31
0.0
  0
LINE
  5
1A3A
100
AcDbEntity
  8
0
 62
     0
100
AcDbLine
 10
197.877106
 20
256.213416
 30
0.0
 11
202.877106
 21
261.213416
 31
0.0
  0
LINE
  5
1A3B
100
AcDbEntity
  8
0
 62
     0
100
AcDbLine
 10
197.877106
 20
257.981183
 30
0.0
 11
202.877106
 21
262.981183
 31
0.0
  0
LINE
  5
1A3C
100
AcDbEntity
  8
0
 62
     0
100
AcDbLine
 10
197.877106
 20
259.74895
 30
0.0
 11
202.877106
 21
264.74895
 31
0.0
  0
LINE
  5
1A3D
100
AcDbEntity
  8
0
 62
     0
100
AcDbLine
 10
197.877106
 20
261.516717
 30
0.0
 11
202.877106
 21
266.516717
 31
0.0
  0
LINE
  5
1A3E
100
AcDbEntity
  8
0
 62
     0
100
AcDbLine
 10
197.877106
 20
263.284484
 30
0.0
 11
202.877106
 21
268.284484
 31
0.0
  0
LINE
  5
1A3F
100
AcDbEntity
  8
0
 62
     0
100
AcDbLine
 10
197.877106
 20
265.052251
 30
0.0
 11
202.877106
 21
270.052251
 31
0.0
  0
LINE
  5
1A40
100
AcDbEntity
  8
0
 62
     0
100
AcDbLine
 10
197.877106
 20
266.820018
 30
0.0
 11
202.877106
 21
271.820018
 31
0.0
  0
LINE
  5
1A41
100
AcDbEntity
  8
0
 62
     0
100
AcDbLine
 10
197.877106
 20
268.587785
 30
0.0
 11
202.877106
 21
273.587785
 31
0.0
  0
LINE
  5
1A42
100
AcDbEntity
  8
0
 62
     0
100
AcDbLine
 10
197.877106
 20
270.355551
 30
0.0
 11
202.877106
 21
275.355551
 31
0.0
  0
LINE
  5
1A43
100
AcDbEntity
  8
0
 62
     0
100
AcDbLine
 10
197.877106
 20
272.123318
 30
0.0
 11
202.877106
 21
277.123318
 31
0.0
  0
LINE
  5
1A44
100
AcDbEntity
  8
0
 62
     0
100
AcDbLine
 10
197.877106
 20
273.891085
 30
0.0
 11
202.877106
 21
278.891085
 31
0.0
  0
LINE
  5
1A45
100
AcDbEntity
  8
0
 62
     0
100
AcDbLine
 10
197.877106
 20
275.658852
 30
0.0
 11
202.877106
 21
280.658852
 31
0.0
  0
LINE
  5
1A46
100
AcDbEntity
  8
0
 62
     0
100
AcDbLine
 10
197.877106
 20
277.426619
 30
0.0
 11
202.877106
 21
282.426619
 31
0.0
  0
LINE
  5
1A47
100
AcDbEntity
  8
0
 62
     0
100
AcDbLine
 10
197.877106
 20
279.194386
 30
0.0
 11
202.443657
 21
283.760937
 31
0.0
  0
LINE
  5
1A48
100
AcDbEntity
  8
0
 62
     0
100
AcDbLine
 10
197.877106
 20
280.962153
 30
0.0
 11
200.67589
 21
283.760937
 31
0.0
  0
LINE
  5
1A49
100
AcDbEntity
  8
0
 62
     0
100
AcDbLine
 10
197.877106
 20
282.72992
 30
0.0
 11
198.908123
 21
283.760937
 31
0.0
  0
LINE
  5
1A4A
100
AcDbEntity
  8
0
 62
     0
100
AcDbLine
 10
197.877106
 20
242.07128
 30
0.0
 11
202.877106
 21
247.07128
 31
0.0
  0
LINE
  5
1A4B
100
AcDbEntity
  8
0
 62
     0
100
AcDbLine
 10
221.719099
 20
265.913273
 30
0.0
 11
226.719099
 21
270.913273
 31
0.0
  0
LINE
  5
1A4C
100
AcDbEntity
  8
0
 62
     0
100
AcDbLine
 10
197.877106
 20
240.303513
 30
0.0
 11
202.877106
 21
245.303513
 31
0.0
  0
LINE
  5
1A4D
100
AcDbEntity
  8
0
 62
     0
100
AcDbLine
 10
221.719099
 20
264.145506
 30
0.0
 11
226.719099
 21
269.145506
 31
0.0
  0
LINE
  5
1A4E
100
AcDbEntity
  8
0
 62
     0
100
AcDbLine
 10
197.877106
 20
238.535746
 30
0.0
 11
202.877106
 21
243.535746
 31
0.0
  0
LINE
  5
1A4F
100
AcDbEntity
  8
0
 62
     0
100
AcDbLine
 10
221.719099
 20
262.377739
 30
0.0
 11
226.719099
 21
267.377739
 31
0.0
  0
LINE
  5
1A50
100
AcDbEntity
  8
0
 62
     0
100
AcDbLine
 10
199.470064
 20
238.360937
 30
0.0
 11
202.877106
 21
241.767979
 31
0.0
  0
LINE
  5
1A51
100
AcDbEntity
  8
0
 62
     0
100
AcDbLine
 10
221.719099
 20
260.609972
 30
0.0
 11
226.719099
 21
265.609972
 31
0.0
  0
LINE
  5
1A52
100
AcDbEntity
  8
0
 62
     0
100
AcDbLine
 10
201.237831
 20
238.360937
 30
0.0
 11
202.877106
 21
240.000212
 31
0.0
  0
LINE
  5
1A53
100
AcDbEntity
  8
0
 62
     0
100
AcDbLine
 10
221.719099
 20
258.842206
 30
0.0
 11
226.719099
 21
263.842206
 31
0.0
  0
LINE
  5
1A54
100
AcDbEntity
  8
0
 62
     0
100
AcDbLine
 10
221.719099
 20
257.074439
 30
0.0
 11
226.719099
 21
262.074439
 31
0.0
  0
LINE
  5
1A55
100
AcDbEntity
  8
0
 62
     0
100
AcDbLine
 10
221.719099
 20
255.306672
 30
0.0
 11
226.719099
 21
260.306672
 31
0.0
  0
LINE
  5
1A56
100
AcDbEntity
  8
0
 62
     0
100
AcDbLine
 10
221.719099
 20
253.538905
 30
0.0
 11
226.719099
 21
258.538905
 31
0.0
  0
LINE
  5
1A57
100
AcDbEntity
  8
0
 62
     0
100
AcDbLine
 10
221.719099
 20
251.771138
 30
0.0
 11
222.138909
 21
252.190947
 31
0.0
  0
LINE
  5
1A58
100
AcDbEntity
  8
0
 62
     0
100
AcDbLine
 10
222.138909
 20
252.190947
 30
0.0
 11
226.719099
 21
256.771138
 31
0.0
  0
LINE
  5
1A59
100
AcDbEntity
  8
0
 62
     0
100
AcDbLine
 10
221.719099
 20
250.003371
 30
0.0
 11
223.906676
 21
252.190947
 31
0.0
  0
LINE
  5
1A5A
100
AcDbEntity
  8
0
 62
     0
100
AcDbLine
 10
223.906676
 20
252.190947
 30
0.0
 11
226.719099
 21
255.003371
 31
0.0
  0
LINE
  5
1A5B
100
AcDbEntity
  8
0
 62
     0
100
AcDbLine
 10
221.719099
 20
248.235604
 30
0.0
 11
225.674442
 21
252.190947
 31
0.0
  0
LINE
  5
1A5C
100
AcDbEntity
  8
0
 62
     0
100
AcDbLine
 10
225.674442
 20
252.190947
 30
0.0
 11
226.719099
 21
253.235604
 31
0.0
  0
LINE
  5
1A5D
100
AcDbEntity
  8
0
 62
     0
100
AcDbLine
 10
221.719099
 20
246.467837
 30
0.0
 11
226.719099
 21
251.467837
 31
0.0
  0
LINE
  5
1A5E
100
AcDbEntity
  8
0
 62
     0
100
AcDbLine
 10
221.719099
 20
244.70007
 30
0.0
 11
226.719099
 21
249.70007
 31
0.0
  0
LINE
  5
1A5F
100
AcDbEntity
  8
0
 62
     0
100
AcDbLine
 10
221.719099
 20
242.932303
 30
0.0
 11
226.719099
 21
247.932303
 31
0.0
  0
LINE
  5
1A60
100
AcDbEntity
  8
0
 62
     0
100
AcDbLine
 10
221.719099
 20
241.164536
 30
0.0
 11
226.719099
 21
246.164536
 31
0.0
  0
LINE
  5
1A61
100
AcDbEntity
  8
0
 62
     0
100
AcDbLine
 10
221.719099
 20
239.396769
 30
0.0
 11
226.719099
 21
244.396769
 31
0.0
  0
LINE
  5
1A62
100
AcDbEntity
  8
0
 62
     0
100
AcDbLine
 10
221.719099
 20
237.629002
 30
0.0
 11
226.719099
 21
242.629002
 31
0.0
  0
LINE
  5
1A63
100
AcDbEntity
  8
0
 62
     0
100
AcDbLine
 10
221.719099
 20
235.861235
 30
0.0
 11
226.719099
 21
240.861235
 31
0.0
  0
LINE
  5
1A64
100
AcDbEntity
  8
0
 62
     0
100
AcDbLine
 10
223.056578
 20
235.430947
 30
0.0
 11
226.719099
 21
239.093468
 31
0.0
  0
LINE
  5
1A65
100
AcDbEntity
  8
0
 62
     0
100
AcDbLine
 10
224.824345
 20
235.430947
 30
0.0
 11
226.719099
 21
237.325701
 31
0.0
  0
LINE
  5
1A66
100
AcDbEntity
  8
0
 62
     0
100
AcDbLine
 10
226.592112
 20
235.430947
 30
0.0
 11
226.719099
 21
235.557934
 31
0.0
  0
ENDBLK
  5
1A67
100
AcDbEntity
  8
0
100
AcDbBlockEnd
  0
BLOCK
  5
1A8D
100
AcDbEntity
  8
0
100
AcDbBlockBegin
  2
*X58
 70
    65
 10
0.0
 20
0.0
 30
0.0
  3
*X58
  1

  0
LINE
  5
1A8F
100
AcDbEntity
  8
0
 62
     0
100
AcDbLine
 10
233.038443
 20
114.598057
 30
0.0
 11
260.678443
 21
142.238057
 31
0.0
  0
LINE
  5
1A90
100
AcDbEntity
  8
0
 62
     0
100
AcDbLine
 10
260.678443
 20
142.238057
 30
0.0
 11
277.438443
 21
158.998057
 31
0.0
  0
LINE
  5
1A91
100
AcDbEntity
  8
0
 62
     0
100
AcDbLine
 10
231.270676
 20
114.598057
 30
0.0
 11
258.910676
 21
142.238057
 31
0.0
  0
LINE
  5
1A92
100
AcDbEntity
  8
0
 62
     0
100
AcDbLine
 10
258.910676
 20
142.238057
 30
0.0
 11
275.670676
 21
158.998057
 31
0.0
  0
LINE
  5
1A93
100
AcDbEntity
  8
0
 62
     0
100
AcDbLine
 10
229.502909
 20
114.598057
 30
0.0
 11
257.142909
 21
142.238057
 31
0.0
  0
LINE
  5
1A94
100
AcDbEntity
  8
0
 62
     0
100
AcDbLine
 10
257.142909
 20
142.238057
 30
0.0
 11
273.902909
 21
158.998057
 31
0.0
  0
LINE
  5
1A95
100
AcDbEntity
  8
0
 62
     0
100
AcDbLine
 10
227.735142
 20
114.598057
 30
0.0
 11
255.375142
 21
142.238057
 31
0.0
  0
LINE
  5
1A96
100
AcDbEntity
  8
0
 62
     0
100
AcDbLine
 10
255.375142
 20
142.238057
 30
0.0
 11
272.135142
 21
158.998057
 31
0.0
  0
LINE
  5
1A97
100
AcDbEntity
  8
0
 62
     0
100
AcDbLine
 10
225.967375
 20
114.598057
 30
0.0
 11
253.607375
 21
142.238057
 31
0.0
  0
LINE
  5
1A98
100
AcDbEntity
  8
0
 62
     0
100
AcDbLine
 10
253.607375
 20
142.238057
 30
0.0
 11
270.367375
 21
158.998057
 31
0.0
  0
LINE
  5
1A99
100
AcDbEntity
  8
0
 62
     0
100
AcDbLine
 10
224.199608
 20
114.598057
 30
0.0
 11
251.839608
 21
142.238057
 31
0.0
  0
LINE
  5
1A9A
100
AcDbEntity
  8
0
 62
     0
100
AcDbLine
 10
251.839608
 20
142.238057
 30
0.0
 11
268.599608
 21
158.998057
 31
0.0
  0
LINE
  5
1A9B
100
AcDbEntity
  8
0
 62
     0
100
AcDbLine
 10
222.431841
 20
114.598057
 30
0.0
 11
250.071841
 21
142.238057
 31
0.0
  0
LINE
  5
1A9C
100
AcDbEntity
  8
0
 62
     0
100
AcDbLine
 10
250.071841
 20
142.238057
 30
0.0
 11
266.831841
 21
158.998057
 31
0.0
  0
LINE
  5
1A9D
100
AcDbEntity
  8
0
 62
     0
100
AcDbLine
 10
221.719099
 20
115.653082
 30
0.0
 11
248.304074
 21
142.238057
 31
0.0
  0
LINE
  5
1A9E
100
AcDbEntity
  8
0
 62
     0
100
AcDbLine
 10
248.304074
 20
142.238057
 30
0.0
 11
265.064074
 21
158.998057
 31
0.0
  0
LINE
  5
1A9F
100
AcDbEntity
  8
0
 62
     0
100
AcDbLine
 10
221.719099
 20
117.420849
 30
0.0
 11
246.536307
 21
142.238057
 31
0.0
  0
LINE
  5
1AA0
100
AcDbEntity
  8
0
 62
     0
100
AcDbLine
 10
246.536307
 20
142.238057
 30
0.0
 11
263.296307
 21
158.998057
 31
0.0
  0
LINE
  5
1AA1
100
AcDbEntity
  8
0
 62
     0
100
AcDbLine
 10
221.719099
 20
119.188616
 30
0.0
 11
244.76854
 21
142.238057
 31
0.0
  0
LINE
  5
1AA2
100
AcDbEntity
  8
0
 62
     0
100
AcDbLine
 10
244.76854
 20
142.238057
 30
0.0
 11
261.52854
 21
158.998057
 31
0.0
  0
LINE
  5
1AA3
100
AcDbEntity
  8
0
 62
     0
100
AcDbLine
 10
221.719099
 20
120.956383
 30
0.0
 11
243.000773
 21
142.238057
 31
0.0
  0
LINE
  5
1AA4
100
AcDbEntity
  8
0
 62
     0
100
AcDbLine
 10
243.000773
 20
142.238057
 30
0.0
 11
259.760773
 21
158.998057
 31
0.0
  0
LINE
  5
1AA5
100
AcDbEntity
  8
0
 62
     0
100
AcDbLine
 10
221.719099
 20
122.72415
 30
0.0
 11
241.233006
 21
142.238057
 31
0.0
  0
LINE
  5
1AA6
100
AcDbEntity
  8
0
 62
     0
100
AcDbLine
 10
241.233006
 20
142.238057
 30
0.0
 11
257.993006
 21
158.998057
 31
0.0
  0
LINE
  5
1AA7
100
AcDbEntity
  8
0
 62
     0
100
AcDbLine
 10
221.719099
 20
124.491917
 30
0.0
 11
239.46524
 21
142.238057
 31
0.0
  0
LINE
  5
1AA8
100
AcDbEntity
  8
0
 62
     0
100
AcDbLine
 10
239.46524
 20
142.238057
 30
0.0
 11
256.22524
 21
158.998057
 31
0.0
  0
LINE
  5
1AA9
100
AcDbEntity
  8
0
 62
     0
100
AcDbLine
 10
221.719099
 20
126.259684
 30
0.0
 11
237.697473
 21
142.238057
 31
0.0
  0
LINE
  5
1AAA
100
AcDbEntity
  8
0
 62
     0
100
AcDbLine
 10
237.697473
 20
142.238057
 30
0.0
 11
254.457473
 21
158.998057
 31
0.0
  0
LINE
  5
1AAB
100
AcDbEntity
  8
0
 62
     0
100
AcDbLine
 10
221.719099
 20
128.027451
 30
0.0
 11
235.929706
 21
142.238057
 31
0.0
  0
LINE
  5
1AAC
100
AcDbEntity
  8
0
 62
     0
100
AcDbLine
 10
235.929706
 20
142.238057
 30
0.0
 11
252.689706
 21
158.998057
 31
0.0
  0
LINE
  5
1AAD
100
AcDbEntity
  8
0
 62
     0
100
AcDbLine
 10
202.591949
 20
110.668067
 30
0.0
 11
202.877106
 21
110.953225
 31
0.0
  0
LINE
  5
1AAE
100
AcDbEntity
  8
0
 62
     0
100
AcDbLine
 10
234.161939
 20
142.238057
 30
0.0
 11
250.921939
 21
158.998057
 31
0.0
  0
LINE
  5
1AAF
100
AcDbEntity
  8
0
 62
     0
100
AcDbLine
 10
221.719099
 20
129.795218
 30
0.0
 11
234.161939
 21
142.238057
 31
0.0
  0
LINE
  5
1AB0
100
AcDbEntity
  8
0
 62
     0
100
AcDbLine
 10
200.824182
 20
110.668067
 30
0.0
 11
202.877106
 21
112.720992
 31
0.0
  0
LINE
  5
1AB1
100
AcDbEntity
  8
0
 62
     0
100
AcDbLine
 10
232.394172
 20
142.238057
 30
0.0
 11
249.154172
 21
158.998057
 31
0.0
  0
LINE
  5
1AB2
100
AcDbEntity
  8
0
 62
     0
100
AcDbLine
 10
221.719099
 20
131.562985
 30
0.0
 11
232.394172
 21
142.238057
 31
0.0
  0
LINE
  5
1AB3
100
AcDbEntity
  8
0
 62
     0
100
AcDbLine
 10
199.056415
 20
110.668067
 30
0.0
 11
202.877106
 21
114.488759
 31
0.0
  0
LINE
  5
1AB4
100
AcDbEntity
  8
0
 62
     0
100
AcDbLine
 10
230.626405
 20
142.238057
 30
0.0
 11
247.386405
 21
158.998057
 31
0.0
  0
LINE
  5
1AB5
100
AcDbEntity
  8
0
 62
     0
100
AcDbLine
 10
221.719099
 20
133.330752
 30
0.0
 11
230.626405
 21
142.238057
 31
0.0
  0
LINE
  5
1AB6
100
AcDbEntity
  8
0
 62
     0
100
AcDbLine
 10
197.877106
 20
111.256526
 30
0.0
 11
202.877106
 21
116.256526
 31
0.0
  0
LINE
  5
1AB7
100
AcDbEntity
  8
0
 62
     0
100
AcDbLine
 10
228.858638
 20
142.238057
 30
0.0
 11
245.618638
 21
158.998057
 31
0.0
  0
LINE
  5
1AB8
100
AcDbEntity
  8
0
 62
     0
100
AcDbLine
 10
221.719099
 20
135.098519
 30
0.0
 11
228.858638
 21
142.238057
 31
0.0
  0
LINE
  5
1AB9
100
AcDbEntity
  8
0
 62
     0
100
AcDbLine
 10
197.877106
 20
113.024293
 30
0.0
 11
202.877106
 21
118.024293
 31
0.0
  0
LINE
  5
1ABA
100
AcDbEntity
  8
0
 62
     0
100
AcDbLine
 10
227.090871
 20
142.238057
 30
0.0
 11
243.850871
 21
158.998057
 31
0.0
  0
LINE
  5
1ABB
100
AcDbEntity
  8
0
 62
     0
100
AcDbLine
 10
221.719099
 20
136.866286
 30
0.0
 11
227.090871
 21
142.238057
 31
0.0
  0
LINE
  5
1ABC
100
AcDbEntity
  8
0
 62
     0
100
AcDbLine
 10
197.877106
 20
114.79206
 30
0.0
 11
202.877106
 21
119.79206
 31
0.0
  0
LINE
  5
1ABD
100
AcDbEntity
  8
0
 62
     0
100
AcDbLine
 10
225.323104
 20
142.238057
 30
0.0
 11
242.083104
 21
158.998057
 31
0.0
  0
LINE
  5
1ABE
100
AcDbEntity
  8
0
 62
     0
100
AcDbLine
 10
221.719099
 20
138.634053
 30
0.0
 11
225.323104
 21
142.238057
 31
0.0
  0
LINE
  5
1ABF
100
AcDbEntity
  8
0
 62
     0
100
AcDbLine
 10
197.877106
 20
116.559827
 30
0.0
 11
202.877106
 21
121.559827
 31
0.0
  0
LINE
  5
1AC0
100
AcDbEntity
  8
0
 62
     0
100
AcDbLine
 10
223.555337
 20
142.238057
 30
0.0
 11
240.315337
 21
158.998057
 31
0.0
  0
LINE
  5
1AC1
100
AcDbEntity
  8
0
 62
     0
100
AcDbLine
 10
221.719099
 20
140.40182
 30
0.0
 11
223.555337
 21
142.238057
 31
0.0
  0
LINE
  5
1AC2
100
AcDbEntity
  8
0
 62
     0
100
AcDbLine
 10
197.877106
 20
118.327594
 30
0.0
 11
202.877106
 21
123.327594
 31
0.0
  0
LINE
  5
1AC3
100
AcDbEntity
  8
0
 62
     0
100
AcDbLine
 10
221.78757
 20
142.238057
 30
0.0
 11
238.54757
 21
158.998057
 31
0.0
  0
LINE
  5
1AC4
100
AcDbEntity
  8
0
 62
     0
100
AcDbLine
 10
221.719099
 20
142.169587
 30
0.0
 11
221.78757
 21
142.238057
 31
0.0
  0
LINE
  5
1AC5
100
AcDbEntity
  8
0
 62
     0
100
AcDbLine
 10
197.877106
 20
120.09536
 30
0.0
 11
202.877106
 21
125.09536
 31
0.0
  0
LINE
  5
1AC6
100
AcDbEntity
  8
0
 62
     0
100
AcDbLine
 10
221.719099
 20
143.937354
 30
0.0
 11
236.779803
 21
158.998057
 31
0.0
  0
LINE
  5
1AC7
100
AcDbEntity
  8
0
 62
     0
100
AcDbLine
 10
197.877106
 20
121.863127
 30
0.0
 11
202.877106
 21
126.863127
 31
0.0
  0
LINE
  5
1AC8
100
AcDbEntity
  8
0
 62
     0
100
AcDbLine
 10
221.719099
 20
145.705121
 30
0.0
 11
235.012036
 21
158.998057
 31
0.0
  0
LINE
  5
1AC9
100
AcDbEntity
  8
0
 62
     0
100
AcDbLine
 10
197.877106
 20
123.630894
 30
0.0
 11
202.877106
 21
128.630894
 31
0.0
  0
LINE
  5
1ACA
100
AcDbEntity
  8
0
 62
     0
100
AcDbLine
 10
221.719099
 20
147.472887
 30
0.0
 11
233.244269
 21
158.998057
 31
0.0
  0
LINE
  5
1ACB
100
AcDbEntity
  8
0
 62
     0
100
AcDbLine
 10
197.877106
 20
125.398661
 30
0.0
 11
202.877106
 21
130.398661
 31
0.0
  0
LINE
  5
1ACC
100
AcDbEntity
  8
0
 62
     0
100
AcDbLine
 10
221.719099
 20
149.240654
 30
0.0
 11
231.476502
 21
158.998057
 31
0.0
  0
LINE
  5
1ACD
100
AcDbEntity
  8
0
 62
     0
100
AcDbLine
 10
197.877106
 20
127.166428
 30
0.0
 11
202.877106
 21
132.166428
 31
0.0
  0
LINE
  5
1ACE
100
AcDbEntity
  8
0
 62
     0
100
AcDbLine
 10
221.719099
 20
151.008421
 30
0.0
 11
229.708735
 21
158.998057
 31
0.0
  0
LINE
  5
1ACF
100
AcDbEntity
  8
0
 62
     0
100
AcDbLine
 10
197.877106
 20
128.934195
 30
0.0
 11
202.877106
 21
133.934195
 31
0.0
  0
LINE
  5
1AD0
100
AcDbEntity
  8
0
 62
     0
100
AcDbLine
 10
221.719099
 20
152.776188
 30
0.0
 11
227.940968
 21
158.998057
 31
0.0
  0
LINE
  5
1AD1
100
AcDbEntity
  8
0
 62
     0
100
AcDbLine
 10
197.877106
 20
130.701962
 30
0.0
 11
202.877106
 21
135.701962
 31
0.0
  0
LINE
  5
1AD2
100
AcDbEntity
  8
0
 62
     0
100
AcDbLine
 10
221.719099
 20
154.543955
 30
0.0
 11
226.173201
 21
158.998057
 31
0.0
  0
LINE
  5
1AD3
100
AcDbEntity
  8
0
 62
     0
100
AcDbLine
 10
197.877106
 20
132.469729
 30
0.0
 11
202.877106
 21
137.469729
 31
0.0
  0
LINE
  5
1AD4
100
AcDbEntity
  8
0
 62
     0
100
AcDbLine
 10
221.719099
 20
156.311722
 30
0.0
 11
224.405434
 21
158.998057
 31
0.0
  0
LINE
  5
1AD5
100
AcDbEntity
  8
0
 62
     0
100
AcDbLine
 10
197.877106
 20
134.237496
 30
0.0
 11
202.877106
 21
139.237496
 31
0.0
  0
LINE
  5
1AD6
100
AcDbEntity
  8
0
 62
     0
100
AcDbLine
 10
221.719099
 20
158.079489
 30
0.0
 11
222.637667
 21
158.998057
 31
0.0
  0
LINE
  5
1AD7
100
AcDbEntity
  8
0
 62
     0
100
AcDbLine
 10
197.877106
 20
136.005263
 30
0.0
 11
202.877106
 21
141.005263
 31
0.0
  0
LINE
  5
1AD8
100
AcDbEntity
  8
0
 62
     0
100
AcDbLine
 10
197.877106
 20
137.77303
 30
0.0
 11
202.342134
 21
142.238057
 31
0.0
  0
LINE
  5
1AD9
100
AcDbEntity
  8
0
 62
     0
100
AcDbLine
 10
202.342134
 20
142.238057
 30
0.0
 11
202.877106
 21
142.77303
 31
0.0
  0
LINE
  5
1ADA
100
AcDbEntity
  8
0
 62
     0
100
AcDbLine
 10
197.877106
 20
139.540797
 30
0.0
 11
200.574367
 21
142.238057
 31
0.0
  0
LINE
  5
1ADB
100
AcDbEntity
  8
0
 62
     0
100
AcDbLine
 10
200.574367
 20
142.238057
 30
0.0
 11
202.877106
 21
144.540797
 31
0.0
  0
LINE
  5
1ADC
100
AcDbEntity
  8
0
 62
     0
100
AcDbLine
 10
197.877106
 20
141.308564
 30
0.0
 11
198.8066
 21
142.238057
 31
0.0
  0
LINE
  5
1ADD
100
AcDbEntity
  8
0
 62
     0
100
AcDbLine
 10
198.8066
 20
142.238057
 30
0.0
 11
202.877106
 21
146.308564
 31
0.0
  0
LINE
  5
1ADE
100
AcDbEntity
  8
0
 62
     0
100
AcDbLine
 10
197.877106
 20
143.076331
 30
0.0
 11
202.877106
 21
148.076331
 31
0.0
  0
LINE
  5
1ADF
100
AcDbEntity
  8
0
 62
     0
100
AcDbLine
 10
197.877106
 20
144.844098
 30
0.0
 11
202.877106
 21
149.844098
 31
0.0
  0
LINE
  5
1AE0
100
AcDbEntity
  8
0
 62
     0
100
AcDbLine
 10
197.877106
 20
146.611865
 30
0.0
 11
202.877106
 21
151.611865
 31
0.0
  0
LINE
  5
1AE1
100
AcDbEntity
  8
0
 62
     0
100
AcDbLine
 10
197.877106
 20
148.379632
 30
0.0
 11
202.877106
 21
153.379632
 31
0.0
  0
LINE
  5
1AE2
100
AcDbEntity
  8
0
 62
     0
100
AcDbLine
 10
197.877106
 20
150.147399
 30
0.0
 11
202.877106
 21
155.147399
 31
0.0
  0
LINE
  5
1AE3
100
AcDbEntity
  8
0
 62
     0
100
AcDbLine
 10
197.877106
 20
151.915166
 30
0.0
 11
202.030008
 21
156.068067
 31
0.0
  0
LINE
  5
1AE4
100
AcDbEntity
  8
0
 62
     0
100
AcDbLine
 10
197.877106
 20
153.682933
 30
0.0
 11
200.262241
 21
156.068067
 31
0.0
  0
LINE
  5
1AE5
100
AcDbEntity
  8
0
 62
     0
100
AcDbLine
 10
197.877106
 20
155.4507
 30
0.0
 11
198.494474
 21
156.068067
 31
0.0
  0
LINE
  5
1AE6
100
AcDbEntity
  8
0
 62
     0
100
AcDbLine
 10
234.80621
 20
114.598057
 30
0.0
 11
262.44621
 21
142.238057
 31
0.0
  0
LINE
  5
1AE7
100
AcDbEntity
  8
0
 62
     0
100
AcDbLine
 10
262.44621
 20
142.238057
 30
0.0
 11
279.20621
 21
158.998057
 31
0.0
  0
LINE
  5
1AE8
100
AcDbEntity
  8
0
 62
     0
100
AcDbLine
 10
236.573977
 20
114.598057
 30
0.0
 11
264.213977
 21
142.238057
 31
0.0
  0
LINE
  5
1AE9
100
AcDbEntity
  8
0
 62
     0
100
AcDbLine
 10
264.213977
 20
142.238057
 30
0.0
 11
280.973977
 21
158.998057
 31
0.0
  0
LINE
  5
1AEA
100
AcDbEntity
  8
0
 62
     0
100
AcDbLine
 10
238.341744
 20
114.598057
 30
0.0
 11
265.981744
 21
142.238057
 31
0.0
  0
LINE
  5
1AEB
100
AcDbEntity
  8
0
 62
     0
100
AcDbLine
 10
265.981744
 20
142.238057
 30
0.0
 11
282.741744
 21
158.998057
 31
0.0
  0
LINE
  5
1AEC
100
AcDbEntity
  8
0
 62
     0
100
AcDbLine
 10
240.109511
 20
114.598057
 30
0.0
 11
267.749511
 21
142.238057
 31
0.0
  0
LINE
  5
1AED
100
AcDbEntity
  8
0
 62
     0
100
AcDbLine
 10
267.749511
 20
142.238057
 30
0.0
 11
284.509511
 21
158.998057
 31
0.0
  0
LINE
  5
1AEE
100
AcDbEntity
  8
0
 62
     0
100
AcDbLine
 10
241.877278
 20
114.598057
 30
0.0
 11
269.517278
 21
142.238057
 31
0.0
  0
LINE
  5
1AEF
100
AcDbEntity
  8
0
 62
     0
100
AcDbLine
 10
269.517278
 20
142.238057
 30
0.0
 11
286.277278
 21
158.998057
 31
0.0
  0
LINE
  5
1AF0
100
AcDbEntity
  8
0
 62
     0
100
AcDbLine
 10
243.645045
 20
114.598057
 30
0.0
 11
271.285045
 21
142.238057
 31
0.0
  0
LINE
  5
1AF1
100
AcDbEntity
  8
0
 62
     0
100
AcDbLine
 10
271.285045
 20
142.238057
 30
0.0
 11
288.045045
 21
158.998057
 31
0.0
  0
LINE
  5
1AF2
100
AcDbEntity
  8
0
 62
     0
100
AcDbLine
 10
245.412812
 20
114.598057
 30
0.0
 11
273.052812
 21
142.238057
 31
0.0
  0
LINE
  5
1AF3
100
AcDbEntity
  8
0
 62
     0
100
AcDbLine
 10
273.052812
 20
142.238057
 30
0.0
 11
289.812812
 21
158.998057
 31
0.0
  0
LINE
  5
1AF4
100
AcDbEntity
  8
0
 62
     0
100
AcDbLine
 10
247.180579
 20
114.598057
 30
0.0
 11
274.820579
 21
142.238057
 31
0.0
  0
LINE
  5
1AF5
100
AcDbEntity
  8
0
 62
     0
100
AcDbLine
 10
274.820579
 20
142.238057
 30
0.0
 11
291.580579
 21
158.998057
 31
0.0
  0
LINE
  5
1AF6
100
AcDbEntity
  8
0
 62
     0
100
AcDbLine
 10
248.948346
 20
114.598057
 30
0.0
 11
276.588346
 21
142.238057
 31
0.0
  0
LINE
  5
1AF7
100
AcDbEntity
  8
0
 62
     0
100
AcDbLine
 10
276.588346
 20
142.238057
 30
0.0
 11
293.348346
 21
158.998057
 31
0.0
  0
LINE
  5
1AF8
100
AcDbEntity
  8
0
 62
     0
100
AcDbLine
 10
250.716112
 20
114.598057
 30
0.0
 11
278.356112
 21
142.238057
 31
0.0
  0
LINE
  5
1AF9
100
AcDbEntity
  8
0
 62
     0
100
AcDbLine
 10
278.356112
 20
142.238057
 30
0.0
 11
295.116112
 21
158.998057
 31
0.0
  0
LINE
  5
1AFA
100
AcDbEntity
  8
0
 62
     0
100
AcDbLine
 10
252.483879
 20
114.598057
 30
0.0
 11
280.123879
 21
142.238057
 31
0.0
  0
LINE
  5
1AFB
100
AcDbEntity
  8
0
 62
     0
100
AcDbLine
 10
280.123879
 20
142.238057
 30
0.0
 11
296.883879
 21
158.998057
 31
0.0
  0
LINE
  5
1AFC
100
AcDbEntity
  8
0
 62
     0
100
AcDbLine
 10
254.251646
 20
114.598057
 30
0.0
 11
281.891646
 21
142.238057
 31
0.0
  0
LINE
  5
1AFD
100
AcDbEntity
  8
0
 62
     0
100
AcDbLine
 10
281.891646
 20
142.238057
 30
0.0
 11
298.651646
 21
158.998057
 31
0.0
  0
LINE
  5
1AFE
100
AcDbEntity
  8
0
 62
     0
100
AcDbLine
 10
256.019413
 20
114.598057
 30
0.0
 11
283.659413
 21
142.238057
 31
0.0
  0
LINE
  5
1AFF
100
AcDbEntity
  8
0
 62
     0
100
AcDbLine
 10
283.659413
 20
142.238057
 30
0.0
 11
300.419413
 21
158.998057
 31
0.0
  0
LINE
  5
1B00
100
AcDbEntity
  8
0
 62
     0
100
AcDbLine
 10
257.78718
 20
114.598057
 30
0.0
 11
285.42718
 21
142.238057
 31
0.0
  0
LINE
  5
1B01
100
AcDbEntity
  8
0
 62
     0
100
AcDbLine
 10
285.42718
 20
142.238057
 30
0.0
 11
302.18718
 21
158.998057
 31
0.0
  0
LINE
  5
1B02
100
AcDbEntity
  8
0
 62
     0
100
AcDbLine
 10
259.554947
 20
114.598057
 30
0.0
 11
287.194947
 21
142.238057
 31
0.0
  0
LINE
  5
1B03
100
AcDbEntity
  8
0
 62
     0
100
AcDbLine
 10
287.194947
 20
142.238057
 30
0.0
 11
303.954947
 21
158.998057
 31
0.0
  0
LINE
  5
1B04
100
AcDbEntity
  8
0
 62
     0
100
AcDbLine
 10
261.322714
 20
114.598057
 30
0.0
 11
288.962714
 21
142.238057
 31
0.0
  0
LINE
  5
1B05
100
AcDbEntity
  8
0
 62
     0
100
AcDbLine
 10
288.962714
 20
142.238057
 30
0.0
 11
305.722714
 21
158.998057
 31
0.0
  0
LINE
  5
1B06
100
AcDbEntity
  8
0
 62
     0
100
AcDbLine
 10
263.090481
 20
114.598057
 30
0.0
 11
290.730481
 21
142.238057
 31
0.0
  0
LINE
  5
1B07
100
AcDbEntity
  8
0
 62
     0
100
AcDbLine
 10
290.730481
 20
142.238057
 30
0.0
 11
307.490481
 21
158.998057
 31
0.0
  0
LINE
  5
1B08
100
AcDbEntity
  8
0
 62
     0
100
AcDbLine
 10
264.858248
 20
114.598057
 30
0.0
 11
292.498248
 21
142.238057
 31
0.0
  0
LINE
  5
1B09
100
AcDbEntity
  8
0
 62
     0
100
AcDbLine
 10
292.498248
 20
142.238057
 30
0.0
 11
309.258248
 21
158.998057
 31
0.0
  0
LINE
  5
1B0A
100
AcDbEntity
  8
0
 62
     0
100
AcDbLine
 10
266.626015
 20
114.598057
 30
0.0
 11
294.266015
 21
142.238057
 31
0.0
  0
LINE
  5
1B0B
100
AcDbEntity
  8
0
 62
     0
100
AcDbLine
 10
294.266015
 20
142.238057
 30
0.0
 11
311.026015
 21
158.998057
 31
0.0
  0
LINE
  5
1B0C
100
AcDbEntity
  8
0
 62
     0
100
AcDbLine
 10
268.393782
 20
114.598057
 30
0.0
 11
296.033782
 21
142.238057
 31
0.0
  0
LINE
  5
1B0D
100
AcDbEntity
  8
0
 62
     0
100
AcDbLine
 10
296.033782
 20
142.238057
 30
0.0
 11
312.094099
 21
158.298375
 31
0.0
  0
LINE
  5
1B0E
100
AcDbEntity
  8
0
 62
     0
100
AcDbLine
 10
270.161549
 20
114.598057
 30
0.0
 11
297.801549
 21
142.238057
 31
0.0
  0
LINE
  5
1B0F
100
AcDbEntity
  8
0
 62
     0
100
AcDbLine
 10
297.801549
 20
142.238057
 30
0.0
 11
312.094099
 21
156.530608
 31
0.0
  0
LINE
  5
1B10
100
AcDbEntity
  8
0
 62
     0
100
AcDbLine
 10
271.929316
 20
114.598057
 30
0.0
 11
299.569316
 21
142.238057
 31
0.0
  0
LINE
  5
1B11
100
AcDbEntity
  8
0
 62
     0
100
AcDbLine
 10
299.569316
 20
142.238057
 30
0.0
 11
312.094099
 21
154.762841
 31
0.0
  0
LINE
  5
1B12
100
AcDbEntity
  8
0
 62
     0
100
AcDbLine
 10
273.697083
 20
114.598057
 30
0.0
 11
301.337083
 21
142.238057
 31
0.0
  0
LINE
  5
1B13
100
AcDbEntity
  8
0
 62
     0
100
AcDbLine
 10
301.337083
 20
142.238057
 30
0.0
 11
312.094099
 21
152.995074
 31
0.0
  0
LINE
  5
1B14
100
AcDbEntity
  8
0
 62
     0
100
AcDbLine
 10
275.46485
 20
114.598057
 30
0.0
 11
303.10485
 21
142.238057
 31
0.0
  0
LINE
  5
1B15
100
AcDbEntity
  8
0
 62
     0
100
AcDbLine
 10
303.10485
 20
142.238057
 30
0.0
 11
312.094099
 21
151.227307
 31
0.0
  0
LINE
  5
1B16
100
AcDbEntity
  8
0
 62
     0
100
AcDbLine
 10
277.232617
 20
114.598057
 30
0.0
 11
304.872617
 21
142.238057
 31
0.0
  0
LINE
  5
1B17
100
AcDbEntity
  8
0
 62
     0
100
AcDbLine
 10
304.872617
 20
142.238057
 30
0.0
 11
312.094099
 21
149.45954
 31
0.0
  0
LINE
  5
1B18
100
AcDbEntity
  8
0
 62
     0
100
AcDbLine
 10
279.000384
 20
114.598057
 30
0.0
 11
306.640384
 21
142.238057
 31
0.0
  0
LINE
  5
1B19
100
AcDbEntity
  8
0
 62
     0
100
AcDbLine
 10
306.640384
 20
142.238057
 30
0.0
 11
312.094099
 21
147.691773
 31
0.0
  0
LINE
  5
1B1A
100
AcDbEntity
  8
0
 62
     0
100
AcDbLine
 10
280.768151
 20
114.598057
 30
0.0
 11
308.408151
 21
142.238057
 31
0.0
  0
LINE
  5
1B1B
100
AcDbEntity
  8
0
 62
     0
100
AcDbLine
 10
308.408151
 20
142.238057
 30
0.0
 11
312.094099
 21
145.924006
 31
0.0
  0
LINE
  5
1B1C
100
AcDbEntity
  8
0
 62
     0
100
AcDbLine
 10
282.535918
 20
114.598057
 30
0.0
 11
310.175918
 21
142.238057
 31
0.0
  0
LINE
  5
1B1D
100
AcDbEntity
  8
0
 62
     0
100
AcDbLine
 10
310.175918
 20
142.238057
 30
0.0
 11
312.094099
 21
144.156239
 31
0.0
  0
LINE
  5
1B1E
100
AcDbEntity
  8
0
 62
     0
100
AcDbLine
 10
284.303685
 20
114.598057
 30
0.0
 11
311.943685
 21
142.238057
 31
0.0
  0
LINE
  5
1B1F
100
AcDbEntity
  8
0
 62
     0
100
AcDbLine
 10
311.943685
 20
142.238057
 30
0.0
 11
312.094099
 21
142.388472
 31
0.0
  0
LINE
  5
1B20
100
AcDbEntity
  8
0
 62
     0
100
AcDbLine
 10
286.071452
 20
114.598057
 30
0.0
 11
312.094099
 21
140.620705
 31
0.0
  0
LINE
  5
1B21
100
AcDbEntity
  8
0
 62
     0
100
AcDbLine
 10
287.839219
 20
114.598057
 30
0.0
 11
312.094099
 21
138.852938
 31
0.0
  0
LINE
  5
1B22
100
AcDbEntity
  8
0
 62
     0
100
AcDbLine
 10
289.606985
 20
114.598057
 30
0.0
 11
312.094099
 21
137.085171
 31
0.0
  0
LINE
  5
1B23
100
AcDbEntity
  8
0
 62
     0
100
AcDbLine
 10
291.374752
 20
114.598057
 30
0.0
 11
312.094099
 21
135.317404
 31
0.0
  0
LINE
  5
1B24
100
AcDbEntity
  8
0
 62
     0
100
AcDbLine
 10
293.142519
 20
114.598057
 30
0.0
 11
312.094099
 21
133.549637
 31
0.0
  0
LINE
  5
1B25
100
AcDbEntity
  8
0
 62
     0
100
AcDbLine
 10
294.910286
 20
114.598057
 30
0.0
 11
312.094099
 21
131.78187
 31
0.0
  0
LINE
  5
1B26
100
AcDbEntity
  8
0
 62
     0
100
AcDbLine
 10
296.678053
 20
114.598057
 30
0.0
 11
312.094099
 21
130.014103
 31
0.0
  0
LINE
  5
1B27
100
AcDbEntity
  8
0
 62
     0
100
AcDbLine
 10
298.44582
 20
114.598057
 30
0.0
 11
312.094099
 21
128.246336
 31
0.0
  0
LINE
  5
1B28
100
AcDbEntity
  8
0
 62
     0
100
AcDbLine
 10
300.213587
 20
114.598057
 30
0.0
 11
312.094099
 21
126.478569
 31
0.0
  0
LINE
  5
1B29
100
AcDbEntity
  8
0
 62
     0
100
AcDbLine
 10
301.981354
 20
114.598057
 30
0.0
 11
312.094099
 21
124.710802
 31
0.0
  0
LINE
  5
1B2A
100
AcDbEntity
  8
0
 62
     0
100
AcDbLine
 10
303.749121
 20
114.598057
 30
0.0
 11
312.094099
 21
122.943036
 31
0.0
  0
LINE
  5
1B2B
100
AcDbEntity
  8
0
 62
     0
100
AcDbLine
 10
305.516888
 20
114.598057
 30
0.0
 11
312.094099
 21
121.175269
 31
0.0
  0
LINE
  5
1B2C
100
AcDbEntity
  8
0
 62
     0
100
AcDbLine
 10
307.284655
 20
114.598057
 30
0.0
 11
312.094099
 21
119.407502
 31
0.0
  0
LINE
  5
1B2D
100
AcDbEntity
  8
0
 62
     0
100
AcDbLine
 10
309.052422
 20
114.598057
 30
0.0
 11
312.094099
 21
117.639735
 31
0.0
  0
LINE
  5
1B2E
100
AcDbEntity
  8
0
 62
     0
100
AcDbLine
 10
310.820189
 20
114.598057
 30
0.0
 11
312.094099
 21
115.871968
 31
0.0
  0
ENDBLK
  5
1B2F
100
AcDbEntity
  8
0
100
AcDbBlockEnd
  0
ENDSEC
  0
SECTION
  2
ENTITIES
  0
INSERT
  5
82
100
AcDbEntity
  8
0
100
AcDbBlockReference
  2
C-BORDER
 10
0.0
 20
0.0
 30
0.0
 41
25.4
 42
25.4
 43
25.4
  0
TEXT
  5
43E
100
AcDbEntity
  8
TEXT
100
AcDbText
 10
416.359335
 20
38.288169
 30
0.0
 40
3.0
  1
LAYER 2 BACKWARD DETECTOR-HDI ASS'Y
100
AcDbText
  0
TEXT
  5
43F
100
AcDbEntity
  8
TEXT
100
AcDbText
 10
424.632676
 20
24.003265
 30
0.0
 40
3.0
  1
C:\B-FAC
100
AcDbText
  0
TEXT
  5
440
100
AcDbEntity
  8
TEXT
100
AcDbText
 10
468.819839
 20
24.567144
 30
0.0
 40
3.0
  1
L2-UPI02
100
AcDbText
  0
TEXT
  5
441
100
AcDbEntity
  8
TEXT
100
AcDbText
 10
424.444646
 20
17.236732
 30
0.0
 40
3.0
  1
1=1
100
AcDbText
  0
TEXT
  5
442
100
AcDbEntity
  8
TEXT
100
AcDbText
 10
376.496873
 20
33.965106
 30
0.0
 40
3.0
  1
S. KYRE
100
AcDbText
  0
TEXT
  5
443
100
AcDbEntity
  8
TEXT
100
AcDbText
 10
400.188714
 20
33.777147
 30
0.0
 40
1.5
  1
12-01-95
100
AcDbText
  0
TEXT
  5
4D1
100
AcDbEntity
  8
TEXT
100
AcDbText
 10
223.8125
 20
89.4375
 30
0.0
 40
5.0
  1
LAYER 2 BACKWARD
100
AcDbText
  0
TEXT
  5
4D2
100
AcDbEntity
  8
TEXT
100
AcDbText
 10
223.8125
 20
81.104167
 30
0.0
 40
5.0
  1
Z-SIDE
100
AcDbText
  0
TEXT
  5
4D6
100
AcDbEntity
  8
TEXT
100
AcDbText
 10
155.439811
 20
343.557397
 30
0.0
 40
5.0
  1
NOTE: HDI IS DRAWN IN EXTENDED POSITION
100
AcDbText
  0
INSERT
  5
E7A
100
AcDbEntity
  8
CENTER
100
AcDbBlockReference
  2
POST-1
 10
180.077106
 20
243.487937
 30
0.0
 41
-1.0
  0
INSERT
  5
E7B
100
AcDbEntity
  8
CENTER
100
AcDbBlockReference
  2
POST-1
 10
180.077106
 20
262.187937
 30
0.0
 41
-1.0
  0
INSERT
  5
E7C
100
AcDbEntity
  8
AIN
100
AcDbBlockReference
  2
HYBR-12
 10
202.877106
 20
237.660937
 30
0.0
 41
-1.0
  0
LINE
  5
E7F
100
AcDbEntity
  8
L2_
100
AcDbLine
 10
221.719099
 20
282.330947
 30
0.0
 11
267.119099
 21
282.330947
 31
0.0
  0
LINE
  5
E80
100
AcDbEntity
  8
L2_
100
AcDbLine
 10
221.719099
 20
232.930947
 30
0.0
 11
267.119099
 21
232.930947
 31
0.0
  0
LINE
  5
E83
100
AcDbEntity
  8
L2_
100
AcDbLine
 10
221.719099
 20
232.930947
 30
0.0
 11
221.719099
 21
282.330947
 31
0.0
  0
LINE
  5
E85
100
AcDbEntity
  8
L2_
100
AcDbLine
 10
267.119099
 20
282.330947
 30
0.0
 11
267.119099
 21
232.930947
 31
0.0
  0
LINE
  5
E86
100
AcDbEntity
  8
L2_
100
AcDbLine
 10
312.594099
 20
232.930947
 30
0.0
 11
312.594099
 21
282.330947
 31
0.0
  0
LINE
  5
E87
100
AcDbEntity
  8
L2_
100
AcDbLine
 10
267.194099
 20
232.930947
 30
0.0
 11
267.194099
 21
282.330947
 31
0.0
  0
LINE
  5
E8B
100
AcDbEntity
  8
L2_
100
AcDbLine
 10
267.194099
 20
232.930947
 30
0.0
 11
312.594099
 21
232.930947
 31
0.0
  0
LINE
  5
E8D
100
AcDbEntity
  8
L2_
100
AcDbLine
 10
267.194099
 20
282.330947
 30
0.0
 11
312.594099
 21
282.330947
 31
0.0
  0
LINE
  5
E8E
100
AcDbEntity
  8
CENTER
100
AcDbLine
 10
148.352113
 20
252.190947
 30
0.0
 11
323.538735
 21
252.190947
 31
0.0
1001
ACAD
1000
ASC_BOUNDS
1002
{
1070
    19
1005
0
1005
0
1005
0
1005
0
1005
0
1005
0
1005
0
1005
1A28
1005
0
1005
0
1005
0
1005
0
1005
0
1005
0
1005
0
1005
0
1005
0
1005
0
1005
0
1005
0
1005
0
1005
0
1005
0
1005
0
1005
0
1005
0
1005
0
1005
0
1005
0
1005
0
1005
0
1005
0
1005
0
1005
0
1005
0
1005
0
1005
0
1005
0
1005
0
1005
0
1005
0
1005
0
1005
0
1005
0
1005
0
1005
0
1005
0
1005
0
1005
0
1005
0
1005
0
1005
0
1005
0
1005
0
1005
0
1005
0
1005
0
1005
0
1005
0
1005
0
1005
0
1005
0
1005
0
1005
0
1005
0
1005
0
1005
0
1005
0
1005
0
1005
0
1005
0
1005
0
1005
0
1005
0
1005
0
1005
0
1005
0
1005
0
1005
0
1005
0
1005
1A28
1005
1A28
1005
1A28
1002
}
  0
LINE
  5
E8F
100
AcDbEntity
  8
UPILEX
100
AcDbLine
 10
202.877106
 20
238.360937
 30
0.0
 11
202.877106
 21
283.760937
 31
0.0
1001
ACAD
1000
ASC_BOUNDS
1002
{
1070
    19
1005
1A28
1005
0
1005
0
1005
0
1005
0
1005
0
1005
0
1005
0
1005
0
1005
0
1005
0
1005
0
1005
0
1005
0
1005
0
1005
0
1005
0
1005
0
1005
0
1005
0
1005
1A28
1002
}
  0
LINE
  5
E90
100
AcDbEntity
  8
UPILEX
100
AcDbLine
 10
207.78911
 20
283.760937
 30
0.0
 11
197.877106
 21
283.760937
 31
0.0
1001
ACAD
1000
ASC_BOUNDS
1002
{
1070
    19
1005
1A28
1002
}
  0
LINE
  5
E91
100
AcDbEntity
  8
UPILEX
100
AcDbLine
 10
197.877106
 20
283.760937
 30
0.0
 11
197.877106
 21
238.360937
 31
0.0
1001
ACAD
1000
ASC_BOUNDS
1002
{
1070
    19
1005
1A28
1005
0
1005
0
1005
0
1005
0
1005
0
1005
0
1005
0
1005
0
1005
0
1005
0
1005
0
1005
0
1005
0
1005
0
1005
0
1005
0
1005
0
1005
0
1005
0
1005
1A28
1002
}
  0
LINE
  5
E92
100
AcDbEntity
  8
UPILEX
100
AcDbLine
 10
197.877106
 20
238.360937
 30
0.0
 11
208.78911
 21
238.360937
 31
0.0
1001
ACAD
1000
ASC_BOUNDS
1002
{
1070
    19
1005
1A28
1002
}
  0
LINE
  5
E93
100
AcDbEntity
  8
UPILEX
100
AcDbLine
 10
211.719099
 20
235.430947
 30
0.0
 11
226.719099
 21
235.430947
 31
0.0
1001
ACAD
1000
ASC_BOUNDS
1002
{
1070
    19
1005
1A28
1002
}
  0
LINE
  5
E94
100
AcDbEntity
  8
UPILEX
100
AcDbLine
 10
226.719099
 20
235.430947
 30
0.0
 11
226.719099
 21
279.830947
 31
0.0
1001
ACAD
1000
ASC_BOUNDS
1002
{
1070
    19
1005
1A28
1005
0
1005
0
1005
0
1005
0
1005
0
1005
0
1005
0
1005
0
1005
0
1005
0
1005
0
1005
0
1005
0
1005
0
1005
0
1005
0
1005
0
1005
0
1005
0
1005
1A28
1002
}
  0
LINE
  5
E95
100
AcDbEntity
  8
UPILEX
100
AcDbLine
 10
226.719099
 20
279.830947
 30
0.0
 11
211.719099
 21
279.830947
 31
0.0
1001
ACAD
1000
ASC_BOUNDS
1002
{
1070
    19
1005
1A28
1002
}
  0
LINE
  5
E96
100
AcDbEntity
  8
UPILEX
100
AcDbLine
 10
221.719099
 20
279.830947
 30
0.0
 11
221.719099
 21
235.430947
 31
0.0
1001
ACAD
1000
ASC_BOUNDS
1002
{
1070
    19
1005
1A28
1005
0
1005
0
1005
0
1005
0
1005
0
1005
0
1005
0
1005
0
1005
0
1005
0
1005
0
1005
0
1005
0
1005
0
1005
0
1005
0
1005
0
1005
0
1005
0
1005
1A28
1002
}
  0
LINE
  5
E97
100
AcDbEntity
  8
UPILEX
100
AcDbLine
 10
211.719099
 20
279.830947
 30
0.0
 11
207.78911
 21
283.760937
 31
0.0
  0
DIMENSION
  5
E98
100
AcDbEntity
  8
TEXT
100
AcDbDimension
  2
*D45
 10
226.719099
 20
286.975512
 30
0.0
 11
243.219099
 21
286.975512
 31
0.0
 12
126.180773
 22
42.379486
 32
0.0
 70
    32
  3
STANDARD
100
AcDbAlignedDimension
 13
221.719099
 23
279.830947
 33
0.0
 14
226.719099
 24
279.830947
 34
0.0
100
AcDbRotatedDimension
1001
ACAD
1000
DSTYLE
1002
{
1070
   140
1040
0.3
1070
   272
1070
     2
1070
    40
1040
7.5
1070
     3
1000
mm
1070
   287
1070
     0
1070
   271
1070
     2
1070
     4
1000
"
1070
   143
1040
0.03937
1070
   171
1070
     3
1070
   170
1070
     1
1002
}
  0
DIMENSION
  5
EA6
100
AcDbEntity
  8
TEXT
100
AcDbDimension
  2
*D46
 10
197.877106
 20
289.212574
 30
0.0
 11
175.962106
 21
289.212574
 31
0.0
 12
131.595773
 22
42.379486
 32
0.0
 70
    32
  3
STANDARD
100
AcDbAlignedDimension
 13
202.877106
 23
283.760937
 33
0.0
 14
197.877106
 24
283.760937
 34
0.0
100
AcDbRotatedDimension
1001
ACAD
1000
DSTYLE
1002
{
1070
   140
1040
0.3
1070
   272
1070
     2
1070
    40
1040
7.5
1070
     3
1000
mm
1070
   287
1070
     0
1070
   271
1070
     2
1070
     4
1000
"
1070
   143
1040
0.03937
1070
   171
1070
     3
1070
   170
1070
     1
1002
}
  0
DIMENSION
  5
EB4
100
AcDbEntity
  8
TEXT
100
AcDbDimension
  2
*D47
 10
221.719099
 20
296.701872
 30
0.0
 11
238.406599
 21
296.701872
 31
0.0
 70
    32
  3
STANDARD
100
AcDbAlignedDimension
 13
202.877106
 23
283.760937
 33
0.0
 14
221.719099
 24
279.830947
 34
0.0
100
AcDbRotatedDimension
1001
ACAD
1000
DSTYLE
1002
{
1070
   140
1040
0.3
1070
   272
1070
     2
1070
    40
1040
7.5
1070
     3
1000
mm
1070
   287
1070
     0
1070
   271
1070
     2
1070
     4
1000
"
1070
   143
1040
0.03937
1070
   171
1070
     3
1070
   170
1070
     1
1002
}
  0
LINE
  5
EC4
100
AcDbEntity
  8
L2_
100
AcDbLine
 10
267.194099
 20
161.498057
 30
0.0
 11
312.594099
 21
161.498057
 31
0.0
  0
LINE
  5
EC6
100
AcDbEntity
  8
L2_
100
AcDbLine
 10
267.194099
 20
112.098057
 30
0.0
 11
312.594099
 21
112.098057
 31
0.0
  0
INSERT
  5
EC8
100
AcDbEntity
  8
AIN
100
AcDbBlockReference
  2
HYBR-12
 10
202.877106
 20
156.768067
 30
0.0
 50
180.0
  0
LINE
  5
ECB
100
AcDbEntity
  8
L2_
100
AcDbLine
 10
221.719099
 20
112.098057
 30
0.0
 11
267.119099
 21
112.098057
 31
0.0
  0
LINE
  5
ECC
100
AcDbEntity
  8
L2_
100
AcDbLine
 10
221.719099
 20
161.498057
 30
0.0
 11
267.119099
 21
161.498057
 31
0.0
  0
LINE
  5
ECF
100
AcDbEntity
  8
L2_
100
AcDbLine
 10
221.719099
 20
161.498057
 30
0.0
 11
221.719099
 21
112.098057
 31
0.0
  0
LINE
  5
ED0
100
AcDbEntity
  8
UPILEX
100
AcDbLine
 10
202.877106
 20
156.068067
 30
0.0
 11
202.877106
 21
110.668067
 31
0.0
1001
ACAD
1000
ASC_BOUNDS
1002
{
1070
    19
1005
1A8E
1005
0
1005
0
1005
0
1005
0
1005
0
1005
0
1005
0
1005
0
1005
0
1005
0
1005
0
1005
0
1005
0
1005
0
1005
0
1005
0
1005
0
1005
1A8E
1002
}
  0
LINE
  5
ED1
100
AcDbEntity
  8
UPILEX
100
AcDbLine
 10
197.877106
 20
110.668067
 30
0.0
 11
197.877106
 21
156.068067
 31
0.0
1001
ACAD
1000
ASC_BOUNDS
1002
{
1070
    19
1005
1A8E
1005
0
1005
0
1005
0
1005
0
1005
0
1005
0
1005
0
1005
0
1005
0
1005
0
1005
0
1005
0
1005
0
1005
0
1005
0
1005
0
1005
0
1005
1A8E
1002
}
  0
LINE
  5
ED2
100
AcDbEntity
  8
UPILEX
100
AcDbLine
 10
312.094099
 20
158.998057
 30
0.0
 11
312.094099
 21
114.598057
 31
0.0
1001
ACAD
1000
ASC_BOUNDS
1002
{
1070
    19
1005
1A8E
1005
0
1005
0
1005
0
1005
0
1005
0
1005
0
1005
0
1005
0
1005
0
1005
0
1005
0
1005
0
1005
0
1005
0
1005
0
1005
0
1005
0
1005
1A8E
1002
}
  0
LINE
  5
ED3
100
AcDbEntity
  8
UPILEX
100
AcDbLine
 10
221.719099
 20
114.598057
 30
0.0
 11
221.719099
 21
158.998057
 31
0.0
1001
ACAD
1000
ASC_BOUNDS
1002
{
1070
    19
1005
1A8E
1005
0
1005
0
1005
0
1005
0
1005
0
1005
0
1005
0
1005
0
1005
0
1005
0
1005
0
1005
0
1005
0
1005
0
1005
0
1005
0
1005
0
1005
1A8E
1002
}
  0
LINE
  5
ED4
100
AcDbEntity
  8
UPILEX
100
AcDbLine
 10
197.877106
 20
156.068067
 30
0.0
 11
208.78911
 21
156.068067
 31
0.0
1001
ACAD
1000
ASC_BOUNDS
1002
{
1070
    19
1005
1A8E
1002
}
  0
INSERT
  5
ED5
100
AcDbEntity
  8
CENTER
100
AcDbBlockReference
  2
POST-1
 10
180.077106
 20
150.941067
 30
0.0
 50
180.0
  0
LINE
  5
ED6
100
AcDbEntity
  8
UPILEX
100
AcDbLine
 10
211.719099
 20
158.998057
 30
0.0
 11
312.094099
 21
158.998057
 31
0.0
1001
ACAD
1000
ASC_BOUNDS
1002
{
1070
    19
1005
1A8E
1002
}
  0
LINE
  5
ED7
100
AcDbEntity
  8
UPILEX
100
AcDbLine
 10
211.719099
 20
114.598057
 30
0.0
 11
207.78911
 21
110.668067
 31
0.0
  0
INSERT
  5
ED8
100
AcDbEntity
  8
CENTER
100
AcDbBlockReference
  2
POST-1
 10
180.077106
 20
132.241067
 30
0.0
 50
180.0
  0
LINE
  5
ED9
100
AcDbEntity
  8
UPILEX
100
AcDbLine
 10
207.78911
 20
110.668067
 30
0.0
 11
197.877106
 21
110.668067
 31
0.0
1001
ACAD
1000
ASC_BOUNDS
1002
{
1070
    19
1005
1A8E
1002
}
  0
LINE
  5
EDA
100
AcDbEntity
  8
UPILEX
100
AcDbLine
 10
312.094099
 20
114.598057
 30
0.0
 11
211.719099
 21
114.598057
 31
0.0
1001
ACAD
1000
ASC_BOUNDS
1002
{
1070
    19
1005
1A8E
1002
}
  0
LINE
  5
EDB
100
AcDbEntity
  8
L2_
100
AcDbLine
 10
267.119099
 20
112.098057
 30
0.0
 11
267.119099
 21
161.498057
 31
0.0
  0
LINE
  5
EDC
100
AcDbEntity
  8
L2_
100
AcDbLine
 10
267.194099
 20
161.498057
 30
0.0
 11
267.194099
 21
112.098057
 31
0.0
  0
LINE
  5
EDF
100
AcDbEntity
  8
L2_
100
AcDbLine
 10
312.594099
 20
161.498057
 30
0.0
 11
312.594099
 21
112.098057
 31
0.0
  0
LINE
  5
EE2
100
AcDbEntity
  8
CENTER
100
AcDbLine
 10
145.430913
 20
142.238057
 30
0.0
 11
323.538735
 21
142.238057
 31
0.0
1001
ACAD
1000
ASC_BOUNDS
1002
{
1070
    19
1005
0
1005
0
1005
0
1005
0
1005
0
1005
0
1005
0
1005
1A8E
1005
0
1005
0
1005
0
1005
0
1005
0
1005
0
1005
0
1005
0
1005
0
1005
0
1005
0
1005
0
1005
0
1005
0
1005
0
1005
0
1005
0
1005
0
1005
0
1005
0
1005
0
1005
0
1005
0
1005
0
1005
0
1005
0
1005
0
1005
0
1005
0
1005
0
1005
0
1005
0
1005
0
1005
0
1005
0
1005
0
1005
0
1005
0
1005
0
1005
0
1005
0
1005
0
1005
0
1005
0
1005
0
1005
0
1005
0
1005
0
1005
0
1005
0
1005
0
1005
0
1005
0
1005
0
1005
0
1005
0
1005
0
1005
0
1005
0
1005
0
1005
0
1005
0
1005
0
1005
0
1005
0
1005
0
1005
0
1005
0
1005
0
1005
0
1005
0
1005
0
1005
0
1005
0
1005
0
1005
0
1005
0
1005
0
1005
0
1005
0
1005
0
1005
1A8E
1005
1A8E
1005
1A8E
1002
}
  0
DIMENSION
  5
EF1
100
AcDbEntity
  8
TEXT
100
AcDbDimension
  2
*D48
 10
197.877106
 20
160.38484
 30
0.0
 11
176.546306
 21
160.38484
 31
0.0
 12
131.011573
 22
0.0
 32
0.0
 70
    32
  3
STANDARD
100
AcDbAlignedDimension
 13
202.877106
 23
156.768067
 33
0.0
 14
197.877106
 24
156.068067
 34
0.0
100
AcDbRotatedDimension
1001
ACAD
1000
DSTYLE
1002
{
1070
   140
1040
0.3
1070
   272
1070
     2
1070
    40
1040
7.5
1070
     3
1000
mm
1070
   287
1070
     0
1070
   271
1070
     2
1070
     4
1000
"
1070
   143
1040
0.03937
1070
   171
1070
     3
1070
   170
1070
     1
1002
}
  0
DIMENSION
  5
EFF
100
AcDbEntity
  8
TEXT
100
AcDbDimension
  2
*D49
 10
221.719099
 20
171.534017
 30
0.0
 11
238.406599
 21
171.534017
 31
0.0
 70
    32
  3
STANDARD
100
AcDbAlignedDimension
 13
202.877106
 23
156.768067
 33
0.0
 14
221.719099
 24
161.498057
 34
0.0
100
AcDbRotatedDimension
1001
ACAD
1000
DSTYLE
1002
{
1070
   140
1040
0.3
1070
   272
1070
     2
1070
    40
1040
7.5
1070
     3
1000
mm
1070
   287
1070
     0
1070
   271
1070
     2
1070
     4
1000
"
1070
   143
1040
0.03937
1070
   171
1070
     3
1070
   170
1070
     1
1002
}
  0
LINE
  5
F0D
100
AcDbEntity
  8
UPILEX
100
AcDbLine
 10
211.719099
 20
235.430947
 30
0.0
 11
208.78911
 21
238.360937
 31
0.0
  0
LINE
  5
F0E
100
AcDbEntity
  8
UPILEX
100
AcDbLine
 10
211.719099
 20
158.998057
 30
0.0
 11
208.78911
 21
156.068067
 31
0.0
  0
LINE
  5
1586
100
AcDbEntity
  8
TEXT
100
AcDbLine
 10
392.32062
 20
375.127405
 30
0.0
 11
392.32062
 21
348.759519
 31
0.0
  0
LINE
  5
1587
100
AcDbEntity
  8
TEXT
100
AcDbLine
 10
402.233031
 20
375.127405
 30
0.0
 11
402.233031
 21
348.759519
 31
0.0
  0
LINE
  5
1588
100
AcDbEntity
  8
TEXT
100
AcDbLine
 10
471.829031
 20
375.127405
 30
0.0
 11
471.829031
 21
348.759519
 31
0.0
  0
LINE
  5
1589
100
AcDbEntity
  8
TEXT
100
AcDbLine
 10
494.181031
 20
375.127405
 30
0.0
 11
494.181031
 21
348.759519
 31
0.0
  0
TEXT
  5
158A
100
AcDbEntity
  8
TEXT
100
AcDbText
 10
395.885734
 20
371.282498
 30
0.0
 40
1.65
  1
01
100
AcDbText
  0
TEXT
  5
158B
100
AcDbEntity
  8
TEXT
100
AcDbText
 10
403.286596
 20
371.282498
 30
0.0
 40
1.65
  1
CHANGED UPILEX LENGTH BETWEEN DET. AND HDI
100
AcDbText
  0
TEXT
  5
158C
100
AcDbEntity
  8
TEXT
100
AcDbText
 10
476.637364
 20
371.118096
 30
0.0
 40
1.65
  1
12-01-95
100
AcDbText
  0
TEXT
  5
158D
100
AcDbEntity
  8
TEXT
 62
     1
100
AcDbText
 10
338.148858
 20
79.754173
 30
0.0
 40
5.0
  1
NOTE: UPDATED UPILEX LENGTH 11-21-96
100
AcDbText
  0
TEXT
  5
17CF
100
AcDbEntity
  8
TEXT
100
AcDbText
 10
395.885734
 20
368.004858
 30
0.0
 40
1.65
  1
02
100
AcDbText
  0
TEXT
  5
17D0
100
AcDbEntity
  8
TEXT
100
AcDbText
 10
403.286596
 20
368.004858
 30
0.0
 40
1.65
  1
UPDATED DETECTOR LENGTHS
100
AcDbText
  0
TEXT
  5
17D1
100
AcDbEntity
  8
TEXT
100
AcDbText
 10
476.637364
 20
367.840456
 30
0.0
 40
1.65
  1
12-01-95
100
AcDbText
  0
LINE
  5
17DC
100
AcDbEntity
  8
CENTER
100
AcDbLine
 10
291.864099
 20
239.484895
 30
0.0
 11
291.864099
 21
265.162738
 31
0.0
  0
TEXT
  5
17DD
100
AcDbEntity
  8
CENTER
100
AcDbText
 10
289.748515
 20
267.268654
 30
0.0
 40
5.0
  1
I.P.
100
AcDbText
  0
TEXT
  5
17DE
100
AcDbEntity
  8
CENTER
100
AcDbText
 10
289.748515
 20
168.267311
 30
0.0
 40
5.0
  1
I.P.
100
AcDbText
  0
LINE
  5
17DF
100
AcDbEntity
  8
CENTER
100
AcDbLine
 10
291.864099
 20
130.943042
 30
0.0
 11
291.864099
 21
163.551939
 31
0.0
  0
TEXT
  5
19A2
100
AcDbEntity
  8
TEXT
100
AcDbText
 10
223.8125
 20
203.604167
 30
0.0
 40
5.0
  1
PHI-SIDE
100
AcDbText
  0
TEXT
  5
19A3
100
AcDbEntity
  8
TEXT
100
AcDbText
 10
223.8125
 20
211.9375
 30
0.0
 40
5.0
  1
LAYER 2 BACKWARD
100
AcDbText
  0
TEXT
  5
19FD
100
AcDbEntity
  8
TEXT
100
AcDbText
 10
395.885734
 20
364.942358
 30
0.0
 40
1.65
  1
03
100
AcDbText
  0
TEXT
  5
19FE
100
AcDbEntity
  8
TEXT
100
AcDbText
 10
403.286596
 20
364.942358
 30
0.0
 40
1.65
  1
UPDATED UPILEX LENGTH, TO ACCOMODATE
100
AcDbText
  0
TEXT
  5
19FF
100
AcDbEntity
  8
TEXT
100
AcDbText
 10
476.637364
 20
364.777956
 30
0.0
 40
1.65
  1
11-21-96
100
AcDbText
  0
TEXT
  5
1A00
100
AcDbEntity
  8
TEXT
100
AcDbText
 10
403.286596
 20
361.942358
 30
0.0
 40
1.65
  1
THICKER HDI
100
AcDbText
  0
TEXT
  5
1A01
100
AcDbEntity
  8
TEXT
100
AcDbText
 10
511.996786
 20
23.558404
 30
0.0
 40
5.0
  1
03
100
AcDbText
  0
INSERT
  5
1A28
100
AcDbEntity
  8
UPILEX
100
AcDbBlockReference
  2
*X57
 10
0.0
 20
0.0
 30
0.0
1001
ACAD
1000
HATCH
1002
{
1070
    19
1000
ANSI31
1040
10.0
1040
0.0
1000
ASC_BOUNDS
1070
     4
1070
     1
1070
     4
1005
E90
1005
E91
1005
E8E
1005
E8F
1070
     1
1070
     4
1005
E8E
1005
E91
1005
E92
1005
E8F
1070
     1
1070
     4
1005
E8E
1005
E96
1005
E93
1005
E94
1070
     1
1070
     4
1005
E95
1005
E96
1005
E8E
1005
E94
1000
ASC_SEEDPOINT
1011
200.377106
1021
246.339047
1031
0.0
1002
}
  0
INSERT
  5
1A8E
100
AcDbEntity
  8
UPILEX
100
AcDbBlockReference
  2
*X58
 10
0.0
 20
0.0
 30
0.0
1001
ACAD
1000
HATCH
1002
{
1070
    19
1000
ANSI31
1040
10.0
1040
0.0
1000
ASC_BOUNDS
1070
     4
1070
     1
1070
     4
1005
ED9
1005
ED1
1005
EE2
1005
ED0
1070
     1
1070
     4
1005
EE2
1005
ED1
1005
ED4
1005
ED0
1070
     1
1070
     4
1005
EE2
1005
ED3
1005
ED6
1005
ED2
1070
     1
1070
     4
1005
EDA
1005
ED3
1005
EE2
1005
ED2
1000
ASC_SEEDPOINT
1011
246.858443
1021
128.418057
1031
0.0
1002
}
  0
ENDSEC
  0
SECTION
  2
OBJECTS
  0
DICTIONARY
  5
C
100
AcDbDictionary
  3
ACAD_GROUP
350
D
  3
ACAD_MLINESTYLE
350
E
  3
ACME_SCOPE_NAME
350
19A8
  3
ACME_COMMAND_HISTORY
350
19A9
  3
ACGREF_MASTER
350
19AB
  3
AMI_MASTER
350
19AC
  3
ACASGREF_MASTER
350
19AD
  3
ADSYSVARMGR
350
19B2
  3
AD_APPL
350
19BC
  3
AD_HOLENOTE_REPOSITORY
350
19C3
  3
AD_GREF_MODULE
350
19C4
  3
ACDMSYSVARMGR
350
19C9
  3
AD_DRAWMGR_NAME
350
19DC
  3
DESIGNER_ASSEMBLIES_SYSVARS
350
19E3
  3
AUTOCAD_ASSEMBLIES_PROJECT
350
19E8
  3
ACASAPPOBJECT
350
19F9
  3
ACCELVIEW
350
1B30
  0
DICTIONARY
  5
D
102
{ACAD_REACTORS
330
C
102
}
100
AcDbDictionary
  0
DICTIONARY
  5
E
102
{ACAD_REACTORS
330
C
102
}
100
AcDbDictionary
  3
STANDARD
350
13
  0
NAMEDAPPL
  5
19BC
102
{ACAD_REACTORS
330
C
102
}
  0
AM_HNTEMPLATE_MGR_NAME
  5
19C3
102
{ACAD_REACTORS
330
C
102
}
  0
ASAPP
  5
19F9
102
{ACAD_REACTORS
330
C
102
}
100
AcAsAppObject
 70
     0
360
19F7
  0
AGDICTIONARY
  5
1B30
102
{ACAD_REACTORS
330
C
102
}
100
AcDbDictionary
  0
MLINESTYLE
  5
13
102
{ACAD_REACTORS
330
E
102
}
100
AcDbMlineStyle
  2
STANDARD
 70
     0
  3

 62
     0
 51
90.0
 52
90.0
 71
     2
 49
0.5
 62
   256
  6
BYLAYER
 49
-0.5
 62
   256
  6
BYLAYER
  0
ASSYSVARS
  5
19F7
100
AcAsSysVars
 70
     0
  1
M.1.16
 40
2.617994
 40
0.5
 40
0.01
 70
     0
 40
0.01
  1
ASG
 40
0.01
 40
99999999.0
 70
    25
 70
     5
 70
     3
 40
0.5
 40
0.001
 40
99999999.0
  0
ENDSEC
  0
EOF
