  0
SECTION
  2
HEADER
  9
$ACADVER
  1
AC1012
  9
$DWGCODEPAGE
  3
ansi_1252
  9
$INSBASE
 10
0.0
 20
0.0
 30
0.0
  9
$EXTMIN
 10
1.0
 20
0.625
 30
0.0
  9
$EXTMAX
 10
32.04642
 20
20.447595
 30
0.0
  9
$LIMMIN
 10
0.0
 20
0.0
  9
$LIMMAX
 10
32.0
 20
21.0
  9
$ORTHOMODE
 70
     0
  9
$REGENMODE
 70
     1
  9
$FILLMODE
 70
     1
  9
$QTEXTMODE
 70
     0
  9
$MIRRTEXT
 70
     1
  9
$DRAGMODE
 70
     2
  9
$LTSCALE
 40
0.25
  9
$OSMODE
 70
     0
  9
$ATTMODE
 70
     1
  9
$TEXTSIZE
 40
0.12
  9
$TRACEWID
 40
0.05
  9
$TEXTSTYLE
  7
STANDARD
  9
$CLAYER
  8
DIM
  9
$CELTYPE
  6
BYLAYER
  9
$CECOLOR
 62
   256
  9
$CELTSCALE
 40
1.0
  9
$DELOBJ
 70
     1
  9
$DISPSILH
 70
     0
  9
$DIMSCALE
 40
0.75
  9
$DIMASZ
 40
0.18
  9
$DIMEXO
 40
0.0625
  9
$DIMDLI
 40
0.38
  9
$DIMRND
 40
0.0
  9
$DIMDLE
 40
0.0
  9
$DIMEXE
 40
0.18
  9
$DIMTP
 40
0.001
  9
$DIMTM
 40
0.001
  9
$DIMTXT
 40
0.18
  9
$DIMCEN
 40
0.09
  9
$DIMTSZ
 40
0.0
  9
$DIMTOL
 70
     0
  9
$DIMLIM
 70
     0
  9
$DIMTIH
 70
     1
  9
$DIMTOH
 70
     1
  9
$DIMSE1
 70
     1
  9
$DIMSE2
 70
     0
  9
$DIMTAD
 70
     0
  9
$DIMZIN
 70
     0
  9
$DIMBLK
  1

  9
$DIMASO
 70
     1
  9
$DIMSHO
 70
     1
  9
$DIMPOST
  1
"
  9
$DIMAPOST
  1
mm
  9
$DIMALT
 70
     1
  9
$DIMALTD
 70
     2
  9
$DIMALTF
 40
25.4
  9
$DIMLFAC
 40
1.0
  9
$DIMTOFL
 70
     0
  9
$DIMTVP
 40
0.0
  9
$DIMTIX
 70
     0
  9
$DIMSOXD
 70
     0
  9
$DIMSAH
 70
     0
  9
$DIMBLK1
  1

  9
$DIMBLK2
  1

  9
$DIMSTYLE
  2
STANDARD
  9
$DIMCLRD
 70
     0
  9
$DIMCLRE
 70
     0
  9
$DIMCLRT
 70
     0
  9
$DIMTFAC
 40
1.0
  9
$DIMGAP
 40
0.09
  9
$DIMJUST
 70
     0
  9
$DIMSD1
 70
     0
  9
$DIMSD2
 70
     0
  9
$DIMTOLJ
 70
     1
  9
$DIMTZIN
 70
     0
  9
$DIMALTZ
 70
     0
  9
$DIMALTTZ
 70
     0
  9
$DIMFIT
 70
     0
  9
$DIMUPT
 70
     1
  9
$DIMUNIT
 70
     2
  9
$DIMDEC
 70
     3
  9
$DIMTDEC
 70
     3
  9
$DIMALTU
 70
     2
  9
$DIMALTTD
 70
     2
  9
$DIMTXSTY
  7
STANDARD
  9
$DIMAUNIT
 70
     0
  9
$LUNITS
 70
     2
  9
$LUPREC
 70
     4
  9
$SKETCHINC
 40
0.1
  9
$FILLETRAD
 40
0.0625
  9
$AUNITS
 70
     0
  9
$AUPREC
 70
     0
  9
$MENU
  1
C:\CIM\ACAD
  9
$ELEVATION
 40
0.0
  9
$PELEVATION
 40
0.0
  9
$THICKNESS
 40
0.0
  9
$LIMCHECK
 70
     0
  9
$BLIPMODE
 70
     1
  9
$CHAMFERA
 40
0.0
  9
$CHAMFERB
 40
0.0
  9
$CHAMFERC
 40
0.0
  9
$CHAMFERD
 40
0.0
  9
$SKPOLY
 70
     0
  9
$TDCREATE
 40
2449974.369316667
  9
$TDUPDATE
 40
2450458.456818761
  9
$TDINDWG
 40
0.2539923380
  9
$TDUSRTIMER
 40
0.2539923380
  9
$USRTIMER
 70
     1
  9
$ANGBASE
 50
0.0
  9
$ANGDIR
 70
     0
  9
$PDMODE
 70
     0
  9
$PDSIZE
 40
0.0
  9
$PLINEWID
 40
0.0
  9
$COORDS
 70
     1
  9
$SPLFRAME
 70
     0
  9
$SPLINETYPE
 70
     6
  9
$SPLINESEGS
 70
     8
  9
$ATTDIA
 70
     0
  9
$ATTREQ
 70
     1
  9
$HANDLING
 70
     1
  9
$HANDSEED
  5
113B
  9
$SURFTAB1
 70
     6
  9
$SURFTAB2
 70
     6
  9
$SURFTYPE
 70
     6
  9
$SURFU
 70
     6
  9
$SURFV
 70
     6
  9
$UCSNAME
  2

  9
$UCSORG
 10
0.0
 20
0.0
 30
0.0
  9
$UCSXDIR
 10
1.0
 20
0.0
 30
0.0
  9
$UCSYDIR
 10
0.0
 20
1.0
 30
0.0
  9
$PUCSNAME
  2

  9
$PUCSORG
 10
0.0
 20
0.0
 30
0.0
  9
$PUCSXDIR
 10
1.0
 20
0.0
 30
0.0
  9
$PUCSYDIR
 10
0.0
 20
1.0
 30
0.0
  9
$USERI1
 70
     0
  9
$USERI2
 70
     0
  9
$USERI3
 70
     0
  9
$USERI4
 70
     0
  9
$USERI5
 70
     0
  9
$USERR1
 40
0.0
  9
$USERR2
 40
0.0
  9
$USERR3
 40
0.0
  9
$USERR4
 40
0.0
  9
$USERR5
 40
0.0
  9
$WORLDVIEW
 70
     1
  9
$SHADEDGE
 70
     3
  9
$SHADEDIF
 70
    70
  9
$TILEMODE
 70
     1
  9
$MAXACTVP
 70
    16
  9
$PINSBASE
 10
0.0
 20
0.0
 30
0.0
  9
$PLIMCHECK
 70
     0
  9
$PEXTMIN
 10
1.000000E+20
 20
1.000000E+20
 30
1.000000E+20
  9
$PEXTMAX
 10
-1.000000E+20
 20
-1.000000E+20
 30
-1.000000E+20
  9
$PLIMMIN
 10
0.0
 20
0.0
  9
$PLIMMAX
 10
12.0
 20
9.0
  9
$UNITMODE
 70
     0
  9
$VISRETAIN
 70
     0
  9
$PLINEGEN
 70
     0
  9
$PSLTSCALE
 70
     1
  9
$TREEDEPTH
 70
  3020
  9
$PICKSTYLE
 70
     1
  9
$CMLSTYLE
  2
STANDARD
  9
$CMLJUST
 70
     0
  9
$CMLSCALE
 40
1.0
  9
$SAVEIMAGES
 70
     0
  0
ENDSEC
  0
SECTION
  2
CLASSES
  0
CLASS
  1
ACMESCOPE
  2
AcMeScope
  3
ACME_MODULE_NAME
 90
        0
280
     0
281
     0
  0
CLASS
  1
ACMECOMMANDHISTORY
  2
AcMeCommandHistory
  3
ACME_MODULE_NAME
 90
        0
280
     0
281
     0
  0
CLASS
  1
AcRfInsAdjusterMgr
  2
AcRfInsAdjusterMgr
  3
ACME_MODULE_NAME
 90
        0
280
     0
281
     0
  0
CLASS
  1
ACGREFMASTER
  2
AcGrefMaster
  3
"AcadRfServer"
 90
        0
280
     0
281
     0
  0
CLASS
  1
AmiMaster
  2
AmiMaster
  3
"AmiServices"
 90
        0
280
     0
281
     0
  0
CLASS
  1
ACASGREFMASTER
  2
AcAsGrefMaster
  3
"AutoSurfResolver"
 90
        0
280
     0
281
     0
  0
CLASS
  1
ADAPPL
  2
AcAdAppl
  3
"DesignerServices"
 90
        0
280
     0
281
     0
  0
CLASS
  1
DEPMGR
  2
AcAdDepMgr
  3
"DesignerServices"
 90
        0
280
     0
281
     0
  0
CLASS
  1
PARAMMGR
  2
AcAdParamMgr
  3
"DesignerServices"
 90
        0
280
     0
281
     0
  0
CLASS
  1
PARAMSCOPE
  2
AcAdParamScope
  3
"DesignerServices"
 90
        0
280
     0
281
     0
  0
CLASS
  1
"IM_SYSVAR_MAN"
  2
AcImSysVarManager
  3
"ADAM"
 90
        0
280
     0
281
     0
  0
CLASS
  1
SYSTEM_VAR_INT
  2
AcImIntSysVar
  3
"ADAM"
 90
        0
280
     0
281
     0
  0
CLASS
  1
SYSTEM_VAR_REAL
  2
AcImRealSysVar
  3
"ADAM"
 90
        0
280
     0
281
     0
  0
CLASS
  1
SYSTEM_VAR_STR
  2
AcImStrSysVar
  3
"ADAM"
 90
        0
280
     0
281
     0
  0
CLASS
  1
NAMEDAPPL
  2
AcAdNamedAppl
  3
"DesignerServices"
 90
        0
280
     0
281
     0
  0
CLASS
  1
ADPART
  2
AcAdPart
  3
"DesignerServices"
 90
        0
280
     0
281
     1
  0
CLASS
  1
ADBASE
  2
AcAdBase
  3
"DesignerServices"
 90
        0
280
     0
281
     0
  0
CLASS
  1
BODYID
  2
AcAdBodyId
  3
"DesignerServices"
 90
        0
280
     0
281
     0
  0
CLASS
  1
WORKPLANEDISPLAYMGR
  2
AcAdDisplayMgr
  3
"DesignerServices"
 90
        0
280
     0
281
     0
  0
CLASS
  1
ADHNTMPLT
  2
AdHoleNoteTemplateMgr
  3
"DesignerServices"
 90
        0
280
     0
281
     0
  0
CLASS
  1
AM_HNTEMPLATE_MGR_NAME
  2
AdHoleNoteTemplateMgrName
  3
"DesignerServices"
 90
        0
280
     0
281
     0
  0
CLASS
  1
AcAdGrefModule
  2
AcAdGrefModule
  3
AD_GREF_SERVICES_NSTR
 90
        0
280
     0
281
     0
  0
CLASS
  1
AM_DRAWING_MGR
  2
AcDmDwgMgr
  3
"Designer_Drawing_Mgmt"
 90
        0
280
     0
281
     0
  0
CLASS
  1
AM_DWG_DOCUMENT
  2
AcDmDwgDocument
  3
"Designer_Drawing_Mgmt"
 90
        0
280
     0
281
     0
  0
CLASS
  1
AM_DWG_SHEET
  2
AcDmSheet
  3
"Designer_Drawing_Mgmt"
 90
        0
280
     0
281
     0
  0
CLASS
  1
AM_VIEWDIMPARMAP
  2
AcDmViewDimParMap
  3
"Designer_Drawing_Mgmt"
 90
        0
280
     0
281
     0
  0
CLASS
  1
AM_DWGMGR_NAME
  2
AcDmDwgMgrName
  3
"Designer_Drawing_Mgmt"
 90
        0
280
     0
281
     0
  0
CLASS
  1
ACAMPROJECT
  2
AcAmProject
  3
"DesignerAssemblies"
 90
        0
280
     0
281
     0
  0
CLASS
  1
ACAMGRCOMPDEF
  2
AcAmGrCompDef
  3
"DesignerAssemblies"
 90
        0
280
     0
281
     0
  0
CLASS
  1
ACAMCOMPDEF
  2
AcAmCompDef
  3
"DesignerAssemblies"
 90
        0
280
     0
281
     0
  0
CLASS
  1
ACAMCOMPDEFMGR
  2
AcAmCompDefMgr
  3
"DesignerAssemblies"
 90
        0
280
     0
281
     0
  0
CLASS
  1
AMCONTEXTMGR
  2
AcAmContextMgr
  3
"DesignerAssemblies"
 90
        0
280
     0
281
     0
  0
CLASS
  1
AcAmContextModeler
  2
AcAmContextModeler
  3
"DesignerAssemblies"
 90
        0
280
     0
281
     0
  0
CLASS
  1
ACAMDRAWINGMAN
  2
AcAmDrawingMan
  3
"DesignerAssemblies"
 90
        0
280
     0
281
     0
  0
CLASS
  1
ASSYSVARS
  2
AcAsSysVars
  3
"AutoSurf"
 90
        0
280
     0
281
     0
  0
CLASS
  1
ASSTATICVARS
  2
AcAsStaticVars
  3
"AutoSurf"
 90
        0
280
     0
281
     0
  0
CLASS
  1
ASAPP
  2
AcAsAppObject
  3
"AutoSurf"
 90
        0
280
     0
281
     0
  0
CLASS
  1
AGDICTIONARY
  2
AgDictionary
  3
"AccelView"
 90
        1
280
     0
281
     0
  0
CLASS
  1
ACRFATTGENMGR
  2
AcRfAttGeneralMgr
  3
"AcadRfServer"
 90
        0
280
     0
281
     0
  0
CLASS
  1
ACRFMCADAPIATTHOLDER
  2
AcRfMCADAPIAttHolder
  3
"AcadRfServer"
 90
        0
280
     0
281
     0
  0
ENDSEC
  0
SECTION
  2
TABLES
  0
TABLE
  2
VPORT
  5
8
100
AcDbSymbolTable
 70
     2
  0
VPORT
  5
113A
100
AcDbSymbolTableRecord
100
AcDbViewportTableRecord
  2
*ACTIVE
 70
     0
 10
0.0
 20
0.0
 11
1.0
 21
1.0
 12
17.696328
 22
10.536298
 13
0.0
 23
0.0
 14
0.03125
 24
0.03125
 15
1.0
 25
1.0
 16
0.0
 26
0.0
 36
1.0
 17
0.0
 27
0.0
 37
0.0
 40
19.822595
 41
1.684575
 42
50.0
 43
0.0
 44
0.0
 50
0.0
 51
0.0
 71
     0
 72
   100
 73
     1
 74
     0
 75
     0
 76
     1
 77
     0
 78
     0
  0
ENDTAB
  0
TABLE
  2
LTYPE
  5
5
100
AcDbSymbolTable
 70
     6
  0
LTYPE
  5
14
100
AcDbSymbolTableRecord
100
AcDbLinetypeTableRecord
  2
BYBLOCK
 70
     0
  3

 72
    65
 73
     0
 40
0.0
  0
LTYPE
  5
15
100
AcDbSymbolTableRecord
100
AcDbLinetypeTableRecord
  2
BYLAYER
 70
     0
  3

 72
    65
 73
     0
 40
0.0
  0
LTYPE
  5
16
100
AcDbSymbolTableRecord
100
AcDbLinetypeTableRecord
  2
CONTINUOUS
 70
    64
  3
Solid line
 72
    65
 73
     0
 40
0.0
  0
LTYPE
  5
24
100
AcDbSymbolTableRecord
100
AcDbLinetypeTableRecord
  2
CENTER
 70
    64
  3
____ _ ____ _ ____ _ ____ _ ____ _ ____ _ ____ 
 72
    65
 73
     4
 40
2.0
 49
1.25
 74
     0
 49
-0.25
 74
     0
 49
0.25
 74
     0
 49
-0.25
 74
     0
  0
LTYPE
  5
26
100
AcDbSymbolTableRecord
100
AcDbLinetypeTableRecord
  2
HIDDEN
 70
    64
  3
__ __ __ __ __ __ __ __ __ __ __ __ __ __ __ __
 72
    65
 73
     2
 40
0.375
 49
0.25
 74
     0
 49
-0.125
 74
     0
  0
LTYPE
  5
EF8
100
AcDbSymbolTableRecord
100
AcDbLinetypeTableRecord
  2
PHANTOM2
 70
     0
  3
___ _ _ ___ _ _ ___ _ _ ___ _ _ ___ _ _ ___ _ _
 72
    65
 73
     6
 40
1.25
 49
0.625
 74
     0
 49
-0.125
 74
     0
 49
0.125
 74
     0
 49
-0.125
 74
     0
 49
0.125
 74
     0
 49
-0.125
 74
     0
  0
LTYPE
  5
F22
100
AcDbSymbolTableRecord
100
AcDbLinetypeTableRecord
  2
ASULTYPE
 70
     0
  3
Solid line
 72
    65
 73
     2
 40
3.0
 49
2.5
 74
     0
 49
0.5
 74
     0
  0
LTYPE
  5
F23
100
AcDbSymbolTableRecord
100
AcDbLinetypeTableRecord
  2
ASVLTYPE
 70
     0
  3
__ __ __ __ __ __ __ __ __ __ __ __ __ __ __ __ __ __ __ __ __
 72
    65
 73
     2
 40
0.75
 49
0.5
 74
     0
 49
-0.25
 74
     0
  0
ENDTAB
  0
TABLE
  2
LAYER
  5
2
100
AcDbSymbolTable
 70
    21
  0
LAYER
  5
F
100
AcDbSymbolTableRecord
100
AcDbLayerTableRecord
  2
0
 70
     0
 62
     7
  6
CONTINUOUS
  0
LAYER
  5
23
100
AcDbSymbolTableRecord
100
AcDbLayerTableRecord
  2
CENTER
 70
    64
 62
     1
  6
CENTER
  0
LAYER
  5
25
100
AcDbSymbolTableRecord
100
AcDbLayerTableRecord
  2
HIDDEN
 70
    64
 62
     7
  6
HIDDEN
  0
LAYER
  5
29
100
AcDbSymbolTableRecord
100
AcDbLayerTableRecord
  2
DIM
 70
    64
 62
     3
  6
CONTINUOUS
  0
LAYER
  5
2A
100
AcDbSymbolTableRecord
100
AcDbLayerTableRecord
  2
TEXT
 70
    64
 62
     7
  6
CONTINUOUS
  0
LAYER
  5
2F
100
AcDbSymbolTableRecord
100
AcDbLayerTableRecord
  2
HCHARTS
 70
    64
 62
     3
  6
CONTINUOUS
  0
LAYER
  5
48
100
AcDbSymbolTableRecord
100
AcDbLayerTableRecord
  2
BORDER
 70
    64
 62
     6
  6
CONTINUOUS
  0
LAYER
  5
83
100
AcDbSymbolTableRecord
100
AcDbLayerTableRecord
  2
FOOT
 70
    64
 62
     7
  6
CONTINUOUS
  0
LAYER
  5
102
100
AcDbSymbolTableRecord
100
AcDbLayerTableRecord
  2
DEFPOINTS
 70
    64
 62
     7
  6
CONTINUOUS
  0
LAYER
  5
957
100
AcDbSymbolTableRecord
100
AcDbLayerTableRecord
  2
REDTEXT
 70
    64
 62
     1
  6
CONTINUOUS
  0
LAYER
  5
D02
100
AcDbSymbolTableRecord
100
AcDbLayerTableRecord
  2
KEVLAR
 70
    64
 62
     7
  6
CONTINUOUS
  0
LAYER
  5
F06
100
AcDbSymbolTableRecord
100
AcDbLayerTableRecord
  2
AM_VIEWS
 70
     0
 62
    -7
  6
CONTINUOUS
  0
LAYER
  5
F07
100
AcDbSymbolTableRecord
100
AcDbLayerTableRecord
  2
AM_PARDIM
 70
     0
 62
     3
  6
CONTINUOUS
  0
LAYER
  5
F08
100
AcDbSymbolTableRecord
100
AcDbLayerTableRecord
  2
AM_REFDIM
 70
     0
 62
     4
  6
CONTINUOUS
  0
LAYER
  5
F09
100
AcDbSymbolTableRecord
100
AcDbLayerTableRecord
  2
AM_VIS
 70
     0
 62
     7
  6
CONTINUOUS
  0
LAYER
  5
F0A
100
AcDbSymbolTableRecord
100
AcDbLayerTableRecord
  2
AM_HID
 70
    64
 62
     7
  6
HIDDEN
  0
LAYER
  5
F19
100
AcDbSymbolTableRecord
100
AcDbLayerTableRecord
  2
AM_TR
 70
     0
 62
     7
  6
CONTINUOUS
  0
LAYER
  5
F1A
100
AcDbSymbolTableRecord
100
AcDbLayerTableRecord
  2
AM_BM
 70
     0
 62
     7
  6
CONTINUOUS
  0
LAYER
  5
F1B
100
AcDbSymbolTableRecord
100
AcDbLayerTableRecord
  2
AM_BL
 70
     0
 62
     7
  6
CONTINUOUS
  0
LAYER
  5
107B
100
AcDbSymbolTableRecord
100
AcDbLayerTableRecord
  2
HATCH
 70
    64
 62
     7
  6
CONTINUOUS
  0
LAYER
  5
111A
100
AcDbSymbolTableRecord
100
AcDbLayerTableRecord
  2
ASHADE
 70
    68
 62
     7
  6
CONTINUOUS
  0
ENDTAB
  0
TABLE
  2
STYLE
  5
3
100
AcDbSymbolTable
 70
     4
  0
STYLE
  5
10
100
AcDbSymbolTableRecord
100
AcDbTextStyleTableRecord
  2
STANDARD
 70
    64
 40
0.0
 41
1.0
 50
0.0
 71
     0
 42
0.12
  3
txt
  4

  0
STYLE
  5
28
100
AcDbSymbolTableRecord
100
AcDbTextStyleTableRecord
  2
CIM_TB
 70
    64
 40
0.0
 41
1.0
 50
0.0
 71
     0
 42
0.2
  3
romans
  4

  0
STYLE
  5
49
100
AcDbSymbolTableRecord
100
AcDbTextStyleTableRecord
  2
ADESK2
 70
    64
 40
0.0
 41
1.0
 50
0.0
 71
     0
 42
0.065
  3
romans
  4

  0
STYLE
  5
1117
100
AcDbSymbolTableRecord
100
AcDbTextStyleTableRecord
  2
ASHADE
 70
    64
 40
0.2
 41
1.0
 50
0.0
 71
     0
 42
0.12
  3
simplex
  4

  0
ENDTAB
  0
TABLE
  2
VIEW
  5
6
100
AcDbSymbolTable
 70
     0
  0
ENDTAB
  0
TABLE
  2
UCS
  5
7
100
AcDbSymbolTable
 70
     1
  0
UCS
  5
2D
100
AcDbSymbolTableRecord
100
AcDbUCSTableRecord
  2
CIM_TB_HOLD
 70
     0
 10
0.0
 20
0.0
 30
0.0
 11
1.0
 21
0.0
 31
0.0
 12
0.0
 22
1.0
 32
0.0
  0
ENDTAB
  0
TABLE
  2
APPID
  5
9
100
AcDbSymbolTable
 70
    11
  0
APPID
  5
11
100
AcDbSymbolTableRecord
100
AcDbRegAppTableRecord
  2
ACAD
 70
     0
  0
APPID
  5
22
100
AcDbSymbolTableRecord
100
AcDbRegAppTableRecord
  2
TB_S_MPD
 70
     0
  0
APPID
  5
F05
100
AcDbSymbolTableRecord
100
AcDbRegAppTableRecord
  2
AD_DRAW
 70
     0
  0
APPID
  5
F1D
100
AcDbSymbolTableRecord
100
AcDbRegAppTableRecord
  2
DESIGNERASSEMBLIES
 70
     0
  0
APPID
  5
F1E
100
AcDbSymbolTableRecord
100
AcDbRegAppTableRecord
  2
MCAD_NO_VIS
 70
     0
  0
APPID
  5
F24
100
AcDbSymbolTableRecord
100
AcDbRegAppTableRecord
  2
ASURF_PCURVE_APPNAME
 70
     0
  0
APPID
  5
1118
100
AcDbSymbolTableRecord
100
AcDbRegAppTableRecord
  2
AVE_RENDER
 70
     0
  0
APPID
  5
1119
100
AcDbSymbolTableRecord
100
AcDbRegAppTableRecord
  2
AVE_ENTITY_MATERIAL
 70
     0
  0
APPID
  5
1126
100
AcDbSymbolTableRecord
100
AcDbRegAppTableRecord
  2
AVE_FINISH
 70
     0
  0
APPID
  5
1127
100
AcDbSymbolTableRecord
100
AcDbRegAppTableRecord
  2
AVE_MATERIAL
 70
     0
  0
APPID
  5
1128
100
AcDbSymbolTableRecord
100
AcDbRegAppTableRecord
  2
AVE_GLOBAL
 70
     0
  0
ENDTAB
  0
TABLE
  2
DIMSTYLE
  5
A
100
AcDbSymbolTable
 70
     3
  0
DIMSTYLE
105
1D
100
AcDbSymbolTableRecord
100
AcDbDimStyleTableRecord
  2
STANDARD
 70
     0
  3

  4

  5

  6

  7

 40
1.0
 41
0.18
 42
0.0625
 43
0.38
 44
0.18
 45
0.0
 46
0.0
 47
0.0
 48
0.0
140
0.18
141
0.09
142
0.0
143
25.4
144
1.0
145
0.0
146
1.0
147
0.09
 71
     0
 72
     0
 73
     1
 74
     1
 75
     0
 76
     0
 77
     0
 78
     0
170
     0
171
     2
172
     0
173
     0
174
     0
175
     0
176
     0
177
     0
178
     0
270
     2
271
     3
272
     4
273
     2
274
     2
340
10
275
     0
280
     0
281
     0
282
     0
283
     1
284
     0
285
     0
286
     0
287
     0
288
     0
  0
DIMSTYLE
105
2B
100
AcDbSymbolTableRecord
100
AcDbDimStyleTableRecord
  2
STANDARD$4
 70
     0
  3

  4

  5

  6

  7

 40
1.0
 41
0.18
 42
0.0625
 43
0.38
 44
0.18
 45
0.0
 46
0.0
 47
0.0
 48
0.0
140
0.18
141
0.09
142
0.0
143
25.4
144
1.0
145
0.0
146
1.0
147
0.09
 71
     0
 72
     0
 73
     1
 74
     1
 75
     0
 76
     0
 77
     0
 78
     0
170
     0
171
     2
172
     0
173
     0
174
     0
175
     0
176
     0
177
     0
178
     0
270
     2
271
     4
272
     4
273
     2
274
     2
340
10
275
     0
280
     0
281
     0
282
     0
283
     1
284
     0
285
     0
286
     0
287
     3
288
     0
  0
DIMSTYLE
105
2C
100
AcDbSymbolTableRecord
100
AcDbDimStyleTableRecord
  2
STANDARD$3
 70
     0
  3

  4

  5

  6

  7

 40
1.0
 41
0.18
 42
0.0625
 43
0.38
 44
0.18
 45
0.0
 46
0.0
 47
0.0
 48
0.0
140
0.18
141
0.09
142
0.0
143
25.4
144
1.0
145
0.0
146
1.0
147
0.09
 71
     0
 72
     0
 73
     1
 74
     1
 75
     0
 76
     0
 77
     0
 78
     0
170
     0
171
     2
172
     0
173
     0
174
     0
175
     0
176
     0
177
     0
178
     0
270
     2
271
     4
272
     4
273
     2
274
     2
340
10
275
     0
280
     0
281
     0
282
     0
283
     1
284
     0
285
     0
286
     0
287
     3
288
     0
  0
ENDTAB
  0
TABLE
  2
BLOCK_RECORD
  5
1
100
AcDbSymbolTable
 70
    38
  0
BLOCK_RECORD
  5
1A
100
AcDbSymbolTableRecord
100
AcDbBlockTableRecord
  2
*MODEL_SPACE
  0
BLOCK_RECORD
  5
17
100
AcDbSymbolTableRecord
100
AcDbBlockTableRecord
  2
*PAPER_SPACE
  0
BLOCK_RECORD
  5
4A
100
AcDbSymbolTableRecord
100
AcDbBlockTableRecord
  2
C-BORDER
  0
BLOCK_RECORD
  5
84
100
AcDbSymbolTableRecord
100
AcDbBlockTableRecord
  2
FT-L2-B
  0
BLOCK_RECORD
  5
150
100
AcDbSymbolTableRecord
100
AcDbBlockTableRecord
  2
*D2
  0
BLOCK_RECORD
  5
15F
100
AcDbSymbolTableRecord
100
AcDbBlockTableRecord
  2
*D3
  0
BLOCK_RECORD
  5
16D
100
AcDbSymbolTableRecord
100
AcDbBlockTableRecord
  2
*D4
  0
BLOCK_RECORD
  5
2D3
100
AcDbSymbolTableRecord
100
AcDbBlockTableRecord
  2
*D5
  0
BLOCK_RECORD
  5
300
100
AcDbSymbolTableRecord
100
AcDbBlockTableRecord
  2
*D6
  0
BLOCK_RECORD
  5
83D
100
AcDbSymbolTableRecord
100
AcDbBlockTableRecord
  2
*U7
  0
BLOCK_RECORD
  5
8C9
100
AcDbSymbolTableRecord
100
AcDbBlockTableRecord
  2
*D8
  0
BLOCK_RECORD
  5
8E7
100
AcDbSymbolTableRecord
100
AcDbBlockTableRecord
  2
*D9
  0
BLOCK_RECORD
  5
941
100
AcDbSymbolTableRecord
100
AcDbBlockTableRecord
  2
*D10
  0
BLOCK_RECORD
  5
986
100
AcDbSymbolTableRecord
100
AcDbBlockTableRecord
  2
*U11
  0
BLOCK_RECORD
  5
992
100
AcDbSymbolTableRecord
100
AcDbBlockTableRecord
  2
*U12
  0
BLOCK_RECORD
  5
B83
100
AcDbSymbolTableRecord
100
AcDbBlockTableRecord
  2
*D13
  0
BLOCK_RECORD
  5
D03
100
AcDbSymbolTableRecord
100
AcDbBlockTableRecord
  2
D-BORDER
  0
BLOCK_RECORD
  5
D6E
100
AcDbSymbolTableRecord
100
AcDbBlockTableRecord
  2
*D15
  0
BLOCK_RECORD
  5
E45
100
AcDbSymbolTableRecord
100
AcDbBlockTableRecord
  2
*D16
  0
BLOCK_RECORD
  5
E6C
100
AcDbSymbolTableRecord
100
AcDbBlockTableRecord
  2
*D17
  0
BLOCK_RECORD
  5
F11
100
AcDbSymbolTableRecord
100
AcDbBlockTableRecord
  2
*U18
  0
BLOCK_RECORD
  5
F2D
100
AcDbSymbolTableRecord
100
AcDbBlockTableRecord
  2
*U19
  0
BLOCK_RECORD
  5
F9A
100
AcDbSymbolTableRecord
100
AcDbBlockTableRecord
  2
*D20
  0
BLOCK_RECORD
  5
FA7
100
AcDbSymbolTableRecord
100
AcDbBlockTableRecord
  2
*D21
  0
BLOCK_RECORD
  5
FB4
100
AcDbSymbolTableRecord
100
AcDbBlockTableRecord
  2
*D22
  0
BLOCK_RECORD
  5
FC1
100
AcDbSymbolTableRecord
100
AcDbBlockTableRecord
  2
*D23
  0
BLOCK_RECORD
  5
FCE
100
AcDbSymbolTableRecord
100
AcDbBlockTableRecord
  2
*D24
  0
BLOCK_RECORD
  5
FDB
100
AcDbSymbolTableRecord
100
AcDbBlockTableRecord
  2
*D25
  0
BLOCK_RECORD
  5
FE9
100
AcDbSymbolTableRecord
100
AcDbBlockTableRecord
  2
*D26
  0
BLOCK_RECORD
  5
FF7
100
AcDbSymbolTableRecord
100
AcDbBlockTableRecord
  2
*D27
  0
BLOCK_RECORD
  5
1005
100
AcDbSymbolTableRecord
100
AcDbBlockTableRecord
  2
*D28
  0
BLOCK_RECORD
  5
1013
100
AcDbSymbolTableRecord
100
AcDbBlockTableRecord
  2
*D29
  0
BLOCK_RECORD
  5
102F
100
AcDbSymbolTableRecord
100
AcDbBlockTableRecord
  2
*D30
  0
BLOCK_RECORD
  5
103C
100
AcDbSymbolTableRecord
100
AcDbBlockTableRecord
  2
*D31
  0
BLOCK_RECORD
  5
1049
100
AcDbSymbolTableRecord
100
AcDbBlockTableRecord
  2
*D32
  0
BLOCK_RECORD
  5
1056
100
AcDbSymbolTableRecord
100
AcDbBlockTableRecord
  2
*D33
  0
BLOCK_RECORD
  5
1063
100
AcDbSymbolTableRecord
100
AcDbBlockTableRecord
  2
*D34
  0
BLOCK_RECORD
  5
109C
100
AcDbSymbolTableRecord
100
AcDbBlockTableRecord
  2
*X35
  0
BLOCK_RECORD
  5
111B
100
AcDbSymbolTableRecord
100
AcDbBlockTableRecord
  2
AVE_RENDER
  0
BLOCK_RECORD
  5
1129
100
AcDbSymbolTableRecord
100
AcDbBlockTableRecord
  2
AVE_GLOBAL
  0
ENDTAB
  0
ENDSEC
  0
SECTION
  2
BLOCKS
  0
BLOCK
  5
1B
100
AcDbEntity
  8
0
100
AcDbBlockBegin
  2
*MODEL_SPACE
 70
     0
 10
0.0
 20
0.0
 30
0.0
  3
*MODEL_SPACE
  1

  0
ENDBLK
  5
1C
100
AcDbEntity
  8
0
100
AcDbBlockEnd
  0
BLOCK
  5
18
100
AcDbEntity
 67
     1
  8
0
100
AcDbBlockBegin
  2
*PAPER_SPACE
 70
     0
 10
0.0
 20
0.0
 30
0.0
  3
*PAPER_SPACE
  1

  0
ENDBLK
  5
19
100
AcDbEntity
 67
     1
  8
0
100
AcDbBlockEnd
  0
BLOCK
  5
80
100
AcDbEntity
  8
0
100
AcDbBlockBegin
  2
C-BORDER
 70
     0
 10
0.0
 20
0.0
 30
0.0
  3
C-BORDER
  1

  0
TEXT
  5
4B
100
AcDbEntity
  8
TEXT
100
AcDbText
 10
15.40792
 20
1.861505
 30
0.0
 40
0.065
  1
  %%P 0.5%%D
  7
ADESK2
100
AcDbText
  0
TEXT
  5
4C
100
AcDbEntity
  8
TEXT
100
AcDbText
 10
15.40792
 20
1.966743
 30
0.0
 40
0.065
  1
ANGULAR
  7
ADESK2
100
AcDbText
  0
TEXT
  5
4D
100
AcDbEntity
  8
TEXT
100
AcDbText
 10
14.61466
 20
1.653744
 30
0.0
 40
0.065
  1
DO NOT SCALE DRAWING
  7
ADESK2
 72
     1
 11
15.229065
 21
1.653744
 31
0.0
100
AcDbText
  0
TEXT
  5
4E
100
AcDbEntity
  8
TEXT
100
AcDbText
 10
14.544023
 20
1.756267
 30
0.0
 40
0.065
  1
.XXX %%P .005
  7
ADESK2
100
AcDbText
  0
TEXT
  5
4F
100
AcDbEntity
  8
TEXT
100
AcDbText
 10
14.544023
 20
1.861505
 30
0.0
 40
0.065
  1
.XX  %%P .05
  7
ADESK2
100
AcDbText
  0
TEXT
  5
50
100
AcDbEntity
  8
TEXT
100
AcDbText
 10
14.544023
 20
1.966743
 30
0.0
 40
0.065
  1
DECIMALS
  7
ADESK2
100
AcDbText
  0
TEXT
  5
51
100
AcDbEntity
  8
TEXT
100
AcDbText
 10
14.930374
 20
2.074613
 30
0.0
 40
0.065
  1
TOLERANCES
  7
ADESK2
 72
     1
 11
15.229065
 21
2.074613
 31
0.0
100
AcDbText
  0
TEXT
  5
52
100
AcDbEntity
  8
TEXT
100
AcDbText
 10
14.532636
 20
2.179851
 30
0.0
 40
0.065
  1
DIMENSIONS ARE IN INCHES
  7
ADESK2
 72
     1
 11
15.229065
 21
2.179851
 31
0.0
100
AcDbText
  0
TEXT
  5
53
100
AcDbEntity
  8
TEXT
100
AcDbText
 10
14.458351
 20
2.285089
 30
0.0
 40
0.065
  1
UNLESS OTHERWISE SPECIFIED:
  7
ADESK2
 72
     1
 11
15.229065
 21
2.285089
 31
0.0
100
AcDbText
  0
TEXT
  5
54
100
AcDbEntity
  8
BORDER
100
AcDbText
 10
16.916608
 20
2.075566
 30
0.0
 40
0.15
  1
HIGH ENERGY PHYSICS
100
AcDbText
  0
LINE
  5
55
100
AcDbEntity
  8
BORDER
100
AcDbLine
 10
0.5
 20
15.375
 30
0.0
 11
20.5
 21
15.375
 31
0.0
  0
TEXT
  5
56
100
AcDbEntity
  8
TEXT
100
AcDbText
 10
16.680137
 20
1.165354
 30
0.0
 40
0.075
  1
FILE #
100
AcDbText
  0
TEXT
  5
57
100
AcDbEntity
  8
BORDER
100
AcDbText
 10
16.367704
 20
0.951962
 30
0.0
 40
0.15
  1
C
100
AcDbText
  0
LINE
  5
58
100
AcDbEntity
  8
BORDER
100
AcDbLine
 10
0.5
 20
0.625
 30
0.0
 11
20.5
 21
0.625
 31
0.0
  0
LINE
  5
59
100
AcDbEntity
  8
BORDER
100
AcDbLine
 10
0.5
 20
15.375
 30
0.0
 11
0.5
 21
0.625
 31
0.0
  0
LINE
  5
5A
100
AcDbEntity
  8
BORDER
100
AcDbLine
 10
20.5
 20
0.625
 30
0.0
 11
20.5
 21
15.375
 31
0.0
  0
LINE
  5
5B
100
AcDbEntity
  8
BORDER
100
AcDbLine
 10
14.228025
 20
2.824147
 30
0.0
 11
20.500862
 21
2.824147
 31
0.0
  0
TEXT
  5
5C
100
AcDbEntity
  8
BORDER
100
AcDbText
 10
14.407029
 20
2.549228
 30
0.0
 40
0.15
  1
UNIVERSITY OF CALIFORNIA @ SANTA BARBARA
100
AcDbText
  0
TEXT
  5
5D
100
AcDbEntity
  8
TEXT
100
AcDbText
 10
14.297375
 20
1.479964
 30
0.0
 40
0.065
  1
DRAWN
  7
ADESK2
100
AcDbText
  0
LINE
  5
5E
100
AcDbEntity
  8
BORDER
100
AcDbLine
 10
14.229065
 20
0.625
 30
0.0
 11
14.229065
 21
2.824147
 31
0.0
  0
LINE
  5
5F
100
AcDbEntity
  8
BORDER
100
AcDbLine
 10
14.229065
 20
2.401501
 30
0.0
 11
20.500862
 21
2.401501
 31
0.0
  0
LINE
  5
60
100
AcDbEntity
  8
TEXT
100
AcDbLine
 10
14.229065
 20
0.966501
 30
0.0
 11
16.229065
 21
0.966501
 31
0.0
  0
LINE
  5
61
100
AcDbEntity
  8
TEXT
100
AcDbLine
 10
14.229065
 20
1.281501
 30
0.0
 11
20.500862
 21
1.281501
 31
0.0
  0
LINE
  5
62
100
AcDbEntity
  8
TEXT
100
AcDbLine
 10
16.229065
 20
0.901501
 30
0.0
 11
20.500862
 21
0.901501
 31
0.0
  0
LINE
  5
63
100
AcDbEntity
  8
BORDER
100
AcDbLine
 10
16.229065
 20
1.901501
 30
0.0
 11
20.500862
 21
1.901501
 31
0.0
  0
LINE
  5
64
100
AcDbEntity
  8
BORDER
100
AcDbLine
 10
16.229065
 20
0.625
 30
0.0
 11
16.229065
 21
2.401501
 31
0.0
  0
LINE
  5
65
100
AcDbEntity
  8
TEXT
100
AcDbLine
 10
17.229065
 20
0.625
 30
0.0
 11
17.229065
 21
0.901501
 31
0.0
  0
LINE
  5
66
100
AcDbEntity
  8
TEXT
100
AcDbLine
 10
18.729065
 20
0.625
 30
0.0
 11
18.729065
 21
0.901501
 31
0.0
  0
LINE
  5
67
100
AcDbEntity
  8
TEXT
100
AcDbLine
 10
16.609065
 20
0.901501
 30
0.0
 11
16.609065
 21
1.281501
 31
0.0
  0
LINE
  5
68
100
AcDbEntity
  8
TEXT
100
AcDbLine
 10
17.729065
 20
0.901501
 30
0.0
 11
17.729065
 21
1.281501
 31
0.0
  0
LINE
  5
69
100
AcDbEntity
  8
TEXT
100
AcDbLine
 10
20.099065
 20
0.901501
 30
0.0
 11
20.099065
 21
1.281501
 31
0.0
  0
TEXT
  5
6A
100
AcDbEntity
  8
TEXT
100
AcDbText
 10
16.281365
 20
0.744001
 30
0.0
 40
0.065
  1
SCALE
  7
ADESK2
100
AcDbText
  0
TEXT
  5
6B
100
AcDbEntity
  8
TEXT
100
AcDbText
 10
18.781865
 20
0.744001
 30
0.0
 40
0.065
  1
SHEET
  7
ADESK2
100
AcDbText
  0
TEXT
  5
6C
100
AcDbEntity
  8
TEXT
100
AcDbText
 10
16.316965
 20
1.167401
 30
0.0
 40
0.065
  1
SIZE
  7
ADESK2
100
AcDbText
  0
TEXT
  5
6D
100
AcDbEntity
  8
TEXT
100
AcDbText
 10
17.800065
 20
1.167401
 30
0.0
 40
0.065
  1
DWG NO.
  7
ADESK2
100
AcDbText
  0
TEXT
  5
6E
100
AcDbEntity
  8
TEXT
100
AcDbText
 10
20.179565
 20
1.167401
 30
0.0
 40
0.065
  1
REV
  7
ADESK2
100
AcDbText
  0
LINE
  5
6F
100
AcDbEntity
  8
TEXT
100
AcDbLine
 10
15.445694
 20
15.018795
 30
0.0
 11
20.5
 21
15.018795
 31
0.0
  0
LINE
  5
70
100
AcDbEntity
  8
TEXT
100
AcDbLine
 10
15.445694
 20
14.768795
 30
0.0
 11
20.5
 21
14.768795
 31
0.0
  0
LINE
  5
71
100
AcDbEntity
  8
TEXT
100
AcDbLine
 10
15.445694
 20
15.328859
 30
0.0
 11
15.445694
 21
14.768795
 31
0.0
  0
LINE
  5
72
100
AcDbEntity
  8
TEXT
100
AcDbLine
 10
15.835946
 20
14.768795
 30
0.0
 11
15.835946
 21
15.018795
 31
0.0
  0
LINE
  5
73
100
AcDbEntity
  8
TEXT
100
AcDbLine
 10
18.575946
 20
14.768795
 30
0.0
 11
18.575946
 21
15.018795
 31
0.0
  0
LINE
  5
74
100
AcDbEntity
  8
TEXT
100
AcDbLine
 10
19.455946
 20
14.768795
 30
0.0
 11
19.455946
 21
15.018795
 31
0.0
  0
TEXT
  5
75
100
AcDbEntity
  8
TEXT
100
AcDbText
 10
17.666146
 20
15.101295
 30
0.0
 40
0.065
  1
REVISIONS
  7
ADESK2
100
AcDbText
  0
TEXT
  5
76
100
AcDbEntity
  8
TEXT
100
AcDbText
 10
15.536046
 20
14.859095
 30
0.0
 40
0.065
  1
REV
  7
ADESK2
100
AcDbText
  0
TEXT
  5
77
100
AcDbEntity
  8
TEXT
100
AcDbText
 10
16.837946
 20
14.859095
 30
0.0
 40
0.065
  1
DESCRIPTION
  7
ADESK2
100
AcDbText
  0
TEXT
  5
78
100
AcDbEntity
  8
TEXT
100
AcDbText
 10
18.903646
 20
14.859095
 30
0.0
 40
0.065
  1
DATE
  7
ADESK2
100
AcDbText
  0
TEXT
  5
79
100
AcDbEntity
  8
TEXT
100
AcDbText
 10
19.697346
 20
14.859095
 30
0.0
 40
0.065
  1
APPROVED
  7
ADESK2
100
AcDbText
  0
LINE
  5
7A
100
AcDbEntity
  8
TEXT
100
AcDbLine
 10
14.229065
 20
1.591501
 30
0.0
 11
16.229065
 21
1.591501
 31
0.0
  0
TEXT
  5
7B
100
AcDbEntity
  8
TEXT
100
AcDbText
 10
14.309065
 20
1.171501
 30
0.0
 40
0.065
  1
CHECKED
  7
ADESK2
100
AcDbText
  0
TEXT
  5
7C
100
AcDbEntity
  8
TEXT
100
AcDbText
 10
14.309065
 20
0.856501
 30
0.0
 40
0.065
  1
DESIGN
  7
ADESK2
100
AcDbText
  0
LINE
  5
7D
100
AcDbEntity
  8
TEXT
100
AcDbLine
 10
15.729049
 20
1.591501
 30
0.0
 11
15.729049
 21
0.625
 31
0.0
  0
TEXT
  5
7E
100
AcDbEntity
  8
TEXT
100
AcDbText
 10
15.852468
 20
1.474951
 30
0.0
 40
0.065
  1
DATE
  7
ADESK2
100
AcDbText
  0
TEXT
  5
7F
100
AcDbEntity
  8
TEXT
100
AcDbText
 10
19.612036
 20
0.744377
 30
0.0
 40
0.065
  1
OF
  7
ADESK2
100
AcDbText
  0
ENDBLK
  5
81
100
AcDbEntity
  8
0
100
AcDbBlockEnd
  0
BLOCK
  5
8D
100
AcDbEntity
  8
0
100
AcDbBlockBegin
  2
FT-L2-B
 70
     0
 10
0.0
 20
0.0
 30
0.0
  3
FT-L2-B
  1

  0
LINE
  5
523
100
AcDbEntity
  8
FOOT
100
AcDbLine
 10
-71.192279
 20
16.341562
 30
0.0
 11
-24.840108
 21
16.341521
 31
0.0
  0
LINE
  5
524
100
AcDbEntity
  8
FOOT
100
AcDbLine
 10
-73.192279
 20
10.87599
 30
0.0
 11
-73.192279
 21
14.341562
 31
0.0
  0
ARC
  5
525
100
AcDbEntity
  8
FOOT
100
AcDbCircle
 10
-71.192279
 20
14.341562
 30
0.0
 40
2.0
100
AcDbArc
 50
90.0
 51
180.0
  0
LINE
  5
526
100
AcDbEntity
  8
FOOT
100
AcDbLine
 10
-33.837645
 20
10.875949
 30
0.0
 11
-73.192279
 21
10.87599
 31
0.0
  0
LINE
  5
527
100
AcDbEntity
  8
FOOT
100
AcDbLine
 10
-14.999986
 20
0.0
 30
0.0
 11
0.0
 21
0.0
 31
0.0
  0
LINE
  5
528
100
AcDbEntity
  8
FOOT
100
AcDbLine
 10
-33.837645
 20
10.875949
 30
0.0
 11
-14.999986
 21
0.0
 31
0.0
  0
LINE
  5
529
100
AcDbEntity
  8
FOOT
100
AcDbLine
 10
-24.840108
 20
16.341521
 30
0.0
 11
0.0
 21
2.00005
 31
0.0
  0
LINE
  5
52A
100
AcDbEntity
  8
FOOT
100
AcDbLine
 10
0.0
 20
0.0
 30
0.0
 11
0.0
 21
2.00005
 31
0.0
  0
CIRCLE
  5
52B
100
AcDbEntity
  8
FOOT
100
AcDbCircle
 10
-26.854986
 20
11.775
 30
0.0
 40
1.5875
  0
CIRCLE
  5
52C
100
AcDbEntity
  8
FOOT
100
AcDbCircle
 10
-12.854986
 20
3.775
 30
0.0
 40
1.5875
  0
ENDBLK
  5
8E
100
AcDbEntity
  8
0
100
AcDbBlockEnd
  0
BLOCK
  5
F8D
100
AcDbEntity
  8
0
100
AcDbBlockBegin
  2
*D2
 70
    65
 10
0.0
 20
0.0
 30
0.0
  3
*D2
  1
*TB
  0
LINE
  5
F8E
100
AcDbEntity
  8
0
  6
BYBLOCK
 62
     0
100
AcDbLine
 10
17.550312
 20
15.05804
 30
0.0
 11
18.469725
 21
15.05804
 31
0.0
  0
LINE
  5
F8F
100
AcDbEntity
  8
0
  6
BYBLOCK
 62
     0
100
AcDbLine
 10
17.550312
 20
15.08804
 30
0.0
 11
18.469725
 21
15.08804
 31
0.0
  0
LINE
  5
F90
100
AcDbEntity
  8
0
  6
BYBLOCK
 62
     0
100
AcDbLine
 10
18.334725
 20
14.92304
 30
0.0
 11
18.334725
 21
14.78804
 31
0.0
  0
LINE
  5
F91
100
AcDbEntity
  8
0
  6
BYBLOCK
 62
     0
100
AcDbLine
 10
18.334725
 20
15.22304
 30
0.0
 11
18.334725
 21
15.35804
 31
0.0
  0
LINE
  5
F92
100
AcDbEntity
  8
0
  6
BYBLOCK
 62
     0
100
AcDbLine
 10
18.334725
 20
15.35804
 30
0.0
 11
18.469725
 21
15.35804
 31
0.0
  0
SOLID
  5
F93
100
AcDbEntity
  8
0
  6
BYBLOCK
 62
     0
100
AcDbTrace
 10
18.312225
 20
14.92304
 30
0.0
 11
18.357225
 21
14.92304
 31
0.0
 12
18.334725
 22
15.05804
 32
0.0
 13
18.334725
 23
15.05804
 33
0.0
  0
SOLID
  5
F94
100
AcDbEntity
  8
0
  6
BYBLOCK
 62
     0
100
AcDbTrace
 10
18.312225
 20
15.22304
 30
0.0
 11
18.357225
 21
15.22304
 31
0.0
 12
18.334725
 22
15.08804
 32
0.0
 13
18.334725
 23
15.08804
 33
0.0
  0
MTEXT
  5
F95
100
AcDbEntity
  8
0
  6
BYBLOCK
 62
     0
100
AcDbMText
 10
19.257225
 20
15.35804
 30
0.0
 40
0.135
 41
0.0
 71
     5
 72
     1
  1
\A1;0.030"[0.76mm]
  0
POINT
  5
F96
100
AcDbEntity
  8
DEFPOINTS
  6
BYBLOCK
 62
     0
100
AcDbPoint
 10
17.503437
 20
15.05804
 30
0.0
  0
POINT
  5
F97
100
AcDbEntity
  8
DEFPOINTS
  6
BYBLOCK
 62
     0
100
AcDbPoint
 10
17.503437
 20
15.08804
 30
0.0
  0
POINT
  5
F98
100
AcDbEntity
  8
DEFPOINTS
  6
BYBLOCK
 62
     0
100
AcDbPoint
 10
18.334725
 20
15.08804
 30
0.0
  0
ENDBLK
  5
F99
100
AcDbEntity
  8
0
100
AcDbBlockEnd
  0
BLOCK
  5
F81
100
AcDbEntity
  8
0
100
AcDbBlockBegin
  2
*D3
 70
    65
 10
0.0
 20
0.0
 30
0.0
  3
*D3
  1
*TB
  0
LINE
  5
F82
100
AcDbEntity
  8
0
  6
BYBLOCK
 62
     0
100
AcDbLine
 10
17.550312
 20
13.59634
 30
0.0
 11
27.095813
 21
13.59634
 31
0.0
  0
LINE
  5
F83
100
AcDbEntity
  8
0
  6
BYBLOCK
 62
     0
100
AcDbLine
 10
17.550312
 20
15.08804
 30
0.0
 11
27.095813
 21
15.08804
 31
0.0
  0
LINE
  5
F84
100
AcDbEntity
  8
0
  6
BYBLOCK
 62
     0
100
AcDbLine
 10
26.960813
 20
13.73134
 30
0.0
 11
26.960813
 21
14.20719
 31
0.0
  0
LINE
  5
F85
100
AcDbEntity
  8
0
  6
BYBLOCK
 62
     0
100
AcDbLine
 10
26.960813
 20
14.95304
 30
0.0
 11
26.960813
 21
14.47719
 31
0.0
  0
SOLID
  5
F86
100
AcDbEntity
  8
0
  6
BYBLOCK
 62
     0
100
AcDbTrace
 10
26.938313
 20
13.73134
 30
0.0
 11
26.983313
 21
13.73134
 31
0.0
 12
26.960813
 22
13.59634
 32
0.0
 13
26.960813
 23
13.59634
 33
0.0
  0
SOLID
  5
F87
100
AcDbEntity
  8
0
  6
BYBLOCK
 62
     0
100
AcDbTrace
 10
26.938313
 20
14.95304
 30
0.0
 11
26.983313
 21
14.95304
 31
0.0
 12
26.960813
 22
15.08804
 32
0.0
 13
26.960813
 23
15.08804
 33
0.0
  0
MTEXT
  5
F88
100
AcDbEntity
  8
0
  6
BYBLOCK
 62
     0
100
AcDbMText
 10
26.960813
 20
14.34219
 30
0.0
 40
0.135
 41
0.0
 71
     5
 72
     1
  1
\A1;1.492"[37.89mm]
  0
POINT
  5
F89
100
AcDbEntity
  8
DEFPOINTS
  6
BYBLOCK
 62
     0
100
AcDbPoint
 10
17.503437
 20
13.59634
 30
0.0
  0
POINT
  5
F8A
100
AcDbEntity
  8
DEFPOINTS
  6
BYBLOCK
 62
     0
100
AcDbPoint
 10
17.503437
 20
15.08804
 30
0.0
  0
POINT
  5
F8B
100
AcDbEntity
  8
DEFPOINTS
  6
BYBLOCK
 62
     0
100
AcDbPoint
 10
26.960813
 20
15.08804
 30
0.0
  0
ENDBLK
  5
F8C
100
AcDbEntity
  8
0
100
AcDbBlockEnd
  0
BLOCK
  5
F75
100
AcDbEntity
  8
0
100
AcDbBlockBegin
  2
*D4
 70
    65
 10
0.0
 20
0.0
 30
0.0
  3
*D4
  1
*TB
  0
LINE
  5
F76
100
AcDbEntity
  8
0
  6
BYBLOCK
 62
     0
100
AcDbLine
 10
17.550312
 20
13.56634
 30
0.0
 11
28.96105
 21
13.56634
 31
0.0
  0
LINE
  5
F77
100
AcDbEntity
  8
0
  6
BYBLOCK
 62
     0
100
AcDbLine
 10
17.550312
 20
15.08804
 30
0.0
 11
28.96105
 21
15.08804
 31
0.0
  0
LINE
  5
F78
100
AcDbEntity
  8
0
  6
BYBLOCK
 62
     0
100
AcDbLine
 10
28.82605
 20
13.70134
 30
0.0
 11
28.82605
 21
14.19219
 31
0.0
  0
LINE
  5
F79
100
AcDbEntity
  8
0
  6
BYBLOCK
 62
     0
100
AcDbLine
 10
28.82605
 20
14.95304
 30
0.0
 11
28.82605
 21
14.46219
 31
0.0
  0
SOLID
  5
F7A
100
AcDbEntity
  8
0
  6
BYBLOCK
 62
     0
100
AcDbTrace
 10
28.80355
 20
13.70134
 30
0.0
 11
28.84855
 21
13.70134
 31
0.0
 12
28.82605
 22
13.56634
 32
0.0
 13
28.82605
 23
13.56634
 33
0.0
  0
SOLID
  5
F7B
100
AcDbEntity
  8
0
  6
BYBLOCK
 62
     0
100
AcDbTrace
 10
28.80355
 20
14.95304
 30
0.0
 11
28.84855
 21
14.95304
 31
0.0
 12
28.82605
 22
15.08804
 32
0.0
 13
28.82605
 23
15.08804
 33
0.0
  0
MTEXT
  5
F7C
100
AcDbEntity
  8
0
  6
BYBLOCK
 62
     0
100
AcDbMText
 10
28.82605
 20
14.32719
 30
0.0
 40
0.135
 41
0.0
 71
     5
 72
     1
  1
\A1;1.522"[38.65mm]
  0
POINT
  5
F7D
100
AcDbEntity
  8
DEFPOINTS
  6
BYBLOCK
 62
     0
100
AcDbPoint
 10
17.503437
 20
13.56634
 30
0.0
  0
POINT
  5
F7E
100
AcDbEntity
  8
DEFPOINTS
  6
BYBLOCK
 62
     0
100
AcDbPoint
 10
17.503437
 20
15.08804
 30
0.0
  0
POINT
  5
F7F
100
AcDbEntity
  8
DEFPOINTS
  6
BYBLOCK
 62
     0
100
AcDbPoint
 10
28.82605
 20
15.08804
 30
0.0
  0
ENDBLK
  5
F80
100
AcDbEntity
  8
0
100
AcDbBlockEnd
  0
BLOCK
  5
D61
100
AcDbEntity
  8
0
100
AcDbBlockBegin
  2
*D5
 70
    65
 10
0.0
 20
0.0
 30
0.0
  3
*D5
  1
*TB
  0
LINE
  5
D62
100
AcDbEntity
  8
0
  6
BYBLOCK
 62
     0
100
AcDbLine
 10
14.743844
 20
14.78994
 30
0.0
 11
11.965414
 21
14.78994
 31
0.0
  0
LINE
  5
D63
100
AcDbEntity
  8
0
  6
BYBLOCK
 62
     0
100
AcDbLine
 10
14.77434
 20
15.08804
 30
0.0
 11
11.965414
 21
15.08804
 31
0.0
  0
LINE
  5
D64
100
AcDbEntity
  8
0
  6
BYBLOCK
 62
     0
100
AcDbLine
 10
12.100414
 20
14.65494
 30
0.0
 11
12.100414
 21
14.51994
 31
0.0
  0
LINE
  5
D65
100
AcDbEntity
  8
0
  6
BYBLOCK
 62
     0
100
AcDbLine
 10
12.100414
 20
15.22304
 30
0.0
 11
12.100414
 21
15.29054
 31
0.0
  0
LINE
  5
D66
100
AcDbEntity
  8
0
  6
BYBLOCK
 62
     0
100
AcDbLine
 10
12.100414
 20
15.29054
 30
0.0
 11
12.235414
 21
15.29054
 31
0.0
  0
SOLID
  5
D67
100
AcDbEntity
  8
0
  6
BYBLOCK
 62
     0
100
AcDbTrace
 10
12.077914
 20
14.65494
 30
0.0
 11
12.122914
 21
14.65494
 31
0.0
 12
12.100414
 22
14.78994
 32
0.0
 13
12.100414
 23
14.78994
 33
0.0
  0
SOLID
  5
D68
100
AcDbEntity
  8
0
  6
BYBLOCK
 62
     0
100
AcDbTrace
 10
12.077914
 20
15.22304
 30
0.0
 11
12.122914
 21
15.22304
 31
0.0
 12
12.100414
 22
15.08804
 32
0.0
 13
12.100414
 23
15.08804
 33
0.0
  0
MTEXT
  5
D69
100
AcDbEntity
  8
0
  6
BYBLOCK
 62
     0
100
AcDbMText
 10
13.056664
 20
15.29054
 30
0.0
 40
0.135
 41
0.0
 71
     5
 72
     1
  1
\A1;0.298"[7.57mm]
  0
POINT
  5
D6A
100
AcDbEntity
  8
DEFPOINTS
  6
BYBLOCK
 62
     0
100
AcDbPoint
 10
14.790719
 20
14.78994
 30
0.0
  0
POINT
  5
D6B
100
AcDbEntity
  8
DEFPOINTS
  6
BYBLOCK
 62
     0
100
AcDbPoint
 10
14.821215
 20
15.08804
 30
0.0
  0
POINT
  5
D6C
100
AcDbEntity
  8
DEFPOINTS
  6
BYBLOCK
 62
     0
100
AcDbPoint
 10
12.100414
 20
15.08804
 30
0.0
  0
ENDBLK
  5
D6D
100
AcDbEntity
  8
0
100
AcDbBlockEnd
  0
BLOCK
  5
D49
100
AcDbEntity
  8
0
100
AcDbBlockBegin
  2
*D6
 70
    65
 10
0.0
 20
0.0
 30
0.0
  3
*D6
  1
*TB
  0
LINE
  5
D4A
100
AcDbEntity
  8
0
  6
BYBLOCK
 62
     0
100
AcDbLine
 10
14.743844
 20
14.053745
 30
0.0
 11
7.344154
 21
14.053745
 31
0.0
  0
LINE
  5
D4B
100
AcDbEntity
  8
0
  6
BYBLOCK
 62
     0
100
AcDbLine
 10
14.77434
 20
15.08804
 30
0.0
 11
7.344154
 21
15.08804
 31
0.0
  0
LINE
  5
D4C
100
AcDbEntity
  8
0
  6
BYBLOCK
 62
     0
100
AcDbLine
 10
7.479154
 20
14.188745
 30
0.0
 11
7.479154
 21
14.256245
 31
0.0
  0
LINE
  5
D4D
100
AcDbEntity
  8
0
  6
BYBLOCK
 62
     0
100
AcDbLine
 10
7.479154
 20
14.95304
 30
0.0
 11
7.479154
 21
14.526245
 31
0.0
  0
SOLID
  5
D4E
100
AcDbEntity
  8
0
  6
BYBLOCK
 62
     0
100
AcDbTrace
 10
7.456654
 20
14.188745
 30
0.0
 11
7.501654
 21
14.188745
 31
0.0
 12
7.479154
 22
14.053745
 32
0.0
 13
7.479154
 23
14.053745
 33
0.0
  0
SOLID
  5
D4F
100
AcDbEntity
  8
0
  6
BYBLOCK
 62
     0
100
AcDbTrace
 10
7.456654
 20
14.95304
 30
0.0
 11
7.501654
 21
14.95304
 31
0.0
 12
7.479154
 22
15.08804
 32
0.0
 13
7.479154
 23
15.08804
 33
0.0
  0
MTEXT
  5
D50
100
AcDbEntity
  8
0
  6
BYBLOCK
 62
     0
100
AcDbMText
 10
7.479154
 20
14.391245
 30
0.0
 40
0.135
 41
0.0
 71
     5
 72
     1
  1
\A1;1.034"[26.27mm]
  0
POINT
  5
D51
100
AcDbEntity
  8
DEFPOINTS
  6
BYBLOCK
 62
     0
100
AcDbPoint
 10
14.790719
 20
14.053745
 30
0.0
  0
POINT
  5
D52
100
AcDbEntity
  8
DEFPOINTS
  6
BYBLOCK
 62
     0
100
AcDbPoint
 10
14.821215
 20
15.08804
 30
0.0
  0
POINT
  5
D53
100
AcDbEntity
  8
DEFPOINTS
  6
BYBLOCK
 62
     0
100
AcDbPoint
 10
7.479154
 20
15.08804
 30
0.0
  0
ENDBLK
  5
D54
100
AcDbEntity
  8
0
100
AcDbBlockEnd
  0
BLOCK
  5
83E
100
AcDbEntity
  8
0
100
AcDbBlockBegin
  2
*U7
 70
    65
 10
0.0
 20
0.0
 30
0.0
  3
*U7
  1
*TB
  0
POLYLINE
  5
83F
100
AcDbEntity
  8
FOOT
100
AcDb2dPolyline
 66
     1
 10
0.0
 20
0.0
 30
0.0
 70
     1
  0
VERTEX
  5
840
100
AcDbEntity
  8
FOOT
100
AcDbVertex
100
AcDb2dVertex
 10
0.0
 20
0.063
 30
0.0
 42
1.0
  0
VERTEX
  5
841
100
AcDbEntity
  8
FOOT
100
AcDbVertex
100
AcDb2dVertex
 10
0.0
 20
-0.063
 30
0.0
  0
VERTEX
  5
842
100
AcDbEntity
  8
FOOT
100
AcDbVertex
100
AcDb2dVertex
 10
0.185
 20
-0.063
 30
0.0
 42
1.0
  0
VERTEX
  5
843
100
AcDbEntity
  8
FOOT
100
AcDbVertex
100
AcDb2dVertex
 10
0.185
 20
0.063
 30
0.0
  0
SEQEND
  5
844
100
AcDbEntity
  8
FOOT
  0
LINE
  5
845
100
AcDbEntity
  8
CENTER
100
AcDbLine
 10
-0.021
 20
0.0
 30
0.0
 11
0.021
 21
0.0
 31
0.0
  0
LINE
  5
846
100
AcDbEntity
  8
CENTER
100
AcDbLine
 10
0.0
 20
-0.021
 30
0.0
 11
0.0
 21
0.021
 31
0.0
  0
LINE
  5
847
100
AcDbEntity
  8
CENTER
100
AcDbLine
 10
0.042
 20
0.0
 30
0.0
 11
0.188
 21
0.0
 31
0.0
  0
LINE
  5
848
100
AcDbEntity
  8
CENTER
100
AcDbLine
 10
0.0
 20
0.042
 30
0.0
 11
0.0
 21
0.188
 31
0.0
  0
LINE
  5
849
100
AcDbEntity
  8
CENTER
100
AcDbLine
 10
-0.042
 20
0.0
 30
0.0
 11
-0.188
 21
0.0
 31
0.0
  0
LINE
  5
84A
100
AcDbEntity
  8
CENTER
100
AcDbLine
 10
0.0
 20
-0.042
 30
0.0
 11
0.0
 21
-0.188
 31
0.0
  0
LINE
  5
84B
100
AcDbEntity
  8
CENTER
100
AcDbLine
 10
0.164
 20
0.0
 30
0.0
 11
0.206
 21
0.0
 31
0.0
  0
LINE
  5
84C
100
AcDbEntity
  8
CENTER
100
AcDbLine
 10
0.185
 20
-0.021
 30
0.0
 11
0.185
 21
0.021
 31
0.0
  0
LINE
  5
84D
100
AcDbEntity
  8
CENTER
100
AcDbLine
 10
0.227
 20
0.0
 30
0.0
 11
0.373
 21
0.0
 31
0.0
  0
LINE
  5
84E
100
AcDbEntity
  8
CENTER
100
AcDbLine
 10
0.185
 20
0.042
 30
0.0
 11
0.185
 21
0.188
 31
0.0
  0
LINE
  5
84F
100
AcDbEntity
  8
CENTER
100
AcDbLine
 10
0.143
 20
0.0
 30
0.0
 11
-0.003
 21
0.0
 31
0.0
  0
LINE
  5
850
100
AcDbEntity
  8
CENTER
100
AcDbLine
 10
0.185
 20
-0.042
 30
0.0
 11
0.185
 21
-0.188
 31
0.0
  0
ENDBLK
  5
851
100
AcDbEntity
  8
0
100
AcDbBlockEnd
  0
BLOCK
  5
F68
100
AcDbEntity
  8
0
100
AcDbBlockBegin
  2
*D8
 70
    65
 10
0.0
 20
0.0
 30
0.0
  3
*D8
  1
*TB
  0
LINE
  5
F69
100
AcDbEntity
  8
0
  6
BYBLOCK
 62
     0
100
AcDbLine
 10
15.363142
 20
14.809686
 30
0.0
 11
20.224757
 21
14.809686
 31
0.0
  0
LINE
  5
F6A
100
AcDbEntity
  8
0
  6
BYBLOCK
 62
     0
100
AcDbLine
 10
17.550312
 20
15.08804
 30
0.0
 11
20.224757
 21
15.08804
 31
0.0
  0
LINE
  5
F6B
100
AcDbEntity
  8
0
  6
BYBLOCK
 62
     0
100
AcDbLine
 10
20.089757
 20
14.674686
 30
0.0
 11
20.089757
 21
14.539686
 31
0.0
  0
LINE
  5
F6C
100
AcDbEntity
  8
0
  6
BYBLOCK
 62
     0
100
AcDbLine
 10
20.089757
 20
15.22304
 30
0.0
 11
20.089757
 21
15.35804
 31
0.0
  0
LINE
  5
F6D
100
AcDbEntity
  8
0
  6
BYBLOCK
 62
     0
100
AcDbLine
 10
20.089757
 20
15.35804
 30
0.0
 11
20.224757
 21
15.35804
 31
0.0
  0
SOLID
  5
F6E
100
AcDbEntity
  8
0
  6
BYBLOCK
 62
     0
100
AcDbTrace
 10
20.067257
 20
14.674686
 30
0.0
 11
20.112257
 21
14.674686
 31
0.0
 12
20.089757
 22
14.809686
 32
0.0
 13
20.089757
 23
14.809686
 33
0.0
  0
SOLID
  5
F6F
100
AcDbEntity
  8
0
  6
BYBLOCK
 62
     0
100
AcDbTrace
 10
20.067257
 20
15.22304
 30
0.0
 11
20.112257
 21
15.22304
 31
0.0
 12
20.089757
 22
15.08804
 32
0.0
 13
20.089757
 23
15.08804
 33
0.0
  0
MTEXT
  5
F70
100
AcDbEntity
  8
0
  6
BYBLOCK
 62
     0
100
AcDbMText
 10
21.034757
 20
15.35804
 30
0.0
 40
0.135
 41
0.0
 71
     5
 72
     1
  1
\A1;0.278"[7.07mm]
  0
POINT
  5
F71
100
AcDbEntity
  8
DEFPOINTS
  6
BYBLOCK
 62
     0
100
AcDbPoint
 10
15.316267
 20
14.809686
 30
0.0
  0
POINT
  5
F72
100
AcDbEntity
  8
DEFPOINTS
  6
BYBLOCK
 62
     0
100
AcDbPoint
 10
17.503437
 20
15.08804
 30
0.0
  0
POINT
  5
F73
100
AcDbEntity
  8
DEFPOINTS
  6
BYBLOCK
 62
     0
100
AcDbPoint
 10
20.089757
 20
15.08804
 30
0.0
  0
ENDBLK
  5
F74
100
AcDbEntity
  8
0
100
AcDbBlockEnd
  0
BLOCK
  5
F5C
100
AcDbEntity
  8
0
100
AcDbBlockBegin
  2
*D9
 70
    65
 10
0.0
 20
0.0
 30
0.0
  3
*D9
  1
*TB
  0
LINE
  5
F5D
100
AcDbEntity
  8
0
  6
BYBLOCK
 62
     0
100
AcDbLine
 10
15.400107
 20
14.07349
 30
0.0
 11
23.408471
 21
14.07349
 31
0.0
  0
LINE
  5
F5E
100
AcDbEntity
  8
0
  6
BYBLOCK
 62
     0
100
AcDbLine
 10
17.550312
 20
15.08804
 30
0.0
 11
23.408471
 21
15.08804
 31
0.0
  0
LINE
  5
F5F
100
AcDbEntity
  8
0
  6
BYBLOCK
 62
     0
100
AcDbLine
 10
23.273471
 20
14.20849
 30
0.0
 11
23.273471
 21
14.445765
 31
0.0
  0
LINE
  5
F60
100
AcDbEntity
  8
0
  6
BYBLOCK
 62
     0
100
AcDbLine
 10
23.273471
 20
14.95304
 30
0.0
 11
23.273471
 21
14.715765
 31
0.0
  0
SOLID
  5
F61
100
AcDbEntity
  8
0
  6
BYBLOCK
 62
     0
100
AcDbTrace
 10
23.250971
 20
14.20849
 30
0.0
 11
23.295971
 21
14.20849
 31
0.0
 12
23.273471
 22
14.07349
 32
0.0
 13
23.273471
 23
14.07349
 33
0.0
  0
SOLID
  5
F62
100
AcDbEntity
  8
0
  6
BYBLOCK
 62
     0
100
AcDbTrace
 10
23.250971
 20
14.95304
 30
0.0
 11
23.295971
 21
14.95304
 31
0.0
 12
23.273471
 22
15.08804
 32
0.0
 13
23.273471
 23
15.08804
 33
0.0
  0
MTEXT
  5
F63
100
AcDbEntity
  8
0
  6
BYBLOCK
 62
     0
100
AcDbMText
 10
23.273471
 20
14.580765
 30
0.0
 40
0.135
 41
0.0
 71
     5
 72
     1
  1
\A1;1.015"[25.77mm]
  0
POINT
  5
F64
100
AcDbEntity
  8
DEFPOINTS
  6
BYBLOCK
 62
     0
100
AcDbPoint
 10
15.353232
 20
14.07349
 30
0.0
  0
POINT
  5
F65
100
AcDbEntity
  8
DEFPOINTS
  6
BYBLOCK
 62
     0
100
AcDbPoint
 10
17.503437
 20
15.08804
 30
0.0
  0
POINT
  5
F66
100
AcDbEntity
  8
DEFPOINTS
  6
BYBLOCK
 62
     0
100
AcDbPoint
 10
23.273471
 20
15.08804
 30
0.0
  0
ENDBLK
  5
F67
100
AcDbEntity
  8
0
100
AcDbBlockEnd
  0
BLOCK
  5
E9C
100
AcDbEntity
  8
0
100
AcDbBlockBegin
  2
*D10
 70
    65
 10
0.0
 20
0.0
 30
0.0
  3
*D10
  1
*TB
  0
LINE
  5
E9D
100
AcDbEntity
  8
0
  6
BYBLOCK
 62
     0
100
AcDbLine
 10
15.363142
 20
14.07349
 30
0.0
 11
19.738835
 21
14.07349
 31
0.0
  0
LINE
  5
E9E
100
AcDbEntity
  8
0
  6
BYBLOCK
 62
     0
100
AcDbLine
 10
15.363142
 20
13.84899
 30
0.0
 11
19.738835
 21
13.84899
 31
0.0
  0
LINE
  5
E9F
100
AcDbEntity
  8
0
  6
BYBLOCK
 62
     0
100
AcDbLine
 10
19.603835
 20
14.20849
 30
0.0
 11
19.603835
 21
14.34349
 31
0.0
  0
LINE
  5
EA0
100
AcDbEntity
  8
0
  6
BYBLOCK
 62
     0
100
AcDbLine
 10
19.603835
 20
13.71399
 30
0.0
 11
19.603835
 21
13.254718
 31
0.0
  0
LINE
  5
EA1
100
AcDbEntity
  8
0
  6
BYBLOCK
 62
     0
100
AcDbLine
 10
19.603835
 20
13.254718
 30
0.0
 11
19.468835
 21
13.254718
 31
0.0
  0
SOLID
  5
EA2
100
AcDbEntity
  8
0
  6
BYBLOCK
 62
     0
100
AcDbTrace
 10
19.581335
 20
14.20849
 30
0.0
 11
19.626335
 21
14.20849
 31
0.0
 12
19.603835
 22
14.07349
 32
0.0
 13
19.603835
 23
14.07349
 33
0.0
  0
SOLID
  5
EA3
100
AcDbEntity
  8
0
  6
BYBLOCK
 62
     0
100
AcDbTrace
 10
19.581335
 20
13.71399
 30
0.0
 11
19.626335
 21
13.71399
 31
0.0
 12
19.603835
 22
13.84899
 32
0.0
 13
19.603835
 23
13.84899
 33
0.0
  0
MTEXT
  5
EA4
100
AcDbEntity
  8
0
  6
BYBLOCK
 62
     0
100
AcDbMText
 10
18.658835
 20
13.254718
 30
0.0
 40
0.135
 41
0.0
 71
     5
 72
     1
  1
\A1;{0.224"[5.70mm]}\P{2X}
  0
POINT
  5
EA5
100
AcDbEntity
  8
DEFPOINTS
  6
BYBLOCK
 62
     0
100
AcDbPoint
 10
15.316267
 20
14.07349
 30
0.0
  0
POINT
  5
EA6
100
AcDbEntity
  8
DEFPOINTS
  6
BYBLOCK
 62
     0
100
AcDbPoint
 10
15.316267
 20
13.84899
 30
0.0
  0
POINT
  5
EA7
100
AcDbEntity
  8
DEFPOINTS
  6
BYBLOCK
 62
     0
100
AcDbPoint
 10
19.603835
 20
13.84899
 30
0.0
  0
ENDBLK
  5
EA8
100
AcDbEntity
  8
0
100
AcDbBlockEnd
  0
BLOCK
  5
987
100
AcDbEntity
  8
0
100
AcDbBlockBegin
  2
*U11
 70
    65
 10
0.0
 20
0.0
 30
0.0
  3
*U11
  1
*TB
  0
CIRCLE
  5
988
100
AcDbEntity
  8
FOOT
100
AcDbCircle
 10
0.0
 20
0.0
 30
0.0
 40
0.046875
  0
LINE
  5
989
100
AcDbEntity
  8
CENTER
100
AcDbLine
 10
-0.015625
 20
0.0
 30
0.0
 11
0.015625
 21
0.0
 31
0.0
  0
LINE
  5
98A
100
AcDbEntity
  8
CENTER
100
AcDbLine
 10
0.0
 20
-0.015625
 30
0.0
 11
0.0
 21
0.015625
 31
0.0
  0
LINE
  5
98B
100
AcDbEntity
  8
CENTER
100
AcDbLine
 10
0.03125
 20
0.0
 30
0.0
 11
0.171875
 21
0.0
 31
0.0
  0
LINE
  5
98C
100
AcDbEntity
  8
CENTER
100
AcDbLine
 10
0.0
 20
0.03125
 30
0.0
 11
0.0
 21
0.171875
 31
0.0
  0
LINE
  5
98D
100
AcDbEntity
  8
CENTER
100
AcDbLine
 10
-0.03125
 20
0.0
 30
0.0
 11
-0.171875
 21
0.0
 31
0.0
  0
LINE
  5
98E
100
AcDbEntity
  8
CENTER
100
AcDbLine
 10
0.0
 20
-0.03125
 30
0.0
 11
0.0
 21
-0.171875
 31
0.0
  0
ENDBLK
  5
98F
100
AcDbEntity
  8
0
100
AcDbBlockEnd
  0
BLOCK
  5
993
100
AcDbEntity
  8
0
100
AcDbBlockBegin
  2
*U12
 70
    65
 10
0.0
 20
0.0
 30
0.0
  3
*U12
  1
*TB
  0
CIRCLE
  5
994
100
AcDbEntity
  8
FOOT
100
AcDbCircle
 10
0.0
 20
0.0
 30
0.0
 40
0.058
  0
LINE
  5
995
100
AcDbEntity
  8
CENTER
100
AcDbLine
 10
-0.019333
 20
0.0
 30
0.0
 11
0.019333
 21
0.0
 31
0.0
  0
LINE
  5
996
100
AcDbEntity
  8
CENTER
100
AcDbLine
 10
0.0
 20
-0.019333
 30
0.0
 11
0.0
 21
0.019333
 31
0.0
  0
LINE
  5
997
100
AcDbEntity
  8
CENTER
100
AcDbLine
 10
0.038667
 20
0.0
 30
0.0
 11
0.183
 21
0.0
 31
0.0
  0
LINE
  5
998
100
AcDbEntity
  8
CENTER
100
AcDbLine
 10
0.0
 20
0.038667
 30
0.0
 11
0.0
 21
0.183
 31
0.0
  0
LINE
  5
999
100
AcDbEntity
  8
CENTER
100
AcDbLine
 10
-0.038667
 20
0.0
 30
0.0
 11
-0.183
 21
0.0
 31
0.0
  0
LINE
  5
99A
100
AcDbEntity
  8
CENTER
100
AcDbLine
 10
0.0
 20
-0.038667
 30
0.0
 11
0.0
 21
-0.183
 31
0.0
  0
ENDBLK
  5
99B
100
AcDbEntity
  8
0
100
AcDbBlockEnd
  0
BLOCK
  5
D55
100
AcDbEntity
  8
0
100
AcDbBlockBegin
  2
*D13
 70
    65
 10
0.0
 20
0.0
 30
0.0
  3
*D13
  1
*TB
  0
LINE
  5
D56
100
AcDbEntity
  8
0
  6
BYBLOCK
 62
     0
100
AcDbLine
 10
14.77434
 20
15.08804
 30
0.0
 11
10.19863
 21
15.08804
 31
0.0
  0
LINE
  5
D57
100
AcDbEntity
  8
0
  6
BYBLOCK
 62
     0
100
AcDbLine
 10
15.102451
 20
14.32719
 30
0.0
 11
10.19863
 21
14.32719
 31
0.0
  0
LINE
  5
D58
100
AcDbEntity
  8
0
  6
BYBLOCK
 62
     0
100
AcDbLine
 10
10.33363
 20
14.95304
 30
0.0
 11
10.33363
 21
14.842615
 31
0.0
  0
LINE
  5
D59
100
AcDbEntity
  8
0
  6
BYBLOCK
 62
     0
100
AcDbLine
 10
10.33363
 20
14.46219
 30
0.0
 11
10.33363
 21
14.572615
 31
0.0
  0
SOLID
  5
D5A
100
AcDbEntity
  8
0
  6
BYBLOCK
 62
     0
100
AcDbTrace
 10
10.31113
 20
14.95304
 30
0.0
 11
10.35613
 21
14.95304
 31
0.0
 12
10.33363
 22
15.08804
 32
0.0
 13
10.33363
 23
15.08804
 33
0.0
  0
SOLID
  5
D5B
100
AcDbEntity
  8
0
  6
BYBLOCK
 62
     0
100
AcDbTrace
 10
10.31113
 20
14.46219
 30
0.0
 11
10.35613
 21
14.46219
 31
0.0
 12
10.33363
 22
14.32719
 32
0.0
 13
10.33363
 23
14.32719
 33
0.0
  0
MTEXT
  5
D5C
100
AcDbEntity
  8
0
  6
BYBLOCK
 62
     0
100
AcDbMText
 10
10.33363
 20
14.707615
 30
0.0
 40
0.135
 41
0.0
 71
     5
 72
     1
  1
\A1;0.761"±0.001"[19.33mm±0.03mm]
  0
POINT
  5
D5D
100
AcDbEntity
  8
DEFPOINTS
  6
BYBLOCK
 62
     0
100
AcDbPoint
 10
14.821215
 20
15.08804
 30
0.0
  0
POINT
  5
D5E
100
AcDbEntity
  8
DEFPOINTS
  6
BYBLOCK
 62
     0
100
AcDbPoint
 10
15.149326
 20
14.32719
 30
0.0
  0
POINT
  5
D5F
100
AcDbEntity
  8
DEFPOINTS
  6
BYBLOCK
 62
     0
100
AcDbPoint
 10
10.33363
 20
14.32719
 30
0.0
  0
ENDBLK
  5
D60
100
AcDbEntity
  8
0
100
AcDbBlockEnd
  0
BLOCK
  5
D46
100
AcDbEntity
  8
TEXT
100
AcDbBlockBegin
  2
D-BORDER
 70
     0
 10
0.0
 20
0.0
 30
0.0
  3
D-BORDER
  1

  0
LINE
  5
D04
100
AcDbEntity
  8
TEXT
100
AcDbLine
 10
1.0
 20
19.947595
 30
0.0
 11
3.5625
 21
19.947595
 31
0.0
  0
LINE
  5
D05
100
AcDbEntity
  8
TEXT
100
AcDbLine
 10
3.5625
 20
19.947595
 30
0.0
 11
3.5625
 21
20.447595
 31
0.0
  0
CIRCLE
  5
D06
100
AcDbEntity
  8
TEXT
100
AcDbCircle
 10
1.677871
 20
20.184056
 30
0.0
 40
0.1875
  0
CIRCLE
  5
D07
100
AcDbEntity
  8
TEXT
100
AcDbCircle
 10
1.677871
 20
20.184056
 30
0.0
 40
0.09375
  0
LINE
  5
D08
100
AcDbEntity
  8
TEXT
  6
CENTER
100
AcDbLine
 10
1.443951
 20
20.184056
 30
0.0
 11
2.896621
 21
20.184056
 31
0.0
  0
LINE
  5
D09
100
AcDbEntity
  8
TEXT
  6
CENTER
100
AcDbLine
 10
1.677871
 20
19.955375
 30
0.0
 11
1.677871
 21
20.423251
 31
0.0
  0
LINE
  5
D0A
100
AcDbEntity
  8
TEXT
100
AcDbLine
 10
2.146621
 20
20.277806
 30
0.0
 11
2.631263
 21
20.371556
 31
0.0
  0
LINE
  5
D0B
100
AcDbEntity
  8
TEXT
100
AcDbLine
 10
2.146621
 20
20.090306
 30
0.0
 11
2.631263
 21
19.996556
 31
0.0
  0
LINE
  5
D0C
100
AcDbEntity
  8
TEXT
100
AcDbLine
 10
2.146621
 20
20.090306
 30
0.0
 11
2.146621
 21
20.277806
 31
0.0
  0
LINE
  5
D0D
100
AcDbEntity
  8
TEXT
100
AcDbLine
 10
2.631263
 20
20.371556
 30
0.0
 11
2.631263
 21
19.996556
 31
0.0
  0
TEXT
  5
D0E
100
AcDbEntity
  8
TEXT
100
AcDbText
 10
1.1875
 20
19.762423
 30
0.0
 40
0.1
  1
THIRD ANGLE PROJECTION
100
AcDbText
  0
LINE
  5
D0F
100
AcDbEntity
  8
TEXT
100
AcDbLine
 10
3.5625
 20
19.947595
 30
0.0
 11
3.5625
 21
19.697595
 31
0.0
  0
LINE
  5
D10
100
AcDbEntity
  8
TEXT
100
AcDbLine
 10
3.5625
 20
19.697595
 30
0.0
 11
1.0
 21
19.697595
 31
0.0
  0
TEXT
  5
D11
100
AcDbEntity
  8
TEXT
100
AcDbText
 10
31.135292
 20
0.744377
 30
0.0
 40
0.065
  1
OF
  7
ADESK2
100
AcDbText
  0
TEXT
  5
D12
100
AcDbEntity
  8
TEXT
100
AcDbText
 10
27.375724
 20
1.474951
 30
0.0
 40
0.065
  1
DATE
  7
ADESK2
100
AcDbText
  0
LINE
  5
D13
100
AcDbEntity
  8
TEXT
100
AcDbLine
 10
27.252305
 20
1.591501
 30
0.0
 11
27.252305
 21
0.625
 31
0.0
  0
TEXT
  5
D14
100
AcDbEntity
  8
TEXT
100
AcDbText
 10
25.832321
 20
0.856501
 30
0.0
 40
0.065
  1
DESIGN
  7
ADESK2
100
AcDbText
  0
TEXT
  5
D15
100
AcDbEntity
  8
TEXT
100
AcDbText
 10
25.832321
 20
1.171501
 30
0.0
 40
0.065
  1
CHECKED
  7
ADESK2
100
AcDbText
  0
LINE
  5
D16
100
AcDbEntity
  8
TEXT
100
AcDbLine
 10
25.752321
 20
1.591501
 30
0.0
 11
27.752321
 21
1.591501
 31
0.0
  0
TEXT
  5
D17
100
AcDbEntity
  8
TEXT
100
AcDbText
 10
31.234702
 20
19.965196
 30
0.0
 40
0.065
  1
APPROVED
  7
ADESK2
100
AcDbText
  0
TEXT
  5
D18
100
AcDbEntity
  8
TEXT
100
AcDbText
 10
30.441002
 20
19.965196
 30
0.0
 40
0.065
  1
DATE
  7
ADESK2
100
AcDbText
  0
TEXT
  5
D19
100
AcDbEntity
  8
TEXT
100
AcDbText
 10
28.375302
 20
19.965196
 30
0.0
 40
0.065
  1
DESCRIPTION
  7
ADESK2
100
AcDbText
  0
TEXT
  5
D1A
100
AcDbEntity
  8
TEXT
100
AcDbText
 10
27.073402
 20
19.965196
 30
0.0
 40
0.065
  1
REV
  7
ADESK2
100
AcDbText
  0
TEXT
  5
D1B
100
AcDbEntity
  8
TEXT
100
AcDbText
 10
29.203502
 20
20.207396
 30
0.0
 40
0.065
  1
REVISIONS
  7
ADESK2
100
AcDbText
  0
LINE
  5
D1C
100
AcDbEntity
  8
TEXT
100
AcDbLine
 10
30.993302
 20
19.874896
 30
0.0
 11
30.993302
 21
20.124896
 31
0.0
  0
LINE
  5
D1D
100
AcDbEntity
  8
TEXT
100
AcDbLine
 10
30.113302
 20
19.874896
 30
0.0
 11
30.113302
 21
20.124896
 31
0.0
  0
LINE
  5
D1E
100
AcDbEntity
  8
TEXT
100
AcDbLine
 10
27.373302
 20
19.874896
 30
0.0
 11
27.373302
 21
20.124896
 31
0.0
  0
LINE
  5
D1F
100
AcDbEntity
  8
TEXT
100
AcDbLine
 10
26.983049
 20
20.434959
 30
0.0
 11
26.983049
 21
19.874896
 31
0.0
  0
LINE
  5
D20
100
AcDbEntity
  8
TEXT
100
AcDbLine
 10
26.983049
 20
19.874896
 30
0.0
 11
32.037356
 21
19.874896
 31
0.0
  0
LINE
  5
D21
100
AcDbEntity
  8
TEXT
100
AcDbLine
 10
26.983049
 20
20.124896
 30
0.0
 11
32.037356
 21
20.124896
 31
0.0
  0
TEXT
  5
D22
100
AcDbEntity
  8
TEXT
100
AcDbText
 10
31.702821
 20
1.167401
 30
0.0
 40
0.065
  1
REV
  7
ADESK2
100
AcDbText
  0
TEXT
  5
D23
100
AcDbEntity
  8
TEXT
100
AcDbText
 10
29.323321
 20
1.167401
 30
0.0
 40
0.065
  1
DWG NO.
  7
ADESK2
100
AcDbText
  0
TEXT
  5
D24
100
AcDbEntity
  8
TEXT
100
AcDbText
 10
27.840221
 20
1.167401
 30
0.0
 40
0.065
  1
SIZE
  7
ADESK2
100
AcDbText
  0
TEXT
  5
D25
100
AcDbEntity
  8
TEXT
100
AcDbText
 10
30.305121
 20
0.744001
 30
0.0
 40
0.065
  1
SHEET
  7
ADESK2
100
AcDbText
  0
TEXT
  5
D26
100
AcDbEntity
  8
TEXT
100
AcDbText
 10
27.804621
 20
0.744001
 30
0.0
 40
0.065
  1
SCALE
  7
ADESK2
100
AcDbText
  0
LINE
  5
D27
100
AcDbEntity
  8
TEXT
100
AcDbLine
 10
31.622321
 20
0.901501
 30
0.0
 11
31.622321
 21
1.281501
 31
0.0
  0
LINE
  5
D28
100
AcDbEntity
  8
TEXT
100
AcDbLine
 10
29.252321
 20
0.901501
 30
0.0
 11
29.252321
 21
1.281501
 31
0.0
  0
LINE
  5
D29
100
AcDbEntity
  8
TEXT
100
AcDbLine
 10
28.132321
 20
0.901501
 30
0.0
 11
28.132321
 21
1.281501
 31
0.0
  0
LINE
  5
D2A
100
AcDbEntity
  8
TEXT
100
AcDbLine
 10
30.252321
 20
0.625
 30
0.0
 11
30.252321
 21
0.901501
 31
0.0
  0
LINE
  5
D2B
100
AcDbEntity
  8
TEXT
100
AcDbLine
 10
28.752321
 20
0.625
 30
0.0
 11
28.752321
 21
0.901501
 31
0.0
  0
LINE
  5
D2C
100
AcDbEntity
  8
BORDER
100
AcDbLine
 10
27.752321
 20
0.625
 30
0.0
 11
27.752321
 21
2.401501
 31
0.0
  0
LINE
  5
D2D
100
AcDbEntity
  8
BORDER
100
AcDbLine
 10
27.752321
 20
1.901501
 30
0.0
 11
32.024118
 21
1.901501
 31
0.0
  0
LINE
  5
D2E
100
AcDbEntity
  8
TEXT
100
AcDbLine
 10
27.752321
 20
0.901501
 30
0.0
 11
32.024118
 21
0.901501
 31
0.0
  0
LINE
  5
D2F
100
AcDbEntity
  8
TEXT
100
AcDbLine
 10
25.752321
 20
1.281501
 30
0.0
 11
32.024118
 21
1.281501
 31
0.0
  0
LINE
  5
D30
100
AcDbEntity
  8
TEXT
100
AcDbLine
 10
25.752321
 20
0.966501
 30
0.0
 11
27.752321
 21
0.966501
 31
0.0
  0
LINE
  5
D31
100
AcDbEntity
  8
BORDER
100
AcDbLine
 10
25.752321
 20
2.401501
 30
0.0
 11
32.024118
 21
2.401501
 31
0.0
  0
LINE
  5
D32
100
AcDbEntity
  8
BORDER
100
AcDbLine
 10
25.752321
 20
0.625
 30
0.0
 11
25.752321
 21
2.824147
 31
0.0
  0
TEXT
  5
D33
100
AcDbEntity
  8
TEXT
100
AcDbText
 10
25.820631
 20
1.479964
 30
0.0
 40
0.065
  1
DRAWN
  7
ADESK2
100
AcDbText
  0
TEXT
  5
D34
100
AcDbEntity
  8
BORDER
100
AcDbText
 10
25.930285
 20
2.549228
 30
0.0
 40
0.15
  1
UNIVERSITY OF CALIFORNIA @ SANTA BARBARA
100
AcDbText
  0
LINE
  5
D35
100
AcDbEntity
  8
BORDER
100
AcDbLine
 10
25.75128
 20
2.824147
 30
0.0
 11
32.024118
 21
2.824147
 31
0.0
  0
LINE
  5
D36
100
AcDbEntity
  8
BORDER
100
AcDbLine
 10
32.04642
 20
0.625
 30
0.0
 11
32.04642
 21
20.447595
 31
0.0
  0
LINE
  5
D37
100
AcDbEntity
  8
BORDER
100
AcDbLine
 10
1.0
 20
20.447595
 30
0.0
 11
1.0
 21
0.625
 31
0.0
  0
LINE
  5
D38
100
AcDbEntity
  8
BORDER
100
AcDbLine
 10
1.0
 20
0.625
 30
0.0
 11
32.04642
 21
0.625
 31
0.0
  0
TEXT
  5
D39
100
AcDbEntity
  8
TEXT
100
AcDbText
 10
28.203393
 20
1.165354
 30
0.0
 40
0.075
  1
DIRECTORY
100
AcDbText
  0
LINE
  5
D3A
100
AcDbEntity
  8
BORDER
100
AcDbLine
 10
1.0
 20
20.447595
 30
0.0
 11
32.04642
 21
20.447595
 31
0.0
  0
TEXT
  5
D3B
100
AcDbEntity
  8
BORDER
100
AcDbText
 10
28.439864
 20
2.075566
 30
0.0
 40
0.15
  1
HIGH ENERGY PHYSICS
100
AcDbText
  0
TEXT
  5
D3C
100
AcDbEntity
  8
BORDER
100
AcDbText
 10
27.876167
 20
0.934778
 30
0.0
 40
0.2
  1
D
100
AcDbText
  0
TEXT
  5
D3D
100
AcDbEntity
  8
TEXT
100
AcDbText
 10
25.981606
 20
2.285089
 30
0.0
 40
0.065
  1
UNLESS OTHERWISE SPECIFIED:
  7
ADESK2
 72
     1
 11
26.752321
 21
2.285089
 31
0.0
100
AcDbText
  0
TEXT
  5
D3E
100
AcDbEntity
  8
TEXT
100
AcDbText
 10
26.055892
 20
2.179851
 30
0.0
 40
0.065
  1
DIMENSIONS ARE IN INCHES
  7
ADESK2
 72
     1
 11
26.752321
 21
2.179851
 31
0.0
100
AcDbText
  0
TEXT
  5
D3F
100
AcDbEntity
  8
TEXT
100
AcDbText
 10
26.45363
 20
2.074613
 30
0.0
 40
0.065
  1
TOLERANCES
  7
ADESK2
 72
     1
 11
26.752321
 21
2.074613
 31
0.0
100
AcDbText
  0
TEXT
  5
D40
100
AcDbEntity
  8
TEXT
100
AcDbText
 10
26.067279
 20
1.966743
 30
0.0
 40
0.065
  1
DECIMALS
  7
ADESK2
100
AcDbText
  0
TEXT
  5
D41
100
AcDbEntity
  8
TEXT
100
AcDbText
 10
26.067279
 20
1.861505
 30
0.0
 40
0.065
  1
.XX  %%P .05
  7
ADESK2
100
AcDbText
  0
TEXT
  5
D42
100
AcDbEntity
  8
TEXT
100
AcDbText
 10
26.067279
 20
1.756267
 30
0.0
 40
0.065
  1
.XXX %%P .005
  7
ADESK2
100
AcDbText
  0
TEXT
  5
D43
100
AcDbEntity
  8
TEXT
100
AcDbText
 10
26.137916
 20
1.653744
 30
0.0
 40
0.065
  1
DO NOT SCALE DRAWING
  7
ADESK2
 72
     1
 11
26.752321
 21
1.653744
 31
0.0
100
AcDbText
  0
TEXT
  5
D44
100
AcDbEntity
  8
TEXT
100
AcDbText
 10
26.931176
 20
1.966743
 30
0.0
 40
0.065
  1
ANGULAR
  7
ADESK2
100
AcDbText
  0
TEXT
  5
D45
100
AcDbEntity
  8
TEXT
100
AcDbText
 10
26.931176
 20
1.861505
 30
0.0
 40
0.065
  1
  %%P 0.5%%D
  7
ADESK2
100
AcDbText
  0
ENDBLK
  5
D47
100
AcDbEntity
  8
TEXT
100
AcDbBlockEnd
  0
BLOCK
  5
EA9
100
AcDbEntity
  8
0
100
AcDbBlockBegin
  2
*D15
 70
    65
 10
0.0
 20
0.0
 30
0.0
  3
*D15
  1
*TB
  0
LINE
  5
EAA
100
AcDbEntity
  8
0
  6
BYBLOCK
 62
     0
100
AcDbLine
 10
14.75169
 20
14.05374
 30
0.0
 11
12.191048
 21
14.05374
 31
0.0
  0
LINE
  5
EAB
100
AcDbEntity
  8
0
  6
BYBLOCK
 62
     0
100
AcDbLine
 10
14.75169
 20
13.86874
 30
0.0
 11
12.191048
 21
13.86874
 31
0.0
  0
LINE
  5
EAC
100
AcDbEntity
  8
0
  6
BYBLOCK
 62
     0
100
AcDbLine
 10
12.326048
 20
14.18874
 30
0.0
 11
12.326048
 21
14.32374
 31
0.0
  0
LINE
  5
EAD
100
AcDbEntity
  8
0
  6
BYBLOCK
 62
     0
100
AcDbLine
 10
12.326048
 20
13.73374
 30
0.0
 11
12.326048
 21
13.59874
 31
0.0
  0
LINE
  5
EAE
100
AcDbEntity
  8
0
  6
BYBLOCK
 62
     0
100
AcDbLine
 10
12.326048
 20
13.59874
 30
0.0
 11
12.191048
 21
13.59874
 31
0.0
  0
SOLID
  5
EAF
100
AcDbEntity
  8
0
  6
BYBLOCK
 62
     0
100
AcDbTrace
 10
12.303548
 20
14.18874
 30
0.0
 11
12.348548
 21
14.18874
 31
0.0
 12
12.326048
 22
14.05374
 32
0.0
 13
12.326048
 23
14.05374
 33
0.0
  0
SOLID
  5
EB0
100
AcDbEntity
  8
0
  6
BYBLOCK
 62
     0
100
AcDbTrace
 10
12.303548
 20
13.73374
 30
0.0
 11
12.348548
 21
13.73374
 31
0.0
 12
12.326048
 22
13.86874
 32
0.0
 13
12.326048
 23
13.86874
 33
0.0
  0
MTEXT
  5
EB1
100
AcDbEntity
  8
0
  6
BYBLOCK
 62
     0
100
AcDbMText
 10
11.403548
 20
13.59874
 30
0.0
 40
0.135
 41
0.0
 71
     5
 72
     1
  1
\A1;{0.185"[4.70mm]}\P{2X}
  0
POINT
  5
EB2
100
AcDbEntity
  8
DEFPOINTS
  6
BYBLOCK
 62
     0
100
AcDbPoint
 10
14.798565
 20
14.05374
 30
0.0
  0
POINT
  5
EB3
100
AcDbEntity
  8
DEFPOINTS
  6
BYBLOCK
 62
     0
100
AcDbPoint
 10
14.798565
 20
13.86874
 30
0.0
  0
POINT
  5
EB4
100
AcDbEntity
  8
DEFPOINTS
  6
BYBLOCK
 62
     0
100
AcDbPoint
 10
12.326048
 20
13.86874
 30
0.0
  0
ENDBLK
  5
EB5
100
AcDbEntity
  8
0
100
AcDbBlockEnd
  0
BLOCK
  5
F4F
100
AcDbEntity
  8
0
100
AcDbBlockBegin
  2
*D16
 70
    65
 10
0.0
 20
0.0
 30
0.0
  3
*D16
  1
*TB
  0
LINE
  5
F50
100
AcDbEntity
  8
0
  6
BYBLOCK
 62
     0
100
AcDbLine
 10
17.357545
 20
14.722869
 30
0.0
 11
22.071776
 21
14.722869
 31
0.0
  0
LINE
  5
F51
100
AcDbEntity
  8
0
  6
BYBLOCK
 62
     0
100
AcDbLine
 10
17.550312
 20
15.08804
 30
0.0
 11
22.071776
 21
15.08804
 31
0.0
  0
LINE
  5
F52
100
AcDbEntity
  8
0
  6
BYBLOCK
 62
     0
100
AcDbLine
 10
21.936776
 20
14.587869
 30
0.0
 11
21.936776
 21
14.452869
 31
0.0
  0
LINE
  5
F53
100
AcDbEntity
  8
0
  6
BYBLOCK
 62
     0
100
AcDbLine
 10
21.936776
 20
15.22304
 30
0.0
 11
21.936776
 21
15.35804
 31
0.0
  0
LINE
  5
F54
100
AcDbEntity
  8
0
  6
BYBLOCK
 62
     0
100
AcDbLine
 10
21.936776
 20
15.35804
 30
0.0
 11
22.071776
 21
15.35804
 31
0.0
  0
SOLID
  5
F55
100
AcDbEntity
  8
0
  6
BYBLOCK
 62
     0
100
AcDbTrace
 10
21.914276
 20
14.587869
 30
0.0
 11
21.959276
 21
14.587869
 31
0.0
 12
21.936776
 22
14.722869
 32
0.0
 13
21.936776
 23
14.722869
 33
0.0
  0
SOLID
  5
F56
100
AcDbEntity
  8
0
  6
BYBLOCK
 62
     0
100
AcDbTrace
 10
21.914276
 20
15.22304
 30
0.0
 11
21.959276
 21
15.22304
 31
0.0
 12
21.936776
 22
15.08804
 32
0.0
 13
21.936776
 23
15.08804
 33
0.0
  0
MTEXT
  5
F57
100
AcDbEntity
  8
0
  6
BYBLOCK
 62
     0
100
AcDbMText
 10
22.893026
 20
15.35804
 30
0.0
 40
0.135
 41
0.0
 71
     5
 72
     1
  1
\A1;0.365"[9.28mm]
  0
POINT
  5
F58
100
AcDbEntity
  8
DEFPOINTS
  6
BYBLOCK
 62
     0
100
AcDbPoint
 10
17.31067
 20
14.722869
 30
0.0
  0
POINT
  5
F59
100
AcDbEntity
  8
DEFPOINTS
  6
BYBLOCK
 62
     0
100
AcDbPoint
 10
17.503437
 20
15.08804
 30
0.0
  0
POINT
  5
F5A
100
AcDbEntity
  8
DEFPOINTS
  6
BYBLOCK
 62
     0
100
AcDbPoint
 10
21.936776
 20
15.08804
 30
0.0
  0
ENDBLK
  5
F5B
100
AcDbEntity
  8
0
100
AcDbBlockEnd
  0
BLOCK
  5
F43
100
AcDbEntity
  8
0
100
AcDbBlockBegin
  2
*D17
 70
    65
 10
0.0
 20
0.0
 30
0.0
  3
*D17
  1
*TB
  0
LINE
  5
F44
100
AcDbEntity
  8
0
  6
BYBLOCK
 62
     0
100
AcDbLine
 10
17.357545
 20
13.931511
 30
0.0
 11
25.274007
 21
13.931511
 31
0.0
  0
LINE
  5
F45
100
AcDbEntity
  8
0
  6
BYBLOCK
 62
     0
100
AcDbLine
 10
17.550312
 20
15.08804
 30
0.0
 11
25.274007
 21
15.08804
 31
0.0
  0
LINE
  5
F46
100
AcDbEntity
  8
0
  6
BYBLOCK
 62
     0
100
AcDbLine
 10
25.139007
 20
14.066511
 30
0.0
 11
25.139007
 21
14.374776
 31
0.0
  0
LINE
  5
F47
100
AcDbEntity
  8
0
  6
BYBLOCK
 62
     0
100
AcDbLine
 10
25.139007
 20
14.95304
 30
0.0
 11
25.139007
 21
14.644776
 31
0.0
  0
SOLID
  5
F48
100
AcDbEntity
  8
0
  6
BYBLOCK
 62
     0
100
AcDbTrace
 10
25.116507
 20
14.066511
 30
0.0
 11
25.161507
 21
14.066511
 31
0.0
 12
25.139007
 22
13.931511
 32
0.0
 13
25.139007
 23
13.931511
 33
0.0
  0
SOLID
  5
F49
100
AcDbEntity
  8
0
  6
BYBLOCK
 62
     0
100
AcDbTrace
 10
25.116507
 20
14.95304
 30
0.0
 11
25.161507
 21
14.95304
 31
0.0
 12
25.139007
 22
15.08804
 32
0.0
 13
25.139007
 23
15.08804
 33
0.0
  0
MTEXT
  5
F4A
100
AcDbEntity
  8
0
  6
BYBLOCK
 62
     0
100
AcDbMText
 10
25.139007
 20
14.509776
 30
0.0
 40
0.135
 41
0.0
 71
     5
 72
     1
  1
\A1;1.157"[29.38mm]
  0
POINT
  5
F4B
100
AcDbEntity
  8
DEFPOINTS
  6
BYBLOCK
 62
     0
100
AcDbPoint
 10
17.31067
 20
13.931511
 30
0.0
  0
POINT
  5
F4C
100
AcDbEntity
  8
DEFPOINTS
  6
BYBLOCK
 62
     0
100
AcDbPoint
 10
17.503437
 20
15.08804
 30
0.0
  0
POINT
  5
F4D
100
AcDbEntity
  8
DEFPOINTS
  6
BYBLOCK
 62
     0
100
AcDbPoint
 10
25.139007
 20
15.08804
 30
0.0
  0
ENDBLK
  5
F4E
100
AcDbEntity
  8
0
100
AcDbBlockEnd
  0
BLOCK
  5
F12
100
AcDbEntity
  8
0
100
AcDbBlockBegin
  2
*U18
 70
     1
 10
0.0
 20
0.0
 30
0.0
  3
*U18
  1

  0
ENDBLK
  5
F13
100
AcDbEntity
  8
0
100
AcDbBlockEnd
  0
BLOCK
  5
F2E
100
AcDbEntity
  8
0
100
AcDbBlockBegin
  2
*U19
 70
    65
 10
0.0
 20
0.0
 30
0.0
  3
*U19
  1
*TB
  0
CIRCLE
  5
F2F
100
AcDbEntity
  8
FOOT
100
AcDbCircle
 10
0.0
 20
0.0
 30
0.0
 40
0.046875
  0
LINE
  5
F30
100
AcDbEntity
  8
CENTER
100
AcDbLine
 10
-0.015625
 20
0.0
 30
0.0
 11
0.015625
 21
0.0
 31
0.0
  0
LINE
  5
F31
100
AcDbEntity
  8
CENTER
100
AcDbLine
 10
0.0
 20
-0.015625
 30
0.0
 11
0.0
 21
0.015625
 31
0.0
  0
LINE
  5
F32
100
AcDbEntity
  8
CENTER
100
AcDbLine
 10
0.03125
 20
0.0
 30
0.0
 11
0.171875
 21
0.0
 31
0.0
  0
LINE
  5
F33
100
AcDbEntity
  8
CENTER
100
AcDbLine
 10
0.0
 20
0.03125
 30
0.0
 11
0.0
 21
0.171875
 31
0.0
  0
LINE
  5
F34
100
AcDbEntity
  8
CENTER
100
AcDbLine
 10
-0.03125
 20
0.0
 30
0.0
 11
-0.171875
 21
0.0
 31
0.0
  0
LINE
  5
F35
100
AcDbEntity
  8
CENTER
100
AcDbLine
 10
0.0
 20
-0.03125
 30
0.0
 11
0.0
 21
-0.171875
 31
0.0
  0
ENDBLK
  5
F36
100
AcDbEntity
  8
0
100
AcDbBlockEnd
  0
BLOCK
  5
10FC
100
AcDbEntity
  8
0
100
AcDbBlockBegin
  2
*D20
 70
    65
 10
0.0
 20
0.0
 30
0.0
  3
*D20
  1
*TB
  0
LINE
  5
10FD
100
AcDbEntity
  8
0
  6
BYBLOCK
 62
     0
100
AcDbLine
 10
19.655181
 20
7.231287
 30
0.0
 11
19.655181
 21
6.789042
 31
0.0
  0
LINE
  5
10FE
100
AcDbEntity
  8
0
  6
BYBLOCK
 62
     0
100
AcDbLine
 10
19.066433
 20
6.924042
 30
0.0
 11
18.931433
 21
6.924042
 31
0.0
  0
LINE
  5
10FF
100
AcDbEntity
  8
0
  6
BYBLOCK
 62
     0
100
AcDbLine
 10
19.790181
 20
6.924042
 30
0.0
 11
19.925181
 21
6.924042
 31
0.0
  0
SOLID
  5
1100
100
AcDbEntity
  8
0
  6
BYBLOCK
 62
     0
100
AcDbTrace
 10
19.066433
 20
6.946542
 30
0.0
 11
19.066433
 21
6.901542
 31
0.0
 12
19.201433
 22
6.924042
 32
0.0
 13
19.201433
 23
6.924042
 33
0.0
  0
SOLID
  5
1101
100
AcDbEntity
  8
0
  6
BYBLOCK
 62
     0
100
AcDbTrace
 10
19.790181
 20
6.946542
 30
0.0
 11
19.790181
 21
6.901542
 31
0.0
 12
19.655181
 22
6.924042
 32
0.0
 13
19.655181
 23
6.924042
 33
0.0
  0
MTEXT
  5
1102
100
AcDbEntity
  8
0
  6
BYBLOCK
 62
     0
100
AcDbMText
 10
20.768931
 20
6.924042
 30
0.0
 40
0.135
 41
0.0
 71
     5
 72
     1
  1
\A1;0.454"[11.53mm]
  0
POINT
  5
1103
100
AcDbEntity
  8
DEFPOINTS
  6
BYBLOCK
 62
     0
100
AcDbPoint
 10
19.201433
 20
2.772768
 30
0.0
  0
POINT
  5
1104
100
AcDbEntity
  8
DEFPOINTS
  6
BYBLOCK
 62
     0
100
AcDbPoint
 10
19.655181
 20
7.278162
 30
0.0
  0
POINT
  5
1105
100
AcDbEntity
  8
DEFPOINTS
  6
BYBLOCK
 62
     0
100
AcDbPoint
 10
19.655181
 20
6.924042
 30
0.0
  0
ENDBLK
  5
1106
100
AcDbEntity
  8
0
100
AcDbBlockEnd
  0
BLOCK
  5
10F1
100
AcDbEntity
  8
0
100
AcDbBlockBegin
  2
*D21
 70
    65
 10
0.0
 20
0.0
 30
0.0
  3
*D21
  1
*TB
  0
LINE
  5
10F2
100
AcDbEntity
  8
0
  6
BYBLOCK
 62
     0
100
AcDbLine
 10
19.064631
 20
7.231287
 30
0.0
 11
19.064631
 21
6.384153
 31
0.0
  0
LINE
  5
10F3
100
AcDbEntity
  8
0
  6
BYBLOCK
 62
     0
100
AcDbLine
 10
18.929631
 20
6.519153
 30
0.0
 11
18.794631
 21
6.519153
 31
0.0
  0
LINE
  5
10F4
100
AcDbEntity
  8
0
  6
BYBLOCK
 62
     0
100
AcDbLine
 10
19.336433
 20
6.519153
 30
0.0
 11
19.471433
 21
6.519153
 31
0.0
  0
SOLID
  5
10F5
100
AcDbEntity
  8
0
  6
BYBLOCK
 62
     0
100
AcDbTrace
 10
18.929631
 20
6.541653
 30
0.0
 11
18.929631
 21
6.496653
 31
0.0
 12
19.064631
 22
6.519153
 32
0.0
 13
19.064631
 23
6.519153
 33
0.0
  0
SOLID
  5
10F6
100
AcDbEntity
  8
0
  6
BYBLOCK
 62
     0
100
AcDbTrace
 10
19.336433
 20
6.541653
 30
0.0
 11
19.336433
 21
6.496653
 31
0.0
 12
19.201433
 22
6.519153
 32
0.0
 13
19.201433
 23
6.519153
 33
0.0
  0
MTEXT
  5
10F7
100
AcDbEntity
  8
0
  6
BYBLOCK
 62
     0
100
AcDbMText
 10
20.270183
 20
6.519153
 30
0.0
 40
0.135
 41
0.0
 71
     5
 72
     1
  1
\A1;0.137"[3.47mm]
  0
POINT
  5
10F8
100
AcDbEntity
  8
DEFPOINTS
  6
BYBLOCK
 62
     0
100
AcDbPoint
 10
19.064631
 20
7.278162
 30
0.0
  0
POINT
  5
10F9
100
AcDbEntity
  8
DEFPOINTS
  6
BYBLOCK
 62
     0
100
AcDbPoint
 10
19.201433
 20
2.772768
 30
0.0
  0
POINT
  5
10FA
100
AcDbEntity
  8
DEFPOINTS
  6
BYBLOCK
 62
     0
100
AcDbPoint
 10
19.201433
 20
6.519153
 30
0.0
  0
ENDBLK
  5
10FB
100
AcDbEntity
  8
0
100
AcDbBlockEnd
  0
BLOCK
  5
10E6
100
AcDbEntity
  8
0
100
AcDbBlockBegin
  2
*D22
 70
    65
 10
0.0
 20
0.0
 30
0.0
  3
*D22
  1
*TB
  0
LINE
  5
10E7
100
AcDbEntity
  8
0
  6
BYBLOCK
 62
     0
100
AcDbLine
 10
18.522351
 20
7.544373
 30
0.0
 11
18.522351
 21
6.034475
 31
0.0
  0
LINE
  5
10E8
100
AcDbEntity
  8
0
  6
BYBLOCK
 62
     0
100
AcDbLine
 10
18.387351
 20
6.169475
 30
0.0
 11
18.252351
 21
6.169475
 31
0.0
  0
LINE
  5
10E9
100
AcDbEntity
  8
0
  6
BYBLOCK
 62
     0
100
AcDbLine
 10
19.336433
 20
6.169475
 30
0.0
 11
19.471433
 21
6.169475
 31
0.0
  0
SOLID
  5
10EA
100
AcDbEntity
  8
0
  6
BYBLOCK
 62
     0
100
AcDbTrace
 10
18.387351
 20
6.191975
 30
0.0
 11
18.387351
 21
6.146975
 31
0.0
 12
18.522351
 22
6.169475
 32
0.0
 13
18.522351
 23
6.169475
 33
0.0
  0
SOLID
  5
10EB
100
AcDbEntity
  8
0
  6
BYBLOCK
 62
     0
100
AcDbTrace
 10
19.336433
 20
6.191975
 30
0.0
 11
19.336433
 21
6.146975
 31
0.0
 12
19.201433
 22
6.169475
 32
0.0
 13
19.201433
 23
6.169475
 33
0.0
  0
MTEXT
  5
10EC
100
AcDbEntity
  8
0
  6
BYBLOCK
 62
     0
100
AcDbMText
 10
20.337683
 20
6.169475
 30
0.0
 40
0.135
 41
0.0
 71
     5
 72
     1
  1
\A1;0.679"[17.25mm]
  0
POINT
  5
10ED
100
AcDbEntity
  8
DEFPOINTS
  6
BYBLOCK
 62
     0
100
AcDbPoint
 10
18.522351
 20
7.591248
 30
0.0
  0
POINT
  5
10EE
100
AcDbEntity
  8
DEFPOINTS
  6
BYBLOCK
 62
     0
100
AcDbPoint
 10
19.201433
 20
2.772768
 30
0.0
  0
POINT
  5
10EF
100
AcDbEntity
  8
DEFPOINTS
  6
BYBLOCK
 62
     0
100
AcDbPoint
 10
19.201433
 20
6.169475
 30
0.0
  0
ENDBLK
  5
10F0
100
AcDbEntity
  8
0
100
AcDbBlockEnd
  0
BLOCK
  5
10DB
100
AcDbEntity
  8
0
100
AcDbBlockBegin
  2
*D23
 70
    65
 10
0.0
 20
0.0
 30
0.0
  3
*D23
  1
*TB
  0
LINE
  5
10DC
100
AcDbEntity
  8
0
  6
BYBLOCK
 62
     0
100
AcDbLine
 10
17.597956
 20
7.495087
 30
0.0
 11
17.597956
 21
5.657192
 31
0.0
  0
LINE
  5
10DD
100
AcDbEntity
  8
0
  6
BYBLOCK
 62
     0
100
AcDbLine
 10
17.462956
 20
5.792192
 30
0.0
 11
17.327956
 21
5.792192
 31
0.0
  0
LINE
  5
10DE
100
AcDbEntity
  8
0
  6
BYBLOCK
 62
     0
100
AcDbLine
 10
19.336433
 20
5.792192
 30
0.0
 11
19.471433
 21
5.792192
 31
0.0
  0
SOLID
  5
10DF
100
AcDbEntity
  8
0
  6
BYBLOCK
 62
     0
100
AcDbTrace
 10
17.462956
 20
5.814692
 30
0.0
 11
17.462956
 21
5.769692
 31
0.0
 12
17.597956
 22
5.792192
 32
0.0
 13
17.597956
 23
5.792192
 33
0.0
  0
SOLID
  5
10E0
100
AcDbEntity
  8
0
  6
BYBLOCK
 62
     0
100
AcDbTrace
 10
19.336433
 20
5.814692
 30
0.0
 11
19.336433
 21
5.769692
 31
0.0
 12
19.201433
 22
5.792192
 32
0.0
 13
19.201433
 23
5.792192
 33
0.0
  0
MTEXT
  5
10E1
100
AcDbEntity
  8
0
  6
BYBLOCK
 62
     0
100
AcDbMText
 10
21.080183
 20
5.792192
 30
0.0
 40
0.135
 41
0.0
 71
     5
 72
     1
  1
\A1;1.603"±0.001"[40.73mm±0.03mm]
  0
POINT
  5
10E2
100
AcDbEntity
  8
DEFPOINTS
  6
BYBLOCK
 62
     0
100
AcDbPoint
 10
17.597956
 20
7.541962
 30
0.0
  0
POINT
  5
10E3
100
AcDbEntity
  8
DEFPOINTS
  6
BYBLOCK
 62
     0
100
AcDbPoint
 10
19.201433
 20
2.772768
 30
0.0
  0
POINT
  5
10E4
100
AcDbEntity
  8
DEFPOINTS
  6
BYBLOCK
 62
     0
100
AcDbPoint
 10
19.201433
 20
5.792192
 30
0.0
  0
ENDBLK
  5
10E5
100
AcDbEntity
  8
0
100
AcDbBlockEnd
  0
BLOCK
  5
10D0
100
AcDbEntity
  8
0
100
AcDbBlockBegin
  2
*D24
 70
    65
 10
0.0
 20
0.0
 30
0.0
  3
*D24
  1
*TB
  0
LINE
  5
10D1
100
AcDbEntity
  8
0
  6
BYBLOCK
 62
     0
100
AcDbLine
 10
16.972959
 20
7.544374
 30
0.0
 11
16.972959
 21
5.261504
 31
0.0
  0
LINE
  5
10D2
100
AcDbEntity
  8
0
  6
BYBLOCK
 62
     0
100
AcDbLine
 10
17.107959
 20
5.396504
 30
0.0
 11
17.198446
 21
5.396504
 31
0.0
  0
LINE
  5
10D3
100
AcDbEntity
  8
0
  6
BYBLOCK
 62
     0
100
AcDbLine
 10
19.066433
 20
5.396504
 30
0.0
 11
18.975946
 21
5.396504
 31
0.0
  0
SOLID
  5
10D4
100
AcDbEntity
  8
0
  6
BYBLOCK
 62
     0
100
AcDbTrace
 10
17.107959
 20
5.419004
 30
0.0
 11
17.107959
 21
5.374004
 31
0.0
 12
16.972959
 22
5.396504
 32
0.0
 13
16.972959
 23
5.396504
 33
0.0
  0
SOLID
  5
10D5
100
AcDbEntity
  8
0
  6
BYBLOCK
 62
     0
100
AcDbTrace
 10
19.066433
 20
5.419004
 30
0.0
 11
19.066433
 21
5.374004
 31
0.0
 12
19.201433
 22
5.396504
 32
0.0
 13
19.201433
 23
5.396504
 33
0.0
  0
MTEXT
  5
10D6
100
AcDbEntity
  8
0
  6
BYBLOCK
 62
     0
100
AcDbMText
 10
18.087196
 20
5.396504
 30
0.0
 40
0.135
 41
0.0
 71
     5
 72
     1
  1
\A1;2.228"[56.60mm]
  0
POINT
  5
10D7
100
AcDbEntity
  8
DEFPOINTS
  6
BYBLOCK
 62
     0
100
AcDbPoint
 10
16.972959
 20
7.591249
 30
0.0
  0
POINT
  5
10D8
100
AcDbEntity
  8
DEFPOINTS
  6
BYBLOCK
 62
     0
100
AcDbPoint
 10
19.201433
 20
2.772768
 30
0.0
  0
POINT
  5
10D9
100
AcDbEntity
  8
DEFPOINTS
  6
BYBLOCK
 62
     0
100
AcDbPoint
 10
19.201433
 20
5.396504
 30
0.0
  0
ENDBLK
  5
10DA
100
AcDbEntity
  8
0
100
AcDbBlockEnd
  0
BLOCK
  5
FDC
100
AcDbEntity
  8
0
100
AcDbBlockBegin
  2
*D25
 70
    65
 10
0.0
 20
0.0
 30
0.0
  3
*D25
  1
*TB
  0
LINE
  5
FDD
100
AcDbEntity
  8
0
  6
BYBLOCK
 62
     0
100
AcDbLine
 10
14.77434
 20
6.658421
 30
0.0
 11
14.372275
 21
6.658421
 31
0.0
  0
LINE
  5
FDE
100
AcDbEntity
  8
0
  6
BYBLOCK
 62
     0
100
AcDbLine
 10
14.507275
 20
6.793421
 30
0.0
 11
14.507275
 21
6.928421
 31
0.0
  0
LINE
  5
FDF
100
AcDbEntity
  8
0
  6
BYBLOCK
 62
     0
100
AcDbLine
 10
14.507275
 20
6.358434
 30
0.0
 11
14.507275
 21
6.223434
 31
0.0
  0
LINE
  5
FE0
100
AcDbEntity
  8
0
  6
BYBLOCK
 62
     0
100
AcDbLine
 10
14.507275
 20
6.223434
 30
0.0
 11
14.372275
 21
6.223434
 31
0.0
  0
SOLID
  5
FE1
100
AcDbEntity
  8
0
  6
BYBLOCK
 62
     0
100
AcDbTrace
 10
14.484775
 20
6.793421
 30
0.0
 11
14.529775
 21
6.793421
 31
0.0
 12
14.507275
 22
6.658421
 32
0.0
 13
14.507275
 23
6.658421
 33
0.0
  0
SOLID
  5
FE2
100
AcDbEntity
  8
0
  6
BYBLOCK
 62
     0
100
AcDbTrace
 10
14.484775
 20
6.358434
 30
0.0
 11
14.529775
 21
6.358434
 31
0.0
 12
14.507275
 22
6.493434
 32
0.0
 13
14.507275
 23
6.493434
 33
0.0
  0
MTEXT
  5
FE3
100
AcDbEntity
  8
0
  6
BYBLOCK
 62
     0
100
AcDbMText
 10
12.680275
 20
6.223434
 30
0.0
 40
0.135
 41
0.0
 71
     5
 72
     1
  1
\A1;0.165"\S+0.002"^  0.000";{\o\l\H0.324000;[}4.19mm\S+0.05mm^  0.00mm;{\o\l\H0.324000;]}
  0
POINT
  5
FE4
100
AcDbEntity
  8
DEFPOINTS
  6
BYBLOCK
 62
     0
100
AcDbPoint
 10
14.821215
 20
6.658421
 30
0.0
  0
POINT
  5
FE5
100
AcDbEntity
  8
DEFPOINTS
  6
BYBLOCK
 62
     0
100
AcDbPoint
 10
5.808418
 20
6.493434
 30
0.0
  0
POINT
  5
FE6
100
AcDbEntity
  8
DEFPOINTS
  6
BYBLOCK
 62
     0
100
AcDbPoint
 10
14.507275
 20
6.493434
 30
0.0
  0
ENDBLK
  5
FE7
100
AcDbEntity
  8
0
100
AcDbBlockEnd
  0
BLOCK
  5
FEA
100
AcDbEntity
  8
0
100
AcDbBlockBegin
  2
*D26
 70
    65
 10
0.0
 20
0.0
 30
0.0
  3
*D26
  1
*TB
  0
LINE
  5
FEB
100
AcDbEntity
  8
0
  6
BYBLOCK
 62
     0
100
AcDbLine
 10
15.227462
 20
6.781009
 30
0.0
 11
10.671411
 21
6.781009
 31
0.0
  0
LINE
  5
FEC
100
AcDbEntity
  8
0
  6
BYBLOCK
 62
     0
100
AcDbLine
 10
10.806411
 20
6.916009
 30
0.0
 11
10.806411
 21
7.051009
 31
0.0
  0
LINE
  5
FED
100
AcDbEntity
  8
0
  6
BYBLOCK
 62
     0
100
AcDbLine
 10
10.806411
 20
6.358434
 30
0.0
 11
10.806411
 21
6.223434
 31
0.0
  0
LINE
  5
FEE
100
AcDbEntity
  8
0
  6
BYBLOCK
 62
     0
100
AcDbLine
 10
10.806411
 20
6.223434
 30
0.0
 11
10.671411
 21
6.223434
 31
0.0
  0
SOLID
  5
FEF
100
AcDbEntity
  8
0
  6
BYBLOCK
 62
     0
100
AcDbTrace
 10
10.783911
 20
6.916009
 30
0.0
 11
10.828911
 21
6.916009
 31
0.0
 12
10.806411
 22
6.781009
 32
0.0
 13
10.806411
 23
6.781009
 33
0.0
  0
SOLID
  5
FF0
100
AcDbEntity
  8
0
  6
BYBLOCK
 62
     0
100
AcDbTrace
 10
10.783911
 20
6.358434
 30
0.0
 11
10.828911
 21
6.358434
 31
0.0
 12
10.806411
 22
6.493434
 32
0.0
 13
10.806411
 23
6.493434
 33
0.0
  0
MTEXT
  5
FF1
100
AcDbEntity
  8
0
  6
BYBLOCK
 62
     0
100
AcDbMText
 10
9.107661
 20
6.223434
 30
0.0
 40
0.135
 41
0.0
 71
     5
 72
     1
  1
\A1;0.288"±0.001"[7.30mm±0.03mm]
  0
POINT
  5
FF2
100
AcDbEntity
  8
DEFPOINTS
  6
BYBLOCK
 62
     0
100
AcDbPoint
 10
15.274337
 20
6.781009
 30
0.0
  0
POINT
  5
FF3
100
AcDbEntity
  8
DEFPOINTS
  6
BYBLOCK
 62
     0
100
AcDbPoint
 10
5.808418
 20
6.493434
 30
0.0
  0
POINT
  5
FF4
100
AcDbEntity
  8
DEFPOINTS
  6
BYBLOCK
 62
     0
100
AcDbPoint
 10
10.806411
 20
6.493434
 30
0.0
  0
ENDBLK
  5
FF5
100
AcDbEntity
  8
0
100
AcDbBlockEnd
  0
BLOCK
  5
FF8
100
AcDbEntity
  8
0
100
AcDbBlockBegin
  2
*D27
 70
    65
 10
0.0
 20
0.0
 30
0.0
  3
*D27
  1
*TB
  0
LINE
  5
FF9
100
AcDbEntity
  8
0
  6
BYBLOCK
 62
     0
100
AcDbLine
 10
14.85308
 20
6.873601
 30
0.0
 11
7.246572
 21
6.873601
 31
0.0
  0
LINE
  5
FFA
100
AcDbEntity
  8
0
  6
BYBLOCK
 62
     0
100
AcDbLine
 10
7.381572
 20
7.008601
 30
0.0
 11
7.381572
 21
7.143601
 31
0.0
  0
LINE
  5
FFB
100
AcDbEntity
  8
0
  6
BYBLOCK
 62
     0
100
AcDbLine
 10
7.381572
 20
6.358434
 30
0.0
 11
7.381572
 21
6.223434
 31
0.0
  0
LINE
  5
FFC
100
AcDbEntity
  8
0
  6
BYBLOCK
 62
     0
100
AcDbLine
 10
7.381572
 20
6.223434
 30
0.0
 11
7.246572
 21
6.223434
 31
0.0
  0
SOLID
  5
FFD
100
AcDbEntity
  8
0
  6
BYBLOCK
 62
     0
100
AcDbTrace
 10
7.359072
 20
7.008601
 30
0.0
 11
7.404072
 21
7.008601
 31
0.0
 12
7.381572
 22
6.873601
 32
0.0
 13
7.381572
 23
6.873601
 33
0.0
  0
SOLID
  5
FFE
100
AcDbEntity
  8
0
  6
BYBLOCK
 62
     0
100
AcDbTrace
 10
7.359072
 20
6.358434
 30
0.0
 11
7.404072
 21
6.358434
 31
0.0
 12
7.381572
 22
6.493434
 32
0.0
 13
7.381572
 23
6.493434
 33
0.0
  0
MTEXT
  5
FFF
100
AcDbEntity
  8
0
  6
BYBLOCK
 62
     0
100
AcDbMText
 10
6.436572
 20
6.223434
 30
0.0
 40
0.135
 41
0.0
 71
     5
 72
     1
  1
\A1;0.380"[9.66mm]
  0
POINT
  5
1000
100
AcDbEntity
  8
DEFPOINTS
  6
BYBLOCK
 62
     0
100
AcDbPoint
 10
14.899955
 20
6.873601
 30
0.0
  0
POINT
  5
1001
100
AcDbEntity
  8
DEFPOINTS
  6
BYBLOCK
 62
     0
100
AcDbPoint
 10
5.808418
 20
6.493434
 30
0.0
  0
POINT
  5
1002
100
AcDbEntity
  8
DEFPOINTS
  6
BYBLOCK
 62
     0
100
AcDbPoint
 10
7.381572
 20
6.493434
 30
0.0
  0
ENDBLK
  5
1003
100
AcDbEntity
  8
0
100
AcDbBlockEnd
  0
BLOCK
  5
1006
100
AcDbEntity
  8
0
100
AcDbBlockBegin
  2
*D28
 70
    65
 10
0.0
 20
0.0
 30
0.0
  3
*D28
  1
*TB
  0
LINE
  5
1007
100
AcDbEntity
  8
0
  6
BYBLOCK
 62
     0
100
AcDbLine
 10
17.550312
 20
6.345334
 30
0.0
 11
19.982943
 21
6.345334
 31
0.0
  0
LINE
  5
1008
100
AcDbEntity
  8
0
  6
BYBLOCK
 62
     0
100
AcDbLine
 10
19.847943
 20
6.210334
 30
0.0
 11
19.847943
 21
6.075334
 31
0.0
  0
LINE
  5
1009
100
AcDbEntity
  8
0
  6
BYBLOCK
 62
     0
100
AcDbLine
 10
19.847943
 20
6.628434
 30
0.0
 11
19.847943
 21
6.763434
 31
0.0
  0
LINE
  5
100A
100
AcDbEntity
  8
0
  6
BYBLOCK
 62
     0
100
AcDbLine
 10
19.847943
 20
6.763434
 30
0.0
 11
19.982943
 21
6.763434
 31
0.0
  0
SOLID
  5
100B
100
AcDbEntity
  8
0
  6
BYBLOCK
 62
     0
100
AcDbTrace
 10
19.825443
 20
6.210334
 30
0.0
 11
19.870443
 21
6.210334
 31
0.0
 12
19.847943
 22
6.345334
 32
0.0
 13
19.847943
 23
6.345334
 33
0.0
  0
SOLID
  5
100C
100
AcDbEntity
  8
0
  6
BYBLOCK
 62
     0
100
AcDbTrace
 10
19.825443
 20
6.628434
 30
0.0
 11
19.870443
 21
6.628434
 31
0.0
 12
19.847943
 22
6.493434
 32
0.0
 13
19.847943
 23
6.493434
 33
0.0
  0
MTEXT
  5
100D
100
AcDbEntity
  8
0
  6
BYBLOCK
 62
     0
100
AcDbMText
 10
20.781693
 20
6.763434
 30
0.0
 40
0.135
 41
0.0
 71
     5
 72
     1
  1
\A1;0.148"[3.76mm]
  0
POINT
  5
100E
100
AcDbEntity
  8
DEFPOINTS
  6
BYBLOCK
 62
     0
100
AcDbPoint
 10
17.503437
 20
6.345334
 30
0.0
  0
POINT
  5
100F
100
AcDbEntity
  8
DEFPOINTS
  6
BYBLOCK
 62
     0
100
AcDbPoint
 10
24.049461
 20
6.493434
 30
0.0
  0
POINT
  5
1010
100
AcDbEntity
  8
DEFPOINTS
  6
BYBLOCK
 62
     0
100
AcDbPoint
 10
19.847943
 20
6.493434
 30
0.0
  0
ENDBLK
  5
1011
100
AcDbEntity
  8
0
100
AcDbBlockEnd
  0
BLOCK
  5
1022
100
AcDbEntity
  8
0
100
AcDbBlockBegin
  2
*D29
 70
    65
 10
0.0
 20
0.0
 30
0.0
  3
*D29
  1
*TB
  0
LINE
  5
1023
100
AcDbEntity
  8
0
  6
BYBLOCK
 62
     0
100
AcDbLine
 10
17.550312
 20
6.375334
 30
0.0
 11
23.665565
 21
6.375334
 31
0.0
  0
LINE
  5
1024
100
AcDbEntity
  8
0
  6
BYBLOCK
 62
     0
100
AcDbLine
 10
17.550312
 20
6.345334
 30
0.0
 11
23.665565
 21
6.345334
 31
0.0
  0
LINE
  5
1025
100
AcDbEntity
  8
0
  6
BYBLOCK
 62
     0
100
AcDbLine
 10
23.530565
 20
6.510334
 30
0.0
 11
23.530565
 21
6.645334
 31
0.0
  0
LINE
  5
1026
100
AcDbEntity
  8
0
  6
BYBLOCK
 62
     0
100
AcDbLine
 10
23.530565
 20
6.210334
 30
0.0
 11
23.530565
 21
6.075334
 31
0.0
  0
LINE
  5
1027
100
AcDbEntity
  8
0
  6
BYBLOCK
 62
     0
100
AcDbLine
 10
23.530565
 20
6.075334
 30
0.0
 11
23.395565
 21
6.075334
 31
0.0
  0
SOLID
  5
1028
100
AcDbEntity
  8
0
  6
BYBLOCK
 62
     0
100
AcDbTrace
 10
23.508065
 20
6.510334
 30
0.0
 11
23.553065
 21
6.510334
 31
0.0
 12
23.530565
 22
6.375334
 32
0.0
 13
23.530565
 23
6.375334
 33
0.0
  0
SOLID
  5
1029
100
AcDbEntity
  8
0
  6
BYBLOCK
 62
     0
100
AcDbTrace
 10
23.508065
 20
6.210334
 30
0.0
 11
23.553065
 21
6.210334
 31
0.0
 12
23.530565
 22
6.345334
 32
0.0
 13
23.530565
 23
6.345334
 33
0.0
  0
MTEXT
  5
102A
100
AcDbEntity
  8
0
  6
BYBLOCK
 62
     0
100
AcDbMText
 10
21.854315
 20
6.075334
 30
0.0
 40
0.135
 41
0.0
 71
     5
 72
     1
  1
\A1;{0.030"±0.001"[0.76mm±0.03mm]}\P{WALL THICKNESS}
  0
POINT
  5
102B
100
AcDbEntity
  8
DEFPOINTS
  6
BYBLOCK
 62
     0
100
AcDbPoint
 10
17.503437
 20
6.375334
 30
0.0
  0
POINT
  5
102C
100
AcDbEntity
  8
DEFPOINTS
  6
BYBLOCK
 62
     0
100
AcDbPoint
 10
17.503437
 20
6.345334
 30
0.0
  0
POINT
  5
102D
100
AcDbEntity
  8
DEFPOINTS
  6
BYBLOCK
 62
     0
100
AcDbPoint
 10
23.530565
 20
6.345334
 30
0.0
  0
ENDBLK
  5
102E
100
AcDbEntity
  8
0
100
AcDbBlockEnd
  0
BLOCK
  5
1030
100
AcDbEntity
  8
0
100
AcDbBlockBegin
  2
*D30
 70
    65
 10
0.0
 20
0.0
 30
0.0
  3
*D30
  1
*TB
  0
LINE
  5
1031
100
AcDbEntity
  8
0
  6
BYBLOCK
 62
     0
100
AcDbLine
 10
14.986565
 20
13.633865
 30
0.0
 11
14.986565
 21
12.594702
 31
0.0
  0
LINE
  5
1032
100
AcDbEntity
  8
0
  6
BYBLOCK
 62
     0
100
AcDbLine
 10
14.851565
 20
12.729702
 30
0.0
 11
14.716565
 21
12.729702
 31
0.0
  0
LINE
  5
1033
100
AcDbEntity
  8
0
  6
BYBLOCK
 62
     0
100
AcDbLine
 10
17.184689
 20
12.729702
 30
0.0
 11
17.319689
 21
12.729702
 31
0.0
  0
SOLID
  5
1034
100
AcDbEntity
  8
0
  6
BYBLOCK
 62
     0
100
AcDbTrace
 10
14.851565
 20
12.752202
 30
0.0
 11
14.851565
 21
12.707202
 31
0.0
 12
14.986565
 22
12.729702
 32
0.0
 13
14.986565
 23
12.729702
 33
0.0
  0
SOLID
  5
1035
100
AcDbEntity
  8
0
  6
BYBLOCK
 62
     0
100
AcDbTrace
 10
17.184689
 20
12.752202
 30
0.0
 11
17.184689
 21
12.707202
 31
0.0
 12
17.049689
 22
12.729702
 32
0.0
 13
17.049689
 23
12.729702
 33
0.0
  0
MTEXT
  5
1036
100
AcDbEntity
  8
0
  6
BYBLOCK
 62
     0
100
AcDbMText
 10
18.197189
 20
12.729702
 30
0.0
 40
0.135
 41
0.0
 71
     5
 72
     1
  1
\A1;2.063"[52.40mm]
  0
POINT
  5
1037
100
AcDbEntity
  8
DEFPOINTS
  6
BYBLOCK
 62
     0
100
AcDbPoint
 10
14.986565
 20
13.68074
 30
0.0
  0
POINT
  5
1038
100
AcDbEntity
  8
DEFPOINTS
  6
BYBLOCK
 62
     0
100
AcDbPoint
 10
17.049689
 20
17.304476
 30
0.0
  0
POINT
  5
1039
100
AcDbEntity
  8
DEFPOINTS
  6
BYBLOCK
 62
     0
100
AcDbPoint
 10
17.049689
 20
12.729702
 30
0.0
  0
ENDBLK
  5
103A
100
AcDbEntity
  8
0
100
AcDbBlockEnd
  0
BLOCK
  5
103D
100
AcDbEntity
  8
0
100
AcDbBlockBegin
  2
*D31
 70
    65
 10
0.0
 20
0.0
 30
0.0
  3
*D31
  1
*TB
  0
LINE
  5
103E
100
AcDbEntity
  8
0
  6
BYBLOCK
 62
     0
100
AcDbLine
 10
15.151917
 20
13.637765
 30
0.0
 11
15.151917
 21
12.262479
 31
0.0
  0
LINE
  5
103F
100
AcDbEntity
  8
0
  6
BYBLOCK
 62
     0
100
AcDbLine
 10
15.016917
 20
12.397479
 30
0.0
 11
14.881917
 21
12.397479
 31
0.0
  0
LINE
  5
1040
100
AcDbEntity
  8
0
  6
BYBLOCK
 62
     0
100
AcDbLine
 10
17.184689
 20
12.397479
 30
0.0
 11
17.319689
 21
12.397479
 31
0.0
  0
SOLID
  5
1041
100
AcDbEntity
  8
0
  6
BYBLOCK
 62
     0
100
AcDbTrace
 10
15.016917
 20
12.419979
 30
0.0
 11
15.016917
 21
12.374979
 31
0.0
 12
15.151917
 22
12.397479
 32
0.0
 13
15.151917
 23
12.397479
 33
0.0
  0
SOLID
  5
1042
100
AcDbEntity
  8
0
  6
BYBLOCK
 62
     0
100
AcDbTrace
 10
17.184689
 20
12.419979
 30
0.0
 11
17.184689
 21
12.374979
 31
0.0
 12
17.049689
 22
12.397479
 32
0.0
 13
17.049689
 23
12.397479
 33
0.0
  0
MTEXT
  5
1043
100
AcDbEntity
  8
0
  6
BYBLOCK
 62
     0
100
AcDbMText
 10
18.185939
 20
12.397479
 30
0.0
 40
0.135
 41
0.0
 71
     5
 72
     1
  1
\A1;1.898"[48.20mm]
  0
POINT
  5
1044
100
AcDbEntity
  8
DEFPOINTS
  6
BYBLOCK
 62
     0
100
AcDbPoint
 10
15.151917
 20
13.68464
 30
0.0
  0
POINT
  5
1045
100
AcDbEntity
  8
DEFPOINTS
  6
BYBLOCK
 62
     0
100
AcDbPoint
 10
17.049689
 20
17.304476
 30
0.0
  0
POINT
  5
1046
100
AcDbEntity
  8
DEFPOINTS
  6
BYBLOCK
 62
     0
100
AcDbPoint
 10
17.049689
 20
12.397479
 30
0.0
  0
ENDBLK
  5
1047
100
AcDbEntity
  8
0
100
AcDbBlockEnd
  0
BLOCK
  5
104A
100
AcDbEntity
  8
0
100
AcDbBlockBegin
  2
*D32
 70
    65
 10
0.0
 20
0.0
 30
0.0
  3
*D32
  1
*TB
  0
LINE
  5
104B
100
AcDbEntity
  8
0
  6
BYBLOCK
 62
     0
100
AcDbLine
 10
15.321201
 20
14.10844
 30
0.0
 11
15.321201
 21
11.928875
 31
0.0
  0
LINE
  5
104C
100
AcDbEntity
  8
0
  6
BYBLOCK
 62
     0
100
AcDbLine
 10
15.186201
 20
12.063875
 30
0.0
 11
15.051201
 21
12.063875
 31
0.0
  0
LINE
  5
104D
100
AcDbEntity
  8
0
  6
BYBLOCK
 62
     0
100
AcDbLine
 10
17.184689
 20
12.063875
 30
0.0
 11
17.319689
 21
12.063875
 31
0.0
  0
SOLID
  5
104E
100
AcDbEntity
  8
0
  6
BYBLOCK
 62
     0
100
AcDbTrace
 10
15.186201
 20
12.086375
 30
0.0
 11
15.186201
 21
12.041375
 31
0.0
 12
15.321201
 22
12.063875
 32
0.0
 13
15.321201
 23
12.063875
 33
0.0
  0
SOLID
  5
104F
100
AcDbEntity
  8
0
  6
BYBLOCK
 62
     0
100
AcDbTrace
 10
17.184689
 20
12.086375
 30
0.0
 11
17.184689
 21
12.041375
 31
0.0
 12
17.049689
 22
12.063875
 32
0.0
 13
17.049689
 23
12.063875
 33
0.0
  0
MTEXT
  5
1050
100
AcDbEntity
  8
0
  6
BYBLOCK
 62
     0
100
AcDbMText
 10
18.939689
 20
12.063875
 30
0.0
 40
0.135
 41
0.0
 71
     5
 72
     1
  1
\A1;1.728"±0.001"[43.90mm±0.03mm]
  0
POINT
  5
1051
100
AcDbEntity
  8
DEFPOINTS
  6
BYBLOCK
 62
     0
100
AcDbPoint
 10
15.321201
 20
14.155315
 30
0.0
  0
POINT
  5
1052
100
AcDbEntity
  8
DEFPOINTS
  6
BYBLOCK
 62
     0
100
AcDbPoint
 10
17.049689
 20
17.304476
 30
0.0
  0
POINT
  5
1053
100
AcDbEntity
  8
DEFPOINTS
  6
BYBLOCK
 62
     0
100
AcDbPoint
 10
17.049689
 20
12.063875
 30
0.0
  0
ENDBLK
  5
1054
100
AcDbEntity
  8
0
100
AcDbBlockEnd
  0
BLOCK
  5
1057
100
AcDbEntity
  8
0
100
AcDbBlockBegin
  2
*D33
 70
    65
 10
0.0
 20
0.0
 30
0.0
  3
*D33
  1
*TB
  0
LINE
  5
1058
100
AcDbEntity
  8
0
  6
BYBLOCK
 62
     0
100
AcDbLine
 10
16.196201
 20
14.097315
 30
0.0
 11
16.196201
 21
11.571735
 31
0.0
  0
LINE
  5
1059
100
AcDbEntity
  8
0
  6
BYBLOCK
 62
     0
100
AcDbLine
 10
16.061201
 20
11.706735
 30
0.0
 11
15.926201
 21
11.706735
 31
0.0
  0
LINE
  5
105A
100
AcDbEntity
  8
0
  6
BYBLOCK
 62
     0
100
AcDbLine
 10
17.184689
 20
11.706735
 30
0.0
 11
17.319689
 21
11.706735
 31
0.0
  0
SOLID
  5
105B
100
AcDbEntity
  8
0
  6
BYBLOCK
 62
     0
100
AcDbTrace
 10
16.061201
 20
11.729235
 30
0.0
 11
16.061201
 21
11.684235
 31
0.0
 12
16.196201
 22
11.706735
 32
0.0
 13
16.196201
 23
11.706735
 33
0.0
  0
SOLID
  5
105C
100
AcDbEntity
  8
0
  6
BYBLOCK
 62
     0
100
AcDbTrace
 10
17.184689
 20
11.729235
 30
0.0
 11
17.184689
 21
11.684235
 31
0.0
 12
17.049689
 22
11.706735
 32
0.0
 13
17.049689
 23
11.706735
 33
0.0
  0
MTEXT
  5
105D
100
AcDbEntity
  8
0
  6
BYBLOCK
 62
     0
100
AcDbMText
 10
18.185939
 20
11.706735
 30
0.0
 40
0.135
 41
0.0
 71
     5
 72
     1
  1
\A1;0.853"[21.68mm]
  0
POINT
  5
105E
100
AcDbEntity
  8
DEFPOINTS
  6
BYBLOCK
 62
     0
100
AcDbPoint
 10
16.196201
 20
14.14419
 30
0.0
  0
POINT
  5
105F
100
AcDbEntity
  8
DEFPOINTS
  6
BYBLOCK
 62
     0
100
AcDbPoint
 10
17.049689
 20
17.304476
 30
0.0
  0
POINT
  5
1060
100
AcDbEntity
  8
DEFPOINTS
  6
BYBLOCK
 62
     0
100
AcDbPoint
 10
17.049689
 20
11.706735
 30
0.0
  0
ENDBLK
  5
1061
100
AcDbEntity
  8
0
100
AcDbBlockEnd
  0
BLOCK
  5
1070
100
AcDbEntity
  8
0
100
AcDbBlockBegin
  2
*D34
 70
    65
 10
0.0
 20
0.0
 30
0.0
  3
*D34
  1
*TB
  0
LINE
  5
1071
100
AcDbEntity
  8
0
  6
BYBLOCK
 62
     0
100
AcDbLine
 10
17.246828
 20
14.54594
 30
0.0
 11
17.246828
 21
16.207247
 31
0.0
  0
LINE
  5
1072
100
AcDbEntity
  8
0
  6
BYBLOCK
 62
     0
100
AcDbLine
 10
16.914689
 20
16.072247
 30
0.0
 11
16.779689
 21
16.072247
 31
0.0
  0
LINE
  5
1073
100
AcDbEntity
  8
0
  6
BYBLOCK
 62
     0
100
AcDbLine
 10
17.381828
 20
16.072247
 30
0.0
 11
17.516828
 21
16.072247
 31
0.0
  0
SOLID
  5
1074
100
AcDbEntity
  8
0
  6
BYBLOCK
 62
     0
100
AcDbTrace
 10
16.914689
 20
16.094747
 30
0.0
 11
16.914689
 21
16.049747
 31
0.0
 12
17.049689
 22
16.072247
 32
0.0
 13
17.049689
 23
16.072247
 33
0.0
  0
SOLID
  5
1075
100
AcDbEntity
  8
0
  6
BYBLOCK
 62
     0
100
AcDbTrace
 10
17.381828
 20
16.094747
 30
0.0
 11
17.381828
 21
16.049747
 31
0.0
 12
17.246828
 22
16.072247
 32
0.0
 13
17.246828
 23
16.072247
 33
0.0
  0
MTEXT
  5
1076
100
AcDbEntity
  8
0
  6
BYBLOCK
 62
     0
100
AcDbMText
 10
19.035578
 20
16.072247
 30
0.0
 40
0.135
 41
0.0
 71
     5
 72
     1
  1
\A1;0.197"±0.001"[5.01mm±0.03mm]
  0
POINT
  5
1077
100
AcDbEntity
  8
DEFPOINTS
  6
BYBLOCK
 62
     0
100
AcDbPoint
 10
17.049689
 20
17.304476
 30
0.0
  0
POINT
  5
1078
100
AcDbEntity
  8
DEFPOINTS
  6
BYBLOCK
 62
     0
100
AcDbPoint
 10
17.246828
 20
14.499065
 30
0.0
  0
POINT
  5
1079
100
AcDbEntity
  8
DEFPOINTS
  6
BYBLOCK
 62
     0
100
AcDbPoint
 10
17.246828
 20
16.072247
 30
0.0
  0
ENDBLK
  5
107A
100
AcDbEntity
  8
0
100
AcDbBlockEnd
  0
BLOCK
  5
109D
100
AcDbEntity
  8
0
100
AcDbBlockBegin
  2
*X35
 70
    65
 10
0.0
 20
0.0
 30
0.0
  3
*X35
  1
*TB
  0
LINE
  5
109F
100
AcDbEntity
  8
0
 62
     0
100
AcDbLine
 10
16.29275
 20
6.65842
 30
0.0
 11
16.32275
 21
6.68842
 31
0.0
  0
LINE
  5
10A0
100
AcDbEntity
  8
0
 62
     0
100
AcDbLine
 10
16.204361
 20
6.65842
 30
0.0
 11
16.234361
 21
6.68842
 31
0.0
  0
LINE
  5
10A1
100
AcDbEntity
  8
0
 62
     0
100
AcDbLine
 10
16.115973
 20
6.65842
 30
0.0
 11
16.145973
 21
6.68842
 31
0.0
  0
LINE
  5
10A2
100
AcDbEntity
  8
0
 62
     0
100
AcDbLine
 10
16.027585
 20
6.65842
 30
0.0
 11
16.057585
 21
6.68842
 31
0.0
  0
LINE
  5
10A3
100
AcDbEntity
  8
0
 62
     0
100
AcDbLine
 10
15.939197
 20
6.65842
 30
0.0
 11
15.969197
 21
6.68842
 31
0.0
  0
LINE
  5
10A4
100
AcDbEntity
  8
0
 62
     0
100
AcDbLine
 10
15.850808
 20
6.65842
 30
0.0
 11
15.880808
 21
6.68842
 31
0.0
  0
LINE
  5
10A5
100
AcDbEntity
  8
0
 62
     0
100
AcDbLine
 10
15.76242
 20
6.65842
 30
0.0
 11
15.79242
 21
6.68842
 31
0.0
  0
LINE
  5
10A6
100
AcDbEntity
  8
0
 62
     0
100
AcDbLine
 10
15.674032
 20
6.65842
 30
0.0
 11
15.704032
 21
6.68842
 31
0.0
  0
LINE
  5
10A7
100
AcDbEntity
  8
0
 62
     0
100
AcDbLine
 10
15.585644
 20
6.658421
 30
0.0
 11
15.615644
 21
6.68842
 31
0.0
  0
LINE
  5
10A8
100
AcDbEntity
  8
0
 62
     0
100
AcDbLine
 10
15.497255
 20
6.658421
 30
0.0
 11
15.527255
 21
6.688421
 31
0.0
  0
LINE
  5
10A9
100
AcDbEntity
  8
0
 62
     0
100
AcDbLine
 10
15.408867
 20
6.658421
 30
0.0
 11
15.438867
 21
6.688421
 31
0.0
  0
LINE
  5
10AA
100
AcDbEntity
  8
0
 62
     0
100
AcDbLine
 10
15.320479
 20
6.658421
 30
0.0
 11
15.350479
 21
6.688421
 31
0.0
  0
LINE
  5
10AB
100
AcDbEntity
  8
0
 62
     0
100
AcDbLine
 10
15.232091
 20
6.658421
 30
0.0
 11
15.262091
 21
6.688421
 31
0.0
  0
LINE
  5
10AC
100
AcDbEntity
  8
0
 62
     0
100
AcDbLine
 10
15.143702
 20
6.658421
 30
0.0
 11
15.173702
 21
6.688421
 31
0.0
  0
LINE
  5
10AD
100
AcDbEntity
  8
0
 62
     0
100
AcDbLine
 10
15.055314
 20
6.658421
 30
0.0
 11
15.085314
 21
6.688421
 31
0.0
  0
LINE
  5
10AE
100
AcDbEntity
  8
0
 62
     0
100
AcDbLine
 10
14.966926
 20
6.658421
 30
0.0
 11
14.996926
 21
6.688421
 31
0.0
  0
LINE
  5
10AF
100
AcDbEntity
  8
0
 62
     0
100
AcDbLine
 10
14.878538
 20
6.658421
 30
0.0
 11
14.908538
 21
6.688421
 31
0.0
  0
LINE
  5
10B0
100
AcDbEntity
  8
0
 62
     0
100
AcDbLine
 10
16.377283
 20
6.654565
 30
0.0
 11
16.399136
 21
6.676417
 31
0.0
  0
LINE
  5
10B1
100
AcDbEntity
  8
0
 62
     0
100
AcDbLine
 10
16.433319
 20
6.622213
 30
0.0
 11
16.455172
 21
6.644065
 31
0.0
  0
LINE
  5
10B2
100
AcDbEntity
  8
0
 62
     0
100
AcDbLine
 10
16.489355
 20
6.58986
 30
0.0
 11
16.511208
 21
6.611713
 31
0.0
  0
LINE
  5
10B3
100
AcDbEntity
  8
0
 62
     0
100
AcDbLine
 10
16.545391
 20
6.557508
 30
0.0
 11
16.567243
 21
6.57936
 31
0.0
  0
LINE
  5
10B4
100
AcDbEntity
  8
0
 62
     0
100
AcDbLine
 10
16.601427
 20
6.525155
 30
0.0
 11
16.623279
 21
6.547008
 31
0.0
  0
LINE
  5
10B5
100
AcDbEntity
  8
0
 62
     0
100
AcDbLine
 10
16.657463
 20
6.492803
 30
0.0
 11
16.679315
 21
6.514655
 31
0.0
  0
LINE
  5
10B6
100
AcDbEntity
  8
0
 62
     0
100
AcDbLine
 10
16.713499
 20
6.460451
 30
0.0
 11
16.735351
 21
6.482303
 31
0.0
  0
LINE
  5
10B7
100
AcDbEntity
  8
0
 62
     0
100
AcDbLine
 10
16.769535
 20
6.428098
 30
0.0
 11
16.791387
 21
6.44995
 31
0.0
  0
LINE
  5
10B8
100
AcDbEntity
  8
0
 62
     0
100
AcDbLine
 10
16.825571
 20
6.395746
 30
0.0
 11
16.847423
 21
6.417598
 31
0.0
  0
LINE
  5
10B9
100
AcDbEntity
  8
0
 62
     0
100
AcDbLine
 10
16.881607
 20
6.363393
 30
0.0
 11
16.903459
 21
6.385246
 31
0.0
  0
LINE
  5
10BA
100
AcDbEntity
  8
0
 62
     0
100
AcDbLine
 10
16.951935
 20
6.345334
 30
0.0
 11
16.981935
 21
6.375334
 31
0.0
  0
LINE
  5
10BB
100
AcDbEntity
  8
0
 62
     0
100
AcDbLine
 10
17.040324
 20
6.345334
 30
0.0
 11
17.070324
 21
6.375334
 31
0.0
  0
LINE
  5
10BC
100
AcDbEntity
  8
0
 62
     0
100
AcDbLine
 10
17.128712
 20
6.345334
 30
0.0
 11
17.158712
 21
6.375334
 31
0.0
  0
LINE
  5
10BD
100
AcDbEntity
  8
0
 62
     0
100
AcDbLine
 10
17.2171
 20
6.345334
 30
0.0
 11
17.2471
 21
6.375334
 31
0.0
  0
LINE
  5
10BE
100
AcDbEntity
  8
0
 62
     0
100
AcDbLine
 10
17.305489
 20
6.345334
 30
0.0
 11
17.335489
 21
6.375334
 31
0.0
  0
LINE
  5
10BF
100
AcDbEntity
  8
0
 62
     0
100
AcDbLine
 10
17.393877
 20
6.345334
 30
0.0
 11
17.423877
 21
6.375334
 31
0.0
  0
LINE
  5
10C0
100
AcDbEntity
  8
0
 62
     0
100
AcDbLine
 10
17.482265
 20
6.345334
 30
0.0
 11
17.503437
 21
6.366506
 31
0.0
  0
ENDBLK
  5
10C1
100
AcDbEntity
  8
0
100
AcDbBlockEnd
  0
BLOCK
  5
111C
100
AcDbEntity
  8
ASHADE
100
AcDbBlockBegin
  2
AVE_RENDER
 70
    64
 10
0.0
 20
0.0
 30
0.0
  3
AVE_RENDER
  1
AVE_RENDER
  0
ENDBLK
  5
111D
100
AcDbEntity
  8
0
100
AcDbBlockEnd
  0
BLOCK
  5
112A
100
AcDbEntity
  8
ASHADE
100
AcDbBlockBegin
  2
AVE_GLOBAL
 70
    64
 10
0.0
 20
0.0
 30
0.0
  3
AVE_GLOBAL
  1
AVE_GLOBAL
  0
ENDBLK
  5
112B
100
AcDbEntity
  8
0
100
AcDbBlockEnd
  0
ENDSEC
  0
SECTION
  2
ENTITIES
  0
LINE
  5
90
100
AcDbEntity
  8
FOOT
100
AcDbLine
 10
17.035459
 20
7.806429
 30
0.0
 11
18.876584
 21
7.806427
 31
0.0
  0
LINE
  5
91
100
AcDbEntity
  8
FOOT
100
AcDbLine
 10
16.972959
 20
7.591249
 30
0.0
 11
16.972959
 21
7.743929
 31
0.0
1001
ACAD
1000
ASC_BOUNDS
1002
{
1070
    19
1002
}
  0
LINE
  5
93
100
AcDbEntity
  8
FOOT
100
AcDbLine
 10
18.522351
 20
7.591248
 30
0.0
 11
16.972959
 21
7.591249
 31
0.0
1001
ACAD
1000
ASC_BOUNDS
1002
{
1070
    19
1002
}
  0
LINE
  5
94
100
AcDbEntity
  8
FOOT
100
AcDbLine
 10
19.064631
 20
7.278162
 30
0.0
 11
19.655181
 21
7.278162
 31
0.0
1001
ACAD
1000
ASC_BOUNDS
1002
{
1070
    19
1002
}
  0
LINE
  5
95
100
AcDbEntity
  8
FOOT
100
AcDbLine
 10
18.522348
 20
7.591249
 30
0.0
 11
19.064631
 21
7.278162
 31
0.0
1001
ACAD
1000
ASC_BOUNDS
1002
{
1070
    19
1002
}
  0
LINE
  5
96
100
AcDbEntity
  8
FOOT
100
AcDbLine
 10
18.876584
 20
7.806427
 30
0.0
 11
19.655181
 21
7.356902
 31
0.0
  0
LINE
  5
97
100
AcDbEntity
  8
FOOT
100
AcDbLine
 10
19.655181
 20
7.278162
 30
0.0
 11
19.655181
 21
7.356902
 31
0.0
1001
ACAD
1000
ASC_BOUNDS
1002
{
1070
    19
1002
}
  0
LINE
  5
98
100
AcDbEntity
  8
FOOT
100
AcDbLine
 10
18.530091
 20
7.621248
 30
0.0
 11
16.972959
 21
7.621249
 31
0.0
1001
ACAD
1000
ASC_BOUNDS
1002
{
1070
    19
1002
}
  0
LINE
  5
99
100
AcDbEntity
  8
FOOT
100
AcDbLine
 10
19.072371
 20
7.308162
 30
0.0
 11
19.655181
 21
7.308162
 31
0.0
1001
ACAD
1000
ASC_BOUNDS
1002
{
1070
    19
1002
}
  0
LINE
  5
9A
100
AcDbEntity
  8
FOOT
100
AcDbLine
 10
18.530091
 20
7.621248
 30
0.0
 11
19.072371
 21
7.308162
 31
0.0
1001
ACAD
1000
ASC_BOUNDS
1002
{
1070
    19
1002
}
  0
POLYLINE
  5
CC
100
AcDbEntity
  8
FOOT
100
AcDb2dPolyline
 66
     1
 10
0.0
 20
0.0
 30
0.0
 70
     1
  0
VERTEX
  5
CD
100
AcDbEntity
  8
FOOT
100
AcDbVertex
100
AcDb2dVertex
 10
16.972959
 20
13.56634
 30
0.0
  0
VERTEX
  5
CE
100
AcDbEntity
  8
FOOT
100
AcDbVertex
100
AcDb2dVertex
 10
16.972959
 20
15.08804
 30
0.0
  0
VERTEX
  5
CF
100
AcDbEntity
  8
FOOT
100
AcDbVertex
100
AcDb2dVertex
 10
19.655181
 20
15.08804
 30
0.0
  0
VERTEX
  5
D0
100
AcDbEntity
  8
FOOT
100
AcDbVertex
100
AcDb2dVertex
 10
19.655181
 20
13.56634
 30
0.0
  0
SEQEND
  5
D1
100
AcDbEntity
  8
FOOT
  0
LINE
  5
D3
100
AcDbEntity
  8
FOOT
100
AcDbLine
 10
16.972959
 20
13.59634
 30
0.0
 11
19.655181
 21
13.59634
 31
0.0
  0
LINE
  5
D4
100
AcDbEntity
  8
FOOT
100
AcDbLine
 10
16.972959
 20
15.05804
 30
0.0
 11
19.655181
 21
15.05804
 31
0.0
  0
LINE
  5
D5
100
AcDbEntity
  8
FOOT
100
AcDbLine
 10
18.876584
 20
13.56634
 30
0.0
 11
18.876584
 21
13.59634
 31
0.0
  0
LINE
  5
D6
100
AcDbEntity
  8
FOOT
100
AcDbLine
 10
18.876584
 20
15.05804
 30
0.0
 11
18.876584
 21
15.08804
 31
0.0
  0
LINE
  5
D7
100
AcDbEntity
  8
FOOT
100
AcDbLine
 10
18.530091
 20
13.59634
 30
0.0
 11
18.530091
 21
15.05804
 31
0.0
  0
LINE
  5
D8
100
AcDbEntity
  8
FOOT
100
AcDbLine
 10
19.072357
 20
13.59634
 30
0.0
 11
19.072357
 21
15.05804
 31
0.0
  0
LINE
  5
F5
100
AcDbEntity
  8
CENTER
100
AcDbLine
 10
17.138309
 20
7.679045
 30
0.0
 11
17.138309
 21
7.520224
 31
0.0
1001
ACAD
1000
ASC_BOUNDS
1002
{
1070
    19
1002
}
  0
DIMENSION
  5
15E
100
AcDbEntity
  8
DIM
100
AcDbDimension
  2
*D2
 10
20.486469
 20
15.08804
 30
0.0
 11
21.408969
 21
15.35804
 31
0.0
 12
2.151744
 22
0.0
 32
0.0
 70
    32
  3
STANDARD
100
AcDbAlignedDimension
 13
19.655181
 23
15.05804
 33
0.0
 14
19.655181
 24
15.08804
 34
0.0
 50
90.0
100
AcDbRotatedDimension
1001
ACAD
1000
DSTYLE
1002
{
1070
    40
1040
0.75
1070
     3
1000
"
1070
     4
1000
mm
1070
   170
1070
     1
1002
}
  0
DIMENSION
  5
16C
100
AcDbEntity
  8
DIM
100
AcDbDimension
  2
*D3
 10
29.112557
 20
15.08804
 30
0.0
 11
29.112557
 21
14.34219
 31
0.0
 12
2.151744
 22
0.0
 32
0.0
 70
    32
  3
STANDARD
100
AcDbAlignedDimension
 13
19.655181
 23
13.59634
 33
0.0
 14
19.655181
 24
15.08804
 34
0.0
 50
90.0
100
AcDbRotatedDimension
1001
ACAD
1000
DSTYLE
1002
{
1070
    40
1040
0.75
1070
     3
1000
"
1070
     4
1000
mm
1070
   170
1070
     1
1002
}
  0
DIMENSION
  5
17A
100
AcDbEntity
  8
DIM
100
AcDbDimension
  2
*D4
 10
30.977794
 20
15.08804
 30
0.0
 11
30.977794
 21
14.32719
 31
0.0
 12
2.151744
 22
0.0
 32
0.0
 70
    32
  3
STANDARD
100
AcDbAlignedDimension
 13
19.655181
 23
13.56634
 33
0.0
 14
19.655181
 24
15.08804
 34
0.0
 50
90.0
100
AcDbRotatedDimension
1001
ACAD
1000
DSTYLE
1002
{
1070
    40
1040
0.75
1070
     3
1000
"
1070
     4
1000
mm
1070
   170
1070
     1
1002
}
  0
SOLID
  5
252
100
AcDbEntity
  8
DIM
  6
CONTINUOUS
100
AcDbTrace
 10
16.952737
 20
13.793074
 30
0.0
 11
16.982663
 21
13.759467
 31
0.0
 12
17.10787
 22
13.86605
 32
0.0
 13
17.10787
 23
13.86605
 33
0.0
  0
LINE
  5
253
100
AcDbEntity
  8
DIM
  6
CONTINUOUS
100
AcDbLine
 10
16.9677
 20
13.77627
 30
0.0
 11
16.04713
 21
13.015865
 31
0.0
  0
LINE
  5
254
100
AcDbEntity
  8
DIM
  6
CONTINUOUS
100
AcDbLine
 10
16.04713
 20
13.015865
 30
0.0
 11
15.91213
 21
13.015865
 31
0.0
  0
LINE
  5
255
100
AcDbEntity
  8
DIM
  6
CONTINUOUS
100
AcDbLine
 10
15.91213
 20
13.015865
 30
0.0
 11
15.84463
 21
13.015865
 31
0.0
  0
TEXT
  5
256
100
AcDbEntity
  8
DIM
100
AcDbText
 10
13.446785
 20
12.955409
 30
0.0
 40
0.135
  1
SLOT, \U+22050.126"[3.20mm]
100
AcDbText
  0
TEXT
  5
257
100
AcDbEntity
  8
DIM
100
AcDbText
 10
15.537686
 20
12.723384
 30
0.0
 40
0.135
  1
2X
100
AcDbText
  0
SOLID
  5
2BB
100
AcDbEntity
  8
TEXT
  6
CONTINUOUS
100
AcDbTrace
 10
19.969352
 20
15.269451
 30
0.0
 11
20.014352
 21
15.269451
 31
0.0
 12
19.991852
 22
15.404451
 32
0.0
 13
19.991852
 23
15.404451
 33
0.0
  0
LINE
  5
2BC
100
AcDbEntity
  8
TEXT
  6
CONTINUOUS
100
AcDbLine
 10
19.991852
 20
15.269451
 30
0.0
 11
19.991852
 21
14.3998
 31
0.0
  0
LINE
  5
2BD
100
AcDbEntity
  8
TEXT
  6
CONTINUOUS
100
AcDbLine
 10
19.991852
 20
14.3998
 30
0.0
 11
19.76387
 21
14.3998
 31
0.0
  0
LINE
  5
2BE
100
AcDbEntity
  8
TEXT
  6
CONTINUOUS
100
AcDbLine
 10
16.576377
 20
15.269451
 30
0.0
 11
16.576377
 21
14.3998
 31
0.0
  0
LINE
  5
2BF
100
AcDbEntity
  8
TEXT
  6
CONTINUOUS
100
AcDbLine
 10
16.576377
 20
14.3998
 30
0.0
 11
16.888877
 21
14.3998
 31
0.0
  0
SOLID
  5
2C0
100
AcDbEntity
  8
TEXT
  6
CONTINUOUS
100
AcDbTrace
 10
16.598877
 20
15.269451
 30
0.0
 11
16.553877
 21
15.269451
 31
0.0
 12
16.576377
 22
15.404451
 32
0.0
 13
16.576377
 23
15.404451
 33
0.0
  0
TEXT
  5
2C1
100
AcDbEntity
  8
TEXT
100
AcDbText
 10
16.49913
 20
15.48818
 30
0.0
 40
0.3
  1
A
100
AcDbText
  0
TEXT
  5
2C2
100
AcDbEntity
  8
TEXT
100
AcDbText
 10
19.900477
 20
15.48818
 30
0.0
 40
0.3
  1
A
100
AcDbText
  0
TEXT
  5
2C3
100
AcDbEntity
  8
TEXT
100
AcDbText
 10
18.210617
 20
4.543839
 30
0.0
 40
0.3
  1
A-A
100
AcDbText
  0
TEXT
  5
2C4
100
AcDbEntity
  8
TEXT
100
AcDbText
 10
17.144572
 20
4.543839
 30
0.0
 40
0.135
  1
SECTION
100
AcDbText
  0
TEXT
  5
2C8
100
AcDbEntity
  8
TEXT
100
AcDbText
 10
28.633194
 20
1.504169
 30
0.0
 40
0.12
  1
LAYER 2 BACKWARD ENDPIECE
100
AcDbText
  0
TEXT
  5
2C9
100
AcDbEntity
  8
TEXT
100
AcDbText
 10
28.242789
 20
0.953628
 30
0.0
 40
0.12
  1
C:\B-FAC
100
AcDbText
  0
TEXT
  5
2CA
100
AcDbEntity
  8
TEXT
100
AcDbText
 10
30.222701
 20
1.009379
 30
0.0
 40
0.12
  1
L2-END06
100
AcDbText
  0
TEXT
  5
2CB
100
AcDbEntity
  8
TEXT
100
AcDbText
 10
28.263704
 20
0.68881
 30
0.0
 40
0.12
  1
1=1
100
AcDbText
  0
TEXT
  5
2CC
100
AcDbEntity
  8
TEXT
100
AcDbText
 10
26.339564
 20
1.350854
 30
0.0
 40
0.12
  1
S. KYRE
100
AcDbText
  0
TEXT
  5
2CD
100
AcDbEntity
  8
TEXT
100
AcDbText
 10
27.280719
 20
1.329947
 30
0.0
 40
0.06
  1
02-01-96
100
AcDbText
  0
DIMENSION
  5
2E1
100
AcDbEntity
  8
DIM
100
AcDbDimension
  2
*D5
 10
14.252158
 20
15.08804
 30
0.0
 11
15.208408
 21
15.29054
 31
0.0
 12
2.151744
 22
0.0
 32
0.0
 70
   160
  3
STANDARD
100
AcDbAlignedDimension
 13
16.942463
 23
14.78994
 33
0.0
 14
16.972959
 24
15.08804
 34
0.0
 50
90.0
100
AcDbRotatedDimension
1001
ACAD
1000
DSTYLE
1002
{
1070
   288
1070
     1
1070
    40
1040
0.75
1070
     3
1000
"
1070
     4
1000
mm
1070
   170
1070
     1
1002
}
  0
DIMENSION
  5
30D
100
AcDbEntity
  8
DIM
100
AcDbDimension
  2
*D6
 10
9.630898
 20
15.08804
 30
0.0
 11
9.630898
 21
14.391245
 31
0.0
 12
2.151744
 22
0.0
 32
0.0
 70
   160
  3
STANDARD
100
AcDbAlignedDimension
 13
16.942463
 23
14.053745
 33
0.0
 14
16.972959
 24
15.08804
 34
0.0
 50
90.0
100
AcDbRotatedDimension
1001
ACAD
1000
DSTYLE
1002
{
1070
   288
1070
     1
1070
    40
1040
0.75
1070
     3
1000
"
1070
     4
1000
mm
1070
   170
1070
     1
1002
}
  0
LINE
  5
6CD
100
AcDbEntity
  8
CENTER
100
AcDbLine
 10
19.201433
 20
2.772768
 30
0.0
 11
19.201433
 21
17.304476
 31
0.0
  0
LINE
  5
6CE
100
AcDbEntity
  8
CENTER
100
AcDbLine
 10
26.201205
 20
7.426262
 30
0.0
 11
7.960162
 21
7.426262
 31
0.0
  0
INSERT
  5
852
100
AcDbEntity
  8
FOOT
100
AcDbBlockReference
  2
*U7
 10
17.138309
 20
13.86874
 30
0.0
 50
90.0
1001
TB_S_MPD
1070
   100
1000
SLOT
1070
   101
1000
TOOLBOX 13.0 SLOT 2.0
1070
   103
1000
STD
1070
   306
1040
0.126
1070
   307
1040
0.03
1070
   112
1000
SLOT
1070
   102
1000
Near side
1070
   116
1000
T
1070
   308
1040
0.03
1070
   309
1040
0.063
1070
   310
1040
0.185
1070
   311
1040
90.0
  0
INSERT
  5
853
100
AcDbEntity
  8
FOOT
100
AcDbBlockReference
  2
*U7
 10
17.138309
 20
14.604936
 30
0.0
 50
90.0
1001
TB_S_MPD
1070
   100
1000
SLOT
1070
   101
1000
TOOLBOX 13.0 SLOT 2.0
1070
   103
1000
STD
1070
   306
1040
0.126
1070
   307
1040
0.03
1070
   112
1000
SLOT
1070
   102
1000
Near side
1070
   116
1000
T
1070
   308
1040
0.03
1070
   309
1040
0.063
1070
   310
1040
0.185
1070
   311
1040
90.0
  0
DIMENSION
  5
8D7
100
AcDbEntity
  8
DIM
100
AcDbDimension
  2
*D8
 10
22.241501
 20
15.08804
 30
0.0
 11
23.186501
 21
15.35804
 31
0.0
 12
2.151744
 22
0.0
 32
0.0
 70
    32
  3
STANDARD
100
AcDbAlignedDimension
 13
17.468011
 23
14.809686
 33
0.0
 14
19.655181
 24
15.08804
 34
0.0
 50
90.0
100
AcDbRotatedDimension
1001
ACAD
1000
DSTYLE
1002
{
1070
    47
1040
0.001
1070
    48
1040
0.001
1070
   272
1070
     3
1070
    40
1040
0.75
1070
     3
1000
"
1070
     4
1000
mm
1070
   170
1070
     1
1002
}
  0
DIMENSION
  5
8F4
100
AcDbEntity
  8
DIM
100
AcDbDimension
  2
*D9
 10
25.425215
 20
15.08804
 30
0.0
 11
25.425215
 21
14.580765
 31
0.0
 12
2.151744
 22
0.0
 32
0.0
 70
    32
  3
STANDARD
100
AcDbAlignedDimension
 13
17.504976
 23
14.07349
 33
0.0
 14
19.655181
 24
15.08804
 34
0.0
 50
90.0
100
AcDbRotatedDimension
1001
ACAD
1000
DSTYLE
1002
{
1070
    47
1040
0.001
1070
    48
1040
0.001
1070
   272
1070
     3
1070
    40
1040
0.75
1070
     3
1000
"
1070
     4
1000
mm
1070
   170
1070
     1
1002
}
  0
LEADER
  5
93F
100
AcDbEntity
  8
DIM
100
AcDbLeader
  3
STANDARD
 73
     0
 75
     1
 40
0.36
 41
2.3175
 76
     3
 10
17.261766
 20
13.762332
 30
0.0
 10
15.863439
 20
12.339543
 30
0.0
 10
15.728439
 20
12.339543
 30
0.0
 77
   256
1001
ACAD
1000
DSTYLE
1002
{
1070
    47
1040
0.001
1070
    48
1040
0.001
1070
   272
1070
     3
1070
    40
1040
0.75
1070
     3
1000
"
1070
     4
1000
mm
1070
   170
1070
     1
1002
}
  0
MTEXT
  5
940
100
AcDbEntity
  8
DIM
100
AcDbMText
 10
15.660939
 20
12.339543
 30
0.0
 40
0.135
 41
0.0
 71
     6
 72
     1
  1
{SLOT, \U+22050.079"[2.00mm]}\P{2X}
  0
DIMENSION
  5
94F
100
AcDbEntity
  8
DIM
100
AcDbDimension
  2
*D10
 10
21.755579
 20
13.84899
 30
0.0
 11
20.810579
 21
13.254718
 31
0.0
 12
2.151744
 22
0.0
 32
0.0
 70
   160
  1
{<>}\P{2X}
  3
STANDARD
100
AcDbAlignedDimension
 13
17.468011
 23
14.07349
 33
0.0
 14
17.468011
 24
13.84899
 34
0.0
 50
90.0
100
AcDbRotatedDimension
1001
ACAD
1000
DSTYLE
1002
{
1070
   288
1070
     1
1070
    47
1040
0.001
1070
    48
1040
0.001
1070
   272
1070
     3
1070
    40
1040
0.75
1070
     3
1000
"
1070
     4
1000
mm
1070
   170
1070
     1
1002
}
  0
SOLID
  5
951
100
AcDbEntity
  8
DIM
  6
CONTINUOUS
100
AcDbTrace
 10
19.330838
 20
7.545887
 30
0.0
 11
19.295297
 21
7.573489
 31
0.0
 12
19.230263
 22
7.453066
 32
0.0
 13
19.230263
 23
7.453066
 33
0.0
  0
LINE
  5
952
100
AcDbEntity
  8
DIM
  6
CONTINUOUS
100
AcDbLine
 10
19.313068
 20
7.559688
 30
0.0
 11
20.104967
 21
8.660748
 31
0.0
  0
LINE
  5
953
100
AcDbEntity
  8
DIM
  6
CONTINUOUS
100
AcDbLine
 10
20.104967
 20
8.660748
 30
0.0
 11
20.239967
 21
8.660748
 31
0.0
  0
LINE
  5
954
100
AcDbEntity
  8
DIM
  6
CONTINUOUS
100
AcDbLine
 10
20.239967
 20
8.660748
 30
0.0
 11
20.307467
 21
8.660748
 31
0.0
  0
TEXT
  5
955
100
AcDbEntity
  8
DIM
100
AcDbText
 10
20.408717
 20
8.593248
 30
0.0
 40
0.135
  1
%%C0.095"%%P0.001"[2.41mm%%P0.03mm]
100
AcDbText
  0
TEXT
  5
956
100
AcDbEntity
  8
DIM
100
AcDbText
 10
20.408717
 20
8.371173
 30
0.0
 40
0.135
  1
4 HOLES
100
AcDbText
  0
POLYLINE
  5
95C
100
AcDbEntity
  8
REDTEXT
100
AcDb2dPolyline
 66
     1
 10
0.0
 20
0.0
 30
0.0
 70
     1
  0
VERTEX
  5
95D
100
AcDbEntity
  8
REDTEXT
100
AcDbVertex
100
AcDb2dVertex
 10
19.014672
 20
17.414342
 30
0.0
  0
VERTEX
  5
95E
100
AcDbEntity
  8
REDTEXT
100
AcDbVertex
100
AcDb2dVertex
 10
19.014672
 20
17.789342
 30
0.0
  0
VERTEX
  5
95F
100
AcDbEntity
  8
REDTEXT
100
AcDbVertex
100
AcDb2dVertex
 10
19.389672
 20
17.789342
 30
0.0
  0
VERTEX
  5
960
100
AcDbEntity
  8
REDTEXT
100
AcDbVertex
100
AcDb2dVertex
 10
19.389672
 20
17.414342
 30
0.0
  0
SEQEND
  5
961
100
AcDbEntity
  8
REDTEXT
  0
TEXT
  5
962
100
AcDbEntity
  8
REDTEXT
100
AcDbText
 10
19.136398
 20
17.479855
 30
0.0
 40
0.25
  1
0
100
AcDbText
  0
POLYLINE
  5
964
100
AcDbEntity
  8
REDTEXT
100
AcDb2dPolyline
 66
     1
 10
0.0
 20
0.0
 30
0.0
 70
     1
  0
VERTEX
  5
965
100
AcDbEntity
  8
REDTEXT
100
AcDbVertex
100
AcDb2dVertex
 10
26.312279
 20
7.236641
 30
0.0
  0
VERTEX
  5
966
100
AcDbEntity
  8
REDTEXT
100
AcDbVertex
100
AcDb2dVertex
 10
26.312279
 20
7.611641
 30
0.0
  0
VERTEX
  5
967
100
AcDbEntity
  8
REDTEXT
100
AcDbVertex
100
AcDb2dVertex
 10
26.687279
 20
7.611641
 30
0.0
  0
VERTEX
  5
968
100
AcDbEntity
  8
REDTEXT
100
AcDbVertex
100
AcDb2dVertex
 10
26.687279
 20
7.236641
 30
0.0
  0
SEQEND
  5
969
100
AcDbEntity
  8
REDTEXT
  0
TEXT
  5
96A
100
AcDbEntity
  8
REDTEXT
100
AcDbText
 10
26.434005
 20
7.302153
 30
0.0
 40
0.25
  1
0
100
AcDbText
  0
LINE
  5
977
100
AcDbEntity
  8
TEXT
100
AcDbLine
 10
26.983049
 20
19.874896
 30
0.0
 11
26.983049
 21
18.4811
 31
0.0
  0
LINE
  5
978
100
AcDbEntity
  8
TEXT
100
AcDbLine
 10
27.373302
 20
19.874896
 30
0.0
 11
27.373302
 21
18.4811
 31
0.0
  0
LINE
  5
979
100
AcDbEntity
  8
TEXT
100
AcDbLine
 10
30.113302
 20
19.874896
 30
0.0
 11
30.113302
 21
18.4811
 31
0.0
  0
LINE
  5
97A
100
AcDbEntity
  8
TEXT
100
AcDbLine
 10
30.993302
 20
19.874896
 30
0.0
 11
30.993302
 21
18.4811
 31
0.0
  0
TEXT
  5
97B
100
AcDbEntity
  8
TEXT
100
AcDbText
 10
27.099856
 20
19.6686
 30
0.0
 40
0.08
  1
01
100
AcDbText
  0
TEXT
  5
97C
100
AcDbEntity
  8
TEXT
100
AcDbText
 10
27.099856
 20
19.535267
 30
0.0
 40
0.08
  1
02
100
AcDbText
  0
TEXT
  5
97D
100
AcDbEntity
  8
TEXT
100
AcDbText
 10
27.474856
 20
19.6686
 30
0.0
 40
0.08
  1
CHANGE WALLTHICKNESS TO .03"
100
AcDbText
  0
TEXT
  5
97E
100
AcDbEntity
  8
TEXT
100
AcDbText
 10
27.474856
 20
19.535267
 30
0.0
 40
0.08
  1
ADD LOCATING HOLES AND
100
AcDbText
  0
TEXT
  5
97F
100
AcDbEntity
  8
TEXT
100
AcDbText
 10
27.474856
 20
19.401933
 30
0.0
 40
0.08
  1
LIGHTNING HOLES
100
AcDbText
  0
TEXT
  5
980
100
AcDbEntity
  8
TEXT
100
AcDbText
 10
30.287356
 20
19.6686
 30
0.0
 40
0.08
  1
11-21-95
100
AcDbText
  0
TEXT
  5
981
100
AcDbEntity
  8
TEXT
100
AcDbText
 10
30.287356
 20
19.535267
 30
0.0
 40
0.08
  1
02-01-96
100
AcDbText
  0
INSERT
  5
990
100
AcDbEntity
  8
FOOT
100
AcDbBlockReference
  2
*U11
 10
17.472945
 20
14.32719
 30
0.0
1001
TB_S_MPD
1070
   100
1000
HOLE
1070
   101
1000
TOOLBOX 13.0 HOLE 2.0
1070
   112
1000
3/32 (.0938) DIAMETER HOLE
1070
   102
1000
Near side
1070
   103
1000
ANSI-Fraction
1070
   104
1000
hole
1070
   105
1000
_usf
1070
   304
1040
0.0
1070
   305
1040
0.0
1070
   306
1040
0.09375
1070
   302
1040
0.0
1070
   303
1040
0.0
1070
   307
1040
0.03
1070
   300
1040
0.125
1070
   110
1000
1
1070
   111
1000
3/32
1070
   116
1000
T
1070
   308
1040
0.03
  0
INSERT
  5
991
100
AcDbEntity
  8
FOOT
100
AcDbBlockReference
  2
*U11
 10
19.398572
 20
14.32719
 30
0.0
1001
TB_S_MPD
1070
   100
1000
HOLE
1070
   101
1000
TOOLBOX 13.0 HOLE 2.0
1070
   112
1000
3/32 (.0938) DIAMETER HOLE
1070
   102
1000
Near side
1070
   103
1000
ANSI-Fraction
1070
   104
1000
hole
1070
   105
1000
_usf
1070
   304
1040
0.0
1070
   305
1040
0.0
1070
   306
1040
0.09375
1070
   302
1040
0.0
1070
   303
1040
0.0
1070
   307
1040
0.03
1070
   300
1040
0.125
1070
   110
1000
1
1070
   111
1000
3/32
1070
   116
1000
T
1070
   308
1040
0.03
  0
INSERT
  5
99C
100
AcDbEntity
  8
FOOT
100
AcDbBlockReference
  2
*U12
 10
18.347945
 20
14.32719
 30
0.0
1001
TB_S_MPD
1070
   100
1000
HOLE
1070
   101
1000
TOOLBOX 13.0 HOLE 2.0
1070
   112
1000
#32 (.116) DIAMETER HOLE
1070
   102
1000
Near side
1070
   103
1000
ANSI-Number
1070
   104
1000
hole
1070
   105
1000
_usn
1070
   304
1040
0.0
1070
   305
1040
0.0
1070
   306
1040
0.116
1070
   302
1040
0.0
1070
   303
1040
0.0
1070
   307
1040
0.03
1070
   300
1040
0.125
1070
   110
1000
1
1070
   111
1000
#32
1070
   116
1000
T
1070
   308
1040
0.03
  0
LINE
  5
9E8
100
AcDbEntity
  8
FOOT
100
AcDbLine
 10
19.072357
 20
15.05804
 30
0.0
 11
19.655181
 21
15.05804
 31
0.0
  0
LINE
  5
A14
100
AcDbEntity
  8
FOOT
100
AcDbLine
 10
19.31114
 20
13.83341
 30
0.0
 11
19.215615
 21
13.699675
 31
0.0
  0
ARC
  5
A15
100
AcDbEntity
  8
FOOT
100
AcDbCircle
 10
19.241044
 20
13.681511
 30
0.0
 40
0.03125
100
AcDbArc
 50
144.462322
 51
270.0
  0
LINE
  5
A16
100
AcDbEntity
  8
FOOT
100
AcDbLine
 10
19.241044
 20
13.650261
 30
0.0
 11
19.432094
 21
13.650261
 31
0.0
  0
ARC
  5
A17
100
AcDbEntity
  8
FOOT
100
AcDbCircle
 10
19.432094
 20
13.681511
 30
0.0
 40
0.03125
100
AcDbArc
 50
270.0
 51
35.537678
  0
LINE
  5
A18
100
AcDbEntity
  8
FOOT
100
AcDbLine
 10
19.457524
 20
13.699675
 30
0.0
 11
19.361998
 21
13.83341
 31
0.0
  0
ARC
  5
A19
100
AcDbEntity
  8
FOOT
100
AcDbCircle
 10
19.336569
 20
13.815247
 30
0.0
 40
0.03125
100
AcDbArc
 50
35.537678
 51
144.462322
  0
LINE
  5
A1A
100
AcDbEntity
  8
FOOT
100
AcDbLine
 10
19.31114
 20
14.029612
 30
0.0
 11
19.215615
 21
14.163348
 31
0.0
  0
LINE
  5
A1B
100
AcDbEntity
  8
FOOT
100
AcDbLine
 10
19.457524
 20
14.163348
 30
0.0
 11
19.361998
 21
14.029612
 31
0.0
  0
LINE
  5
A1C
100
AcDbEntity
  8
FOOT
100
AcDbLine
 10
19.241044
 20
14.212761
 30
0.0
 11
19.432094
 21
14.212761
 31
0.0
  0
ARC
  5
A1D
100
AcDbEntity
  8
FOOT
100
AcDbCircle
 10
19.336569
 20
14.047776
 30
0.0
 40
0.03125
100
AcDbArc
 50
215.537678
 51
324.462322
  0
ARC
  5
A1E
100
AcDbEntity
  8
FOOT
100
AcDbCircle
 10
19.241044
 20
14.181511
 30
0.0
 40
0.03125
100
AcDbArc
 50
90.0
 51
215.537678
  0
ARC
  5
A1F
100
AcDbEntity
  8
FOOT
100
AcDbCircle
 10
19.432094
 20
14.181511
 30
0.0
 40
0.03125
100
AcDbArc
 50
324.462322
 51
90.0
  0
LINE
  5
A2E
100
AcDbEntity
  8
FOOT
100
AcDbLine
 10
19.261095
 20
13.949675
 30
0.0
 11
19.174498
 21
14.07091
 31
0.0
  0
ARC
  5
A2F
100
AcDbEntity
  8
FOOT
100
AcDbCircle
 10
19.149069
 20
14.052747
 30
0.0
 40
0.03125
100
AcDbArc
 50
35.537678
 51
180.0
  0
LINE
  5
A30
100
AcDbEntity
  8
FOOT
100
AcDbLine
 10
19.117819
 20
14.052747
 30
0.0
 11
19.117819
 21
13.810276
 31
0.0
  0
ARC
  5
A31
100
AcDbEntity
  8
FOOT
100
AcDbCircle
 10
19.149069
 20
13.810276
 30
0.0
 40
0.03125
100
AcDbArc
 50
180.0
 51
324.462322
  0
LINE
  5
A32
100
AcDbEntity
  8
FOOT
100
AcDbLine
 10
19.174498
 20
13.792112
 30
0.0
 11
19.261095
 21
13.913348
 31
0.0
  0
ARC
  5
A33
100
AcDbEntity
  8
FOOT
100
AcDbCircle
 10
19.235666
 20
13.931511
 30
0.0
 40
0.03125
100
AcDbArc
 50
324.462322
 51
35.537678
  0
LINE
  5
A34
100
AcDbEntity
  8
FOOT
100
AcDbLine
 10
19.412043
 20
13.949675
 30
0.0
 11
19.49864
 21
14.07091
 31
0.0
  0
LINE
  5
A35
100
AcDbEntity
  8
FOOT
100
AcDbLine
 10
19.49864
 20
13.792112
 30
0.0
 11
19.412043
 21
13.913348
 31
0.0
  0
ARC
  5
A36
100
AcDbEntity
  8
FOOT
100
AcDbCircle
 10
19.437472
 20
13.931511
 30
0.0
 40
0.03125
100
AcDbArc
 50
144.462322
 51
215.537678
  0
LINE
  5
A37
100
AcDbEntity
  8
FOOT
100
AcDbLine
 10
19.555319
 20
14.052747
 30
0.0
 11
19.555319
 21
13.810276
 31
0.0
  0
ARC
  5
A38
100
AcDbEntity
  8
FOOT
100
AcDbCircle
 10
19.524069
 20
13.810276
 30
0.0
 40
0.03125
100
AcDbArc
 50
215.537678
 51
0.0
  0
ARC
  5
A39
100
AcDbEntity
  8
FOOT
100
AcDbCircle
 10
19.524069
 20
14.052747
 30
0.0
 40
0.03125
100
AcDbArc
 50
0.0
 51
144.462322
  0
LINE
  5
A3A
100
AcDbEntity
  8
FOOT
100
AcDbLine
 10
19.261095
 20
14.704705
 30
0.0
 11
19.174498
 21
14.58347
 31
0.0
  0
LINE
  5
A3B
100
AcDbEntity
  8
FOOT
100
AcDbLine
 10
19.174498
 20
14.862268
 30
0.0
 11
19.261095
 21
14.741033
 31
0.0
  0
LINE
  5
A3C
100
AcDbEntity
  8
FOOT
100
AcDbLine
 10
19.117819
 20
14.601634
 30
0.0
 11
19.117819
 21
14.844104
 31
0.0
  0
ARC
  5
A3D
100
AcDbEntity
  8
FOOT
100
AcDbCircle
 10
19.149069
 20
14.844104
 30
0.0
 40
0.03125
100
AcDbArc
 50
35.537678
 51
180.0
  0
ARC
  5
A3E
100
AcDbEntity
  8
FOOT
100
AcDbCircle
 10
19.149069
 20
14.601634
 30
0.0
 40
0.03125
100
AcDbArc
 50
180.0
 51
324.462322
  0
LINE
  5
A3F
100
AcDbEntity
  8
FOOT
100
AcDbLine
 10
19.457524
 20
14.491033
 30
0.0
 11
19.361998
 21
14.624768
 31
0.0
  0
LINE
  5
A40
100
AcDbEntity
  8
FOOT
100
AcDbLine
 10
19.31114
 20
14.624768
 30
0.0
 11
19.215615
 21
14.491033
 31
0.0
  0
LINE
  5
A41
100
AcDbEntity
  8
FOOT
100
AcDbLine
 10
19.555319
 20
14.601634
 30
0.0
 11
19.555319
 21
14.844104
 31
0.0
  0
LINE
  5
A42
100
AcDbEntity
  8
FOOT
100
AcDbLine
 10
19.49864
 20
14.862268
 30
0.0
 11
19.412043
 21
14.741033
 31
0.0
  0
LINE
  5
A43
100
AcDbEntity
  8
FOOT
100
AcDbLine
 10
19.457524
 20
14.954705
 30
0.0
 11
19.361998
 21
14.82097
 31
0.0
  0
LINE
  5
A44
100
AcDbEntity
  8
FOOT
100
AcDbLine
 10
19.241044
 20
15.004119
 30
0.0
 11
19.432094
 21
15.004119
 31
0.0
  0
ARC
  5
A45
100
AcDbEntity
  8
FOOT
100
AcDbCircle
 10
19.336569
 20
14.839134
 30
0.0
 40
0.03125
100
AcDbArc
 50
215.537678
 51
324.462322
  0
LINE
  5
A46
100
AcDbEntity
  8
FOOT
100
AcDbLine
 10
19.31114
 20
14.82097
 30
0.0
 11
19.215615
 21
14.954705
 31
0.0
  0
ARC
  5
A47
100
AcDbEntity
  8
FOOT
100
AcDbCircle
 10
19.241044
 20
14.972869
 30
0.0
 40
0.03125
100
AcDbArc
 50
90.0
 51
215.537678
  0
ARC
  5
A48
100
AcDbEntity
  8
FOOT
100
AcDbCircle
 10
19.524069
 20
14.844104
 30
0.0
 40
0.03125
100
AcDbArc
 50
0.0
 51
144.462322
  0
ARC
  5
A49
100
AcDbEntity
  8
FOOT
100
AcDbCircle
 10
19.432094
 20
14.972869
 30
0.0
 40
0.03125
100
AcDbArc
 50
324.462322
 51
90.0
  0
ARC
  5
A4A
100
AcDbEntity
  8
FOOT
100
AcDbCircle
 10
19.235666
 20
14.722869
 30
0.0
 40
0.03125
100
AcDbArc
 50
324.462322
 51
35.537678
  0
ARC
  5
A4B
100
AcDbEntity
  8
FOOT
100
AcDbCircle
 10
19.336569
 20
14.606604
 30
0.0
 40
0.03125
100
AcDbArc
 50
35.537678
 51
144.462322
  0
ARC
  5
A4C
100
AcDbEntity
  8
FOOT
100
AcDbCircle
 10
19.524069
 20
14.601634
 30
0.0
 40
0.03125
100
AcDbArc
 50
215.537678
 51
0.0
  0
ARC
  5
A4D
100
AcDbEntity
  8
FOOT
100
AcDbCircle
 10
19.437472
 20
14.722869
 30
0.0
 40
0.03125
100
AcDbArc
 50
144.462322
 51
215.537678
  0
LINE
  5
A4E
100
AcDbEntity
  8
FOOT
100
AcDbLine
 10
19.412043
 20
14.704705
 30
0.0
 11
19.49864
 21
14.58347
 31
0.0
  0
LINE
  5
A4F
100
AcDbEntity
  8
FOOT
100
AcDbLine
 10
19.241044
 20
14.441619
 30
0.0
 11
19.432094
 21
14.441619
 31
0.0
  0
ARC
  5
A50
100
AcDbEntity
  8
FOOT
100
AcDbCircle
 10
19.241044
 20
14.472869
 30
0.0
 40
0.03125
100
AcDbArc
 50
144.462322
 51
270.0
  0
ARC
  5
A51
100
AcDbEntity
  8
FOOT
100
AcDbCircle
 10
19.432094
 20
14.472869
 30
0.0
 40
0.03125
100
AcDbArc
 50
270.0
 51
35.537678
  0
CIRCLE
  5
B1A
100
AcDbEntity
  8
DIM
100
AcDbCircle
 10
19.360293
 20
14.740556
 30
0.0
 40
0.362512
  0
LEADER
  5
B1B
100
AcDbEntity
  8
DIM
100
AcDbLeader
  3
STANDARD
 73
     0
 75
     1
 40
0.36
 41
2.925
 76
     3
 10
19.181337
 20
15.068478
 30
0.0
 10
18.102064
 20
17.224514
 30
0.0
 10
17.967064
 20
17.224514
 30
0.0
 77
   256
1001
ACAD
1000
DSTYLE
1002
{
1070
    47
1040
0.001
1070
    71
1070
     1
1070
    48
1040
0.001
1070
   272
1070
     3
1070
    75
1070
     1
1070
    40
1040
0.75
1070
     3
1000
"
1070
     4
1000
mm
1070
   170
1070
     1
1002
}
  0
MTEXT
  5
B1C
100
AcDbEntity
  8
DIM
100
AcDbMText
 10
17.890357
 20
17.111148
 30
0.0
 40
0.135
 41
0.0
 71
     6
 72
     1
  1
{FOR PATTERN OF CUT OUT}\P{SEE DRAWING L2-END04}
  0
SOLID
  5
B7E
100
AcDbEntity
  8
DIM
  6
CONTINUOUS
100
AcDbTrace
 10
18.275228
 20
14.507377
 30
0.0
 11
18.235728
 21
14.485818
 31
0.0
 12
18.320157
 22
14.3781
 32
0.0
 13
18.320157
 23
14.3781
 33
0.0
  0
LINE
  5
B7F
100
AcDbEntity
  8
DIM
  6
CONTINUOUS
100
AcDbLine
 10
18.255478
 20
14.496598
 30
0.0
 11
17.33865
 21
16.544924
 31
0.0
  0
LINE
  5
B80
100
AcDbEntity
  8
DIM
  6
CONTINUOUS
100
AcDbLine
 10
17.33865
 20
16.544924
 30
0.0
 11
17.20365
 21
16.544924
 31
0.0
  0
LINE
  5
B81
100
AcDbEntity
  8
DIM
  6
CONTINUOUS
100
AcDbLine
 10
17.20365
 20
16.544924
 30
0.0
 11
17.13615
 21
16.544924
 31
0.0
  0
TEXT
  5
B82
100
AcDbEntity
  8
DIM
100
AcDbText
 10
15.362746
 20
16.477424
 30
0.0
 40
0.135
  1
%%C0.116"[2.95mm]
100
AcDbText
  0
DIMENSION
  5
B90
100
AcDbEntity
  8
DIM
100
AcDbDimension
  2
*D13
 10
12.485374
 20
14.32719
 30
0.0
 11
12.485374
 21
14.707615
 31
0.0
 12
2.151744
 22
0.0
 32
0.0
 70
    32
  3
STANDARD
100
AcDbAlignedDimension
 13
16.972959
 23
15.08804
 33
0.0
 14
17.30107
 24
14.32719
 34
0.0
 50
90.0
100
AcDbRotatedDimension
1001
ACAD
1000
DSTYLE
1002
{
1070
    47
1040
0.001
1070
    71
1070
     1
1070
    48
1040
0.001
1070
   272
1070
     3
1070
    40
1040
0.75
1070
     3
1000
"
1070
     4
1000
mm
1070
   170
1070
     1
1002
}
  0
LEADER
  5
BAA
100
AcDbEntity
  8
DIM
100
AcDbLeader
  3
STANDARD
 73
     0
 75
     1
 40
0.135
 41
3.0825
 76
     3
 10
17.448232
 20
14.377093
 30
0.0
 10
16.858665
 20
16.046842
 30
0.0
 10
16.723665
 20
16.046842
 30
0.0
 77
   256
1001
ACAD
1000
DSTYLE
1002
{
1070
    47
1040
0.001
1070
    71
1070
     1
1070
    48
1040
0.001
1070
   272
1070
     3
1070
    40
1040
0.75
1070
     3
1000
"
1070
     4
1000
mm
1070
   170
1070
     1
1002
}
  0
MTEXT
  5
BAB
100
AcDbEntity
  8
DIM
100
AcDbMText
 10
16.656165
 20
16.046842
 30
0.0
 40
0.135
 41
0.0
 71
     6
 72
     1
  1
{\U+22050.095"±0.001"[2.41mm±0.03mm]}\P{2X}
  0
POLYLINE
  5
BF1
100
AcDbEntity
  8
FOOT
100
AcDb2dPolyline
 66
     1
 10
0.0
 20
0.0
 30
0.0
 70
     1
  0
VERTEX
  5
BF2
100
AcDbEntity
  8
FOOT
100
AcDbVertex
100
AcDb2dVertex
 10
17.264311
 20
14.585186
 30
0.0
 42
1.0
  0
VERTEX
  5
BF3
100
AcDbEntity
  8
FOOT
100
AcDbVertex
100
AcDb2dVertex
 10
17.343011
 20
14.585186
 30
0.0
  0
VERTEX
  5
BF4
100
AcDbEntity
  8
FOOT
100
AcDbVertex
100
AcDb2dVertex
 10
17.343011
 20
14.809686
 30
0.0
 42
1.0
  0
VERTEX
  5
BF5
100
AcDbEntity
  8
FOOT
100
AcDbVertex
100
AcDb2dVertex
 10
17.264311
 20
14.809686
 30
0.0
  0
SEQEND
  5
BF6
100
AcDbEntity
  8
FOOT
  0
LINE
  5
BF7
100
AcDbEntity
  8
CENTER
100
AcDbLine
 10
17.303661
 20
14.572069
 30
0.0
 11
17.303661
 21
14.598302
 31
0.0
  0
LINE
  5
BF8
100
AcDbEntity
  8
CENTER
100
AcDbLine
 10
17.316778
 20
14.585186
 30
0.0
 11
17.290544
 21
14.585186
 31
0.0
  0
LINE
  5
BF9
100
AcDbEntity
  8
CENTER
100
AcDbLine
 10
17.303661
 20
14.611419
 30
0.0
 11
17.303661
 21
14.710236
 31
0.0
  0
LINE
  5
BFA
100
AcDbEntity
  8
CENTER
100
AcDbLine
 10
17.277428
 20
14.585186
 30
0.0
 11
17.139311
 21
14.585186
 31
0.0
  0
LINE
  5
BFB
100
AcDbEntity
  8
CENTER
100
AcDbLine
 10
17.303661
 20
14.558952
 30
0.0
 11
17.303661
 21
14.420836
 31
0.0
  0
LINE
  5
BFC
100
AcDbEntity
  8
CENTER
100
AcDbLine
 10
17.329894
 20
14.585186
 30
0.0
 11
17.468011
 21
14.585186
 31
0.0
  0
LINE
  5
BFD
100
AcDbEntity
  8
CENTER
100
AcDbLine
 10
17.303661
 20
14.796569
 30
0.0
 11
17.303661
 21
14.822802
 31
0.0
  0
LINE
  5
BFE
100
AcDbEntity
  8
CENTER
100
AcDbLine
 10
17.316778
 20
14.809686
 30
0.0
 11
17.290544
 21
14.809686
 31
0.0
  0
LINE
  5
BFF
100
AcDbEntity
  8
CENTER
100
AcDbLine
 10
17.303661
 20
14.835919
 30
0.0
 11
17.303661
 21
14.974036
 31
0.0
  0
LINE
  5
C00
100
AcDbEntity
  8
CENTER
100
AcDbLine
 10
17.277428
 20
14.809686
 30
0.0
 11
17.139311
 21
14.809686
 31
0.0
  0
LINE
  5
C01
100
AcDbEntity
  8
CENTER
100
AcDbLine
 10
17.303661
 20
14.822752
 30
0.0
 11
17.303661
 21
14.684636
 31
0.0
  0
LINE
  5
C02
100
AcDbEntity
  8
CENTER
100
AcDbLine
 10
17.329894
 20
14.809686
 30
0.0
 11
17.468011
 21
14.809686
 31
0.0
  0
POLYLINE
  5
C10
100
AcDbEntity
  8
FOOT
100
AcDb2dPolyline
 66
     1
 10
0.0
 20
0.0
 30
0.0
 70
     1
  0
VERTEX
  5
C11
100
AcDbEntity
  8
FOOT
100
AcDbVertex
100
AcDb2dVertex
 10
17.264311
 20
13.84899
 30
0.0
 42
1.0
  0
VERTEX
  5
C12
100
AcDbEntity
  8
FOOT
100
AcDbVertex
100
AcDb2dVertex
 10
17.343011
 20
13.84899
 30
0.0
  0
VERTEX
  5
C13
100
AcDbEntity
  8
FOOT
100
AcDbVertex
100
AcDb2dVertex
 10
17.343011
 20
14.07349
 30
0.0
 42
1.0
  0
VERTEX
  5
C14
100
AcDbEntity
  8
FOOT
100
AcDbVertex
100
AcDb2dVertex
 10
17.264311
 20
14.07349
 30
0.0
  0
SEQEND
  5
C15
100
AcDbEntity
  8
FOOT
  0
LINE
  5
C16
100
AcDbEntity
  8
CENTER
100
AcDbLine
 10
17.303661
 20
14.086557
 30
0.0
 11
17.303661
 21
13.94844
 31
0.0
  0
LINE
  5
C17
100
AcDbEntity
  8
CENTER
100
AcDbLine
 10
17.329894
 20
13.84899
 30
0.0
 11
17.468011
 21
13.84899
 31
0.0
  0
LINE
  5
C18
100
AcDbEntity
  8
CENTER
100
AcDbLine
 10
17.303661
 20
13.822757
 30
0.0
 11
17.303661
 21
13.68464
 31
0.0
  0
LINE
  5
C19
100
AcDbEntity
  8
CENTER
100
AcDbLine
 10
17.277428
 20
13.84899
 30
0.0
 11
17.139311
 21
13.84899
 31
0.0
  0
LINE
  5
C1A
100
AcDbEntity
  8
CENTER
100
AcDbLine
 10
17.303661
 20
13.835873
 30
0.0
 11
17.303661
 21
13.862107
 31
0.0
  0
LINE
  5
C1B
100
AcDbEntity
  8
CENTER
100
AcDbLine
 10
17.316778
 20
13.84899
 30
0.0
 11
17.290544
 21
13.84899
 31
0.0
  0
LINE
  5
C1C
100
AcDbEntity
  8
CENTER
100
AcDbLine
 10
17.303661
 20
13.875223
 30
0.0
 11
17.303661
 21
13.97404
 31
0.0
  0
LINE
  5
C1D
100
AcDbEntity
  8
CENTER
100
AcDbLine
 10
17.329894
 20
14.07349
 30
0.0
 11
17.468011
 21
14.07349
 31
0.0
  0
LINE
  5
C1E
100
AcDbEntity
  8
CENTER
100
AcDbLine
 10
17.277428
 20
14.07349
 30
0.0
 11
17.139311
 21
14.07349
 31
0.0
  0
LINE
  5
C1F
100
AcDbEntity
  8
CENTER
100
AcDbLine
 10
17.303661
 20
14.060373
 30
0.0
 11
17.303661
 21
14.086607
 31
0.0
  0
LINE
  5
C20
100
AcDbEntity
  8
CENTER
100
AcDbLine
 10
17.316778
 20
14.07349
 30
0.0
 11
17.290544
 21
14.07349
 31
0.0
  0
LINE
  5
C21
100
AcDbEntity
  8
CENTER
100
AcDbLine
 10
17.303661
 20
14.099723
 30
0.0
 11
17.303661
 21
14.23784
 31
0.0
  0
LINE
  5
C58
100
AcDbEntity
  8
CENTER
100
AcDbLine
 10
19.205658
 20
14.722869
 30
0.0
 11
19.462414
 21
14.722869
 31
0.0
  0
LINE
  5
C59
100
AcDbEntity
  8
CENTER
100
AcDbLine
 10
19.336569
 20
14.85897
 30
0.0
 11
19.336569
 21
14.590261
 31
0.0
  0
LINE
  5
C5A
100
AcDbEntity
  8
CENTER
100
AcDbLine
 10
19.336569
 20
13.795411
 30
0.0
 11
19.336569
 21
14.064119
 31
0.0
  0
LINE
  5
C5B
100
AcDbEntity
  8
CENTER
100
AcDbLine
 10
19.205658
 20
13.931511
 30
0.0
 11
19.462414
 21
13.931511
 31
0.0
  0
INSERT
  5
D48
100
AcDbEntity
  8
TEXT
100
AcDbBlockReference
  2
D-BORDER
 10
0.0
 20
0.0
 30
0.0
  0
DIMENSION
  5
D7C
100
AcDbEntity
  8
DIM
100
AcDbDimension
  2
*D15
 10
14.477792
 20
13.86874
 30
0.0
 11
13.555292
 21
13.59874
 31
0.0
 12
2.151744
 22
0.0
 32
0.0
 70
    32
  1
{<>}\P{2X}
  3
STANDARD
100
AcDbAlignedDimension
 13
16.950309
 23
14.05374
 33
0.0
 14
16.950309
 24
13.86874
 34
0.0
 50
90.0
100
AcDbRotatedDimension
1001
ACAD
1000
DSTYLE
1002
{
1070
    47
1040
0.001
1070
    48
1040
0.001
1070
   272
1070
     3
1070
    40
1040
0.75
1070
     3
1000
"
1070
     4
1000
mm
1070
   170
1070
     1
1002
}
  0
DIMENSION
  5
E53
100
AcDbEntity
  8
DIM
100
AcDbDimension
  2
*D16
 10
24.08852
 20
15.08804
 30
0.0
 11
25.04477
 21
15.35804
 31
0.0
 12
2.151744
 22
0.0
 32
0.0
 70
    32
  3
STANDARD
100
AcDbAlignedDimension
 13
19.462414
 23
14.722869
 33
0.0
 14
19.655181
 24
15.08804
 34
0.0
 50
90.0
100
AcDbRotatedDimension
1001
ACAD
1000
DSTYLE
1002
{
1070
    47
1040
0.001
1070
    48
1040
0.001
1070
   272
1070
     3
1070
    40
1040
0.75
1070
     3
1000
"
1070
     4
1000
mm
1070
   170
1070
     1
1002
}
  0
DIMENSION
  5
E79
100
AcDbEntity
  8
DIM
100
AcDbDimension
  2
*D17
 10
27.290751
 20
15.08804
 30
0.0
 11
27.290751
 21
14.509776
 31
0.0
 12
2.151744
 22
0.0
 32
0.0
 70
    32
  3
STANDARD
100
AcDbAlignedDimension
 13
19.462414
 23
13.931511
 33
0.0
 14
19.655181
 24
15.08804
 34
0.0
 50
90.0
100
AcDbRotatedDimension
1001
ACAD
1000
DSTYLE
1002
{
1070
    47
1040
0.001
1070
    48
1040
0.001
1070
   272
1070
     3
1070
    40
1040
0.75
1070
     3
1000
"
1070
     4
1000
mm
1070
   170
1070
     1
1002
}
  0
ACAD_ZOMBIE_ENTITY
  5
EE5
100
AcDbEntity
  8
0
100
AcDbZombieEntity
 90
      498
 91
      515
 92
        8
310
0800000000000000
 93
       97
310
D2800000002029040000780280
330
EE6
330
EE7
330
EE8
330
EE9
330
EE6
 94
        0
  0
INSERT
  5
F37
100
AcDbEntity
  8
FOOT
100
AcDbBlockReference
  2
*U19
 10
17.597956
 20
7.713837
 30
0.0
1001
TB_S_MPD
1070
   100
1000
HOLE
1070
   101
1000
TOOLBOX 13.0 HOLE 2.0
1070
   112
1000
3/32 (.0938) DIAMETER HOLE
1070
   102
1000
Near side
1070
   103
1000
ANSI-Fraction
1070
   104
1000
hole
1070
   105
1000
_usf
1070
   304
1040
0.0
1070
   305
1040
0.0
1070
   306
1040
0.09375
1070
   302
1040
0.0
1070
   303
1040
0.0
1070
   307
1040
0.03
1070
   300
1040
0.125
1070
   110
1000
1
1070
   111
1000
3/32
1070
   116
1000
T
1070
   308
1040
0.03
  0
INSERT
  5
F38
100
AcDbEntity
  8
FOOT
100
AcDbBlockReference
  2
*U19
 10
19.201433
 20
7.426262
 30
0.0
1001
TB_S_MPD
1070
   100
1000
HOLE
1070
   101
1000
TOOLBOX 13.0 HOLE 2.0
1070
   112
1000
3/32 (.0938) DIAMETER HOLE
1070
   102
1000
Near side
1070
   103
1000
ANSI-Fraction
1070
   104
1000
hole
1070
   105
1000
_usf
1070
   304
1040
0.0
1070
   305
1040
0.0
1070
   306
1040
0.09375
1070
   302
1040
0.0
1070
   303
1040
0.0
1070
   307
1040
0.03
1070
   300
1040
0.125
1070
   110
1000
1
1070
   111
1000
3/32
1070
   116
1000
T
1070
   308
1040
0.03
  0
DIMENSION
  5
FA6
100
AcDbEntity
  8
DIM
100
AcDbDimension
  2
*D20
 10
19.655181
 20
6.924042
 30
0.0
 11
20.768931
 21
6.924042
 31
0.0
 70
    32
  3
STANDARD
100
AcDbAlignedDimension
 13
19.201433
 23
2.772768
 33
0.0
 14
19.655181
 24
7.278162
 34
0.0
100
AcDbRotatedDimension
1001
ACAD
1000
DSTYLE
1002
{
1070
    48
1040
0.002
1070
   272
1070
     3
1070
    75
1070
     1
1070
    40
1040
0.75
1070
     3
1000
"
1070
     4
1000
mm
1070
   170
1070
     1
1002
}
  0
DIMENSION
  5
FB3
100
AcDbEntity
  8
DIM
100
AcDbDimension
  2
*D21
 10
19.201433
 20
6.519153
 30
0.0
 11
20.270183
 21
6.519153
 31
0.0
 70
    32
  3
STANDARD
100
AcDbAlignedDimension
 13
19.064631
 23
7.278162
 33
0.0
 14
19.201433
 24
2.772768
 34
0.0
100
AcDbRotatedDimension
1001
ACAD
1000
DSTYLE
1002
{
1070
    48
1040
0.002
1070
   272
1070
     3
1070
    76
1070
     1
1070
    40
1040
0.75
1070
     3
1000
"
1070
     4
1000
mm
1070
   170
1070
     1
1002
}
  0
DIMENSION
  5
FC0
100
AcDbEntity
  8
DIM
100
AcDbDimension
  2
*D22
 10
19.201433
 20
6.169475
 30
0.0
 11
20.337683
 21
6.169475
 31
0.0
 70
    32
  3
STANDARD
100
AcDbAlignedDimension
 13
18.522351
 23
7.591248
 33
0.0
 14
19.201433
 24
2.772768
 34
0.0
100
AcDbRotatedDimension
1001
ACAD
1000
DSTYLE
1002
{
1070
    48
1040
0.002
1070
   272
1070
     3
1070
    76
1070
     1
1070
    40
1040
0.75
1070
     3
1000
"
1070
     4
1000
mm
1070
   170
1070
     1
1002
}
  0
DIMENSION
  5
FCD
100
AcDbEntity
  8
DIM
100
AcDbDimension
  2
*D23
 10
19.201433
 20
5.792192
 30
0.0
 11
21.080183
 21
5.792192
 31
0.0
 70
    32
  3
STANDARD
100
AcDbAlignedDimension
 13
17.597956
 23
7.541962
 33
0.0
 14
19.201433
 24
2.772768
 34
0.0
100
AcDbRotatedDimension
1001
ACAD
1000
DSTYLE
1002
{
1070
    47
1040
0.001
1070
    71
1070
     1
1070
    48
1040
0.001
1070
   272
1070
     3
1070
    76
1070
     1
1070
    40
1040
0.75
1070
     3
1000
"
1070
     4
1000
mm
1070
   170
1070
     1
1002
}
  0
DIMENSION
  5
FDA
100
AcDbEntity
  8
DIM
100
AcDbDimension
  2
*D24
 10
19.201433
 20
5.396504
 30
0.0
 11
18.087196
 21
5.396504
 31
0.0
 70
    32
  3
STANDARD
100
AcDbAlignedDimension
 13
16.972959
 23
7.591249
 33
0.0
 14
19.201433
 24
2.772768
 34
0.0
100
AcDbRotatedDimension
1001
ACAD
1000
DSTYLE
1002
{
1070
    47
1040
0.001
1070
    48
1040
0.001
1070
   272
1070
     3
1070
    76
1070
     1
1070
    40
1040
0.75
1070
     3
1000
"
1070
     4
1000
mm
1070
   170
1070
     1
1002
}
  0
DIMENSION
  5
FE8
100
AcDbEntity
  8
DIM
100
AcDbDimension
  2
*D25
 10
16.659019
 20
7.426262
 30
0.0
 11
14.832019
 21
6.223434
 31
0.0
 12
2.151744
 22
0.932828
 32
0.0
 70
    32
  3
STANDARD
100
AcDbAlignedDimension
 13
16.972959
 23
7.591249
 33
0.0
 14
7.960162
 24
7.426262
 34
0.0
 50
90.0
100
AcDbRotatedDimension
1001
ACAD
1000
DSTYLE
1002
{
1070
    47
1040
0.002
1070
    71
1070
     1
1070
   272
1070
     3
1070
    76
1070
     1
1070
    40
1040
0.75
1070
     3
1000
"
1070
     4
1000
mm
1070
   170
1070
     1
1002
}
  0
DIMENSION
  5
FF6
100
AcDbEntity
  8
DIM
100
AcDbDimension
  2
*D26
 10
12.958155
 20
7.426262
 30
0.0
 11
11.259405
 21
6.223434
 31
0.0
 12
2.151744
 22
0.932828
 32
0.0
 70
    32
  3
STANDARD
100
AcDbAlignedDimension
 13
17.426081
 23
7.713837
 33
0.0
 14
7.960162
 24
7.426262
 34
0.0
 50
90.0
100
AcDbRotatedDimension
1001
ACAD
1000
DSTYLE
1002
{
1070
    47
1040
0.001
1070
    71
1070
     1
1070
    48
1040
0.001
1070
   272
1070
     3
1070
    76
1070
     1
1070
    40
1040
0.75
1070
     3
1000
"
1070
     4
1000
mm
1070
   170
1070
     1
1002
}
  0
DIMENSION
  5
1004
100
AcDbEntity
  8
DIM
100
AcDbDimension
  2
*D27
 10
9.533316
 20
7.426262
 30
0.0
 11
8.588316
 21
6.223434
 31
0.0
 12
2.151744
 22
0.932828
 32
0.0
 70
    32
  3
STANDARD
100
AcDbAlignedDimension
 13
17.051699
 23
7.806429
 33
0.0
 14
7.960162
 24
7.426262
 34
0.0
 50
90.0
100
AcDbRotatedDimension
1001
ACAD
1000
DSTYLE
1002
{
1070
    47
1040
0.001
1070
    48
1040
0.001
1070
   272
1070
     3
1070
    76
1070
     1
1070
    40
1040
0.75
1070
     3
1000
"
1070
     4
1000
mm
1070
   170
1070
     1
1002
}
  0
DIMENSION
  5
1012
100
AcDbEntity
  8
DIM
100
AcDbDimension
  2
*D28
 10
21.999687
 20
7.426262
 30
0.0
 11
22.933437
 21
6.763434
 31
0.0
 12
2.151744
 22
0.932828
 32
0.0
 70
    32
  3
STANDARD
100
AcDbAlignedDimension
 13
19.655181
 23
7.278162
 33
0.0
 14
26.201205
 24
7.426262
 34
0.0
 50
90.0
100
AcDbRotatedDimension
1001
ACAD
1000
DSTYLE
1002
{
1070
    47
1040
0.001
1070
    48
1040
0.001
1070
   272
1070
     3
1070
    76
1070
     1
1070
    40
1040
0.75
1070
     3
1000
"
1070
     4
1000
mm
1070
   170
1070
     1
1002
}
  0
DIMENSION
  5
1021
100
AcDbEntity
  8
DIM
100
AcDbDimension
  2
*D29
 10
25.682309
 20
7.278162
 30
0.0
 11
24.006059
 21
6.075334
 31
0.0
 12
2.151744
 22
0.932828
 32
0.0
 70
    32
  1
{<>}\P{WALL THICKNESS}
  3
STANDARD
100
AcDbAlignedDimension
 13
19.655181
 23
7.308162
 33
0.0
 14
19.655181
 24
7.278162
 34
0.0
 50
90.0
100
AcDbRotatedDimension
1001
ACAD
1000
DSTYLE
1002
{
1070
    47
1040
0.001
1070
    71
1070
     1
1070
    48
1040
0.001
1070
   272
1070
     3
1070
    40
1040
0.75
1070
     3
1000
"
1070
     4
1000
mm
1070
   170
1070
     1
1002
}
  0
DIMENSION
  5
103B
100
AcDbEntity
  8
DIM
100
AcDbDimension
  2
*D30
 10
19.201433
 20
12.729702
 30
0.0
 11
20.348933
 21
12.729702
 31
0.0
 12
2.151744
 22
0.0
 32
0.0
 70
    32
  3
STANDARD
100
AcDbAlignedDimension
 13
17.138309
 23
13.68074
 33
0.0
 14
19.201433
 24
17.304476
 34
0.0
100
AcDbRotatedDimension
1001
ACAD
1000
DSTYLE
1002
{
1070
    47
1040
0.001
1070
    48
1040
0.001
1070
   272
1070
     3
1070
    76
1070
     1
1070
    40
1040
0.75
1070
     3
1000
"
1070
     4
1000
mm
1070
   170
1070
     1
1002
}
  0
DIMENSION
  5
1048
100
AcDbEntity
  8
DIM
100
AcDbDimension
  2
*D31
 10
19.201433
 20
12.397479
 30
0.0
 11
20.337683
 21
12.397479
 31
0.0
 12
2.151744
 22
0.0
 32
0.0
 70
    32
  3
STANDARD
100
AcDbAlignedDimension
 13
17.303661
 23
13.68464
 33
0.0
 14
19.201433
 24
17.304476
 34
0.0
100
AcDbRotatedDimension
1001
ACAD
1000
DSTYLE
1002
{
1070
    47
1040
0.001
1070
    48
1040
0.001
1070
   272
1070
     3
1070
    76
1070
     1
1070
    40
1040
0.75
1070
     3
1000
"
1070
     4
1000
mm
1070
   170
1070
     1
1002
}
  0
DIMENSION
  5
1055
100
AcDbEntity
  8
DIM
100
AcDbDimension
  2
*D32
 10
19.201433
 20
12.063875
 30
0.0
 11
21.091433
 21
12.063875
 31
0.0
 12
2.151744
 22
0.0
 32
0.0
 70
    32
  3
STANDARD
100
AcDbAlignedDimension
 13
17.472945
 23
14.155315
 33
0.0
 14
19.201433
 24
17.304476
 34
0.0
100
AcDbRotatedDimension
1001
ACAD
1000
DSTYLE
1002
{
1070
    47
1040
0.001
1070
    71
1070
     1
1070
    48
1040
0.001
1070
   272
1070
     3
1070
    76
1070
     1
1070
    40
1040
0.75
1070
     3
1000
"
1070
     4
1000
mm
1070
   170
1070
     1
1002
}
  0
DIMENSION
  5
1062
100
AcDbEntity
  8
DIM
100
AcDbDimension
  2
*D33
 10
19.201433
 20
11.706735
 30
0.0
 11
20.337683
 21
11.706735
 31
0.0
 12
2.151744
 22
0.0
 32
0.0
 70
    32
  3
STANDARD
100
AcDbAlignedDimension
 13
18.347945
 23
14.14419
 33
0.0
 14
19.201433
 24
17.304476
 34
0.0
100
AcDbRotatedDimension
1001
ACAD
1000
DSTYLE
1002
{
1070
    47
1040
0.001
1070
    48
1040
0.001
1070
   272
1070
     3
1070
    76
1070
     1
1070
    40
1040
0.75
1070
     3
1000
"
1070
     4
1000
mm
1070
   170
1070
     1
1002
}
  0
DIMENSION
  5
106F
100
AcDbEntity
  8
DIM
100
AcDbDimension
  2
*D34
 10
19.398572
 20
16.072247
 30
0.0
 11
21.187322
 21
16.072247
 31
0.0
 12
2.151744
 22
0.0
 32
0.0
 70
    32
  3
STANDARD
100
AcDbAlignedDimension
 13
19.201433
 23
17.304476
 33
0.0
 14
19.398572
 24
14.499065
 34
0.0
100
AcDbRotatedDimension
1001
ACAD
1000
DSTYLE
1002
{
1070
    47
1040
0.001
1070
    71
1070
     1
1070
    48
1040
0.001
1070
   272
1070
     3
1070
    75
1070
     1
1070
    40
1040
0.75
1070
     3
1000
"
1070
     4
1000
mm
1070
   170
1070
     1
1002
}
  0
INSERT
  5
109E
100
AcDbEntity
  8
HATCH
100
AcDbBlockReference
  2
*X35
 10
2.151744
 20
0.932828
 30
0.0
1001
ACAD
1000
HATCH
1002
{
1070
    19
1000
ANSI31
1040
0.5
1040
0.0
1002
}
  0
TEXT
  5
10C2
100
AcDbEntity
  8
TEXT
100
AcDbText
 10
27.099856
 20
19.233536
 30
0.0
 40
0.08
  1
03
100
AcDbText
  0
TEXT
  5
10C3
100
AcDbEntity
  8
TEXT
100
AcDbText
 10
30.287356
 20
19.233536
 30
0.0
 40
0.08
  1
12-18-96
100
AcDbText
  0
TEXT
  5
10C4
100
AcDbEntity
  8
TEXT
100
AcDbText
 10
27.474856
 20
19.100203
 30
0.0
 40
0.08
  1
CHANGE MATERIAL TO CARBON-FIBER
100
AcDbText
  0
TEXT
  5
10C5
100
AcDbEntity
  8
TEXT
100
AcDbText
 10
27.474856
 20
19.233536
 30
0.0
 40
0.08
  1
RAISE FRONT END 3mm OFF DETECTOR
100
AcDbText
  0
MTEXT
  5
10CF
100
AcDbEntity
  8
TEXT
100
AcDbMText
 10
1.427756
 20
7.582342
 30
0.0
 40
0.18
 41
8.0
 71
     1
 72
     1
  3
{MATERIAL: }\P{0.76mm [0.030"] thick carbon-fiber-epoxy-composite}\P\P{LAMINATE SCHEDULE:}\P{cloth:  - 1 layer Carbon-fiber (0.006" thick ea.)}\P{ xx oz/sq. yd. plain weave @ 90°}\P{ - 1 layer Carbon-fiber (0.001" thick ea.)}\P{ 0.4 oz/sq. yd. mat}\P
  3
{ - 1 layer Carbon-fiber (0.006" thick ea.)}\P{ xx oz/sq. yd. plain weave @ 45°}\P{ 1 layer Carbon-fiber (0.001" thick ea.)}\P{ 0.4 oz/sq. yd. mat}\P{ - 1 layer Carbon-fiber (0.006" thick ea.)}\P{ xx oz/sq. yd. plain weave @ 90°}\P{epoxy: heat resist
  1
ant laminating epoxy}\P{ Ciba-Geigy RP4005R/RP1500H}\P{cure: 24 hrs at room temp. @ 20psi}\P{ 2 hrs postcure at 66°C}\P\P{MACHINING:}\P{use fixture L2-END16}\P
  0
TEXT
  5
1107
100
AcDbEntity
  8
TEXT
100
AcDbText
 10
31.719513
 20
0.957429
 30
0.0
 40
0.12
  1
03
100
AcDbText
  0
ARC
  5
110F
100
AcDbEntity
  8
FOOT
100
AcDbCircle
 10
17.035459
 20
7.743929
 30
0.0
 40
0.0625
100
AcDbArc
 50
89.999949
 51
180.0
  0
LINE
  5
1110
100
AcDbEntity
  8
CENTER
100
AcDbLine
 10
17.035459
 20
7.697818
 30
0.0
 11
17.035459
 21
7.832113
 31
0.0
  0
LINE
  5
1111
100
AcDbEntity
  8
CENTER
100
AcDbLine
 10
16.938653
 20
7.743929
 30
0.0
 11
17.080211
 21
7.743929
 31
0.0
  0
LEADER
  5
1112
100
AcDbEntity
  8
DIM
100
AcDbLeader
  3
STANDARD
 73
     0
 75
     1
 40
0.135
 41
1.575
 76
     3
 10
16.986639
 20
7.781752
 30
0.0
 10
16.254876
 20
8.899013
 30
0.0
 10
16.119876
 20
8.899013
 30
0.0
 77
   256
1001
ACAD
1000
DSTYLE
1002
{
1070
   288
1070
     1
1070
    47
1040
0.001
1070
    48
1040
0.001
1070
   272
1070
     3
1070
    75
1070
     1
1070
    40
1040
0.75
1070
     3
1000
"
1070
     4
1000
mm
1070
   170
1070
     1
1002
}
  0
MTEXT
  5
1113
100
AcDbEntity
  8
DIM
100
AcDbMText
 10
16.052376
 20
8.899013
 30
0.0
 40
0.135
 41
0.0
 71
     6
 72
     1
  1
{R0.063"[1.59mm]}
  0
INSERT
  5
111E
100
AcDbEntity
  8
ASHADE
 62
     1
100
AcDbBlockReference
  2
AVE_RENDER
 10
0.0
 20
0.0
 30
0.0
1001
AVE_RENDER
1002
{
1070
     6
1000
Pref
1070
    30
1070
    20
1070
     1
1070
     0
1000

1070
    10
1070
     1
1070
    30
1040
1.0
1070
     1
1040
0.3
1040
0.7
1040
0.0
1040
10.0
1010
-1.0
1020
-1.0
1030
-1.0
1040
0.3
1070
    49
1070
     0
1070
     0
1010
1.0
1020
1.0
1030
1.0
1040
45.0
1070
     1
1070
     0
1000
WCS
1040
0.0
1002
}
  0
INSERT
  5
111F
100
AcDbEntity
  8
ASHADE
 62
     3
100
AcDbBlockReference
  2
AVE_RENDER
 10
0.0
 20
0.0
 30
0.0
1001
AVE_RENDER
1002
{
1070
     0
1000
Full Opt
1070
     0
1070
     1
1070
     1
1070
     1
1070
     0
1070
     0
1070
     0
1070
     1
1070
     1
1040
0.0001
1040
0.0001
1002
}
  0
INSERT
  5
1120
100
AcDbEntity
  8
ASHADE
 62
     4
100
AcDbBlockReference
  2
AVE_RENDER
 10
0.0
 20
0.0
 30
0.0
1001
AVE_RENDER
1002
{
1070
     0
1000
Quick Opt
1070
     0
1070
     1
1070
     1
1070
     1
1070
     0
1070
     0
1070
     1
1002
}
  0
INSERT
  5
1121
100
AcDbEntity
  8
ASHADE
 62
     5
100
AcDbBlockReference
  2
AVE_RENDER
 10
0.0
 20
0.0
 30
0.0
1001
AVE_RENDER
1002
{
1070
     1
1000
Scanl Opt
1070
     2
1070
     0
1070
     2
1040
2.0
1040
4.0
1070
     0
1070
     1
1070
     0
1040
0.03
1002
}
  0
INSERT
  5
1122
100
AcDbEntity
  8
ASHADE
 62
     6
100
AcDbBlockReference
  2
AVE_RENDER
 10
0.0
 20
0.0
 30
0.0
1001
AVE_RENDER
1002
{
1070
     2
1000
Raytr Opt
1070
     2
1070
     0
1070
     2
1040
2.0
1040
4.0
1070
     0
1070
     1
1070
     1
1040
0.03
1070
     3
1040
0.03
1002
}
  0
INSERT
  5
1123
100
AcDbEntity
  8
ASHADE
 62
     7
100
AcDbBlockReference
  2
AVE_RENDER
 10
0.0
 20
0.0
 30
0.0
1001
AVE_RENDER
1002
{
1070
     0
1000
RFile Opt
1070
     5
1070
   640
1070
   480
1070
 10000
1070
     3
1070
    32
1070
    24
1070
     0
1070
     0
1070
     0
1070
     1
1070
     0
1070
     0
1070
     0
1002
}
  0
INSERT
  5
1124
100
AcDbEntity
  8
ASHADE
 62
     8
100
AcDbBlockReference
  2
AVE_RENDER
 10
0.0
 20
0.0
 30
0.0
1001
AVE_RENDER
1002
{
1070
     0
1000
Fog Opt
1070
     0
1070
     0
1040
0.0
1040
1.0
1040
0.0
1040
1.0
1010
0.5
1020
0.5
1030
0.5
1002
}
  0
INSERT
  5
1125
100
AcDbEntity
  8
ASHADE
 62
     9
100
AcDbBlockReference
  2
AVE_RENDER
 10
0.0
 20
0.0
 30
0.0
1001
AVE_RENDER
1002
{
1070
     0
1000
BG Opt
1070
     0
1070
     1
1010
0.0
1020
0.0
1030
0.0
1010
1.0
1020
0.0
1030
0.0
1010
0.0
1020
1.0
1030
0.0
1010
0.0
1020
0.0
1030
1.0
1040
0.5
1040
0.33
1040
0.0
1000

1070
     1
1000

1070
     1
1070
     1
1040
1.0
1040
1.0
1040
0.0
1040
0.0
1070
     0
1002
}
  0
INSERT
  5
112C
100
AcDbEntity
  8
ASHADE
 62
     1
100
AcDbBlockReference
  2
AVE_GLOBAL
 10
0.0
 20
0.0
 30
0.0
1001
AVE_MATERIAL
1002
{
1000
*GLOBAL*
1000
1
1000
Global finish.
1002
{
1002
}
1002
{
1070
    63
1002
{
1002
{
1010
-1.0
1020
-1.0
1030
-1.0
1002
}
1040
0.1
1000

1040
0.0
1002
{
1002
}
1040
0.0
1002
{
1002
}
1040
0.0
1002
}
1002
{
1002
{
1010
-1.0
1020
-1.0
1030
-1.0
1002
}
1040
0.7
1000

1040
0.0
1002
{
1002
}
1040
0.0
1002
{
1002
}
1040
0.0
1002
}
1002
{
1002
{
1010
-1.0
1020
-1.0
1030
-1.0
1002
}
1040
0.2
1000

1040
0.0
1002
{
1002
}
1040
0.0
1002
{
1002
}
1040
0.0
1002
}
1002
{
1070
     0
1002
{
1070
     1
1002
{
1040
1.0
1040
1.0
1000

1040
0.0
1002
{
1002
}
1040
0.0
1002
{
1002
}
1040
0.0
1002
}
1002
}
1040
1.0
1040
0.0
1040
0.0
1002
}
1002
{
1040
1.0
1040
1.0
1000

1040
0.0
1002
{
1002
}
1040
0.0
1002
{
1002
}
1040
0.0
1002
}
1002
{
1040
0.5
1040
1.0
1000

1040
0.0
1002
{
1002
}
1040
0.0
1002
{
1002
}
1040
0.0
1002
}
1002
{
1070
     0
1040
0.0
1002
{
1002
}
1040
1.0
1002
{
1002
}
1040
0.0
1002
}
1002
{
1040
0.0
1002
{
1002
{
1010
0.0
1020
0.0
1030
0.0
1002
}
1040
1.0
1000

1040
0.0
1002
{
1002
}
1040
0.0
1002
{
1002
}
1040
0.0
1002
}
1002
}
1002
{
1002
{
1070
     1
1002
{
1040
0.0
1040
1.0
1000

1040
0.0
1002
{
1002
}
1040
0.0
1002
{
1002
}
1040
0.0
1002
}
1002
}
1040
0.0
1002
{
1002
}
1010
1.0
1020
0.0
1030
0.0
1010
0.0
1020
1.0
1030
0.0
1010
0.0
1020
0.0
1030
1.0
1070
     0
1002
}
1002
{
1002
{
1040
1.0
1040
1.0
1002
{
1070
     1
1002
{
1040
1.0
1040
1.0
1000

1040
0.0
1002
{
1002
}
1040
0.0
1002
{
1002
}
1040
0.0
1002
}
1002
}
1002
}
1070
     0
1040
0.0
1002
{
1002
}
1002
}
1002
{
1002
}
1002
}
1002
{
1071
        3
1070
     3
1070
     0
1002
{
1070
     2
1070
     0
1070
     0
1040
0.0
1002
}
1070
     0
1070
     2
1002
{
1002
}
1002
}
1002
{
1040
8030.0
1040
190.300003
1040
0.305
1040
228.0
1040
545.0
1040
14.0
1040
17.4
1040
0.456
1002
}
1002
}
  0
ENDSEC
  0
SECTION
  2
OBJECTS
  0
DICTIONARY
  5
C
100
AcDbDictionary
  3
ACAD_GROUP
350
D
  3
ACAD_MLINESTYLE
350
E
  3
ACASAPPOBJECT
350
F21
  3
ACASGREF_MASTER
350
ED5
  3
ACCELVIEW
350
F25
  3
ACDMSYSVARMGR
350
EF1
  3
ACGREF_MASTER
350
ED3
  3
ACME_COMMAND_HISTORY
350
ED1
  3
ACME_SCOPE_NAME
350
ED0
  3
AD_APPL
350
EE4
  3
AD_DRAWMGR_NAME
350
F04
  3
AD_GREF_MODULE
350
EEC
  3
AD_HOLENOTE_REPOSITORY
350
EEB
  3
ADSYSVARMGR
350
EDA
  3
AMI_MASTER
350
ED4
  3
AUTOCAD_ASSEMBLIES_PROJECT
350
F10
  3
DESIGNER_ASSEMBLIES_SYSVARS
350
F0B
  0
DICTIONARY
  5
D
102
{ACAD_REACTORS
330
C
102
}
100
AcDbDictionary
  0
DICTIONARY
  5
E
102
{ACAD_REACTORS
330
C
102
}
100
AcDbDictionary
  3
STANDARD
350
13
  0
ACAD_ZOMBIE_OBJECT
  5
F21
102
{ACAD_REACTORS
330
C
102
}
100
AcDbZombieObject
 90
      499
 91
      536
 93
        2
310
90
360
F1F
 94
        0
  0
ACAD_ZOMBIE_OBJECT
  5
ED5
102
{ACAD_REACTORS
330
C
102
}
100
AcDbZombieObject
 90
      499
 91
      505
 93
       34
310
0100004040
 94
        0
  0
ACAD_ZOMBIE_OBJECT
  5
F25
102
{ACAD_REACTORS
330
C
102
}
100
AcDbZombieObject
 90
      499
 91
      537
 93
       12
310
9354
330
EE5
330
F37
330
F38
330
FA6
330
FB3
330
FC0
330
FCD
330
FDA
330
FE8
330
FF6
330
1004
330
1012
330
1021
330
103B
330
1048
330
1055
330
1062
330
106F
330
109E
330
10C2
330
10C5
330
10C4
330
10C3
330
F38
330
F37
330
F5
330
9A
330
99
330
98
330
97
330
96
330
95
330
94
330
93
330
91
330
90
330
10CF
330
109E
330
1107
330
110F
330
1110
330
1111
330
1112
330
1113
330
111E
330
111F
330
1120
330
1121
330
1122
330
1123
330
1124
330
1125
330
112C
 94
        0
  0
ACAD_ZOMBIE_OBJECT
  5
EF1
102
{ACAD_REACTORS
330
C
102
}
100
AcDbZombieObject
 90
      499
 91
      510
 93
      176
310
4C5114810100000000000000000000000000000000004F
330
EF2
330
EF3
330
EF4
330
EF5
330
EF6
330
EF7
330
EF9
330
EFA
330
EFB
330
EFC
330
EFD
330
EFE
330
EFF
330
F00
330
F01
330
F02
330
F03
 94
        0
  0
ACAD_ZOMBIE_OBJECT
  5
ED3
102
{ACAD_REACTORS
330
C
102
}
100
AcDbZombieObject
 90
      499
 91
      503
 93
      114
310
01000040C000000000000000000000
 94
        0
  0
ACAD_ZOMBIE_OBJECT
  5
ED1
102
{ACAD_REACTORS
330
C
102
}
100
AcDbZombieObject
 90
      499
 91
      501
 93
     2976
310
47805045A4F4F4D80505445445585440405184D5347202D20436F6D6D616E642043414E43454C4C45442E0141911111511255201415454D055916014254D055915054D48C4CA014254D055915054D48C4C90101461354D1C80B4810DBDB5B585B990810D05390D1531311510B805064558504F5254805064558504F5254805
310
04554E444F805055354594C4580504554E444F8050653454C45435480504554E444F80504554E444F805044F50454E80508554E444546494E4580508554E444546494E458050A4D454E55554E4C4F4144805084D454E554C4F41448050C41445F434F4E56455254523140805084E202D20554E444F014213880B4815539113
310
C050C414D4C54595045434845434B40C05084E202D20554E444F014253880B481310565154805084E202D20554E444F01419111115112552014254D055915054D48C4CA014191561413D4952014191561413D4952014115539113E014115539113E014115539113E014115539113E01415454D05591640
 94
        0
  0
ACAD_ZOMBIE_OBJECT
  5
ED0
102
{ACAD_REACTORS
330
C
102
}
100
AcDbZombieObject
 90
      499
 91
      500
 93
      456
310
0101004093100000000000000000000000000000000000000000000000000000000000000000000000000000000000000000000000000901002F
360
ED6
360
ED7
360
ED8
360
ED9
360
EDB
360
EDC
360
EDD
360
EDE
360
EDF
360
EE0
360
EE1
360
EE2
360
EE3
360
EE6
360
EE7
360
EE8
360
EE9
360
EEA
360
EED
360
EEE
360
EEF
360
EF0
360
EF2
360
EF3
360
EF4
360
EF5
360
EF6
360
EF7
360
EF9
360
EFA
360
EFB
360
EFC
360
EFD
360
EFE
360
EFF
360
F00
360
F01
360
F02
360
F03
360
F0C
360
F0D
360
F0E
360
F0F
360
F14
360
F15
360
F16
360
F17
360
F18
360
F1C
330
EE5
 94
        0
  0
ACAD_ZOMBIE_OBJECT
  5
EE4
102
{ACAD_REACTORS
330
C
102
}
100
AcDbZombieObject
 90
      499
 91
      514
 93
       42
310
000100004340
330
ED6
 94
        0
  0
ACAD_ZOMBIE_OBJECT
  5
F04
102
{ACAD_REACTORS
330
C
102
}
100
AcDbZombieObject
 90
      499
 91
      526
 93
       42
310
000100004400
330
EED
 94
        0
  0
ACAD_ZOMBIE_OBJECT
  5
EEC
102
{ACAD_REACTORS
330
C
102
}
100
AcDbZombieObject
 90
      499
 91
      521
 93
      114
310
000000428000000000000000000000
 94
        0
  0
ACAD_ZOMBIE_OBJECT
  5
EEB
102
{ACAD_REACTORS
330
C
102
}
100
AcDbZombieObject
 90
      499
 91
      520
 93
        8
310
0005
330
EEA
 94
        0
  0
ACAD_ZOMBIE_OBJECT
  5
EDA
102
{ACAD_REACTORS
330
C
102
}
100
AcDbZombieObject
 90
      499
 91
      510
 93
      104
310
9094410100000000000000000000
330
EDB
330
EDC
330
EDD
330
EDE
330
EDF
330
EE0
330
EE1
330
EE2
330
EE3
 94
        0
  0
ACAD_ZOMBIE_OBJECT
  5
ED4
102
{ACAD_REACTORS
330
C
102
}
100
AcDbZombieObject
 90
      499
 91
      504
 93
       34
310
0100004040
 94
        0
  0
ACAD_ZOMBIE_OBJECT
  5
F10
102
{ACAD_REACTORS
330
C
102
}
100
AcDbZombieObject
 90
      499
 91
      527
 93
       58
310
0100004180000000
330
F16
330
F1C
330
F17
 94
        0
  0
ACAD_ZOMBIE_OBJECT
  5
F0B
102
{ACAD_REACTORS
330
C
102
}
100
AcDbZombieObject
 90
      499
 91
      510
 93
       64
310
904441010000000000
330
F0C
330
F0D
330
F0E
330
F0F
 94
        0
  0
MLINESTYLE
  5
13
102
{ACAD_REACTORS
330
E
102
}
100
AcDbMlineStyle
  2
STANDARD
 70
     0
  3

 62
     0
 51
90.0
 52
90.0
 71
     2
 49
0.5
 62
   256
  6
BYLAYER
 49
-0.5
 62
   256
  6
BYLAYER
  0
ACAD_ZOMBIE_OBJECT
  5
F1F
100
AcDbZombieObject
 90
      499
 91
      534
 93
      720
310
9064D2E312E313607014B7269BC41100000000000000E03F1EC52B91F85EA10FE1EC52B91F85EA10FD034153471EC52B91F85EA10FC000000FC83D797414650540C000000000000E03F3F2A7C749358940FC000000FC83D797414F
 94
        0
  0
ACAD_ZOMBIE_OBJECT
  5
ED6
100
AcDbZombieObject
 90
      499
 91
      506
 93
      280
310
000000000000014119185D1940506462E312E3136014119185D1940506462E312E313600
330
ED0
330
ED7
330
ED8
330
EDA
330
EE5
 94
        0
  0
ACAD_ZOMBIE_OBJECT
  5
ED7
100
AcDbZombieObject
 90
      499
 91
      507
 93
      120
310
00009024410100000092080002A6A600
330
ED0
330
EE6
330
EE7
330
0
 94
        0
  0
ACAD_ZOMBIE_OBJECT
  5
ED8
100
AcDbZombieObject
 90
      499
 91
      508
 93
       46
310
000000009208
330
ED0
330
0
330
ED9
 94
        0
  0
ACAD_ZOMBIE_OBJECT
  5
ED9
100
AcDbZombieObject
 90
      499
 91
      509
 93
       22
310
0000A8
330
ED0
 94
        0
  0
ACAD_ZOMBIE_OBJECT
  5
EDB
100
AcDbZombieObject
 90
      499
 91
      511
 93
      124
310
00000142905350D3D39114D414D69050
330
ED0
 94
        0
  0
ACAD_ZOMBIE_OBJECT
  5
EDC
100
AcDbZombieObject
 90
      499
 91
      511
 93
      124
310
000001429053549553115353D1115010
330
ED0
 94
        0
  0
ACAD_ZOMBIE_OBJECT
  5
EDD
100
AcDbZombieObject
 90
      499
 91
      511
 93
      108
310
00000142105354D2D353D1115010
330
ED0
 94
        0
  0
ACAD_ZOMBIE_OBJECT
  5
EDE
100
AcDbZombieObject
 90
      499
 91
      511
 93
      140
310
000001435053511253511254D41353D11160
330
ED0
 94
        0
  0
ACAD_ZOMBIE_OBJECT
  5
EDF
100
AcDbZombieObject
 90
      499
 91
      512
 93
      180
310
00000142905354D2D05391D513D3000000000000010400
330
ED0
 94
        0
  0
ACAD_ZOMBIE_OBJECT
  5
EE0
100
AcDbZombieObject
 90
      499
 91
      513
 93
      164
310
00000142505354D2D4D516531140505434F4E542A0
330
ED0
 94
        0
  0
ACAD_ZOMBIE_OBJECT
  5
EE1
100
AcDbZombieObject
 90
      499
 91
      511
 93
      108
310
00000142105350D3511112535010
330
ED0
 94
        0
  0
ACAD_ZOMBIE_OBJECT
  5
EE2
100
AcDbZombieObject
 90
      499
 91
      513
 93
      116
310
000001425053541054919253114060
330
ED0
 94
        0
  0
ACAD_ZOMBIE_OBJECT
  5
EE3
100
AcDbZombieObject
 90
      499
 91
      511
 93
      100
310
00000142105350D3D35414D5A0
330
ED0
 94
        0
  0
ACAD_ZOMBIE_OBJECT
  5
EE6
100
AcDbZombieObject
 90
      499
 91
      516
 93
      164
310
000092090148200A00000440000FFFFFFFF0000000
330
ED0
330
EE7
330
ED7
330
EE5
 94
        0
  0
ACAD_ZOMBIE_OBJECT
  5
EE7
100
AcDbZombieObject
 90
      499
 91
      517
 93
       82
310
000040520802482A800000
330
ED0
330
EE6
330
ED7
330
EE5
 94
        0
  0
ACAD_ZOMBIE_OBJECT
  5
EE8
100
AcDbZombieObject
 90
      499
 91
      509
 93
       22
310
0000A8
330
ED0
 94
        0
  0
ACAD_ZOMBIE_OBJECT
  5
EE9
100
AcDbZombieObject
 90
      499
 91
      518
 93
       38
310
000000920A
330
ED0
330
0
 94
        0
  0
ACAD_ZOMBIE_OBJECT
  5
EEA
100
AcDbZombieObject
 90
      499
 91
      519
 93
     3196
310
0000419208050A544852555F4452494C4C0142D09312539117D1149253130050A544852555F43424F52450142D09312539117D0D093D4914050A544852555F4353494E4B0142D09312539117D0D4D25392D0648201459EC94958C8094950535112504815121493D551D20B9F4051C7B252563202525414D444941205820252
310
5414D44455020444545507D014F5EC94958C8094950535112504815121493D551D20B9F57141ED0D093D49148094958C80949505350D112504816080949505350D091115408111151541F405437B252563202525414D4449412058202525414D44455020444545507D5C507B43424F524520252563202525414D4344494120
310
58202525414D434244455020444545507D014EDEC94958C8094950535112504815121493D551D20B9F57141ED0D4D25392C8094958C80949505350D112504816080949505350D4D05391C949591F405417B252563202525414D4449412058202525414D44455020444545507D5C507B4353494E4B20252563202525414D434
310
449412058202525414D4353414E472525647D4
330
ED0
 94
        0
  0
ACAD_ZOMBIE_OBJECT
  5
EED
100
AcDbZombieObject
 90
      499
 91
      522
 93
      308
310
0000014119185D1940507442E312E313663014119185D1940507442E312E313663405010000004
330
ED0
330
EEE
330
EF0
330
EF1
 94
        0
  0
ACAD_ZOMBIE_OBJECT
  5
EEE
100
AcDbZombieObject
 90
      499
 91
      523
 93
       56
310
0000901441010043
330
ED0
330
EEF
 94
        0
  0
ACAD_ZOMBIE_OBJECT
  5
EEF
100
AcDbZombieObject
 90
      499
 91
      524
 93
       40
310
0000A4410100
330
ED0
 94
        0
  0
ACAD_ZOMBIE_OBJECT
  5
EF0
100
AcDbZombieObject
 90
      499
 91
      525
 93
       68
310
0000A44101920A4820
330
ED0
 94
        0
  0
ACAD_ZOMBIE_OBJECT
  5
EF2
100
AcDbZombieObject
 90
      499
 91
      511
 93
      108
310
000001421053521310D05310D010
330
ED0
 94
        0
  0
ACAD_ZOMBIE_OBJECT
  5
EF3
100
AcDbZombieObject
 90
      499
 91
      511
 93
      124
310
000001429053541493D2951654115013
330
ED0
 94
        0
  0
ACAD_ZOMBIE_OBJECT
  5
EF4
100
AcDbZombieObject
 90
      499
 91
      511
 93
      124
310
00000142905354915554D15112535010
330
ED0
 94
        0
  0
ACAD_ZOMBIE_OBJECT
  5
EF5
100
AcDbZombieObject
 90
      499
 91
      511
 93
      132
310
00000143105354D150D51253D391125366
330
ED0
 94
        0
  0
ACAD_ZOMBIE_OBJECT
  5
EF6
100
AcDbZombieObject
 90
      499
 91
      511
 93
      124
310
00000142905355941093D49111549010
330
ED0
 94
        0
  0
ACAD_ZOMBIE_OBJECT
  5
EF7
100
AcDbZombieObject
 90
      499
 91
      513
 93
      180
310
00000142905352125113151654114050648494444454E1
330
ED0
 94
        0
  0
ACAD_ZOMBIE_OBJECT
  5
EF9
100
AcDbZombieObject
 90
      499
 91
      513
 93
      196
310
00000142905354D150D315165411405085048414E544F4D320
330
ED0
 94
        0
  0
ACAD_ZOMBIE_OBJECT
  5
EFA
100
AcDbZombieObject
 90
      499
 91
      511
 93
      108
310
00000142105354D51114D0D51020
330
ED0
 94
        0
  0
ACAD_ZOMBIE_OBJECT
  5
EFB
100
AcDbZombieObject
 90
      499
 91
      511
 93
      108
310
00000142105354D5111510541021
330
ED0
 94
        0
  0
ACAD_ZOMBIE_OBJECT
  5
EFC
100
AcDbZombieObject
 90
      499
 91
      511
 93
      108
310
00000142105354D5111115131020
330
ED0
 94
        0
  0
ACAD_ZOMBIE_OBJECT
  5
EFD
100
AcDbZombieObject
 90
      499
 91
      512
 93
      148
310
00000141905350D310D34295C8FC2F528BC3F4
330
ED0
 94
        0
  0
ACAD_ZOMBIE_OBJECT
  5
EFE
100
AcDbZombieObject
 90
      499
 91
      512
 93
      156
310
00000141D05350D311D05402B8716D9CEF7C33F0
330
ED0
 94
        0
  0
ACAD_ZOMBIE_OBJECT
  5
EFF
100
AcDbZombieObject
 90
      499
 91
      512
 93
      164
310
00000142105350D313D4D2150295C8FC2F528BC3F0
330
ED0
 94
        0
  0
ACAD_ZOMBIE_OBJECT
  5
F00
100
AcDbZombieObject
 90
      499
 91
      511
 93
      100
310
00000141D05350D31410549010
330
ED0
 94
        0
  0
ACAD_ZOMBIE_OBJECT
  5
F01
100
AcDbZombieObject
 90
      499
 91
      511
 93
      100
310
0000014210535590539254D222
330
ED0
 94
        0
  0
ACAD_ZOMBIE_OBJECT
  5
F02
100
AcDbZombieObject
 90
      499
 91
      512
 93
      188
310
00000142D0535312539155121250D2C295C8FC2F5289C3F0
330
ED0
 94
        0
  0
ACAD_ZOMBIE_OBJECT
  5
F03
100
AcDbZombieObject
 90
      499
 91
      513
 93
      164
310
00000142105350D3151654114050643454E5445520
330
ED0
 94
        0
  0
ACAD_ZOMBIE_OBJECT
  5
F0C
100
AcDbZombieObject
 90
      499
 91
      511
 93
      132
310
00000142D05050555513D4D3D315915010
330
ED0
 94
        0
  0
ACAD_ZOMBIE_OBJECT
  5
F0D
100
AcDbZombieObject
 90
      499
 91
      511
 93
      156
310
00000143905050555513D054D4D1535093115010
330
ED0
 94
        0
  0
ACAD_ZOMBIE_OBJECT
  5
F0E
100
AcDbZombieObject
 90
      499
 91
      511
 93
      148
310
00000143505055925155D49154D513D4915010
330
ED0
 94
        0
  0
ACAD_ZOMBIE_OBJECT
  5
F0F
100
AcDbZombieObject
 90
      499
 91
      511
 93
      124
310
00000142D050525394D15495105094E0
330
ED0
 94
        0
  0
ACAD_ZOMBIE_OBJECT
  5
F14
100
AcDbZombieObject
 90
      499
 91
      528
 93
       32
310
0000000000
330
ED0
340
F11
330
F15
330
F11
 94
        0
  0
ACAD_ZOMBIE_OBJECT
  5
F15
100
AcDbZombieObject
 90
      499
 91
      529
 93
      143
310
00000142130C8B5153910C0D90400522080C
330
ED0
330
F14
 94
        0
  0
ACAD_ZOMBIE_OBJECT
  5
F16
100
AcDbZombieObject
 90
      499
 91
      530
 93
       72
310
000000A44101A4410100
330
ED0
330
F15
 94
        0
  0
ACAD_ZOMBIE_OBJECT
  5
F17
100
AcDbZombieObject
 90
      499
 91
      531
 93
       80
310
0000901441010000000000
330
ED0
330
F18
330
F18
330
F18
330
F18
 94
        0
  0
ACAD_ZOMBIE_OBJECT
  5
F18
100
AcDbZombieObject
 90
      499
 91
      532
 93
      173
310
00000000406AAAAAAAAAAAAAAAAA806A44101A441010
330
ED0
330
F17
330
F15
 94
        0
  0
ACAD_ZOMBIE_OBJECT
  5
F1C
100
AcDbZombieObject
 90
      499
 91
      533
 93
       26
310
00008000
330
ED0
330
0
 94
        0
  0
ENDSEC
  0
EOF
