  0
SECTION
  2
HEADER
  9
$ACADVER
  1
AC1012
  9
$DWGCODEPAGE
  3
ansi_1252
  9
$INSBASE
 10
0.0
 20
0.0
 30
0.0
  9
$EXTMIN
 10
12.7
 20
15.875
 30
0.0
  9
$EXTMAX
 10
520.721906
 20
390.525
 30
0.4
  9
$LIMMIN
 10
0.0
 20
0.0
  9
$LIMMAX
 10
534.0
 20
406.0
  9
$ORTHOMODE
 70
     0
  9
$REGENMODE
 70
     1
  9
$FILLMODE
 70
     1
  9
$QTEXTMODE
 70
     0
  9
$MIRRTEXT
 70
     1
  9
$DRAGMODE
 70
     2
  9
$LTSCALE
 40
10.0
  9
$OSMODE
 70
     1
  9
$ATTMODE
 70
     1
  9
$TEXTSIZE
 40
5.0
  9
$TRACEWID
 40
0.05
  9
$TEXTSTYLE
  7
STANDARD
  9
$CLAYER
  8
TEXT
  9
$CELTYPE
  6
BYLAYER
  9
$CECOLOR
 62
   256
  9
$CELTSCALE
 40
1.0
  9
$DELOBJ
 70
     1
  9
$DISPSILH
 70
     0
  9
$DIMSCALE
 40
12.0
  9
$DIMASZ
 40
0.18
  9
$DIMEXO
 40
0.0625
  9
$DIMDLI
 40
0.38
  9
$DIMRND
 40
0.0
  9
$DIMDLE
 40
0.0
  9
$DIMEXE
 40
0.18
  9
$DIMTP
 40
0.0
  9
$DIMTM
 40
0.0
  9
$DIMTXT
 40
0.18
  9
$DIMCEN
 40
0.09
  9
$DIMTSZ
 40
0.0
  9
$DIMTOL
 70
     0
  9
$DIMLIM
 70
     0
  9
$DIMTIH
 70
     1
  9
$DIMTOH
 70
     1
  9
$DIMSE1
 70
     0
  9
$DIMSE2
 70
     0
  9
$DIMTAD
 70
     0
  9
$DIMZIN
 70
     0
  9
$DIMBLK
  1

  9
$DIMASO
 70
     1
  9
$DIMSHO
 70
     1
  9
$DIMPOST
  1
mm
  9
$DIMAPOST
  1
"
  9
$DIMALT
 70
     1
  9
$DIMALTD
 70
     3
  9
$DIMALTF
 40
0.03937
  9
$DIMLFAC
 40
1.0
  9
$DIMTOFL
 70
     0
  9
$DIMTVP
 40
0.0
  9
$DIMTIX
 70
     0
  9
$DIMSOXD
 70
     0
  9
$DIMSAH
 70
     0
  9
$DIMBLK1
  1

  9
$DIMBLK2
  1

  9
$DIMSTYLE
  2
STANDARD
  9
$DIMCLRD
 70
     0
  9
$DIMCLRE
 70
     0
  9
$DIMCLRT
 70
     0
  9
$DIMTFAC
 40
1.0
  9
$DIMGAP
 40
0.09
  9
$DIMJUST
 70
     0
  9
$DIMSD1
 70
     0
  9
$DIMSD2
 70
     0
  9
$DIMTOLJ
 70
     1
  9
$DIMTZIN
 70
     0
  9
$DIMALTZ
 70
     0
  9
$DIMALTTZ
 70
     0
  9
$DIMFIT
 70
     0
  9
$DIMUPT
 70
     0
  9
$DIMUNIT
 70
     2
  9
$DIMDEC
 70
     2
  9
$DIMTDEC
 70
     4
  9
$DIMALTU
 70
     2
  9
$DIMALTTD
 70
     2
  9
$DIMTXSTY
  7
STANDARD
  9
$DIMAUNIT
 70
     0
  9
$LUNITS
 70
     2
  9
$LUPREC
 70
     4
  9
$SKETCHINC
 40
0.1
  9
$FILLETRAD
 40
0.0
  9
$AUNITS
 70
     0
  9
$AUPREC
 70
     0
  9
$MENU
  1
C:\CIM\ACAD
  9
$ELEVATION
 40
0.0
  9
$PELEVATION
 40
0.0
  9
$THICKNESS
 40
0.0
  9
$LIMCHECK
 70
     0
  9
$BLIPMODE
 70
     1
  9
$CHAMFERA
 40
0.0
  9
$CHAMFERB
 40
0.0
  9
$CHAMFERC
 40
0.0
  9
$CHAMFERD
 40
0.0
  9
$SKPOLY
 70
     0
  9
$TDCREATE
 40
2449993.600116319
  9
$TDUPDATE
 40
2450360.413470185
  9
$TDINDWG
 40
0.0257580903
  9
$TDUSRTIMER
 40
0.0257580903
  9
$USRTIMER
 70
     1
  9
$ANGBASE
 50
0.0
  9
$ANGDIR
 70
     0
  9
$PDMODE
 70
     0
  9
$PDSIZE
 40
0.0
  9
$PLINEWID
 40
0.0
  9
$COORDS
 70
     1
  9
$SPLFRAME
 70
     0
  9
$SPLINETYPE
 70
     6
  9
$SPLINESEGS
 70
     8
  9
$ATTDIA
 70
     0
  9
$ATTREQ
 70
     1
  9
$HANDLING
 70
     1
  9
$HANDSEED
  5
12F8
  9
$SURFTAB1
 70
     6
  9
$SURFTAB2
 70
     6
  9
$SURFTYPE
 70
     6
  9
$SURFU
 70
     6
  9
$SURFV
 70
     6
  9
$UCSNAME
  2
CIM_TB_HOLD
  9
$UCSORG
 10
0.0
 20
0.0
 30
0.0
  9
$UCSXDIR
 10
1.0
 20
0.0
 30
0.0
  9
$UCSYDIR
 10
0.0
 20
1.0
 30
0.0
  9
$PUCSNAME
  2

  9
$PUCSORG
 10
0.0
 20
0.0
 30
0.0
  9
$PUCSXDIR
 10
1.0
 20
0.0
 30
0.0
  9
$PUCSYDIR
 10
0.0
 20
1.0
 30
0.0
  9
$USERI1
 70
     0
  9
$USERI2
 70
     0
  9
$USERI3
 70
     0
  9
$USERI4
 70
     0
  9
$USERI5
 70
     0
  9
$USERR1
 40
0.0
  9
$USERR2
 40
0.0
  9
$USERR3
 40
0.0
  9
$USERR4
 40
0.0
  9
$USERR5
 40
0.0
  9
$WORLDVIEW
 70
     1
  9
$SHADEDGE
 70
     3
  9
$SHADEDIF
 70
    70
  9
$TILEMODE
 70
     1
  9
$MAXACTVP
 70
    16
  9
$PINSBASE
 10
0.0
 20
0.0
 30
0.0
  9
$PLIMCHECK
 70
     0
  9
$PEXTMIN
 10
1.000000E+20
 20
1.000000E+20
 30
1.000000E+20
  9
$PEXTMAX
 10
-1.000000E+20
 20
-1.000000E+20
 30
-1.000000E+20
  9
$PLIMMIN
 10
0.0
 20
0.0
  9
$PLIMMAX
 10
12.0
 20
9.0
  9
$UNITMODE
 70
     0
  9
$VISRETAIN
 70
     0
  9
$PLINEGEN
 70
     0
  9
$PSLTSCALE
 70
     1
  9
$TREEDEPTH
 70
  3020
  9
$PICKSTYLE
 70
     1
  9
$CMLSTYLE
  2
STANDARD
  9
$CMLJUST
 70
     0
  9
$CMLSCALE
 40
1.0
  9
$SAVEIMAGES
 70
     0
  0
ENDSEC
  0
SECTION
  2
CLASSES
  0
ENDSEC
  0
SECTION
  2
TABLES
  0
TABLE
  2
VPORT
  5
8
100
AcDbSymbolTable
 70
     3
  0
VPORT
  5
12F7
100
AcDbSymbolTableRecord
100
AcDbViewportTableRecord
  2
*ACTIVE
 70
     0
 10
0.0
 20
0.0
 11
1.0
 21
1.0
 12
301.708974
 22
203.2
 13
0.0
 23
0.0
 14
1.0
 24
1.0
 15
10.0
 25
10.0
 16
0.0
 26
0.0
 36
1.0
 17
0.0
 27
0.0
 37
0.0
 40
374.65
 41
1.542821
 42
50.0
 43
0.0
 44
0.0
 50
0.0
 51
0.0
 71
     0
 72
   100
 73
     1
 74
     1
 75
     0
 76
     1
 77
     0
 78
     0
  0
ENDTAB
  0
TABLE
  2
LTYPE
  5
5
100
AcDbSymbolTable
 70
     3
  0
LTYPE
  5
14
100
AcDbSymbolTableRecord
100
AcDbLinetypeTableRecord
  2
BYBLOCK
 70
     0
  3

 72
    65
 73
     0
 40
0.0
  0
LTYPE
  5
15
100
AcDbSymbolTableRecord
100
AcDbLinetypeTableRecord
  2
BYLAYER
 70
     0
  3

 72
    65
 73
     0
 40
0.0
  0
LTYPE
  5
16
100
AcDbSymbolTableRecord
100
AcDbLinetypeTableRecord
  2
CONTINUOUS
 70
    64
  3
Solid line
 72
    65
 73
     0
 40
0.0
  0
LTYPE
  5
24
100
AcDbSymbolTableRecord
100
AcDbLinetypeTableRecord
  2
CENTER
 70
    64
  3
____ _ ____ _ ____ _ ____ _ ____ _ ____ _ ____ 
 72
    65
 73
     4
 40
2.0
 49
1.25
 74
     0
 49
-0.25
 74
     0
 49
0.25
 74
     0
 49
-0.25
 74
     0
  0
LTYPE
  5
26
100
AcDbSymbolTableRecord
100
AcDbLinetypeTableRecord
  2
HIDDEN
 70
    64
  3
__ __ __ __ __ __ __ __ __ __ __ __ __ __ __ __
 72
    65
 73
     2
 40
0.375
 49
0.25
 74
     0
 49
-0.125
 74
     0
  0
ENDTAB
  0
TABLE
  2
LAYER
  5
2
100
AcDbSymbolTable
 70
    16
  0
LAYER
  5
F
100
AcDbSymbolTableRecord
100
AcDbLayerTableRecord
  2
0
 70
     0
 62
     7
  6
CONTINUOUS
  0
LAYER
  5
23
100
AcDbSymbolTableRecord
100
AcDbLayerTableRecord
  2
CENTER
 70
    64
 62
     1
  6
CENTER
  0
LAYER
  5
2A
100
AcDbSymbolTableRecord
100
AcDbLayerTableRecord
  2
TEXT
 70
    64
 62
     7
  6
CONTINUOUS
  0
LAYER
  5
48
100
AcDbSymbolTableRecord
100
AcDbLayerTableRecord
  2
BORDER
 70
    64
 62
     6
  6
CONTINUOUS
  0
LAYER
  5
22F
100
AcDbSymbolTableRecord
100
AcDbLayerTableRecord
  2
SCRATCH
 70
    64
 62
     7
  6
CONTINUOUS
  0
LAYER
  5
230
100
AcDbSymbolTableRecord
100
AcDbLayerTableRecord
  2
DEFPOINTS
 70
    64
 62
     7
  6
CONTINUOUS
  0
LAYER
  5
231
100
AcDbSymbolTableRecord
100
AcDbLayerTableRecord
  2
BUSHING
 70
    64
 62
     3
  6
CONTINUOUS
  0
LAYER
  5
232
100
AcDbSymbolTableRecord
100
AcDbLayerTableRecord
  2
L1_
 70
    64
 62
     1
  6
CONTINUOUS
  0
LAYER
  5
233
100
AcDbSymbolTableRecord
100
AcDbLayerTableRecord
  2
UPILEX
 70
    64
 62
     3
  6
CONTINUOUS
  0
LAYER
  5
235
100
AcDbSymbolTableRecord
100
AcDbLayerTableRecord
  2
FOOT
 70
    64
 62
     1
  6
CONTINUOUS
  0
LAYER
  5
C2C
100
AcDbSymbolTableRecord
100
AcDbLayerTableRecord
  2
BONDPAD
 70
    64
 62
     1
  6
CONTINUOUS
  0
ENDTAB
  0
TABLE
  2
STYLE
  5
3
100
AcDbSymbolTable
 70
     3
  0
STYLE
  5
10
100
AcDbSymbolTableRecord
100
AcDbTextStyleTableRecord
  2
STANDARD
 70
    64
 40
0.0
 41
1.0
 50
0.0
 71
     0
 42
5.0
  3
txt
  4

  0
STYLE
  5
28
100
AcDbSymbolTableRecord
100
AcDbTextStyleTableRecord
  2
CIM_TB
 70
    64
 40
0.0
 41
1.0
 50
0.0
 71
     0
 42
0.2
  3
romans
  4

  0
STYLE
  5
49
100
AcDbSymbolTableRecord
100
AcDbTextStyleTableRecord
  2
ADESK2
 70
    64
 40
0.0
 41
1.0
 50
0.0
 71
     0
 42
0.065
  3
romans
  4

  0
ENDTAB
  0
TABLE
  2
VIEW
  5
6
100
AcDbSymbolTable
 70
     0
  0
ENDTAB
  0
TABLE
  2
UCS
  5
7
100
AcDbSymbolTable
 70
     1
  0
UCS
  5
2D
100
AcDbSymbolTableRecord
100
AcDbUCSTableRecord
  2
CIM_TB_HOLD
 70
     0
 10
0.0
 20
0.0
 30
0.0
 11
1.0
 21
0.0
 31
0.0
 12
0.0
 22
1.0
 32
0.0
  0
ENDTAB
  0
TABLE
  2
APPID
  5
9
100
AcDbSymbolTable
 70
     2
  0
APPID
  5
11
100
AcDbSymbolTableRecord
100
AcDbRegAppTableRecord
  2
ACAD
 70
     0
  0
APPID
  5
22
100
AcDbSymbolTableRecord
100
AcDbRegAppTableRecord
  2
TB_S_MPD
 70
     0
  0
ENDTAB
  0
TABLE
  2
DIMSTYLE
  5
A
100
AcDbSymbolTable
 70
     4
  0
DIMSTYLE
105
1D
100
AcDbSymbolTableRecord
100
AcDbDimStyleTableRecord
  2
STANDARD
 70
     0
  3

  4

  5

  6

  7

 40
1.0
 41
0.18
 42
0.0625
 43
0.38
 44
0.18
 45
0.0
 46
0.0
 47
0.0
 48
0.0
140
0.18
141
0.09
142
0.0
143
25.4
144
1.0
145
0.0
146
1.0
147
0.09
 71
     0
 72
     0
 73
     1
 74
     1
 75
     0
 76
     0
 77
     0
 78
     0
170
     0
171
     2
172
     0
173
     0
174
     0
175
     0
176
     0
177
     0
178
     0
270
     2
271
     3
272
     4
273
     2
274
     2
340
10
275
     0
280
     0
281
     0
282
     0
283
     1
284
     0
285
     0
286
     0
287
     0
288
     0
  0
DIMSTYLE
105
2B
100
AcDbSymbolTableRecord
100
AcDbDimStyleTableRecord
  2
STANDARD$4
 70
     0
  3

  4

  5

  6

  7

 40
1.0
 41
0.18
 42
0.0625
 43
0.38
 44
0.18
 45
0.0
 46
0.0
 47
0.0
 48
0.0
140
0.18
141
0.09
142
0.0
143
25.4
144
1.0
145
0.0
146
1.0
147
0.09
 71
     0
 72
     0
 73
     1
 74
     1
 75
     0
 76
     0
 77
     0
 78
     0
170
     0
171
     2
172
     0
173
     0
174
     0
175
     0
176
     0
177
     0
178
     0
270
     2
271
     4
272
     4
273
     2
274
     2
340
10
275
     0
280
     0
281
     0
282
     0
283
     1
284
     0
285
     0
286
     0
287
     3
288
     0
  0
DIMSTYLE
105
2C
100
AcDbSymbolTableRecord
100
AcDbDimStyleTableRecord
  2
STANDARD$3
 70
     0
  3

  4

  5

  6

  7

 40
1.0
 41
0.18
 42
0.0625
 43
0.38
 44
0.18
 45
0.0
 46
0.0
 47
0.0
 48
0.0
140
0.18
141
0.09
142
0.0
143
25.4
144
1.0
145
0.0
146
1.0
147
0.09
 71
     0
 72
     0
 73
     1
 74
     1
 75
     0
 76
     0
 77
     0
 78
     0
170
     0
171
     2
172
     0
173
     0
174
     0
175
     0
176
     0
177
     0
178
     0
270
     2
271
     4
272
     4
273
     2
274
     2
340
10
275
     0
280
     0
281
     0
282
     0
283
     1
284
     0
285
     0
286
     0
287
     3
288
     0
  0
DIMSTYLE
105
7B2
100
AcDbSymbolTableRecord
100
AcDbDimStyleTableRecord
  2
SU1
 70
     0
  3

  4

  5

  6

  7

 40
1.0
 41
0.18
 42
0.0625
 43
0.38
 44
0.18
 45
0.0
 46
0.0
 47
0.001
 48
0.0
140
0.18
141
0.09
142
0.0
143
25.4
144
1.0
145
0.0
146
1.0
147
0.09
 71
     0
 72
     0
 73
     1
 74
     1
 75
     0
 76
     0
 77
     0
 78
     0
170
     0
171
     2
172
     0
173
     0
174
     0
175
     0
176
     0
177
     0
178
     0
270
     2
271
     3
272
     3
273
     2
274
     2
340
10
275
     0
280
     0
281
     0
282
     0
283
     1
284
     0
285
     0
286
     0
287
     0
288
     0
  0
ENDTAB
  0
TABLE
  2
BLOCK_RECORD
  5
1
100
AcDbSymbolTable
 70
    27
  0
BLOCK_RECORD
  5
1A
100
AcDbSymbolTableRecord
100
AcDbBlockTableRecord
  2
*MODEL_SPACE
  0
BLOCK_RECORD
  5
17
100
AcDbSymbolTableRecord
100
AcDbBlockTableRecord
  2
*PAPER_SPACE
  0
BLOCK_RECORD
  5
4A
100
AcDbSymbolTableRecord
100
AcDbBlockTableRecord
  2
C-BORDER
  0
BLOCK_RECORD
  5
11B
100
AcDbSymbolTableRecord
100
AcDbBlockTableRecord
  2
POST-1
  0
BLOCK_RECORD
  5
2E6
100
AcDbSymbolTableRecord
100
AcDbBlockTableRecord
  2
*D16
  0
BLOCK_RECORD
  5
BB8
100
AcDbSymbolTableRecord
100
AcDbBlockTableRecord
  2
A$C23D
  0
BLOCK_RECORD
  5
BF7
100
AcDbSymbolTableRecord
100
AcDbBlockTableRecord
  2
*X18
  0
BLOCK_RECORD
  5
C11
100
AcDbSymbolTableRecord
100
AcDbBlockTableRecord
  2
*X19
  0
BLOCK_RECORD
  5
C2D
100
AcDbSymbolTableRecord
100
AcDbBlockTableRecord
  2
L12T-HDI
  0
BLOCK_RECORD
  5
C90
100
AcDbSymbolTableRecord
100
AcDbBlockTableRecord
  2
*X21
  0
BLOCK_RECORD
  5
CAA
100
AcDbSymbolTableRecord
100
AcDbBlockTableRecord
  2
*X22
  0
BLOCK_RECORD
  5
CC5
100
AcDbSymbolTableRecord
100
AcDbBlockTableRecord
  2
L1-2-HDI
  0
BLOCK_RECORD
  5
121B
100
AcDbSymbolTableRecord
100
AcDbBlockTableRecord
  2
*X24
  0
BLOCK_RECORD
  5
1259
100
AcDbSymbolTableRecord
100
AcDbBlockTableRecord
  2
*D25
  0
BLOCK_RECORD
  5
1286
100
AcDbSymbolTableRecord
100
AcDbBlockTableRecord
  2
*X26
  0
ENDTAB
  0
ENDSEC
  0
SECTION
  2
BLOCKS
  0
BLOCK
  5
1B
100
AcDbEntity
  8
0
100
AcDbBlockBegin
  2
*MODEL_SPACE
 70
     0
 10
0.0
 20
0.0
 30
0.0
  3
*MODEL_SPACE
  1

  0
ENDBLK
  5
1C
100
AcDbEntity
  8
0
100
AcDbBlockEnd
  0
BLOCK
  5
18
100
AcDbEntity
 67
     1
  8
0
100
AcDbBlockBegin
  2
*PAPER_SPACE
 70
     0
 10
0.0
 20
0.0
 30
0.0
  3
*PAPER_SPACE
  1

  0
ENDBLK
  5
19
100
AcDbEntity
 67
     1
  8
0
100
AcDbBlockEnd
  0
BLOCK
  5
80
100
AcDbEntity
  8
0
100
AcDbBlockBegin
  2
C-BORDER
 70
     0
 10
0.0
 20
0.0
 30
0.0
  3
C-BORDER
  1

  0
LINE
  5
7B3
100
AcDbEntity
  8
TEXT
100
AcDbLine
 10
0.5
 20
14.875
 30
0.0
 11
3.0625
 21
14.875
 31
0.0
  0
LINE
  5
7B4
100
AcDbEntity
  8
TEXT
100
AcDbLine
 10
3.0625
 20
14.875
 30
0.0
 11
3.0625
 21
15.375
 31
0.0
  0
CIRCLE
  5
7B5
100
AcDbEntity
  8
TEXT
100
AcDbCircle
 10
1.177871
 20
15.111461
 30
0.0
 40
0.1875
  0
CIRCLE
  5
7B6
100
AcDbEntity
  8
TEXT
100
AcDbCircle
 10
1.177871
 20
15.111461
 30
0.0
 40
0.09375
  0
LINE
  5
7B7
100
AcDbEntity
  8
TEXT
  6
CENTER
100
AcDbLine
 10
0.943951
 20
15.111461
 30
0.0
 11
2.396621
 21
15.111461
 31
0.0
  0
LINE
  5
7B8
100
AcDbEntity
  8
TEXT
  6
CENTER
100
AcDbLine
 10
1.177871
 20
14.882779
 30
0.0
 11
1.177871
 21
15.350656
 31
0.0
  0
LINE
  5
7B9
100
AcDbEntity
  8
TEXT
100
AcDbLine
 10
1.646621
 20
15.205211
 30
0.0
 11
2.131263
 21
15.298961
 31
0.0
  0
LINE
  5
7BA
100
AcDbEntity
  8
TEXT
100
AcDbLine
 10
1.646621
 20
15.017711
 30
0.0
 11
2.131263
 21
14.923961
 31
0.0
  0
LINE
  5
7BB
100
AcDbEntity
  8
TEXT
100
AcDbLine
 10
1.646621
 20
15.017711
 30
0.0
 11
1.646621
 21
15.205211
 31
0.0
  0
LINE
  5
7BC
100
AcDbEntity
  8
TEXT
100
AcDbLine
 10
2.131263
 20
15.298961
 30
0.0
 11
2.131263
 21
14.923961
 31
0.0
  0
TEXT
  5
7BD
100
AcDbEntity
  8
TEXT
100
AcDbText
 10
0.6875
 20
14.689828
 30
0.0
 40
0.1
  1
THIRD ANGLE PROJECTION
100
AcDbText
  0
LINE
  5
7BE
100
AcDbEntity
  8
TEXT
100
AcDbLine
 10
3.0625
 20
14.875
 30
0.0
 11
3.0625
 21
14.625
 31
0.0
  0
LINE
  5
7BF
100
AcDbEntity
  8
TEXT
100
AcDbLine
 10
3.0625
 20
14.625
 30
0.0
 11
0.5
 21
14.625
 31
0.0
  0
TEXT
  5
7C0
100
AcDbEntity
  8
TEXT
100
AcDbText
 10
15.40792
 20
1.861505
 30
0.0
 40
0.065
  1
  %%P 0.5%%D
  7
ADESK2
100
AcDbText
  0
TEXT
  5
7C1
100
AcDbEntity
  8
TEXT
100
AcDbText
 10
15.40792
 20
1.966743
 30
0.0
 40
0.065
  1
ANGULAR
  7
ADESK2
100
AcDbText
  0
TEXT
  5
7C2
100
AcDbEntity
  8
TEXT
100
AcDbText
 10
14.61466
 20
1.653744
 30
0.0
 40
0.065
  1
DO NOT SCALE DRAWING
  7
ADESK2
 72
     1
 11
15.229065
 21
1.653744
 31
0.0
100
AcDbText
  0
TEXT
  5
7C3
100
AcDbEntity
  8
TEXT
100
AcDbText
 10
14.544023
 20
1.756267
 30
0.0
 40
0.065
  1
.XXX %%P .005
  7
ADESK2
100
AcDbText
  0
TEXT
  5
7C4
100
AcDbEntity
  8
TEXT
100
AcDbText
 10
14.544023
 20
1.861505
 30
0.0
 40
0.065
  1
.XX  %%P .05
  7
ADESK2
100
AcDbText
  0
TEXT
  5
7C5
100
AcDbEntity
  8
TEXT
100
AcDbText
 10
14.544023
 20
1.966743
 30
0.0
 40
0.065
  1
DECIMALS
  7
ADESK2
100
AcDbText
  0
TEXT
  5
7C6
100
AcDbEntity
  8
TEXT
100
AcDbText
 10
14.930374
 20
2.074613
 30
0.0
 40
0.065
  1
TOLERANCES
  7
ADESK2
 72
     1
 11
15.229065
 21
2.074613
 31
0.0
100
AcDbText
  0
TEXT
  5
7C7
100
AcDbEntity
  8
TEXT
100
AcDbText
 10
14.532636
 20
2.179851
 30
0.0
 40
0.065
  1
DIMENSIONS ARE IN INCHES
  7
ADESK2
 72
     1
 11
15.229065
 21
2.179851
 31
0.0
100
AcDbText
  0
TEXT
  5
7C8
100
AcDbEntity
  8
TEXT
100
AcDbText
 10
14.458351
 20
2.285089
 30
0.0
 40
0.065
  1
UNLESS OTHERWISE SPECIFIED:
  7
ADESK2
 72
     1
 11
15.229065
 21
2.285089
 31
0.0
100
AcDbText
  0
TEXT
  5
7C9
100
AcDbEntity
  8
BORDER
100
AcDbText
 10
16.916608
 20
2.075566
 30
0.0
 40
0.15
  1
HIGH ENERGY PHYSICS
100
AcDbText
  0
LINE
  5
7CA
100
AcDbEntity
  8
BORDER
100
AcDbLine
 10
0.5
 20
15.375
 30
0.0
 11
20.5
 21
15.375
 31
0.0
  0
TEXT
  5
7CB
100
AcDbEntity
  8
TEXT
100
AcDbText
 10
16.680137
 20
1.165354
 30
0.0
 40
0.075
  1
DIRECTORY
100
AcDbText
  0
TEXT
  5
7CC
100
AcDbEntity
  8
BORDER
100
AcDbText
 10
16.367704
 20
0.951962
 30
0.0
 40
0.15
  1
C
100
AcDbText
  0
LINE
  5
7CD
100
AcDbEntity
  8
BORDER
100
AcDbLine
 10
0.5
 20
0.625
 30
0.0
 11
20.5
 21
0.625
 31
0.0
  0
LINE
  5
7CE
100
AcDbEntity
  8
BORDER
100
AcDbLine
 10
0.5
 20
15.375
 30
0.0
 11
0.5
 21
0.625
 31
0.0
  0
LINE
  5
7CF
100
AcDbEntity
  8
BORDER
100
AcDbLine
 10
20.5
 20
0.625
 30
0.0
 11
20.5
 21
15.375
 31
0.0
  0
LINE
  5
7D0
100
AcDbEntity
  8
BORDER
100
AcDbLine
 10
14.228025
 20
2.824147
 30
0.0
 11
20.500862
 21
2.824147
 31
0.0
  0
TEXT
  5
7D1
100
AcDbEntity
  8
BORDER
100
AcDbText
 10
14.407029
 20
2.549228
 30
0.0
 40
0.15
  1
UNIVERSITY OF CALIFORNIA @ SANTA BARBARA
100
AcDbText
  0
TEXT
  5
7D2
100
AcDbEntity
  8
TEXT
100
AcDbText
 10
14.297375
 20
1.479964
 30
0.0
 40
0.065
  1
DRAWN
  7
ADESK2
100
AcDbText
  0
LINE
  5
7D3
100
AcDbEntity
  8
BORDER
100
AcDbLine
 10
14.229065
 20
0.625
 30
0.0
 11
14.229065
 21
2.824147
 31
0.0
  0
LINE
  5
7D4
100
AcDbEntity
  8
BORDER
100
AcDbLine
 10
14.229065
 20
2.401501
 30
0.0
 11
20.500862
 21
2.401501
 31
0.0
  0
LINE
  5
7D5
100
AcDbEntity
  8
TEXT
100
AcDbLine
 10
14.229065
 20
0.966501
 30
0.0
 11
16.229065
 21
0.966501
 31
0.0
  0
LINE
  5
7D6
100
AcDbEntity
  8
TEXT
100
AcDbLine
 10
14.229065
 20
1.281501
 30
0.0
 11
20.500862
 21
1.281501
 31
0.0
  0
LINE
  5
7D7
100
AcDbEntity
  8
TEXT
100
AcDbLine
 10
16.229065
 20
0.901501
 30
0.0
 11
20.500862
 21
0.901501
 31
0.0
  0
LINE
  5
7D8
100
AcDbEntity
  8
BORDER
100
AcDbLine
 10
16.229065
 20
1.901501
 30
0.0
 11
20.500862
 21
1.901501
 31
0.0
  0
LINE
  5
7D9
100
AcDbEntity
  8
BORDER
100
AcDbLine
 10
16.229065
 20
0.625
 30
0.0
 11
16.229065
 21
2.401501
 31
0.0
  0
LINE
  5
7DA
100
AcDbEntity
  8
TEXT
100
AcDbLine
 10
17.229065
 20
0.625
 30
0.0
 11
17.229065
 21
0.901501
 31
0.0
  0
LINE
  5
7DB
100
AcDbEntity
  8
TEXT
100
AcDbLine
 10
18.729065
 20
0.625
 30
0.0
 11
18.729065
 21
0.901501
 31
0.0
  0
LINE
  5
7DC
100
AcDbEntity
  8
TEXT
100
AcDbLine
 10
16.609065
 20
0.901501
 30
0.0
 11
16.609065
 21
1.281501
 31
0.0
  0
LINE
  5
7DD
100
AcDbEntity
  8
TEXT
100
AcDbLine
 10
17.729065
 20
0.901501
 30
0.0
 11
17.729065
 21
1.281501
 31
0.0
  0
LINE
  5
7DE
100
AcDbEntity
  8
TEXT
100
AcDbLine
 10
20.099065
 20
0.901501
 30
0.0
 11
20.099065
 21
1.281501
 31
0.0
  0
TEXT
  5
7DF
100
AcDbEntity
  8
TEXT
100
AcDbText
 10
16.281365
 20
0.744001
 30
0.0
 40
0.065
  1
SCALE
  7
ADESK2
100
AcDbText
  0
TEXT
  5
7E0
100
AcDbEntity
  8
TEXT
100
AcDbText
 10
18.781865
 20
0.744001
 30
0.0
 40
0.065
  1
SHEET
  7
ADESK2
100
AcDbText
  0
TEXT
  5
7E1
100
AcDbEntity
  8
TEXT
100
AcDbText
 10
16.316965
 20
1.167401
 30
0.0
 40
0.065
  1
SIZE
  7
ADESK2
100
AcDbText
  0
TEXT
  5
7E2
100
AcDbEntity
  8
TEXT
100
AcDbText
 10
17.800065
 20
1.167401
 30
0.0
 40
0.065
  1
DWG NO.
  7
ADESK2
100
AcDbText
  0
TEXT
  5
7E3
100
AcDbEntity
  8
TEXT
100
AcDbText
 10
20.179565
 20
1.167401
 30
0.0
 40
0.065
  1
REV
  7
ADESK2
100
AcDbText
  0
LINE
  5
7E4
100
AcDbEntity
  8
TEXT
100
AcDbLine
 10
15.445694
 20
15.018795
 30
0.0
 11
20.5
 21
15.018795
 31
0.0
  0
LINE
  5
7E5
100
AcDbEntity
  8
TEXT
100
AcDbLine
 10
15.445694
 20
14.768795
 30
0.0
 11
20.5
 21
14.768795
 31
0.0
  0
LINE
  5
7E6
100
AcDbEntity
  8
TEXT
100
AcDbLine
 10
15.445694
 20
15.328859
 30
0.0
 11
15.445694
 21
14.768795
 31
0.0
  0
LINE
  5
7E7
100
AcDbEntity
  8
TEXT
100
AcDbLine
 10
15.835946
 20
14.768795
 30
0.0
 11
15.835946
 21
15.018795
 31
0.0
  0
LINE
  5
7E8
100
AcDbEntity
  8
TEXT
100
AcDbLine
 10
18.575946
 20
14.768795
 30
0.0
 11
18.575946
 21
15.018795
 31
0.0
  0
LINE
  5
7E9
100
AcDbEntity
  8
TEXT
100
AcDbLine
 10
19.455946
 20
14.768795
 30
0.0
 11
19.455946
 21
15.018795
 31
0.0
  0
TEXT
  5
7EA
100
AcDbEntity
  8
TEXT
100
AcDbText
 10
17.666146
 20
15.101295
 30
0.0
 40
0.065
  1
REVISIONS
  7
ADESK2
100
AcDbText
  0
TEXT
  5
7EB
100
AcDbEntity
  8
TEXT
100
AcDbText
 10
15.536046
 20
14.859095
 30
0.0
 40
0.065
  1
REV
  7
ADESK2
100
AcDbText
  0
TEXT
  5
7EC
100
AcDbEntity
  8
TEXT
100
AcDbText
 10
16.837946
 20
14.859095
 30
0.0
 40
0.065
  1
DESCRIPTION
  7
ADESK2
100
AcDbText
  0
TEXT
  5
7ED
100
AcDbEntity
  8
TEXT
100
AcDbText
 10
18.903646
 20
14.859095
 30
0.0
 40
0.065
  1
DATE
  7
ADESK2
100
AcDbText
  0
TEXT
  5
7EE
100
AcDbEntity
  8
TEXT
100
AcDbText
 10
19.697346
 20
14.859095
 30
0.0
 40
0.065
  1
APPROVED
  7
ADESK2
100
AcDbText
  0
LINE
  5
7EF
100
AcDbEntity
  8
TEXT
100
AcDbLine
 10
14.229065
 20
1.591501
 30
0.0
 11
16.229065
 21
1.591501
 31
0.0
  0
TEXT
  5
7F0
100
AcDbEntity
  8
TEXT
100
AcDbText
 10
14.309065
 20
1.171501
 30
0.0
 40
0.065
  1
CHECKED
  7
ADESK2
100
AcDbText
  0
TEXT
  5
7F1
100
AcDbEntity
  8
TEXT
100
AcDbText
 10
14.309065
 20
0.856501
 30
0.0
 40
0.065
  1
DESIGN
  7
ADESK2
100
AcDbText
  0
LINE
  5
7F2
100
AcDbEntity
  8
TEXT
100
AcDbLine
 10
15.729049
 20
1.591501
 30
0.0
 11
15.729049
 21
0.625
 31
0.0
  0
TEXT
  5
7F3
100
AcDbEntity
  8
TEXT
100
AcDbText
 10
15.852468
 20
1.474951
 30
0.0
 40
0.065
  1
DATE
  7
ADESK2
100
AcDbText
  0
TEXT
  5
7F4
100
AcDbEntity
  8
TEXT
100
AcDbText
 10
19.612036
 20
0.744377
 30
0.0
 40
0.065
  1
OF
  7
ADESK2
100
AcDbText
  0
ENDBLK
  5
81
100
AcDbEntity
  8
0
100
AcDbBlockEnd
  0
BLOCK
  5
132
100
AcDbEntity
  8
FOOT
100
AcDbBlockBegin
  2
POST-1
 70
     0
 10
0.0
 20
0.0
 30
0.0
  3
POST-1
  1

  0
CIRCLE
  5
11C
100
AcDbEntity
  8
BUSHING
100
AcDbCircle
 10
5.7
 20
2.5
 30
0.0
 40
0.8
  0
POLYLINE
  5
11D
100
AcDbEntity
  8
BUSHING
  6
HIDDEN
100
AcDb2dPolyline
 66
     1
 10
0.0
 20
0.0
 30
0.0
 70
     1
  0
VERTEX
  5
11E
100
AcDbEntity
  8
BUSHING
  6
HIDDEN
100
AcDbVertex
100
AcDb2dVertex
 10
4.0
 20
1.5
 30
0.0
  0
VERTEX
  5
11F
100
AcDbEntity
  8
BUSHING
  6
HIDDEN
100
AcDbVertex
100
AcDb2dVertex
 10
4.0
 20
8.2
 30
0.0
 42
-0.414214
  0
VERTEX
  5
120
100
AcDbEntity
  8
BUSHING
  6
HIDDEN
100
AcDbVertex
100
AcDb2dVertex
 10
4.5
 20
8.7
 30
0.0
  0
VERTEX
  5
121
100
AcDbEntity
  8
BUSHING
  6
HIDDEN
100
AcDbVertex
100
AcDb2dVertex
 10
6.9
 20
8.7
 30
0.0
 42
-0.414214
  0
VERTEX
  5
122
100
AcDbEntity
  8
BUSHING
  6
HIDDEN
100
AcDbVertex
100
AcDb2dVertex
 10
7.4
 20
8.2
 30
0.0
  0
VERTEX
  5
123
100
AcDbEntity
  8
BUSHING
  6
HIDDEN
100
AcDbVertex
100
AcDb2dVertex
 10
7.4
 20
1.5
 30
0.0
 42
-0.414214
  0
VERTEX
  5
124
100
AcDbEntity
  8
BUSHING
  6
HIDDEN
100
AcDbVertex
100
AcDb2dVertex
 10
6.9
 20
1.0
 30
0.0
  0
VERTEX
  5
125
100
AcDbEntity
  8
BUSHING
  6
HIDDEN
100
AcDbVertex
100
AcDb2dVertex
 10
4.5
 20
1.0
 30
0.0
 42
-0.414214
  0
SEQEND
  5
134
100
AcDbEntity
  8
BUSHING
  6
HIDDEN
  0
LINE
  5
126
100
AcDbEntity
  8
BUSHING
100
AcDbLine
 10
0.5
 20
8.7
 30
0.0
 11
0.5
 21
1.0
 31
0.0
  0
LINE
  5
127
100
AcDbEntity
  8
BUSHING
100
AcDbLine
 10
2.5
 20
8.7
 30
0.0
 11
2.5
 21
1.0
 31
0.0
  0
CIRCLE
  5
128
100
AcDbEntity
  8
BUSHING
100
AcDbCircle
 10
5.7
 20
2.5
 30
0.0
 40
1.7
  0
LINE
  5
129
100
AcDbEntity
  8
BUSHING
100
AcDbLine
 10
0.0
 20
9.7
 30
0.0
 11
0.0
 21
0.0
 31
0.0
  0
LINE
  5
12A
100
AcDbEntity
  8
BUSHING
100
AcDbLine
 10
9.9
 20
9.7
 30
0.0
 11
9.9
 21
0.0
 31
0.0
  0
LINE
  5
12B
100
AcDbEntity
  8
BUSHING
100
AcDbLine
 10
0.0
 20
0.0
 30
0.0
 11
9.9
 21
0.0
 31
0.0
  0
LINE
  5
12C
100
AcDbEntity
  8
BUSHING
100
AcDbLine
 10
0.5
 20
1.0
 30
0.0
 11
2.5
 21
1.0
 31
0.0
  0
LINE
  5
12D
100
AcDbEntity
  8
BUSHING
100
AcDbLine
 10
0.0
 20
9.7
 30
0.0
 11
9.9
 21
9.7
 31
0.0
  0
LINE
  5
12E
100
AcDbEntity
  8
BUSHING
100
AcDbLine
 10
0.5
 20
8.7
 30
0.0
 11
2.5
 21
8.7
 31
0.0
  0
CIRCLE
  5
12F
100
AcDbEntity
  8
BUSHING
100
AcDbCircle
 10
5.7
 20
7.2
 30
0.0
 40
1.7
  0
CIRCLE
  5
130
100
AcDbEntity
  8
BUSHING
100
AcDbCircle
 10
5.7
 20
7.2
 30
0.0
 40
0.8
  0
CIRCLE
  5
131
100
AcDbEntity
  8
BUSHING
100
AcDbCircle
 10
5.7
 20
4.85
 30
0.0
 40
0.5
  0
ENDBLK
  5
133
100
AcDbEntity
  8
FOOT
100
AcDbBlockEnd
  0
BLOCK
  5
126E
100
AcDbEntity
  8
0
100
AcDbBlockBegin
  2
*D16
 70
    65
 10
0.0
 20
0.0
 30
0.0
  3
*D16
  1

  0
LINE
  5
126F
100
AcDbEntity
  8
0
  6
BYBLOCK
 62
     0
100
AcDbLine
 10
266.362829
 20
161.932779
 30
0.0
 11
266.362829
 21
171.912336
 31
0.0
  0
LINE
  5
1270
100
AcDbEntity
  8
0
  6
BYBLOCK
 62
     0
100
AcDbLine
 10
281.122829
 20
159.502779
 30
0.0
 11
281.122829
 21
171.912336
 31
0.0
  0
LINE
  5
1271
100
AcDbEntity
  8
0
  6
BYBLOCK
 62
     0
100
AcDbLine
 10
265.012829
 20
170.562336
 30
0.0
 11
263.662829
 21
170.562336
 31
0.0
  0
LINE
  5
1272
100
AcDbEntity
  8
0
  6
BYBLOCK
 62
     0
100
AcDbLine
 10
282.472829
 20
170.562336
 30
0.0
 11
283.822829
 21
170.562336
 31
0.0
  0
SOLID
  5
1273
100
AcDbEntity
  8
0
  6
BYBLOCK
 62
     0
100
AcDbTrace
 10
265.012829
 20
170.787336
 30
0.0
 11
265.012829
 21
170.337336
 31
0.0
 12
266.362829
 22
170.562336
 32
0.0
 13
266.362829
 23
170.562336
 33
0.0
  0
SOLID
  5
1274
100
AcDbEntity
  8
0
  6
BYBLOCK
 62
     0
100
AcDbTrace
 10
282.472829
 20
170.787336
 30
0.0
 11
282.472829
 21
170.337336
 31
0.0
 12
281.122829
 22
170.562336
 32
0.0
 13
281.122829
 23
170.562336
 33
0.0
  0
MTEXT
  5
1275
100
AcDbEntity
  8
0
  6
BYBLOCK
 62
     0
100
AcDbMText
 10
297.435329
 20
170.562336
 30
0.0
 40
2.25
 41
0.0
 71
     5
 72
     1
  1
\A1;14.76mm[0.581"]
  0
POINT
  5
1276
100
AcDbEntity
  8
DEFPOINTS
  6
BYBLOCK
 62
     0
100
AcDbPoint
 10
266.362829
 20
161.464029
 30
0.0
  0
POINT
  5
1277
100
AcDbEntity
  8
DEFPOINTS
  6
BYBLOCK
 62
     0
100
AcDbPoint
 10
281.122829
 20
159.034029
 30
0.0
  0
POINT
  5
1278
100
AcDbEntity
  8
DEFPOINTS
  6
BYBLOCK
 62
     0
100
AcDbPoint
 10
281.122829
 20
170.562336
 30
0.0
  0
ENDBLK
  5
1279
100
AcDbEntity
  8
0
100
AcDbBlockEnd
  0
BLOCK
  5
BEB
100
AcDbEntity
  8
SCRATCH
100
AcDbBlockBegin
  2
A$C23D
 70
     0
 10
0.0
 20
0.0
 30
0.0
  3
A$C23D
  1

  0
POLYLINE
  5
BB9
100
AcDbEntity
  8
BONDPAD
  6
CONTINUOUS
100
AcDb2dPolyline
 66
     1
 10
0.0
 20
0.0
 30
0.4
 70
     1
  0
VERTEX
  5
BBA
100
AcDbEntity
  8
BONDPAD
  6
CONTINUOUS
100
AcDbVertex
100
AcDb2dVertex
 10
-5.297801
 20
0.669586
 30
0.4
  0
VERTEX
  5
BBB
100
AcDbEntity
  8
BONDPAD
  6
CONTINUOUS
100
AcDbVertex
100
AcDb2dVertex
 10
-5.237801
 20
0.669586
 30
0.4
  0
VERTEX
  5
BBC
100
AcDbEntity
  8
BONDPAD
  6
CONTINUOUS
100
AcDbVertex
100
AcDb2dVertex
 10
-5.237801
 20
0.369586
 30
0.4
  0
VERTEX
  5
BBD
100
AcDbEntity
  8
BONDPAD
  6
CONTINUOUS
100
AcDbVertex
100
AcDb2dVertex
 10
-5.297801
 20
0.369586
 30
0.4
  0
SEQEND
  5
BED
100
AcDbEntity
  8
BONDPAD
  6
CONTINUOUS
  0
POLYLINE
  5
BBE
100
AcDbEntity
  8
BONDPAD
  6
CONTINUOUS
100
AcDb2dPolyline
 66
     1
 10
0.0
 20
0.0
 30
0.4
 70
     1
  0
VERTEX
  5
BBF
100
AcDbEntity
  8
BONDPAD
  6
CONTINUOUS
100
AcDbVertex
100
AcDb2dVertex
 10
-5.255001
 20
0.309586
 30
0.4
  0
VERTEX
  5
BC0
100
AcDbEntity
  8
BONDPAD
  6
CONTINUOUS
100
AcDbVertex
100
AcDb2dVertex
 10
-5.195001
 20
0.309586
 30
0.4
  0
VERTEX
  5
BC1
100
AcDbEntity
  8
BONDPAD
  6
CONTINUOUS
100
AcDbVertex
100
AcDb2dVertex
 10
-5.195001
 20
0.009586
 30
0.4
  0
VERTEX
  5
BC2
100
AcDbEntity
  8
BONDPAD
  6
CONTINUOUS
100
AcDbVertex
100
AcDb2dVertex
 10
-5.255001
 20
0.009586
 30
0.4
  0
SEQEND
  5
BEE
100
AcDbEntity
  8
BONDPAD
  6
CONTINUOUS
  0
POLYLINE
  5
BC3
100
AcDbEntity
  8
BONDPAD
  6
CONTINUOUS
100
AcDb2dPolyline
 66
     1
 10
0.0
 20
0.0
 30
0.4
 70
     1
  0
VERTEX
  5
BC4
100
AcDbEntity
  8
BONDPAD
  6
CONTINUOUS
100
AcDbVertex
100
AcDb2dVertex
 10
-5.212201
 20
0.669586
 30
0.4
  0
VERTEX
  5
BC5
100
AcDbEntity
  8
BONDPAD
  6
CONTINUOUS
100
AcDbVertex
100
AcDb2dVertex
 10
-5.152201
 20
0.669586
 30
0.4
  0
VERTEX
  5
BC6
100
AcDbEntity
  8
BONDPAD
  6
CONTINUOUS
100
AcDbVertex
100
AcDb2dVertex
 10
-5.152201
 20
0.369586
 30
0.4
  0
VERTEX
  5
BC7
100
AcDbEntity
  8
BONDPAD
  6
CONTINUOUS
100
AcDbVertex
100
AcDb2dVertex
 10
-5.212201
 20
0.369586
 30
0.4
  0
SEQEND
  5
BEF
100
AcDbEntity
  8
BONDPAD
  6
CONTINUOUS
  0
POLYLINE
  5
BC8
100
AcDbEntity
  8
BONDPAD
  6
CONTINUOUS
100
AcDb2dPolyline
 66
     1
 10
0.0
 20
0.0
 30
0.4
 70
     1
  0
VERTEX
  5
BC9
100
AcDbEntity
  8
BONDPAD
  6
CONTINUOUS
100
AcDbVertex
100
AcDb2dVertex
 10
-5.169401
 20
0.309586
 30
0.4
  0
VERTEX
  5
BCA
100
AcDbEntity
  8
BONDPAD
  6
CONTINUOUS
100
AcDbVertex
100
AcDb2dVertex
 10
-5.109401
 20
0.309586
 30
0.4
  0
VERTEX
  5
BCB
100
AcDbEntity
  8
BONDPAD
  6
CONTINUOUS
100
AcDbVertex
100
AcDb2dVertex
 10
-5.109401
 20
0.009586
 30
0.4
  0
VERTEX
  5
BCC
100
AcDbEntity
  8
BONDPAD
  6
CONTINUOUS
100
AcDbVertex
100
AcDb2dVertex
 10
-5.169401
 20
0.009586
 30
0.4
  0
SEQEND
  5
BF0
100
AcDbEntity
  8
BONDPAD
  6
CONTINUOUS
  0
POLYLINE
  5
BCD
100
AcDbEntity
  8
BONDPAD
  6
CONTINUOUS
100
AcDb2dPolyline
 66
     1
 10
0.0
 20
0.0
 30
0.4
 70
     1
  0
VERTEX
  5
BCE
100
AcDbEntity
  8
BONDPAD
  6
CONTINUOUS
100
AcDbVertex
100
AcDb2dVertex
 10
-5.126601
 20
0.669586
 30
0.4
  0
VERTEX
  5
BCF
100
AcDbEntity
  8
BONDPAD
  6
CONTINUOUS
100
AcDbVertex
100
AcDb2dVertex
 10
-5.066601
 20
0.669586
 30
0.4
  0
VERTEX
  5
BD0
100
AcDbEntity
  8
BONDPAD
  6
CONTINUOUS
100
AcDbVertex
100
AcDb2dVertex
 10
-5.066601
 20
0.369586
 30
0.4
  0
VERTEX
  5
BD1
100
AcDbEntity
  8
BONDPAD
  6
CONTINUOUS
100
AcDbVertex
100
AcDb2dVertex
 10
-5.126601
 20
0.369586
 30
0.4
  0
SEQEND
  5
BF1
100
AcDbEntity
  8
BONDPAD
  6
CONTINUOUS
  0
POLYLINE
  5
BD2
100
AcDbEntity
  8
BONDPAD
  6
CONTINUOUS
100
AcDb2dPolyline
 66
     1
 10
0.0
 20
0.0
 30
0.4
 70
     1
  0
VERTEX
  5
BD3
100
AcDbEntity
  8
BONDPAD
  6
CONTINUOUS
100
AcDbVertex
100
AcDb2dVertex
 10
-0.033401
 20
0.309586
 30
0.4
  0
VERTEX
  5
BD4
100
AcDbEntity
  8
BONDPAD
  6
CONTINUOUS
100
AcDbVertex
100
AcDb2dVertex
 10
0.026599
 20
0.309586
 30
0.4
  0
VERTEX
  5
BD5
100
AcDbEntity
  8
BONDPAD
  6
CONTINUOUS
100
AcDbVertex
100
AcDb2dVertex
 10
0.026599
 20
0.009586
 30
0.4
  0
VERTEX
  5
BD6
100
AcDbEntity
  8
BONDPAD
  6
CONTINUOUS
100
AcDbVertex
100
AcDb2dVertex
 10
-0.033401
 20
0.009586
 30
0.4
  0
SEQEND
  5
BF2
100
AcDbEntity
  8
BONDPAD
  6
CONTINUOUS
  0
POLYLINE
  5
BD7
100
AcDbEntity
  8
BONDPAD
  6
CONTINUOUS
100
AcDb2dPolyline
 66
     1
 10
0.0
 20
0.0
 30
0.4
 70
     1
  0
VERTEX
  5
BD8
100
AcDbEntity
  8
BONDPAD
  6
CONTINUOUS
100
AcDbVertex
100
AcDb2dVertex
 10
0.009399
 20
0.669586
 30
0.4
  0
VERTEX
  5
BD9
100
AcDbEntity
  8
BONDPAD
  6
CONTINUOUS
100
AcDbVertex
100
AcDb2dVertex
 10
0.069399
 20
0.669586
 30
0.4
  0
VERTEX
  5
BDA
100
AcDbEntity
  8
BONDPAD
  6
CONTINUOUS
100
AcDbVertex
100
AcDb2dVertex
 10
0.069399
 20
0.369586
 30
0.4
  0
VERTEX
  5
BDB
100
AcDbEntity
  8
BONDPAD
  6
CONTINUOUS
100
AcDbVertex
100
AcDb2dVertex
 10
0.009399
 20
0.369586
 30
0.4
  0
SEQEND
  5
BF3
100
AcDbEntity
  8
BONDPAD
  6
CONTINUOUS
  0
POLYLINE
  5
BDC
100
AcDbEntity
  8
BONDPAD
  6
CONTINUOUS
100
AcDb2dPolyline
 66
     1
 10
0.0
 20
0.0
 30
0.4
 70
     1
  0
VERTEX
  5
BDD
100
AcDbEntity
  8
BONDPAD
  6
CONTINUOUS
100
AcDbVertex
100
AcDb2dVertex
 10
0.052199
 20
0.309586
 30
0.4
  0
VERTEX
  5
BDE
100
AcDbEntity
  8
BONDPAD
  6
CONTINUOUS
100
AcDbVertex
100
AcDb2dVertex
 10
0.112199
 20
0.309586
 30
0.4
  0
VERTEX
  5
BDF
100
AcDbEntity
  8
BONDPAD
  6
CONTINUOUS
100
AcDbVertex
100
AcDb2dVertex
 10
0.112199
 20
0.009586
 30
0.4
  0
VERTEX
  5
BE0
100
AcDbEntity
  8
BONDPAD
  6
CONTINUOUS
100
AcDbVertex
100
AcDb2dVertex
 10
0.052199
 20
0.009586
 30
0.4
  0
SEQEND
  5
BF4
100
AcDbEntity
  8
BONDPAD
  6
CONTINUOUS
  0
POLYLINE
  5
BE1
100
AcDbEntity
  8
BONDPAD
  6
CONTINUOUS
100
AcDb2dPolyline
 66
     1
 10
0.0
 20
0.0
 30
0.4
 70
     1
  0
VERTEX
  5
BE2
100
AcDbEntity
  8
BONDPAD
  6
CONTINUOUS
100
AcDbVertex
100
AcDb2dVertex
 10
0.094999
 20
0.669586
 30
0.4
  0
VERTEX
  5
BE3
100
AcDbEntity
  8
BONDPAD
  6
CONTINUOUS
100
AcDbVertex
100
AcDb2dVertex
 10
0.154999
 20
0.669586
 30
0.4
  0
VERTEX
  5
BE4
100
AcDbEntity
  8
BONDPAD
  6
CONTINUOUS
100
AcDbVertex
100
AcDb2dVertex
 10
0.154999
 20
0.369586
 30
0.4
  0
VERTEX
  5
BE5
100
AcDbEntity
  8
BONDPAD
  6
CONTINUOUS
100
AcDbVertex
100
AcDb2dVertex
 10
0.094999
 20
0.369586
 30
0.4
  0
SEQEND
  5
BF5
100
AcDbEntity
  8
BONDPAD
  6
CONTINUOUS
  0
POLYLINE
  5
BE6
100
AcDbEntity
  8
BONDPAD
  6
CONTINUOUS
100
AcDb2dPolyline
 66
     1
 10
0.0
 20
0.0
 30
0.4
 70
     1
  0
VERTEX
  5
BE7
100
AcDbEntity
  8
BONDPAD
  6
CONTINUOUS
100
AcDbVertex
100
AcDb2dVertex
 10
0.137799
 20
0.309586
 30
0.4
  0
VERTEX
  5
BE8
100
AcDbEntity
  8
BONDPAD
  6
CONTINUOUS
100
AcDbVertex
100
AcDb2dVertex
 10
0.197799
 20
0.309586
 30
0.4
  0
VERTEX
  5
BE9
100
AcDbEntity
  8
BONDPAD
  6
CONTINUOUS
100
AcDbVertex
100
AcDb2dVertex
 10
0.197799
 20
0.009586
 30
0.4
  0
VERTEX
  5
BEA
100
AcDbEntity
  8
BONDPAD
  6
CONTINUOUS
100
AcDbVertex
100
AcDb2dVertex
 10
0.137799
 20
0.009586
 30
0.4
  0
SEQEND
  5
BF6
100
AcDbEntity
  8
BONDPAD
  6
CONTINUOUS
  0
ENDBLK
  5
BEC
100
AcDbEntity
  8
SCRATCH
100
AcDbBlockEnd
  0
BLOCK
  5
C0F
100
AcDbEntity
  8
0
100
AcDbBlockBegin
  2
*X18
 70
    65
 10
0.0
 20
0.0
 30
0.0
  3
*X18
  1

  0
LINE
  5
BF8
100
AcDbEntity
  8
0
 62
     0
100
AcDbLine
 10
105.871943
 20
75.819905
 30
0.0
 11
106.371943
 21
76.319905
 31
0.0
  0
LINE
  5
BF9
100
AcDbEntity
  8
0
 62
     0
100
AcDbLine
 10
115.590718
 20
85.53868
 30
0.0
 11
116.090718
 21
86.03868
 31
0.0
  0
LINE
  5
BFA
100
AcDbEntity
  8
0
 62
     0
100
AcDbLine
 10
105.871943
 20
77.587672
 30
0.0
 11
106.371943
 21
78.087672
 31
0.0
  0
LINE
  5
BFB
100
AcDbEntity
  8
0
 62
     0
100
AcDbLine
 10
113.822951
 20
85.53868
 30
0.0
 11
114.322951
 21
86.03868
 31
0.0
  0
LINE
  5
BFC
100
AcDbEntity
  8
0
 62
     0
100
AcDbLine
 10
105.871943
 20
79.355439
 30
0.0
 11
106.371943
 21
79.855439
 31
0.0
  0
LINE
  5
BFD
100
AcDbEntity
  8
0
 62
     0
100
AcDbLine
 10
112.055184
 20
85.53868
 30
0.0
 11
112.555184
 21
86.03868
 31
0.0
  0
LINE
  5
BFE
100
AcDbEntity
  8
0
 62
     0
100
AcDbLine
 10
105.871943
 20
81.123206
 30
0.0
 11
106.371943
 21
81.623206
 31
0.0
  0
LINE
  5
BFF
100
AcDbEntity
  8
0
 62
     0
100
AcDbLine
 10
110.287417
 20
85.53868
 30
0.0
 11
110.787417
 21
86.03868
 31
0.0
  0
LINE
  5
C00
100
AcDbEntity
  8
0
 62
     0
100
AcDbLine
 10
105.871943
 20
82.890973
 30
0.0
 11
106.371943
 21
83.390973
 31
0.0
  0
LINE
  5
C01
100
AcDbEntity
  8
0
 62
     0
100
AcDbLine
 10
108.51965
 20
85.53868
 30
0.0
 11
109.01965
 21
86.03868
 31
0.0
  0
LINE
  5
C02
100
AcDbEntity
  8
0
 62
     0
100
AcDbLine
 10
105.871943
 20
84.65874
 30
0.0
 11
106.371943
 21
85.15874
 31
0.0
  0
LINE
  5
C03
100
AcDbEntity
  8
0
 62
     0
100
AcDbLine
 10
106.751883
 20
85.53868
 30
0.0
 11
107.251883
 21
86.03868
 31
0.0
  0
LINE
  5
C04
100
AcDbEntity
  8
0
 62
     0
100
AcDbLine
 10
107.158485
 20
75.33868
 30
0.0
 11
107.658485
 21
75.83868
 31
0.0
  0
LINE
  5
C05
100
AcDbEntity
  8
0
 62
     0
100
AcDbLine
 10
116.271943
 20
84.452138
 30
0.0
 11
116.771943
 21
84.952138
 31
0.0
  0
LINE
  5
C06
100
AcDbEntity
  8
0
 62
     0
100
AcDbLine
 10
108.926252
 20
75.33868
 30
0.0
 11
109.426252
 21
75.83868
 31
0.0
  0
LINE
  5
C07
100
AcDbEntity
  8
0
 62
     0
100
AcDbLine
 10
116.271943
 20
82.684371
 30
0.0
 11
116.771943
 21
83.184371
 31
0.0
  0
LINE
  5
C08
100
AcDbEntity
  8
0
 62
     0
100
AcDbLine
 10
110.694019
 20
75.33868
 30
0.0
 11
111.194019
 21
75.83868
 31
0.0
  0
LINE
  5
C09
100
AcDbEntity
  8
0
 62
     0
100
AcDbLine
 10
116.271943
 20
80.916604
 30
0.0
 11
116.771943
 21
81.416604
 31
0.0
  0
LINE
  5
C0A
100
AcDbEntity
  8
0
 62
     0
100
AcDbLine
 10
112.461786
 20
75.33868
 30
0.0
 11
112.961786
 21
75.83868
 31
0.0
  0
LINE
  5
C0B
100
AcDbEntity
  8
0
 62
     0
100
AcDbLine
 10
116.271943
 20
79.148837
 30
0.0
 11
116.771943
 21
79.648837
 31
0.0
  0
LINE
  5
C0C
100
AcDbEntity
  8
0
 62
     0
100
AcDbLine
 10
114.229553
 20
75.33868
 30
0.0
 11
114.729553
 21
75.83868
 31
0.0
  0
LINE
  5
C0D
100
AcDbEntity
  8
0
 62
     0
100
AcDbLine
 10
116.271943
 20
77.38107
 30
0.0
 11
116.771943
 21
77.88107
 31
0.0
  0
LINE
  5
C0E
100
AcDbEntity
  8
0
 62
     0
100
AcDbLine
 10
115.99732
 20
75.33868
 30
0.0
 11
116.771943
 21
76.113303
 31
0.0
  0
ENDBLK
  5
C10
100
AcDbEntity
  8
0
100
AcDbBlockEnd
  0
BLOCK
  5
C2A
100
AcDbEntity
  8
0
100
AcDbBlockBegin
  2
*X19
 70
    65
 10
0.0
 20
0.0
 30
0.0
  3
*X19
  1

  0
LINE
  5
C12
100
AcDbEntity
  8
0
 62
     0
100
AcDbLine
 10
105.871943
 20
58.142235
 30
0.0
 11
106.371943
 21
58.642235
 31
0.0
  0
LINE
  5
C13
100
AcDbEntity
  8
0
 62
     0
100
AcDbLine
 10
114.568387
 20
66.83868
 30
0.0
 11
115.068387
 21
67.33868
 31
0.0
  0
LINE
  5
C14
100
AcDbEntity
  8
0
 62
     0
100
AcDbLine
 10
105.871943
 20
59.910002
 30
0.0
 11
106.371943
 21
60.410002
 31
0.0
  0
LINE
  5
C15
100
AcDbEntity
  8
0
 62
     0
100
AcDbLine
 10
112.80062
 20
66.83868
 30
0.0
 11
113.30062
 21
67.33868
 31
0.0
  0
LINE
  5
C16
100
AcDbEntity
  8
0
 62
     0
100
AcDbLine
 10
105.871943
 20
61.677769
 30
0.0
 11
106.371943
 21
62.177769
 31
0.0
  0
LINE
  5
C17
100
AcDbEntity
  8
0
 62
     0
100
AcDbLine
 10
111.032853
 20
66.83868
 30
0.0
 11
111.532853
 21
67.33868
 31
0.0
  0
LINE
  5
C18
100
AcDbEntity
  8
0
 62
     0
100
AcDbLine
 10
105.871943
 20
63.445536
 30
0.0
 11
106.371943
 21
63.945536
 31
0.0
  0
LINE
  5
C19
100
AcDbEntity
  8
0
 62
     0
100
AcDbLine
 10
109.265086
 20
66.83868
 30
0.0
 11
109.765086
 21
67.33868
 31
0.0
  0
LINE
  5
C1A
100
AcDbEntity
  8
0
 62
     0
100
AcDbLine
 10
105.871943
 20
65.213303
 30
0.0
 11
106.371943
 21
65.713303
 31
0.0
  0
LINE
  5
C1B
100
AcDbEntity
  8
0
 62
     0
100
AcDbLine
 10
107.49732
 20
66.83868
 30
0.0
 11
107.99732
 21
67.33868
 31
0.0
  0
LINE
  5
C1C
100
AcDbEntity
  8
0
 62
     0
100
AcDbLine
 10
105.871943
 20
66.98107
 30
0.0
 11
106.229553
 21
67.33868
 31
0.0
  0
LINE
  5
C1D
100
AcDbEntity
  8
0
 62
     0
100
AcDbLine
 10
106.136154
 20
56.63868
 30
0.0
 11
106.636154
 21
57.13868
 31
0.0
  0
LINE
  5
C1E
100
AcDbEntity
  8
0
 62
     0
100
AcDbLine
 10
116.271943
 20
66.774469
 30
0.0
 11
116.771943
 21
67.274469
 31
0.0
  0
LINE
  5
C1F
100
AcDbEntity
  8
0
 62
     0
100
AcDbLine
 10
107.903921
 20
56.63868
 30
0.0
 11
108.403921
 21
57.13868
 31
0.0
  0
LINE
  5
C20
100
AcDbEntity
  8
0
 62
     0
100
AcDbLine
 10
116.271943
 20
65.006702
 30
0.0
 11
116.771943
 21
65.506702
 31
0.0
  0
LINE
  5
C21
100
AcDbEntity
  8
0
 62
     0
100
AcDbLine
 10
109.671688
 20
56.63868
 30
0.0
 11
110.171688
 21
57.13868
 31
0.0
  0
LINE
  5
C22
100
AcDbEntity
  8
0
 62
     0
100
AcDbLine
 10
116.271943
 20
63.238935
 30
0.0
 11
116.771943
 21
63.738935
 31
0.0
  0
LINE
  5
C23
100
AcDbEntity
  8
0
 62
     0
100
AcDbLine
 10
111.439455
 20
56.63868
 30
0.0
 11
111.939455
 21
57.13868
 31
0.0
  0
LINE
  5
C24
100
AcDbEntity
  8
0
 62
     0
100
AcDbLine
 10
116.271943
 20
61.471168
 30
0.0
 11
116.771943
 21
61.971168
 31
0.0
  0
LINE
  5
C25
100
AcDbEntity
  8
0
 62
     0
100
AcDbLine
 10
113.207222
 20
56.63868
 30
0.0
 11
113.707222
 21
57.13868
 31
0.0
  0
LINE
  5
C26
100
AcDbEntity
  8
0
 62
     0
100
AcDbLine
 10
116.271943
 20
59.703401
 30
0.0
 11
116.771943
 21
60.203401
 31
0.0
  0
LINE
  5
C27
100
AcDbEntity
  8
0
 62
     0
100
AcDbLine
 10
114.974989
 20
56.63868
 30
0.0
 11
115.474989
 21
57.13868
 31
0.0
  0
LINE
  5
C28
100
AcDbEntity
  8
0
 62
     0
100
AcDbLine
 10
116.271943
 20
57.935634
 30
0.0
 11
116.771943
 21
58.435634
 31
0.0
  0
LINE
  5
C29
100
AcDbEntity
  8
0
 62
     0
100
AcDbLine
 10
116.742756
 20
56.63868
 30
0.0
 11
116.771943
 21
56.667867
 31
0.0
  0
ENDBLK
  5
C2B
100
AcDbEntity
  8
0
100
AcDbBlockEnd
  0
BLOCK
  5
C8D
100
AcDbEntity
  8
TEXT
 62
     1
100
AcDbBlockBegin
  2
L12T-HDI
 70
     0
 10
0.0
 20
0.0
 30
0.0
  3
L12T-HDI
  1

  0
INSERT
  5
C2E
100
AcDbEntity
  8
CENTER
100
AcDbBlockReference
  2
POST-1
 10
22.8
 20
5.827
 30
0.0
  0
INSERT
  5
C2F
100
AcDbEntity
  8
CENTER
100
AcDbBlockReference
  2
POST-1
 10
22.8
 20
24.527
 30
0.0
  0
LINE
  5
C30
100
AcDbEntity
  8
CENTER
100
AcDbLine
 10
-16.397091
 20
14.53001
 30
0.0
 11
65.564048
 21
14.53001
 31
0.0
1001
ACAD
1000
ASC_BOUNDS
1002
{
1070
    19
1005
0
1005
0
1005
0
1005
0
1005
0
1005
0
1005
0
1005
0
1005
0
1005
0
1005
0
1005
0
1005
0
1005
0
1005
0
1005
0
1005
0
1005
0
1005
0
1005
0
1005
0
1005
0
1005
0
1005
0
1005
0
1005
0
1005
0
1005
0
1005
0
1005
0
1005
0
1005
0
1005
0
1005
0
1005
0
1005
0
1005
0
1005
0
1005
0
1005
0
1005
0
1005
0
1005
0
1005
0
1005
0
1005
0
1005
0
1005
0
1005
0
1005
0
1005
0
1005
0
1005
0
1005
0
1005
0
1005
0
1005
0
1005
0
1005
0
1005
0
1005
0
1005
0
1005
0
1005
0
1005
0
1005
0
1005
0
1005
0
1005
0
1005
0
1005
0
1005
0
1005
0
1005
0
1005
0
1005
0
1005
0
1005
0
1005
0
1002
}
  0
LINE
  5
C31
100
AcDbEntity
  8
SCRATCH
 62
     4
100
AcDbLine
 10
41.2
 20
46.8
 30
0.0
 11
41.2
 21
0.0
 31
0.0
  0
LINE
  5
C32
100
AcDbEntity
  8
SCRATCH
100
AcDbLine
 10
34.2
 20
30.347
 30
0.0
 11
34.2
 21
9.707
 31
0.0
  0
LINE
  5
C33
100
AcDbEntity
  8
SCRATCH
100
AcDbLine
 10
40.2
 20
30.347
 30
0.0
 11
40.2
 21
9.707
 31
0.0
  0
LINE
  5
C34
100
AcDbEntity
  8
SCRATCH
 62
     4
100
AcDbLine
 10
0.0
 20
46.8
 30
0.0
 11
0.0
 21
0.0
 31
0.0
  0
LINE
  5
C35
100
AcDbEntity
  8
SCRATCH
 62
     4
100
AcDbLine
 10
0.0
 20
0.0
 30
0.0
 11
41.2
 21
0.0
 31
0.0
  0
LINE
  5
C36
100
AcDbEntity
  8
SCRATCH
100
AcDbLine
 10
40.2
 20
9.707
 30
0.0
 11
34.2
 21
9.707
 31
0.0
  0
LINE
  5
C37
100
AcDbEntity
  8
SCRATCH
 62
     4
100
AcDbLine
 10
0.0
 20
46.8
 30
0.0
 11
41.2
 21
46.8
 31
0.0
  0
LINE
  5
C38
100
AcDbEntity
  8
SCRATCH
100
AcDbLine
 10
40.2
 20
30.347
 30
0.0
 11
34.2
 21
30.347
 31
0.0
  0
ELLIPSE
  5
C39
100
AcDbEntity
  8
SCRATCH
 62
     4
100
AcDbEllipse
 10
27.3
 20
26.027
 30
0.0
 11
-0.7071067811865497
 21
-0.7071067811865497
 31
0.0
210
0.0
220
0.0
230
1.0
 40
1.0
 41
-0.7853981633974513
 42
0.7853981633974513
  0
LINE
  5
C3A
100
AcDbEntity
  8
SCRATCH
 62
     4
100
AcDbLine
 10
26.3
 20
26.027
 30
0.0
 11
26.3
 21
32.727
 31
0.0
  0
ELLIPSE
  5
C3B
100
AcDbEntity
  8
SCRATCH
 62
     4
100
AcDbEllipse
 10
27.3
 20
32.727
 30
0.0
 11
-0.7071067811865497
 21
-0.7071067811865497
 31
0.0
210
0.0
220
0.0
230
1.0
 40
1.0
 41
-2.356194490192341
 42
-0.7853981633974513
  0
LINE
  5
C3C
100
AcDbEntity
  8
SCRATCH
 62
     4
100
AcDbLine
 10
27.3
 20
33.727
 30
0.0
 11
29.7
 21
33.727
 31
0.0
  0
ELLIPSE
  5
C3D
100
AcDbEntity
  8
SCRATCH
 62
     4
100
AcDbEllipse
 10
29.7
 20
32.727
 30
0.0
 11
-0.7071067811865497
 21
-0.7071067811865497
 31
0.0
210
0.0
220
0.0
230
1.0
 40
1.0
 41
2.356194490192341
 42
3.926990816987514
  0
LINE
  5
C3E
100
AcDbEntity
  8
SCRATCH
 62
     4
100
AcDbLine
 10
30.7
 20
32.727
 30
0.0
 11
30.7
 21
26.027
 31
0.0
  0
ELLIPSE
  5
C3F
100
AcDbEntity
  8
SCRATCH
 62
     4
100
AcDbEllipse
 10
29.7
 20
26.027
 30
0.0
 11
-0.7071067811865497
 21
-0.7071067811865497
 31
0.0
210
0.0
220
0.0
230
1.0
 40
1.0
 41
0.7853981633974513
 42
2.356194490192341
  0
LINE
  5
C40
100
AcDbEntity
  8
SCRATCH
 62
     4
100
AcDbLine
 10
29.7
 20
25.027
 30
0.0
 11
27.3
 21
25.027
 31
0.0
  0
ELLIPSE
  5
C41
100
AcDbEntity
  8
SCRATCH
 62
     4
100
AcDbEllipse
 10
27.3
 20
7.327
 30
0.0
 11
-0.7071067811865497
 21
-0.7071067811865497
 31
0.0
210
0.0
220
0.0
230
1.0
 40
1.0
 41
-0.7853981633974513
 42
0.7853981633974513
  0
LINE
  5
C42
100
AcDbEntity
  8
SCRATCH
 62
     4
100
AcDbLine
 10
26.3
 20
7.327
 30
0.0
 11
26.3
 21
14.027
 31
0.0
  0
ELLIPSE
  5
C43
100
AcDbEntity
  8
SCRATCH
 62
     4
100
AcDbEllipse
 10
27.3
 20
14.027
 30
0.0
 11
-0.7071067811865497
 21
-0.7071067811865497
 31
0.0
210
0.0
220
0.0
230
1.0
 40
1.0
 41
-2.356194490192341
 42
-0.7853981633974513
  0
LINE
  5
C44
100
AcDbEntity
  8
SCRATCH
 62
     4
100
AcDbLine
 10
27.3
 20
15.027
 30
0.0
 11
29.7
 21
15.027
 31
0.0
  0
ELLIPSE
  5
C45
100
AcDbEntity
  8
SCRATCH
 62
     4
100
AcDbEllipse
 10
29.7
 20
14.027
 30
0.0
 11
-0.7071067811865497
 21
-0.7071067811865497
 31
0.0
210
0.0
220
0.0
230
1.0
 40
1.0
 41
2.356194490192341
 42
3.926990816987514
  0
LINE
  5
C46
100
AcDbEntity
  8
SCRATCH
 62
     4
100
AcDbLine
 10
30.7
 20
14.027
 30
0.0
 11
30.7
 21
7.327
 31
0.0
  0
ELLIPSE
  5
C47
100
AcDbEntity
  8
SCRATCH
 62
     4
100
AcDbEllipse
 10
29.7
 20
7.327
 30
0.0
 11
-0.7071067811865497
 21
-0.7071067811865497
 31
0.0
210
0.0
220
0.0
230
1.0
 40
1.0
 41
0.7853981633974513
 42
2.356194490192341
  0
LINE
  5
C48
100
AcDbEntity
  8
SCRATCH
 62
     4
100
AcDbLine
 10
29.7
 20
6.327
 30
0.0
 11
27.3
 21
6.327
 31
0.0
  0
LINE
  5
C49
100
AcDbEntity
  8
SCRATCH
100
AcDbLine
 10
32.7
 20
24.527
 30
0.0
 11
32.7
 21
34.227
 31
0.0
  0
LINE
  5
C4A
100
AcDbEntity
  8
SCRATCH
100
AcDbLine
 10
32.7
 20
34.227
 30
0.0
 11
22.8
 21
34.227
 31
0.0
  0
LINE
  5
C4B
100
AcDbEntity
  8
SCRATCH
100
AcDbLine
 10
22.8
 20
34.227
 30
0.0
 11
22.8
 21
24.527
 31
0.0
  0
LINE
  5
C4C
100
AcDbEntity
  8
SCRATCH
100
AcDbLine
 10
22.8
 20
24.527
 30
0.0
 11
32.7
 21
24.527
 31
0.0
  0
LINE
  5
C4D
100
AcDbEntity
  8
SCRATCH
100
AcDbLine
 10
33.2
 20
24.027
 30
0.0
 11
33.2
 21
34.727
 31
0.0
  0
LINE
  5
C4E
100
AcDbEntity
  8
SCRATCH
100
AcDbLine
 10
33.2
 20
34.727
 30
0.0
 11
22.3
 21
34.727
 31
0.0
  0
LINE
  5
C4F
100
AcDbEntity
  8
SCRATCH
100
AcDbLine
 10
22.3
 20
34.727
 30
0.0
 11
22.3
 21
24.027
 31
0.0
  0
LINE
  5
C50
100
AcDbEntity
  8
SCRATCH
100
AcDbLine
 10
22.3
 20
24.027
 30
0.0
 11
33.2
 21
24.027
 31
0.0
  0
INSERT
  5
C51
100
AcDbEntity
  8
SCRATCH
100
AcDbBlockReference
  2
*X18
 10
-83.571943
 20
-51.31168
 30
0.0
1001
ACAD
1000
HATCH
1002
{
1070
    19
1000
ANSI31
1040
10.0
1040
0.0
1000
ASC_BOUNDS
1070
     1
1070
     2
1070
     2
1005
0
1005
0
1000
ASC_SEEDPOINT
1011
-201.718778
1021
-75.776717
1031
0.0
1002
}
  0
LINE
  5
C52
100
AcDbEntity
  8
SCRATCH
100
AcDbLine
 10
22.8
 20
15.527
 30
0.0
 11
32.7
 21
15.527
 31
0.0
  0
LINE
  5
C53
100
AcDbEntity
  8
SCRATCH
100
AcDbLine
 10
32.7
 20
15.527
 30
0.0
 11
32.7
 21
5.827
 31
0.0
  0
LINE
  5
C54
100
AcDbEntity
  8
SCRATCH
100
AcDbLine
 10
32.7
 20
5.827
 30
0.0
 11
22.8
 21
5.827
 31
0.0
  0
LINE
  5
C55
100
AcDbEntity
  8
SCRATCH
100
AcDbLine
 10
22.8
 20
5.827
 30
0.0
 11
22.8
 21
15.527
 31
0.0
  0
LINE
  5
C56
100
AcDbEntity
  8
SCRATCH
100
AcDbLine
 10
22.3
 20
16.027
 30
0.0
 11
33.2
 21
16.027
 31
0.0
  0
LINE
  5
C57
100
AcDbEntity
  8
SCRATCH
100
AcDbLine
 10
33.2
 20
16.027
 30
0.0
 11
33.2
 21
5.327
 31
0.0
  0
LINE
  5
C58
100
AcDbEntity
  8
SCRATCH
100
AcDbLine
 10
33.2
 20
5.327
 30
0.0
 11
22.3
 21
5.327
 31
0.0
  0
LINE
  5
C59
100
AcDbEntity
  8
SCRATCH
100
AcDbLine
 10
22.3
 20
5.327
 30
0.0
 11
22.3
 21
16.027
 31
0.0
  0
INSERT
  5
C5A
100
AcDbEntity
  8
SCRATCH
100
AcDbBlockReference
  2
*X19
 10
-83.571943
 20
-51.31168
 30
0.0
1001
ACAD
1000
HATCH
1002
{
1070
    19
1000
ANSI31
1040
10.0
1040
0.0
1000
ASC_BOUNDS
1070
     1
1070
     2
1070
     2
1005
0
1005
0
1000
ASC_SEEDPOINT
1011
-201.718778
1021
-75.776717
1031
0.0
1002
}
  0
POLYLINE
  5
C5B
100
AcDbEntity
  8
SCRATCH
100
AcDb2dPolyline
 66
     1
 10
0.0
 20
0.0
 30
0.0
 70
     1
  0
VERTEX
  5
C5C
100
AcDbEntity
  8
SCRATCH
100
AcDbVertex
100
AcDb2dVertex
 10
5.5
 20
1.3
 30
0.0
  0
VERTEX
  5
C5D
100
AcDbEntity
  8
SCRATCH
100
AcDbVertex
100
AcDb2dVertex
 10
5.5
 20
7.0
 30
0.0
  0
VERTEX
  5
C5E
100
AcDbEntity
  8
SCRATCH
100
AcDbVertex
100
AcDb2dVertex
 10
13.8
 20
7.0
 30
0.0
  0
VERTEX
  5
C5F
100
AcDbEntity
  8
SCRATCH
100
AcDbVertex
100
AcDb2dVertex
 10
13.8
 20
1.3
 30
0.0
  0
SEQEND
  5
C60
100
AcDbEntity
  8
SCRATCH
  0
POLYLINE
  5
C61
100
AcDbEntity
  8
SCRATCH
100
AcDb2dPolyline
 66
     1
 10
0.0
 20
0.0
 30
0.0
 70
     1
  0
VERTEX
  5
C62
100
AcDbEntity
  8
SCRATCH
100
AcDbVertex
100
AcDb2dVertex
 10
5.5
 20
7.8
 30
0.0
  0
VERTEX
  5
C63
100
AcDbEntity
  8
SCRATCH
100
AcDbVertex
100
AcDb2dVertex
 10
5.5
 20
13.5
 30
0.0
  0
VERTEX
  5
C64
100
AcDbEntity
  8
SCRATCH
100
AcDbVertex
100
AcDb2dVertex
 10
13.8
 20
13.5
 30
0.0
  0
VERTEX
  5
C65
100
AcDbEntity
  8
SCRATCH
100
AcDbVertex
100
AcDb2dVertex
 10
13.8
 20
7.8
 30
0.0
  0
SEQEND
  5
C66
100
AcDbEntity
  8
SCRATCH
  0
POLYLINE
  5
C67
100
AcDbEntity
  8
SCRATCH
100
AcDb2dPolyline
 66
     1
 10
0.0
 20
0.0
 30
0.0
 70
     1
  0
VERTEX
  5
C68
100
AcDbEntity
  8
SCRATCH
100
AcDbVertex
100
AcDb2dVertex
 10
5.5
 20
14.3
 30
0.0
  0
VERTEX
  5
C69
100
AcDbEntity
  8
SCRATCH
100
AcDbVertex
100
AcDb2dVertex
 10
5.5
 20
20.0
 30
0.0
  0
VERTEX
  5
C6A
100
AcDbEntity
  8
SCRATCH
100
AcDbVertex
100
AcDb2dVertex
 10
13.8
 20
20.0
 30
0.0
  0
VERTEX
  5
C6B
100
AcDbEntity
  8
SCRATCH
100
AcDbVertex
100
AcDb2dVertex
 10
13.8
 20
14.3
 30
0.0
  0
SEQEND
  5
C6C
100
AcDbEntity
  8
SCRATCH
  0
POLYLINE
  5
C6D
100
AcDbEntity
  8
SCRATCH
100
AcDb2dPolyline
 66
     1
 10
0.0
 20
0.0
 30
0.0
 70
     1
  0
VERTEX
  5
C6E
100
AcDbEntity
  8
SCRATCH
100
AcDbVertex
100
AcDb2dVertex
 10
5.5
 20
20.8
 30
0.0
  0
VERTEX
  5
C6F
100
AcDbEntity
  8
SCRATCH
100
AcDbVertex
100
AcDb2dVertex
 10
5.5
 20
26.5
 30
0.0
  0
VERTEX
  5
C70
100
AcDbEntity
  8
SCRATCH
100
AcDbVertex
100
AcDb2dVertex
 10
13.8
 20
26.5
 30
0.0
  0
VERTEX
  5
C71
100
AcDbEntity
  8
SCRATCH
100
AcDbVertex
100
AcDb2dVertex
 10
13.8
 20
20.8
 30
0.0
  0
SEQEND
  5
C72
100
AcDbEntity
  8
SCRATCH
  0
POLYLINE
  5
C73
100
AcDbEntity
  8
SCRATCH
100
AcDb2dPolyline
 66
     1
 10
0.0
 20
0.0
 30
0.0
 70
     1
  0
VERTEX
  5
C74
100
AcDbEntity
  8
SCRATCH
100
AcDbVertex
100
AcDb2dVertex
 10
5.5
 20
27.3
 30
0.0
  0
VERTEX
  5
C75
100
AcDbEntity
  8
SCRATCH
100
AcDbVertex
100
AcDb2dVertex
 10
5.5
 20
33.0
 30
0.0
  0
VERTEX
  5
C76
100
AcDbEntity
  8
SCRATCH
100
AcDbVertex
100
AcDb2dVertex
 10
13.8
 20
33.0
 30
0.0
  0
VERTEX
  5
C77
100
AcDbEntity
  8
SCRATCH
100
AcDbVertex
100
AcDb2dVertex
 10
13.8
 20
27.3
 30
0.0
  0
SEQEND
  5
C78
100
AcDbEntity
  8
SCRATCH
  0
POLYLINE
  5
C79
100
AcDbEntity
  8
SCRATCH
100
AcDb2dPolyline
 66
     1
 10
0.0
 20
0.0
 30
0.0
 70
     1
  0
VERTEX
  5
C7A
100
AcDbEntity
  8
SCRATCH
100
AcDbVertex
100
AcDb2dVertex
 10
5.5
 20
33.8
 30
0.0
  0
VERTEX
  5
C7B
100
AcDbEntity
  8
SCRATCH
100
AcDbVertex
100
AcDb2dVertex
 10
5.5
 20
39.5
 30
0.0
  0
VERTEX
  5
C7C
100
AcDbEntity
  8
SCRATCH
100
AcDbVertex
100
AcDb2dVertex
 10
13.8
 20
39.5
 30
0.0
  0
VERTEX
  5
C7D
100
AcDbEntity
  8
SCRATCH
100
AcDbVertex
100
AcDb2dVertex
 10
13.8
 20
33.8
 30
0.0
  0
SEQEND
  5
C7E
100
AcDbEntity
  8
SCRATCH
  0
POLYLINE
  5
C7F
100
AcDbEntity
  8
SCRATCH
100
AcDb2dPolyline
 66
     1
 10
0.0
 20
0.0
 30
0.0
 70
     1
  0
VERTEX
  5
C80
100
AcDbEntity
  8
SCRATCH
100
AcDbVertex
100
AcDb2dVertex
 10
5.5
 20
40.3
 30
0.0
  0
VERTEX
  5
C81
100
AcDbEntity
  8
SCRATCH
100
AcDbVertex
100
AcDb2dVertex
 10
5.5
 20
46.0
 30
0.0
  0
VERTEX
  5
C82
100
AcDbEntity
  8
SCRATCH
100
AcDbVertex
100
AcDb2dVertex
 10
13.8
 20
46.0
 30
0.0
  0
VERTEX
  5
C83
100
AcDbEntity
  8
SCRATCH
100
AcDbVertex
100
AcDb2dVertex
 10
13.8
 20
40.3
 30
0.0
  0
SEQEND
  5
C84
100
AcDbEntity
  8
SCRATCH
  0
INSERT
  5
C85
100
AcDbEntity
  8
SCRATCH
100
AcDbBlockReference
  2
A$C23D
 10
5.589576
 20
1.597768
 30
0.0
 50
270.0
  0
INSERT
  5
C86
100
AcDbEntity
  8
SCRATCH
100
AcDbBlockReference
  2
A$C23D
 10
5.589576
 20
8.097768
 30
0.0
 50
270.0
  0
INSERT
  5
C87
100
AcDbEntity
  8
SCRATCH
100
AcDbBlockReference
  2
A$C23D
 10
5.589576
 20
14.597768
 30
0.0
 50
270.0
  0
INSERT
  5
C88
100
AcDbEntity
  8
SCRATCH
100
AcDbBlockReference
  2
A$C23D
 10
5.589576
 20
21.097768
 30
0.0
 50
270.0
  0
INSERT
  5
C89
100
AcDbEntity
  8
SCRATCH
100
AcDbBlockReference
  2
A$C23D
 10
5.589576
 20
27.597768
 30
0.0
 50
270.0
  0
INSERT
  5
C8A
100
AcDbEntity
  8
SCRATCH
100
AcDbBlockReference
  2
A$C23D
 10
5.589576
 20
34.097768
 30
0.0
 50
270.0
  0
INSERT
  5
C8B
100
AcDbEntity
  8
SCRATCH
100
AcDbBlockReference
  2
A$C23D
 10
5.589576
 20
40.597768
 30
0.0
 50
270.0
  0
TEXT
  5
C8C
100
AcDbEntity
  8
TEXT
  6
CONTINUOUS
100
AcDbText
 10
19.78688
 20
40.744121
 30
0.0
 40
2.140987
  1
top side
100
AcDbText
  0
ENDBLK
  5
C8E
100
AcDbEntity
  8
TEXT
 62
     1
100
AcDbBlockEnd
  0
BLOCK
  5
CA8
100
AcDbEntity
  8
0
100
AcDbBlockBegin
  2
*X21
 70
    65
 10
0.0
 20
0.0
 30
0.0
  3
*X21
  1

  0
LINE
  5
C91
100
AcDbEntity
  8
0
 62
     0
100
AcDbLine
 10
105.871943
 20
75.819905
 30
0.0
 11
106.371943
 21
76.319905
 31
0.0
  0
LINE
  5
C92
100
AcDbEntity
  8
0
 62
     0
100
AcDbLine
 10
115.590718
 20
85.53868
 30
0.0
 11
116.090718
 21
86.03868
 31
0.0
  0
LINE
  5
C93
100
AcDbEntity
  8
0
 62
     0
100
AcDbLine
 10
105.871943
 20
77.587672
 30
0.0
 11
106.371943
 21
78.087672
 31
0.0
  0
LINE
  5
C94
100
AcDbEntity
  8
0
 62
     0
100
AcDbLine
 10
113.822951
 20
85.53868
 30
0.0
 11
114.322951
 21
86.03868
 31
0.0
  0
LINE
  5
C95
100
AcDbEntity
  8
0
 62
     0
100
AcDbLine
 10
105.871943
 20
79.355439
 30
0.0
 11
106.371943
 21
79.855439
 31
0.0
  0
LINE
  5
C96
100
AcDbEntity
  8
0
 62
     0
100
AcDbLine
 10
112.055184
 20
85.53868
 30
0.0
 11
112.555184
 21
86.03868
 31
0.0
  0
LINE
  5
C97
100
AcDbEntity
  8
0
 62
     0
100
AcDbLine
 10
105.871943
 20
81.123206
 30
0.0
 11
106.371943
 21
81.623206
 31
0.0
  0
LINE
  5
C98
100
AcDbEntity
  8
0
 62
     0
100
AcDbLine
 10
110.287417
 20
85.53868
 30
0.0
 11
110.787417
 21
86.03868
 31
0.0
  0
LINE
  5
C99
100
AcDbEntity
  8
0
 62
     0
100
AcDbLine
 10
105.871943
 20
82.890973
 30
0.0
 11
106.371943
 21
83.390973
 31
0.0
  0
LINE
  5
C9A
100
AcDbEntity
  8
0
 62
     0
100
AcDbLine
 10
108.51965
 20
85.53868
 30
0.0
 11
109.01965
 21
86.03868
 31
0.0
  0
LINE
  5
C9B
100
AcDbEntity
  8
0
 62
     0
100
AcDbLine
 10
105.871943
 20
84.65874
 30
0.0
 11
106.371943
 21
85.15874
 31
0.0
  0
LINE
  5
C9C
100
AcDbEntity
  8
0
 62
     0
100
AcDbLine
 10
106.751883
 20
85.53868
 30
0.0
 11
107.251883
 21
86.03868
 31
0.0
  0
LINE
  5
C9D
100
AcDbEntity
  8
0
 62
     0
100
AcDbLine
 10
107.158485
 20
75.33868
 30
0.0
 11
107.658485
 21
75.83868
 31
0.0
  0
LINE
  5
C9E
100
AcDbEntity
  8
0
 62
     0
100
AcDbLine
 10
116.271943
 20
84.452138
 30
0.0
 11
116.771943
 21
84.952138
 31
0.0
  0
LINE
  5
C9F
100
AcDbEntity
  8
0
 62
     0
100
AcDbLine
 10
108.926252
 20
75.33868
 30
0.0
 11
109.426252
 21
75.83868
 31
0.0
  0
LINE
  5
CA0
100
AcDbEntity
  8
0
 62
     0
100
AcDbLine
 10
116.271943
 20
82.684371
 30
0.0
 11
116.771943
 21
83.184371
 31
0.0
  0
LINE
  5
CA1
100
AcDbEntity
  8
0
 62
     0
100
AcDbLine
 10
110.694019
 20
75.33868
 30
0.0
 11
111.194019
 21
75.83868
 31
0.0
  0
LINE
  5
CA2
100
AcDbEntity
  8
0
 62
     0
100
AcDbLine
 10
116.271943
 20
80.916604
 30
0.0
 11
116.771943
 21
81.416604
 31
0.0
  0
LINE
  5
CA3
100
AcDbEntity
  8
0
 62
     0
100
AcDbLine
 10
112.461786
 20
75.33868
 30
0.0
 11
112.961786
 21
75.83868
 31
0.0
  0
LINE
  5
CA4
100
AcDbEntity
  8
0
 62
     0
100
AcDbLine
 10
116.271943
 20
79.148837
 30
0.0
 11
116.771943
 21
79.648837
 31
0.0
  0
LINE
  5
CA5
100
AcDbEntity
  8
0
 62
     0
100
AcDbLine
 10
114.229553
 20
75.33868
 30
0.0
 11
114.729553
 21
75.83868
 31
0.0
  0
LINE
  5
CA6
100
AcDbEntity
  8
0
 62
     0
100
AcDbLine
 10
116.271943
 20
77.38107
 30
0.0
 11
116.771943
 21
77.88107
 31
0.0
  0
LINE
  5
CA7
100
AcDbEntity
  8
0
 62
     0
100
AcDbLine
 10
115.99732
 20
75.33868
 30
0.0
 11
116.771943
 21
76.113303
 31
0.0
  0
ENDBLK
  5
CA9
100
AcDbEntity
  8
0
100
AcDbBlockEnd
  0
BLOCK
  5
CC3
100
AcDbEntity
  8
0
100
AcDbBlockBegin
  2
*X22
 70
    65
 10
0.0
 20
0.0
 30
0.0
  3
*X22
  1

  0
LINE
  5
CAB
100
AcDbEntity
  8
0
 62
     0
100
AcDbLine
 10
105.871943
 20
58.142235
 30
0.0
 11
106.371943
 21
58.642235
 31
0.0
  0
LINE
  5
CAC
100
AcDbEntity
  8
0
 62
     0
100
AcDbLine
 10
114.568387
 20
66.83868
 30
0.0
 11
115.068387
 21
67.33868
 31
0.0
  0
LINE
  5
CAD
100
AcDbEntity
  8
0
 62
     0
100
AcDbLine
 10
105.871943
 20
59.910002
 30
0.0
 11
106.371943
 21
60.410002
 31
0.0
  0
LINE
  5
CAE
100
AcDbEntity
  8
0
 62
     0
100
AcDbLine
 10
112.80062
 20
66.83868
 30
0.0
 11
113.30062
 21
67.33868
 31
0.0
  0
LINE
  5
CAF
100
AcDbEntity
  8
0
 62
     0
100
AcDbLine
 10
105.871943
 20
61.677769
 30
0.0
 11
106.371943
 21
62.177769
 31
0.0
  0
LINE
  5
CB0
100
AcDbEntity
  8
0
 62
     0
100
AcDbLine
 10
111.032853
 20
66.83868
 30
0.0
 11
111.532853
 21
67.33868
 31
0.0
  0
LINE
  5
CB1
100
AcDbEntity
  8
0
 62
     0
100
AcDbLine
 10
105.871943
 20
63.445536
 30
0.0
 11
106.371943
 21
63.945536
 31
0.0
  0
LINE
  5
CB2
100
AcDbEntity
  8
0
 62
     0
100
AcDbLine
 10
109.265086
 20
66.83868
 30
0.0
 11
109.765086
 21
67.33868
 31
0.0
  0
LINE
  5
CB3
100
AcDbEntity
  8
0
 62
     0
100
AcDbLine
 10
105.871943
 20
65.213303
 30
0.0
 11
106.371943
 21
65.713303
 31
0.0
  0
LINE
  5
CB4
100
AcDbEntity
  8
0
 62
     0
100
AcDbLine
 10
107.49732
 20
66.83868
 30
0.0
 11
107.99732
 21
67.33868
 31
0.0
  0
LINE
  5
CB5
100
AcDbEntity
  8
0
 62
     0
100
AcDbLine
 10
105.871943
 20
66.98107
 30
0.0
 11
106.229553
 21
67.33868
 31
0.0
  0
LINE
  5
CB6
100
AcDbEntity
  8
0
 62
     0
100
AcDbLine
 10
106.136154
 20
56.63868
 30
0.0
 11
106.636154
 21
57.13868
 31
0.0
  0
LINE
  5
CB7
100
AcDbEntity
  8
0
 62
     0
100
AcDbLine
 10
116.271943
 20
66.774469
 30
0.0
 11
116.771943
 21
67.274469
 31
0.0
  0
LINE
  5
CB8
100
AcDbEntity
  8
0
 62
     0
100
AcDbLine
 10
107.903921
 20
56.63868
 30
0.0
 11
108.403921
 21
57.13868
 31
0.0
  0
LINE
  5
CB9
100
AcDbEntity
  8
0
 62
     0
100
AcDbLine
 10
116.271943
 20
65.006702
 30
0.0
 11
116.771943
 21
65.506702
 31
0.0
  0
LINE
  5
CBA
100
AcDbEntity
  8
0
 62
     0
100
AcDbLine
 10
109.671688
 20
56.63868
 30
0.0
 11
110.171688
 21
57.13868
 31
0.0
  0
LINE
  5
CBB
100
AcDbEntity
  8
0
 62
     0
100
AcDbLine
 10
116.271943
 20
63.238935
 30
0.0
 11
116.771943
 21
63.738935
 31
0.0
  0
LINE
  5
CBC
100
AcDbEntity
  8
0
 62
     0
100
AcDbLine
 10
111.439455
 20
56.63868
 30
0.0
 11
111.939455
 21
57.13868
 31
0.0
  0
LINE
  5
CBD
100
AcDbEntity
  8
0
 62
     0
100
AcDbLine
 10
116.271943
 20
61.471168
 30
0.0
 11
116.771943
 21
61.971168
 31
0.0
  0
LINE
  5
CBE
100
AcDbEntity
  8
0
 62
     0
100
AcDbLine
 10
113.207222
 20
56.63868
 30
0.0
 11
113.707222
 21
57.13868
 31
0.0
  0
LINE
  5
CBF
100
AcDbEntity
  8
0
 62
     0
100
AcDbLine
 10
116.271943
 20
59.703401
 30
0.0
 11
116.771943
 21
60.203401
 31
0.0
  0
LINE
  5
CC0
100
AcDbEntity
  8
0
 62
     0
100
AcDbLine
 10
114.974989
 20
56.63868
 30
0.0
 11
115.474989
 21
57.13868
 31
0.0
  0
LINE
  5
CC1
100
AcDbEntity
  8
0
 62
     0
100
AcDbLine
 10
116.271943
 20
57.935634
 30
0.0
 11
116.771943
 21
58.435634
 31
0.0
  0
LINE
  5
CC2
100
AcDbEntity
  8
0
 62
     0
100
AcDbLine
 10
116.742756
 20
56.63868
 30
0.0
 11
116.771943
 21
56.667867
 31
0.0
  0
ENDBLK
  5
CC4
100
AcDbEntity
  8
0
100
AcDbBlockEnd
  0
BLOCK
  5
D25
100
AcDbEntity
  8
TEXT
 62
     1
100
AcDbBlockBegin
  2
L1-2-HDI
 70
     0
 10
0.0
 20
0.0
 30
0.0
  3
L1-2-HDI
  1

  0
INSERT
  5
CC6
100
AcDbEntity
  8
CENTER
100
AcDbBlockReference
  2
POST-1
 10
22.8
 20
40.973
 30
0.0
 41
-1.0
 50
180.0
  0
INSERT
  5
CC7
100
AcDbEntity
  8
CENTER
100
AcDbBlockReference
  2
POST-1
 10
22.8
 20
22.273
 30
0.0
 41
-1.0
 50
180.0
  0
LINE
  5
CC8
100
AcDbEntity
  8
CENTER
100
AcDbLine
 10
-16.397091
 20
32.26999
 30
0.0
 11
65.564048
 21
32.26999
 31
0.0
1001
ACAD
1000
ASC_BOUNDS
1002
{
1070
    19
1005
0
1005
0
1005
0
1005
0
1005
0
1005
0
1005
0
1005
0
1005
0
1005
0
1005
0
1005
0
1005
0
1005
0
1005
0
1005
0
1005
0
1005
0
1005
0
1005
0
1005
0
1005
0
1005
0
1005
0
1005
0
1005
0
1005
0
1005
0
1005
0
1005
0
1005
0
1005
0
1005
0
1005
0
1005
0
1005
0
1005
0
1005
0
1005
0
1005
0
1005
0
1005
0
1005
0
1005
0
1005
0
1005
0
1005
0
1005
0
1005
0
1005
0
1005
0
1005
0
1005
0
1005
0
1005
0
1005
0
1005
0
1005
0
1005
0
1005
0
1005
0
1005
0
1005
0
1005
0
1005
0
1005
0
1005
0
1005
0
1005
0
1005
0
1005
0
1005
0
1005
0
1005
0
1005
0
1005
0
1005
0
1005
0
1005
0
1002
}
  0
LINE
  5
CC9
100
AcDbEntity
  8
SCRATCH
 62
     4
100
AcDbLine
 10
41.2
 20
0.0
 30
0.0
 11
41.2
 21
46.8
 31
0.0
  0
LINE
  5
CCA
100
AcDbEntity
  8
SCRATCH
100
AcDbLine
 10
34.2
 20
16.453
 30
0.0
 11
34.2
 21
37.093
 31
0.0
  0
LINE
  5
CCB
100
AcDbEntity
  8
SCRATCH
100
AcDbLine
 10
40.2
 20
16.453
 30
0.0
 11
40.2
 21
37.093
 31
0.0
  0
LINE
  5
CCC
100
AcDbEntity
  8
SCRATCH
 62
     4
100
AcDbLine
 10
0.0
 20
0.0
 30
0.0
 11
0.0
 21
46.8
 31
0.0
  0
LINE
  5
CCD
100
AcDbEntity
  8
SCRATCH
 62
     4
100
AcDbLine
 10
0.0
 20
46.8
 30
0.0
 11
41.2
 21
46.8
 31
0.0
  0
LINE
  5
CCE
100
AcDbEntity
  8
SCRATCH
100
AcDbLine
 10
40.2
 20
37.093
 30
0.0
 11
34.2
 21
37.093
 31
0.0
  0
LINE
  5
CCF
100
AcDbEntity
  8
SCRATCH
 62
     4
100
AcDbLine
 10
0.0
 20
0.0
 30
0.0
 11
41.2
 21
0.0
 31
0.0
  0
LINE
  5
CD0
100
AcDbEntity
  8
SCRATCH
100
AcDbLine
 10
40.2
 20
16.453
 30
0.0
 11
34.2
 21
16.453
 31
0.0
  0
ELLIPSE
  5
CD1
100
AcDbEntity
  8
SCRATCH
 62
     4
100
AcDbEllipse
 10
27.3
 20
20.773
 30
0.0
 11
-0.7071067811865497
 21
0.7071067811865497
 31
0.0
210
0.0
220
0.0
230
-1.0
 40
1.0
 41
-0.7853981633974513
 42
0.7853981633974513
  0
LINE
  5
CD2
100
AcDbEntity
  8
SCRATCH
 62
     4
100
AcDbLine
 10
26.3
 20
20.773
 30
0.0
 11
26.3
 21
14.073
 31
0.0
  0
ELLIPSE
  5
CD3
100
AcDbEntity
  8
SCRATCH
 62
     4
100
AcDbEllipse
 10
27.3
 20
14.073
 30
0.0
 11
-0.7071067811865497
 21
0.7071067811865497
 31
0.0
210
0.0
220
0.0
230
-1.0
 40
1.0
 41
-2.356194490192341
 42
-0.7853981633974513
  0
LINE
  5
CD4
100
AcDbEntity
  8
SCRATCH
 62
     4
100
AcDbLine
 10
27.3
 20
13.073
 30
0.0
 11
29.7
 21
13.073
 31
0.0
  0
ELLIPSE
  5
CD5
100
AcDbEntity
  8
SCRATCH
 62
     4
100
AcDbEllipse
 10
29.7
 20
14.073
 30
0.0
 11
-0.7071067811865497
 21
0.7071067811865497
 31
0.0
210
0.0
220
0.0
230
-1.0
 40
1.0
 41
2.356194490192341
 42
3.926990816987514
  0
LINE
  5
CD6
100
AcDbEntity
  8
SCRATCH
 62
     4
100
AcDbLine
 10
30.7
 20
14.073
 30
0.0
 11
30.7
 21
20.773
 31
0.0
  0
ELLIPSE
  5
CD7
100
AcDbEntity
  8
SCRATCH
 62
     4
100
AcDbEllipse
 10
29.7
 20
20.773
 30
0.0
 11
-0.7071067811865497
 21
0.7071067811865497
 31
0.0
210
0.0
220
0.0
230
-1.0
 40
1.0
 41
0.7853981633974513
 42
2.356194490192341
  0
LINE
  5
CD8
100
AcDbEntity
  8
SCRATCH
 62
     4
100
AcDbLine
 10
29.7
 20
21.773
 30
0.0
 11
27.3
 21
21.773
 31
0.0
  0
ELLIPSE
  5
CD9
100
AcDbEntity
  8
SCRATCH
 62
     4
100
AcDbEllipse
 10
27.3
 20
39.473
 30
0.0
 11
-0.7071067811865497
 21
0.7071067811865497
 31
0.0
210
0.0
220
0.0
230
-1.0
 40
1.0
 41
-0.7853981633974513
 42
0.7853981633974513
  0
LINE
  5
CDA
100
AcDbEntity
  8
SCRATCH
 62
     4
100
AcDbLine
 10
26.3
 20
39.473
 30
0.0
 11
26.3
 21
32.773
 31
0.0
  0
ELLIPSE
  5
CDB
100
AcDbEntity
  8
SCRATCH
 62
     4
100
AcDbEllipse
 10
27.3
 20
32.773
 30
0.0
 11
-0.7071067811865497
 21
0.7071067811865497
 31
0.0
210
0.0
220
0.0
230
-1.0
 40
1.0
 41
-2.356194490192341
 42
-0.7853981633974513
  0
LINE
  5
CDC
100
AcDbEntity
  8
SCRATCH
 62
     4
100
AcDbLine
 10
27.3
 20
31.773
 30
0.0
 11
29.7
 21
31.773
 31
0.0
  0
ELLIPSE
  5
CDD
100
AcDbEntity
  8
SCRATCH
 62
     4
100
AcDbEllipse
 10
29.7
 20
32.773
 30
0.0
 11
-0.7071067811865497
 21
0.7071067811865497
 31
0.0
210
0.0
220
0.0
230
-1.0
 40
1.0
 41
2.356194490192341
 42
3.926990816987514
  0
LINE
  5
CDE
100
AcDbEntity
  8
SCRATCH
 62
     4
100
AcDbLine
 10
30.7
 20
32.773
 30
0.0
 11
30.7
 21
39.473
 31
0.0
  0
ELLIPSE
  5
CDF
100
AcDbEntity
  8
SCRATCH
 62
     4
100
AcDbEllipse
 10
29.7
 20
39.473
 30
0.0
 11
-0.7071067811865497
 21
0.7071067811865497
 31
0.0
210
0.0
220
0.0
230
-1.0
 40
1.0
 41
0.7853981633974513
 42
2.356194490192341
  0
LINE
  5
CE0
100
AcDbEntity
  8
SCRATCH
 62
     4
100
AcDbLine
 10
29.7
 20
40.473
 30
0.0
 11
27.3
 21
40.473
 31
0.0
  0
LINE
  5
CE1
100
AcDbEntity
  8
SCRATCH
100
AcDbLine
 10
32.7
 20
22.273
 30
0.0
 11
32.7
 21
12.573
 31
0.0
  0
LINE
  5
CE2
100
AcDbEntity
  8
SCRATCH
100
AcDbLine
 10
32.7
 20
12.573
 30
0.0
 11
22.8
 21
12.573
 31
0.0
  0
LINE
  5
CE3
100
AcDbEntity
  8
SCRATCH
100
AcDbLine
 10
22.8
 20
12.573
 30
0.0
 11
22.8
 21
22.273
 31
0.0
  0
LINE
  5
CE4
100
AcDbEntity
  8
SCRATCH
100
AcDbLine
 10
22.8
 20
22.273
 30
0.0
 11
32.7
 21
22.273
 31
0.0
  0
LINE
  5
CE5
100
AcDbEntity
  8
SCRATCH
100
AcDbLine
 10
33.2
 20
22.773
 30
0.0
 11
33.2
 21
12.073
 31
0.0
  0
LINE
  5
CE6
100
AcDbEntity
  8
SCRATCH
100
AcDbLine
 10
33.2
 20
12.073
 30
0.0
 11
22.3
 21
12.073
 31
0.0
  0
LINE
  5
CE7
100
AcDbEntity
  8
SCRATCH
100
AcDbLine
 10
22.3
 20
12.073
 30
0.0
 11
22.3
 21
22.773
 31
0.0
  0
LINE
  5
CE8
100
AcDbEntity
  8
SCRATCH
100
AcDbLine
 10
22.3
 20
22.773
 30
0.0
 11
33.2
 21
22.773
 31
0.0
  0
INSERT
  5
CE9
100
AcDbEntity
  8
SCRATCH
100
AcDbBlockReference
  2
*X21
 10
-83.571943
 20
98.11168
 30
0.0
 41
-1.0
 50
180.0
1001
ACAD
1000
HATCH
1002
{
1070
    19
1000
ANSI31
1040
10.0
1040
0.0
1000
ASC_BOUNDS
1070
     1
1070
     2
1070
     2
1005
0
1005
0
1000
ASC_SEEDPOINT
1011
-201.718778
1021
122.576717
1031
0.0
1002
}
  0
LINE
  5
CEA
100
AcDbEntity
  8
SCRATCH
100
AcDbLine
 10
22.8
 20
31.273
 30
0.0
 11
32.7
 21
31.273
 31
0.0
  0
LINE
  5
CEB
100
AcDbEntity
  8
SCRATCH
100
AcDbLine
 10
32.7
 20
31.273
 30
0.0
 11
32.7
 21
40.973
 31
0.0
  0
LINE
  5
CEC
100
AcDbEntity
  8
SCRATCH
100
AcDbLine
 10
32.7
 20
40.973
 30
0.0
 11
22.8
 21
40.973
 31
0.0
  0
LINE
  5
CED
100
AcDbEntity
  8
SCRATCH
100
AcDbLine
 10
22.8
 20
40.973
 30
0.0
 11
22.8
 21
31.273
 31
0.0
  0
LINE
  5
CEE
100
AcDbEntity
  8
SCRATCH
100
AcDbLine
 10
22.3
 20
30.773
 30
0.0
 11
33.2
 21
30.773
 31
0.0
  0
LINE
  5
CEF
100
AcDbEntity
  8
SCRATCH
100
AcDbLine
 10
33.2
 20
30.773
 30
0.0
 11
33.2
 21
41.473
 31
0.0
  0
LINE
  5
CF0
100
AcDbEntity
  8
SCRATCH
100
AcDbLine
 10
33.2
 20
41.473
 30
0.0
 11
22.3
 21
41.473
 31
0.0
  0
LINE
  5
CF1
100
AcDbEntity
  8
SCRATCH
100
AcDbLine
 10
22.3
 20
41.473
 30
0.0
 11
22.3
 21
30.773
 31
0.0
  0
INSERT
  5
CF2
100
AcDbEntity
  8
SCRATCH
100
AcDbBlockReference
  2
*X22
 10
-83.571943
 20
98.11168
 30
0.0
 41
-1.0
 50
180.0
1001
ACAD
1000
HATCH
1002
{
1070
    19
1000
ANSI31
1040
10.0
1040
0.0
1000
ASC_BOUNDS
1070
     1
1070
     2
1070
     2
1005
0
1005
0
1000
ASC_SEEDPOINT
1011
-201.718778
1021
122.576717
1031
0.0
1002
}
  0
POLYLINE
  5
CF3
100
AcDbEntity
  8
SCRATCH
100
AcDb2dPolyline
 66
     1
 10
0.0
 20
0.0
 30
0.0
 70
     1
  0
VERTEX
  5
CF4
100
AcDbEntity
  8
SCRATCH
100
AcDbVertex
100
AcDb2dVertex
 10
5.5
 20
1.3
 30
0.0
  0
VERTEX
  5
CF5
100
AcDbEntity
  8
SCRATCH
100
AcDbVertex
100
AcDb2dVertex
 10
5.5
 20
7.0
 30
0.0
  0
VERTEX
  5
CF6
100
AcDbEntity
  8
SCRATCH
100
AcDbVertex
100
AcDb2dVertex
 10
13.8
 20
7.0
 30
0.0
  0
VERTEX
  5
CF7
100
AcDbEntity
  8
SCRATCH
100
AcDbVertex
100
AcDb2dVertex
 10
13.8
 20
1.3
 30
0.0
  0
SEQEND
  5
CF8
100
AcDbEntity
  8
SCRATCH
  0
POLYLINE
  5
CF9
100
AcDbEntity
  8
SCRATCH
100
AcDb2dPolyline
 66
     1
 10
0.0
 20
0.0
 30
0.0
 70
     1
  0
VERTEX
  5
CFA
100
AcDbEntity
  8
SCRATCH
100
AcDbVertex
100
AcDb2dVertex
 10
5.5
 20
7.8
 30
0.0
  0
VERTEX
  5
CFB
100
AcDbEntity
  8
SCRATCH
100
AcDbVertex
100
AcDb2dVertex
 10
5.5
 20
13.5
 30
0.0
  0
VERTEX
  5
CFC
100
AcDbEntity
  8
SCRATCH
100
AcDbVertex
100
AcDb2dVertex
 10
13.8
 20
13.5
 30
0.0
  0
VERTEX
  5
CFD
100
AcDbEntity
  8
SCRATCH
100
AcDbVertex
100
AcDb2dVertex
 10
13.8
 20
7.8
 30
0.0
  0
SEQEND
  5
CFE
100
AcDbEntity
  8
SCRATCH
  0
POLYLINE
  5
CFF
100
AcDbEntity
  8
SCRATCH
100
AcDb2dPolyline
 66
     1
 10
0.0
 20
0.0
 30
0.0
 70
     1
  0
VERTEX
  5
D00
100
AcDbEntity
  8
SCRATCH
100
AcDbVertex
100
AcDb2dVertex
 10
5.5
 20
14.3
 30
0.0
  0
VERTEX
  5
D01
100
AcDbEntity
  8
SCRATCH
100
AcDbVertex
100
AcDb2dVertex
 10
5.5
 20
20.0
 30
0.0
  0
VERTEX
  5
D02
100
AcDbEntity
  8
SCRATCH
100
AcDbVertex
100
AcDb2dVertex
 10
13.8
 20
20.0
 30
0.0
  0
VERTEX
  5
D03
100
AcDbEntity
  8
SCRATCH
100
AcDbVertex
100
AcDb2dVertex
 10
13.8
 20
14.3
 30
0.0
  0
SEQEND
  5
D04
100
AcDbEntity
  8
SCRATCH
  0
POLYLINE
  5
D05
100
AcDbEntity
  8
SCRATCH
100
AcDb2dPolyline
 66
     1
 10
0.0
 20
0.0
 30
0.0
 70
     1
  0
VERTEX
  5
D06
100
AcDbEntity
  8
SCRATCH
100
AcDbVertex
100
AcDb2dVertex
 10
5.5
 20
20.8
 30
0.0
  0
VERTEX
  5
D07
100
AcDbEntity
  8
SCRATCH
100
AcDbVertex
100
AcDb2dVertex
 10
5.5
 20
26.5
 30
0.0
  0
VERTEX
  5
D08
100
AcDbEntity
  8
SCRATCH
100
AcDbVertex
100
AcDb2dVertex
 10
13.8
 20
26.5
 30
0.0
  0
VERTEX
  5
D09
100
AcDbEntity
  8
SCRATCH
100
AcDbVertex
100
AcDb2dVertex
 10
13.8
 20
20.8
 30
0.0
  0
SEQEND
  5
D0A
100
AcDbEntity
  8
SCRATCH
  0
POLYLINE
  5
D0B
100
AcDbEntity
  8
SCRATCH
100
AcDb2dPolyline
 66
     1
 10
0.0
 20
0.0
 30
0.0
 70
     1
  0
VERTEX
  5
D0C
100
AcDbEntity
  8
SCRATCH
100
AcDbVertex
100
AcDb2dVertex
 10
5.5
 20
27.3
 30
0.0
  0
VERTEX
  5
D0D
100
AcDbEntity
  8
SCRATCH
100
AcDbVertex
100
AcDb2dVertex
 10
5.5
 20
33.0
 30
0.0
  0
VERTEX
  5
D0E
100
AcDbEntity
  8
SCRATCH
100
AcDbVertex
100
AcDb2dVertex
 10
13.8
 20
33.0
 30
0.0
  0
VERTEX
  5
D0F
100
AcDbEntity
  8
SCRATCH
100
AcDbVertex
100
AcDb2dVertex
 10
13.8
 20
27.3
 30
0.0
  0
SEQEND
  5
D10
100
AcDbEntity
  8
SCRATCH
  0
POLYLINE
  5
D11
100
AcDbEntity
  8
SCRATCH
100
AcDb2dPolyline
 66
     1
 10
0.0
 20
0.0
 30
0.0
 70
     1
  0
VERTEX
  5
D12
100
AcDbEntity
  8
SCRATCH
100
AcDbVertex
100
AcDb2dVertex
 10
5.5
 20
33.8
 30
0.0
  0
VERTEX
  5
D13
100
AcDbEntity
  8
SCRATCH
100
AcDbVertex
100
AcDb2dVertex
 10
5.5
 20
39.5
 30
0.0
  0
VERTEX
  5
D14
100
AcDbEntity
  8
SCRATCH
100
AcDbVertex
100
AcDb2dVertex
 10
13.8
 20
39.5
 30
0.0
  0
VERTEX
  5
D15
100
AcDbEntity
  8
SCRATCH
100
AcDbVertex
100
AcDb2dVertex
 10
13.8
 20
33.8
 30
0.0
  0
SEQEND
  5
D16
100
AcDbEntity
  8
SCRATCH
  0
POLYLINE
  5
D17
100
AcDbEntity
  8
SCRATCH
100
AcDb2dPolyline
 66
     1
 10
0.0
 20
0.0
 30
0.0
 70
     1
  0
VERTEX
  5
D18
100
AcDbEntity
  8
SCRATCH
100
AcDbVertex
100
AcDb2dVertex
 10
5.5
 20
40.3
 30
0.0
  0
VERTEX
  5
D19
100
AcDbEntity
  8
SCRATCH
100
AcDbVertex
100
AcDb2dVertex
 10
5.5
 20
46.0
 30
0.0
  0
VERTEX
  5
D1A
100
AcDbEntity
  8
SCRATCH
100
AcDbVertex
100
AcDb2dVertex
 10
13.8
 20
46.0
 30
0.0
  0
VERTEX
  5
D1B
100
AcDbEntity
  8
SCRATCH
100
AcDbVertex
100
AcDb2dVertex
 10
13.8
 20
40.3
 30
0.0
  0
SEQEND
  5
D1C
100
AcDbEntity
  8
SCRATCH
  0
INSERT
  5
D1D
100
AcDbEntity
  8
SCRATCH
100
AcDbBlockReference
  2
A$C23D
 10
5.589576
 20
1.597768
 30
0.0
 50
270.0
  0
INSERT
  5
D1E
100
AcDbEntity
  8
SCRATCH
100
AcDbBlockReference
  2
A$C23D
 10
5.589576
 20
8.097768
 30
0.0
 50
270.0
  0
INSERT
  5
D1F
100
AcDbEntity
  8
SCRATCH
100
AcDbBlockReference
  2
A$C23D
 10
5.589576
 20
14.597768
 30
0.0
 50
270.0
  0
INSERT
  5
D20
100
AcDbEntity
  8
SCRATCH
100
AcDbBlockReference
  2
A$C23D
 10
5.589576
 20
21.097768
 30
0.0
 50
270.0
  0
INSERT
  5
D21
100
AcDbEntity
  8
SCRATCH
100
AcDbBlockReference
  2
A$C23D
 10
5.589576
 20
27.597768
 30
0.0
 50
270.0
  0
INSERT
  5
D22
100
AcDbEntity
  8
SCRATCH
100
AcDbBlockReference
  2
A$C23D
 10
5.589576
 20
34.097768
 30
0.0
 50
270.0
  0
INSERT
  5
D23
100
AcDbEntity
  8
SCRATCH
100
AcDbBlockReference
  2
A$C23D
 10
5.589576
 20
40.597768
 30
0.0
 50
270.0
  0
TEXT
  5
D24
100
AcDbEntity
  8
TEXT
  6
CONTINUOUS
100
AcDbText
 10
18.540068
 20
4.962806
 30
0.0
 40
1.912083
  1
bottom side
100
AcDbText
  0
ENDBLK
  5
D26
100
AcDbEntity
  8
TEXT
 62
     1
100
AcDbBlockEnd
  0
BLOCK
  5
121C
100
AcDbEntity
  8
0
100
AcDbBlockBegin
  2
*X24
 70
    65
 10
0.0
 20
0.0
 30
0.0
  3
*X24
  1

  0
LINE
  5
121E
100
AcDbEntity
  8
0
 62
     0
100
AcDbLine
 10
261.362829
 20
259.595062
 30
0.0
 11
263.761352
 21
261.993585
 31
0.0
  0
LINE
  5
121F
100
AcDbEntity
  8
0
 62
     0
100
AcDbLine
 10
281.122829
 20
279.355062
 30
0.0
 11
286.122829
 21
284.355062
 31
0.0
  0
LINE
  5
1220
100
AcDbEntity
  8
0
 62
     0
100
AcDbLine
 10
263.761352
 20
261.993585
 30
0.0
 11
266.362829
 21
264.595062
 31
0.0
  0
LINE
  5
1221
100
AcDbEntity
  8
0
 62
     0
100
AcDbLine
 10
261.362829
 20
261.362829
 30
0.0
 11
261.993585
 21
261.993585
 31
0.0
  0
LINE
  5
1222
100
AcDbEntity
  8
0
 62
     0
100
AcDbLine
 10
281.122829
 20
281.122829
 30
0.0
 11
286.122829
 21
286.122829
 31
0.0
  0
LINE
  5
1223
100
AcDbEntity
  8
0
 62
     0
100
AcDbLine
 10
261.993585
 20
261.993585
 30
0.0
 11
266.362829
 21
266.362829
 31
0.0
  0
LINE
  5
1224
100
AcDbEntity
  8
0
 62
     0
100
AcDbLine
 10
261.362829
 20
263.130596
 30
0.0
 11
266.362829
 21
268.130596
 31
0.0
  0
LINE
  5
1225
100
AcDbEntity
  8
0
 62
     0
100
AcDbLine
 10
281.122829
 20
282.890596
 30
0.0
 11
286.122829
 21
287.890596
 31
0.0
  0
LINE
  5
1226
100
AcDbEntity
  8
0
 62
     0
100
AcDbLine
 10
261.362829
 20
264.898363
 30
0.0
 11
266.362829
 21
269.898363
 31
0.0
  0
LINE
  5
1227
100
AcDbEntity
  8
0
 62
     0
100
AcDbLine
 10
281.122829
 20
284.658363
 30
0.0
 11
286.122829
 21
289.658363
 31
0.0
  0
LINE
  5
1228
100
AcDbEntity
  8
0
 62
     0
100
AcDbLine
 10
261.362829
 20
266.66613
 30
0.0
 11
266.362829
 21
271.66613
 31
0.0
  0
LINE
  5
1229
100
AcDbEntity
  8
0
 62
     0
100
AcDbLine
 10
281.122829
 20
286.42613
 30
0.0
 11
286.122829
 21
291.42613
 31
0.0
  0
LINE
  5
122A
100
AcDbEntity
  8
0
 62
     0
100
AcDbLine
 10
261.362829
 20
268.433897
 30
0.0
 11
266.362829
 21
273.433897
 31
0.0
  0
LINE
  5
122B
100
AcDbEntity
  8
0
 62
     0
100
AcDbLine
 10
281.122829
 20
288.193897
 30
0.0
 11
286.122829
 21
293.193897
 31
0.0
  0
LINE
  5
122C
100
AcDbEntity
  8
0
 62
     0
100
AcDbLine
 10
261.362829
 20
270.201664
 30
0.0
 11
266.362829
 21
275.201664
 31
0.0
  0
LINE
  5
122D
100
AcDbEntity
  8
0
 62
     0
100
AcDbLine
 10
281.122829
 20
289.961664
 30
0.0
 11
284.71475
 21
293.553585
 31
0.0
  0
LINE
  5
122E
100
AcDbEntity
  8
0
 62
     0
100
AcDbLine
 10
261.362829
 20
271.969431
 30
0.0
 11
266.362829
 21
276.969431
 31
0.0
  0
LINE
  5
122F
100
AcDbEntity
  8
0
 62
     0
100
AcDbLine
 10
281.122829
 20
291.729431
 30
0.0
 11
282.946983
 21
293.553585
 31
0.0
  0
LINE
  5
1230
100
AcDbEntity
  8
0
 62
     0
100
AcDbLine
 10
261.362829
 20
273.737198
 30
0.0
 11
266.362829
 21
278.737198
 31
0.0
  0
LINE
  5
1231
100
AcDbEntity
  8
0
 62
     0
100
AcDbLine
 10
281.122829
 20
293.497198
 30
0.0
 11
281.179216
 21
293.553585
 31
0.0
  0
LINE
  5
1232
100
AcDbEntity
  8
0
 62
     0
100
AcDbLine
 10
261.362829
 20
275.504965
 30
0.0
 11
266.362829
 21
280.504965
 31
0.0
  0
LINE
  5
1233
100
AcDbEntity
  8
0
 62
     0
100
AcDbLine
 10
261.362829
 20
277.272732
 30
0.0
 11
266.362829
 21
282.272732
 31
0.0
  0
LINE
  5
1234
100
AcDbEntity
  8
0
 62
     0
100
AcDbLine
 10
261.362829
 20
279.040499
 30
0.0
 11
266.125915
 21
283.803585
 31
0.0
  0
LINE
  5
1235
100
AcDbEntity
  8
0
 62
     0
100
AcDbLine
 10
261.362829
 20
280.808266
 30
0.0
 11
264.358148
 21
283.803585
 31
0.0
  0
LINE
  5
1236
100
AcDbEntity
  8
0
 62
     0
100
AcDbLine
 10
261.362829
 20
282.576032
 30
0.0
 11
262.590381
 21
283.803585
 31
0.0
  0
LINE
  5
1237
100
AcDbEntity
  8
0
 62
     0
100
AcDbLine
 10
261.362829
 20
257.827295
 30
0.0
 11
265.519129
 21
261.983595
 31
0.0
  0
LINE
  5
1238
100
AcDbEntity
  8
0
 62
     0
100
AcDbLine
 10
281.122829
 20
277.587295
 30
0.0
 11
286.122829
 21
282.587295
 31
0.0
  0
LINE
  5
1239
100
AcDbEntity
  8
0
 62
     0
100
AcDbLine
 10
265.529119
 20
261.993585
 30
0.0
 11
266.362829
 21
262.827295
 31
0.0
  0
LINE
  5
123A
100
AcDbEntity
  8
0
 62
     0
100
AcDbLine
 10
261.362829
 20
256.059528
 30
0.0
 11
266.362829
 21
261.059528
 31
0.0
  0
LINE
  5
123B
100
AcDbEntity
  8
0
 62
     0
100
AcDbLine
 10
281.122829
 20
275.819528
 30
0.0
 11
286.122829
 21
280.819528
 31
0.0
  0
LINE
  5
123C
100
AcDbEntity
  8
0
 62
     0
100
AcDbLine
 10
261.362829
 20
254.291761
 30
0.0
 11
266.362829
 21
259.291761
 31
0.0
  0
LINE
  5
123D
100
AcDbEntity
  8
0
 62
     0
100
AcDbLine
 10
281.122829
 20
274.051761
 30
0.0
 11
286.122829
 21
279.051761
 31
0.0
  0
LINE
  5
123E
100
AcDbEntity
  8
0
 62
     0
100
AcDbLine
 10
261.362829
 20
252.523994
 30
0.0
 11
266.362829
 21
257.523994
 31
0.0
  0
LINE
  5
123F
100
AcDbEntity
  8
0
 62
     0
100
AcDbLine
 10
281.122829
 20
272.283994
 30
0.0
 11
286.122829
 21
277.283994
 31
0.0
  0
LINE
  5
1240
100
AcDbEntity
  8
0
 62
     0
100
AcDbLine
 10
261.362829
 20
250.756227
 30
0.0
 11
266.362829
 21
255.756227
 31
0.0
  0
LINE
  5
1241
100
AcDbEntity
  8
0
 62
     0
100
AcDbLine
 10
281.122829
 20
270.516227
 30
0.0
 11
286.122829
 21
275.516227
 31
0.0
  0
LINE
  5
1242
100
AcDbEntity
  8
0
 62
     0
100
AcDbLine
 10
261.362829
 20
248.98846
 30
0.0
 11
266.362829
 21
253.98846
 31
0.0
  0
LINE
  5
1243
100
AcDbEntity
  8
0
 62
     0
100
AcDbLine
 10
281.122829
 20
268.74846
 30
0.0
 11
286.122829
 21
273.74846
 31
0.0
  0
LINE
  5
1244
100
AcDbEntity
  8
0
 62
     0
100
AcDbLine
 10
261.66572
 20
247.523585
 30
0.0
 11
266.362829
 21
252.220693
 31
0.0
  0
LINE
  5
1245
100
AcDbEntity
  8
0
 62
     0
100
AcDbLine
 10
281.122829
 20
266.980693
 30
0.0
 11
286.122829
 21
271.980693
 31
0.0
  0
LINE
  5
1246
100
AcDbEntity
  8
0
 62
     0
100
AcDbLine
 10
263.433487
 20
247.523585
 30
0.0
 11
266.362829
 21
250.452926
 31
0.0
  0
LINE
  5
1247
100
AcDbEntity
  8
0
 62
     0
100
AcDbLine
 10
281.122829
 20
265.212926
 30
0.0
 11
286.122829
 21
270.212926
 31
0.0
  0
LINE
  5
1248
100
AcDbEntity
  8
0
 62
     0
100
AcDbLine
 10
265.201254
 20
247.523585
 30
0.0
 11
266.362829
 21
248.685159
 31
0.0
  0
LINE
  5
1249
100
AcDbEntity
  8
0
 62
     0
100
AcDbLine
 10
281.122829
 20
263.445159
 30
0.0
 11
286.122829
 21
268.445159
 31
0.0
  0
LINE
  5
124A
100
AcDbEntity
  8
0
 62
     0
100
AcDbLine
 10
281.122829
 20
261.677393
 30
0.0
 11
281.429031
 21
261.983595
 31
0.0
  0
LINE
  5
124B
100
AcDbEntity
  8
0
 62
     0
100
AcDbLine
 10
281.439021
 20
261.993585
 30
0.0
 11
286.122829
 21
266.677393
 31
0.0
  0
LINE
  5
124C
100
AcDbEntity
  8
0
 62
     0
100
AcDbLine
 10
281.122829
 20
259.909626
 30
0.0
 11
283.196798
 21
261.983595
 31
0.0
  0
LINE
  5
124D
100
AcDbEntity
  8
0
 62
     0
100
AcDbLine
 10
283.206788
 20
261.993585
 30
0.0
 11
286.122829
 21
264.909626
 31
0.0
  0
LINE
  5
124E
100
AcDbEntity
  8
0
 62
     0
100
AcDbLine
 10
281.122829
 20
258.141859
 30
0.0
 11
284.964565
 21
261.983595
 31
0.0
  0
LINE
  5
124F
100
AcDbEntity
  8
0
 62
     0
100
AcDbLine
 10
284.974555
 20
261.993585
 30
0.0
 11
286.122829
 21
263.141859
 31
0.0
  0
LINE
  5
1250
100
AcDbEntity
  8
0
 62
     0
100
AcDbLine
 10
281.122829
 20
256.374092
 30
0.0
 11
286.122829
 21
261.374092
 31
0.0
  0
LINE
  5
1251
100
AcDbEntity
  8
0
 62
     0
100
AcDbLine
 10
281.122829
 20
254.606325
 30
0.0
 11
286.122829
 21
259.606325
 31
0.0
  0
LINE
  5
1252
100
AcDbEntity
  8
0
 62
     0
100
AcDbLine
 10
281.122829
 20
252.838558
 30
0.0
 11
286.122829
 21
257.838558
 31
0.0
  0
LINE
  5
1253
100
AcDbEntity
  8
0
 62
     0
100
AcDbLine
 10
281.122829
 20
251.070791
 30
0.0
 11
286.122829
 21
256.070791
 31
0.0
  0
LINE
  5
1254
100
AcDbEntity
  8
0
 62
     0
100
AcDbLine
 10
281.122829
 20
249.303024
 30
0.0
 11
286.122829
 21
254.303024
 31
0.0
  0
LINE
  5
1255
100
AcDbEntity
  8
0
 62
     0
100
AcDbLine
 10
281.741157
 20
248.153585
 30
0.0
 11
286.122829
 21
252.535257
 31
0.0
  0
LINE
  5
1256
100
AcDbEntity
  8
0
 62
     0
100
AcDbLine
 10
283.508924
 20
248.153585
 30
0.0
 11
286.122829
 21
250.76749
 31
0.0
  0
LINE
  5
1257
100
AcDbEntity
  8
0
 62
     0
100
AcDbLine
 10
285.276691
 20
248.153585
 30
0.0
 11
286.122829
 21
248.999723
 31
0.0
  0
ENDBLK
  5
1258
100
AcDbEntity
  8
0
100
AcDbBlockEnd
  0
BLOCK
  5
125A
100
AcDbEntity
  8
0
100
AcDbBlockBegin
  2
*D25
 70
    65
 10
0.0
 20
0.0
 30
0.0
  3
*D25
  1

  0
LINE
  5
125B
100
AcDbEntity
  8
0
  6
BYBLOCK
 62
     0
100
AcDbLine
 10
266.362829
 20
287.073585
 30
0.0
 11
266.362829
 21
310.058256
 31
0.0
  0
LINE
  5
125C
100
AcDbEntity
  8
0
  6
BYBLOCK
 62
     0
100
AcDbLine
 10
281.122829
 20
295.003585
 30
0.0
 11
281.122829
 21
310.058256
 31
0.0
  0
LINE
  5
125D
100
AcDbEntity
  8
0
  6
BYBLOCK
 62
     0
100
AcDbLine
 10
264.202829
 20
307.898256
 30
0.0
 11
262.042829
 21
307.898256
 31
0.0
  0
LINE
  5
125E
100
AcDbEntity
  8
0
  6
BYBLOCK
 62
     0
100
AcDbLine
 10
283.282829
 20
307.898256
 30
0.0
 11
285.442829
 21
307.898256
 31
0.0
  0
SOLID
  5
125F
100
AcDbEntity
  8
0
  6
BYBLOCK
 62
     0
100
AcDbTrace
 10
264.202829
 20
308.258256
 30
0.0
 11
264.202829
 21
307.538256
 31
0.0
 12
266.362829
 22
307.898256
 32
0.0
 13
266.362829
 23
307.898256
 33
0.0
  0
SOLID
  5
1260
100
AcDbEntity
  8
0
  6
BYBLOCK
 62
     0
100
AcDbTrace
 10
283.282829
 20
308.258256
 30
0.0
 11
283.282829
 21
307.538256
 31
0.0
 12
281.122829
 22
307.898256
 32
0.0
 13
281.122829
 23
307.898256
 33
0.0
  0
MTEXT
  5
1261
100
AcDbEntity
  8
0
  6
BYBLOCK
 62
     0
100
AcDbMText
 10
298.942829
 20
307.898256
 30
0.0
 40
2.16
 41
0.0
 71
     5
 72
     1
  1
\A1;14.76mm[0.581"]
  0
POINT
  5
1262
100
AcDbEntity
  8
DEFPOINTS
  6
BYBLOCK
 62
     0
100
AcDbPoint
 10
266.362829
 20
286.323585
 30
0.0
  0
POINT
  5
1263
100
AcDbEntity
  8
DEFPOINTS
  6
BYBLOCK
 62
     0
100
AcDbPoint
 10
281.122829
 20
294.253585
 30
0.0
  0
POINT
  5
1264
100
AcDbEntity
  8
DEFPOINTS
  6
BYBLOCK
 62
     0
100
AcDbPoint
 10
281.122829
 20
307.898256
 30
0.0
  0
ENDBLK
  5
1265
100
AcDbEntity
  8
0
100
AcDbBlockEnd
  0
BLOCK
  5
1287
100
AcDbEntity
  8
0
100
AcDbBlockBegin
  2
*X26
 70
    65
 10
0.0
 20
0.0
 30
0.0
  3
*X26
  1

  0
LINE
  5
1289
100
AcDbEntity
  8
0
 62
     0
100
AcDbLine
 10
246.779264
 20
122.684029
 30
0.0
 11
210.499264
 21
158.964029
 31
0.0
  0
LINE
  5
128A
100
AcDbEntity
  8
0
 62
     0
100
AcDbLine
 10
245.011498
 20
122.684029
 30
0.0
 11
208.731498
 21
158.964029
 31
0.0
  0
LINE
  5
128B
100
AcDbEntity
  8
0
 62
     0
100
AcDbLine
 10
243.243731
 20
122.684029
 30
0.0
 11
206.963731
 21
158.964029
 31
0.0
  0
LINE
  5
128C
100
AcDbEntity
  8
0
 62
     0
100
AcDbLine
 10
241.475964
 20
122.684029
 30
0.0
 11
205.195964
 21
158.964029
 31
0.0
  0
LINE
  5
128D
100
AcDbEntity
  8
0
 62
     0
100
AcDbLine
 10
239.708197
 20
122.684029
 30
0.0
 11
203.428197
 21
158.964029
 31
0.0
  0
LINE
  5
128E
100
AcDbEntity
  8
0
 62
     0
100
AcDbLine
 10
237.94043
 20
122.684029
 30
0.0
 11
201.66043
 21
158.964029
 31
0.0
  0
LINE
  5
128F
100
AcDbEntity
  8
0
 62
     0
100
AcDbLine
 10
236.172663
 20
122.684029
 30
0.0
 11
199.892663
 21
158.964029
 31
0.0
  0
LINE
  5
1290
100
AcDbEntity
  8
0
 62
     0
100
AcDbLine
 10
234.404896
 20
122.684029
 30
0.0
 11
198.124896
 21
158.964029
 31
0.0
  0
LINE
  5
1291
100
AcDbEntity
  8
0
 62
     0
100
AcDbLine
 10
232.637129
 20
122.684029
 30
0.0
 11
196.357129
 21
158.964029
 31
0.0
  0
LINE
  5
1292
100
AcDbEntity
  8
0
 62
     0
100
AcDbLine
 10
230.869362
 20
122.684029
 30
0.0
 11
194.589362
 21
158.964029
 31
0.0
  0
LINE
  5
1293
100
AcDbEntity
  8
0
 62
     0
100
AcDbLine
 10
229.101595
 20
122.684029
 30
0.0
 11
192.821595
 21
158.964029
 31
0.0
  0
LINE
  5
1294
100
AcDbEntity
  8
0
 62
     0
100
AcDbLine
 10
227.333828
 20
122.684029
 30
0.0
 11
191.053828
 21
158.964029
 31
0.0
  0
LINE
  5
1295
100
AcDbEntity
  8
0
 62
     0
100
AcDbLine
 10
225.566061
 20
122.684029
 30
0.0
 11
189.286061
 21
158.964029
 31
0.0
  0
LINE
  5
1296
100
AcDbEntity
  8
0
 62
     0
100
AcDbLine
 10
223.798294
 20
122.684029
 30
0.0
 11
187.518294
 21
158.964029
 31
0.0
  0
LINE
  5
1297
100
AcDbEntity
  8
0
 62
     0
100
AcDbLine
 10
222.030527
 20
122.684029
 30
0.0
 11
185.750527
 21
158.964029
 31
0.0
  0
LINE
  5
1298
100
AcDbEntity
  8
0
 62
     0
100
AcDbLine
 10
220.26276
 20
122.684029
 30
0.0
 11
183.98276
 21
158.964029
 31
0.0
  0
LINE
  5
1299
100
AcDbEntity
  8
0
 62
     0
100
AcDbLine
 10
218.494993
 20
122.684029
 30
0.0
 11
182.214993
 21
158.964029
 31
0.0
  0
LINE
  5
129A
100
AcDbEntity
  8
0
 62
     0
100
AcDbLine
 10
216.727226
 20
122.684029
 30
0.0
 11
181.987829
 21
157.423426
 31
0.0
  0
LINE
  5
129B
100
AcDbEntity
  8
0
 62
     0
100
AcDbLine
 10
214.959459
 20
122.684029
 30
0.0
 11
181.987829
 21
155.655659
 31
0.0
  0
LINE
  5
129C
100
AcDbEntity
  8
0
 62
     0
100
AcDbLine
 10
213.191692
 20
122.684029
 30
0.0
 11
181.987829
 21
153.887892
 31
0.0
  0
LINE
  5
129D
100
AcDbEntity
  8
0
 62
     0
100
AcDbLine
 10
211.423925
 20
122.684029
 30
0.0
 11
181.987829
 21
152.120125
 31
0.0
  0
LINE
  5
129E
100
AcDbEntity
  8
0
 62
     0
100
AcDbLine
 10
209.656158
 20
122.684029
 30
0.0
 11
181.987829
 21
150.352358
 31
0.0
  0
LINE
  5
129F
100
AcDbEntity
  8
0
 62
     0
100
AcDbLine
 10
207.888391
 20
122.684029
 30
0.0
 11
181.987829
 21
148.584591
 31
0.0
  0
LINE
  5
12A0
100
AcDbEntity
  8
0
 62
     0
100
AcDbLine
 10
206.120625
 20
122.684029
 30
0.0
 11
181.987829
 21
146.816824
 31
0.0
  0
LINE
  5
12A1
100
AcDbEntity
  8
0
 62
     0
100
AcDbLine
 10
204.352858
 20
122.684029
 30
0.0
 11
181.987829
 21
145.049057
 31
0.0
  0
LINE
  5
12A2
100
AcDbEntity
  8
0
 62
     0
100
AcDbLine
 10
202.585091
 20
122.684029
 30
0.0
 11
181.987829
 21
143.28129
 31
0.0
  0
LINE
  5
12A3
100
AcDbEntity
  8
0
 62
     0
100
AcDbLine
 10
200.817324
 20
122.684029
 30
0.0
 11
181.987829
 21
141.513523
 31
0.0
  0
LINE
  5
12A4
100
AcDbEntity
  8
0
 62
     0
100
AcDbLine
 10
199.049557
 20
122.684029
 30
0.0
 11
181.987829
 21
139.745756
 31
0.0
  0
LINE
  5
12A5
100
AcDbEntity
  8
0
 62
     0
100
AcDbLine
 10
197.28179
 20
122.684029
 30
0.0
 11
181.987829
 21
137.977989
 31
0.0
  0
LINE
  5
12A6
100
AcDbEntity
  8
0
 62
     0
100
AcDbLine
 10
195.514023
 20
122.684029
 30
0.0
 11
181.987829
 21
136.210223
 31
0.0
  0
LINE
  5
12A7
100
AcDbEntity
  8
0
 62
     0
100
AcDbLine
 10
193.746256
 20
122.684029
 30
0.0
 11
181.987829
 21
134.442456
 31
0.0
  0
LINE
  5
12A8
100
AcDbEntity
  8
0
 62
     0
100
AcDbLine
 10
191.978489
 20
122.684029
 30
0.0
 11
181.987829
 21
132.674689
 31
0.0
  0
LINE
  5
12A9
100
AcDbEntity
  8
0
 62
     0
100
AcDbLine
 10
190.210722
 20
122.684029
 30
0.0
 11
181.987829
 21
130.906922
 31
0.0
  0
LINE
  5
12AA
100
AcDbEntity
  8
0
 62
     0
100
AcDbLine
 10
188.442955
 20
122.684029
 30
0.0
 11
181.987829
 21
129.139155
 31
0.0
  0
LINE
  5
12AB
100
AcDbEntity
  8
0
 62
     0
100
AcDbLine
 10
186.675188
 20
122.684029
 30
0.0
 11
181.987829
 21
127.371388
 31
0.0
  0
LINE
  5
12AC
100
AcDbEntity
  8
0
 62
     0
100
AcDbLine
 10
184.907421
 20
122.684029
 30
0.0
 11
181.987829
 21
125.603621
 31
0.0
  0
LINE
  5
12AD
100
AcDbEntity
  8
0
 62
     0
100
AcDbLine
 10
183.139654
 20
122.684029
 30
0.0
 11
181.987829
 21
123.835854
 31
0.0
  0
LINE
  5
12AE
100
AcDbEntity
  8
0
 62
     0
100
AcDbLine
 10
248.547031
 20
122.684029
 30
0.0
 11
212.267031
 21
158.964029
 31
0.0
  0
LINE
  5
12AF
100
AcDbEntity
  8
0
 62
     0
100
AcDbLine
 10
250.314798
 20
122.684029
 30
0.0
 11
214.034798
 21
158.964029
 31
0.0
  0
LINE
  5
12B0
100
AcDbEntity
  8
0
 62
     0
100
AcDbLine
 10
252.082565
 20
122.684029
 30
0.0
 11
215.802565
 21
158.964029
 31
0.0
  0
LINE
  5
12B1
100
AcDbEntity
  8
0
 62
     0
100
AcDbLine
 10
253.850332
 20
122.684029
 30
0.0
 11
217.570332
 21
158.964029
 31
0.0
  0
LINE
  5
12B2
100
AcDbEntity
  8
0
 62
     0
100
AcDbLine
 10
255.618099
 20
122.684029
 30
0.0
 11
219.338099
 21
158.964029
 31
0.0
  0
LINE
  5
12B3
100
AcDbEntity
  8
0
 62
     0
100
AcDbLine
 10
257.385866
 20
122.684029
 30
0.0
 11
221.105866
 21
158.964029
 31
0.0
  0
LINE
  5
12B4
100
AcDbEntity
  8
0
 62
     0
100
AcDbLine
 10
259.153633
 20
122.684029
 30
0.0
 11
222.873633
 21
158.964029
 31
0.0
  0
LINE
  5
12B5
100
AcDbEntity
  8
0
 62
     0
100
AcDbLine
 10
260.9214
 20
122.684029
 30
0.0
 11
224.6414
 21
158.964029
 31
0.0
  0
LINE
  5
12B6
100
AcDbEntity
  8
0
 62
     0
100
AcDbLine
 10
262.689167
 20
122.684029
 30
0.0
 11
226.409167
 21
158.964029
 31
0.0
  0
LINE
  5
12B7
100
AcDbEntity
  8
0
 62
     0
100
AcDbLine
 10
264.456934
 20
122.684029
 30
0.0
 11
228.176934
 21
158.964029
 31
0.0
  0
LINE
  5
12B8
100
AcDbEntity
  8
0
 62
     0
100
AcDbLine
 10
266.224701
 20
122.684029
 30
0.0
 11
229.944701
 21
158.964029
 31
0.0
  0
LINE
  5
12B9
100
AcDbEntity
  8
0
 62
     0
100
AcDbLine
 10
266.362829
 20
124.313668
 30
0.0
 11
231.712468
 21
158.964029
 31
0.0
  0
LINE
  5
12BA
100
AcDbEntity
  8
0
 62
     0
100
AcDbLine
 10
266.362829
 20
126.081435
 30
0.0
 11
233.480235
 21
158.964029
 31
0.0
  0
LINE
  5
12BB
100
AcDbEntity
  8
0
 62
     0
100
AcDbLine
 10
281.278002
 20
112.934029
 30
0.0
 11
281.122829
 21
113.089201
 31
0.0
  0
LINE
  5
12BC
100
AcDbEntity
  8
0
 62
     0
100
AcDbLine
 10
266.362829
 20
127.849201
 30
0.0
 11
235.248002
 21
158.964029
 31
0.0
  0
LINE
  5
12BD
100
AcDbEntity
  8
0
 62
     0
100
AcDbLine
 10
283.045769
 20
112.934029
 30
0.0
 11
281.122829
 21
114.856968
 31
0.0
  0
LINE
  5
12BE
100
AcDbEntity
  8
0
 62
     0
100
AcDbLine
 10
266.362829
 20
129.616968
 30
0.0
 11
237.015769
 21
158.964029
 31
0.0
  0
LINE
  5
12BF
100
AcDbEntity
  8
0
 62
     0
100
AcDbLine
 10
284.813536
 20
112.934029
 30
0.0
 11
281.122829
 21
116.624735
 31
0.0
  0
LINE
  5
12C0
100
AcDbEntity
  8
0
 62
     0
100
AcDbLine
 10
266.362829
 20
131.384735
 30
0.0
 11
238.783536
 21
158.964029
 31
0.0
  0
LINE
  5
12C1
100
AcDbEntity
  8
0
 62
     0
100
AcDbLine
 10
286.122829
 20
113.392502
 30
0.0
 11
281.122829
 21
118.392502
 31
0.0
  0
LINE
  5
12C2
100
AcDbEntity
  8
0
 62
     0
100
AcDbLine
 10
266.362829
 20
133.152502
 30
0.0
 11
240.551303
 21
158.964029
 31
0.0
  0
LINE
  5
12C3
100
AcDbEntity
  8
0
 62
     0
100
AcDbLine
 10
286.122829
 20
115.160269
 30
0.0
 11
281.122829
 21
120.160269
 31
0.0
  0
LINE
  5
12C4
100
AcDbEntity
  8
0
 62
     0
100
AcDbLine
 10
266.362829
 20
134.920269
 30
0.0
 11
242.31907
 21
158.964029
 31
0.0
  0
LINE
  5
12C5
100
AcDbEntity
  8
0
 62
     0
100
AcDbLine
 10
286.122829
 20
116.928036
 30
0.0
 11
281.122829
 21
121.928036
 31
0.0
  0
LINE
  5
12C6
100
AcDbEntity
  8
0
 62
     0
100
AcDbLine
 10
266.362829
 20
136.688036
 30
0.0
 11
244.086837
 21
158.964029
 31
0.0
  0
LINE
  5
12C7
100
AcDbEntity
  8
0
 62
     0
100
AcDbLine
 10
286.122829
 20
118.695803
 30
0.0
 11
281.122829
 21
123.695803
 31
0.0
  0
LINE
  5
12C8
100
AcDbEntity
  8
0
 62
     0
100
AcDbLine
 10
266.362829
 20
138.455803
 30
0.0
 11
245.854604
 21
158.964029
 31
0.0
  0
LINE
  5
12C9
100
AcDbEntity
  8
0
 62
     0
100
AcDbLine
 10
286.122829
 20
120.46357
 30
0.0
 11
281.122829
 21
125.46357
 31
0.0
  0
LINE
  5
12CA
100
AcDbEntity
  8
0
 62
     0
100
AcDbLine
 10
266.362829
 20
140.22357
 30
0.0
 11
247.62237
 21
158.964029
 31
0.0
  0
LINE
  5
12CB
100
AcDbEntity
  8
0
 62
     0
100
AcDbLine
 10
286.122829
 20
122.231337
 30
0.0
 11
281.122829
 21
127.231337
 31
0.0
  0
LINE
  5
12CC
100
AcDbEntity
  8
0
 62
     0
100
AcDbLine
 10
266.362829
 20
141.991337
 30
0.0
 11
249.390137
 21
158.964029
 31
0.0
  0
LINE
  5
12CD
100
AcDbEntity
  8
0
 62
     0
100
AcDbLine
 10
286.122829
 20
123.999104
 30
0.0
 11
281.122829
 21
128.999104
 31
0.0
  0
LINE
  5
12CE
100
AcDbEntity
  8
0
 62
     0
100
AcDbLine
 10
266.362829
 20
143.759104
 30
0.0
 11
251.157904
 21
158.964029
 31
0.0
  0
LINE
  5
12CF
100
AcDbEntity
  8
0
 62
     0
100
AcDbLine
 10
286.122829
 20
125.766871
 30
0.0
 11
281.122829
 21
130.766871
 31
0.0
  0
LINE
  5
12D0
100
AcDbEntity
  8
0
 62
     0
100
AcDbLine
 10
266.362829
 20
145.526871
 30
0.0
 11
252.925671
 21
158.964029
 31
0.0
  0
LINE
  5
12D1
100
AcDbEntity
  8
0
 62
     0
100
AcDbLine
 10
286.122829
 20
127.534638
 30
0.0
 11
281.122829
 21
132.534638
 31
0.0
  0
LINE
  5
12D2
100
AcDbEntity
  8
0
 62
     0
100
AcDbLine
 10
266.362829
 20
147.294638
 30
0.0
 11
254.693438
 21
158.964029
 31
0.0
  0
LINE
  5
12D3
100
AcDbEntity
  8
0
 62
     0
100
AcDbLine
 10
286.122829
 20
129.302405
 30
0.0
 11
281.122829
 21
134.302405
 31
0.0
  0
LINE
  5
12D4
100
AcDbEntity
  8
0
 62
     0
100
AcDbLine
 10
266.362829
 20
149.062405
 30
0.0
 11
256.461205
 21
158.964029
 31
0.0
  0
LINE
  5
12D5
100
AcDbEntity
  8
0
 62
     0
100
AcDbLine
 10
286.122829
 20
131.070172
 30
0.0
 11
281.122829
 21
136.070172
 31
0.0
  0
LINE
  5
12D6
100
AcDbEntity
  8
0
 62
     0
100
AcDbLine
 10
266.362829
 20
150.830172
 30
0.0
 11
258.228972
 21
158.964029
 31
0.0
  0
LINE
  5
12D7
100
AcDbEntity
  8
0
 62
     0
100
AcDbLine
 10
286.122829
 20
132.837939
 30
0.0
 11
281.122829
 21
137.837939
 31
0.0
  0
LINE
  5
12D8
100
AcDbEntity
  8
0
 62
     0
100
AcDbLine
 10
266.362829
 20
152.597939
 30
0.0
 11
259.996739
 21
158.964029
 31
0.0
  0
LINE
  5
12D9
100
AcDbEntity
  8
0
 62
     0
100
AcDbLine
 10
286.122829
 20
134.605706
 30
0.0
 11
281.122829
 21
139.605706
 31
0.0
  0
LINE
  5
12DA
100
AcDbEntity
  8
0
 62
     0
100
AcDbLine
 10
266.362829
 20
154.365706
 30
0.0
 11
261.764506
 21
158.964029
 31
0.0
  0
LINE
  5
12DB
100
AcDbEntity
  8
0
 62
     0
100
AcDbLine
 10
286.122829
 20
136.373473
 30
0.0
 11
281.122829
 21
141.373473
 31
0.0
  0
LINE
  5
12DC
100
AcDbEntity
  8
0
 62
     0
100
AcDbLine
 10
266.362829
 20
156.133473
 30
0.0
 11
263.532273
 21
158.964029
 31
0.0
  0
LINE
  5
12DD
100
AcDbEntity
  8
0
 62
     0
100
AcDbLine
 10
286.122829
 20
138.14124
 30
0.0
 11
281.122829
 21
143.14124
 31
0.0
  0
LINE
  5
12DE
100
AcDbEntity
  8
0
 62
     0
100
AcDbLine
 10
266.362829
 20
157.90124
 30
0.0
 11
265.30004
 21
158.964029
 31
0.0
  0
LINE
  5
12DF
100
AcDbEntity
  8
0
 62
     0
100
AcDbLine
 10
286.122829
 20
139.909007
 30
0.0
 11
281.122829
 21
144.909007
 31
0.0
  0
LINE
  5
12E0
100
AcDbEntity
  8
0
 62
     0
100
AcDbLine
 10
286.122829
 20
141.676774
 30
0.0
 11
281.122829
 21
146.676774
 31
0.0
  0
LINE
  5
12E1
100
AcDbEntity
  8
0
 62
     0
100
AcDbLine
 10
286.122829
 20
143.444541
 30
0.0
 11
281.122829
 21
148.444541
 31
0.0
  0
LINE
  5
12E2
100
AcDbEntity
  8
0
 62
     0
100
AcDbLine
 10
286.122829
 20
145.212308
 30
0.0
 11
281.122829
 21
150.212308
 31
0.0
  0
LINE
  5
12E3
100
AcDbEntity
  8
0
 62
     0
100
AcDbLine
 10
286.122829
 20
146.980074
 30
0.0
 11
281.122829
 21
151.980074
 31
0.0
  0
LINE
  5
12E4
100
AcDbEntity
  8
0
 62
     0
100
AcDbLine
 10
286.122829
 20
148.747841
 30
0.0
 11
281.122829
 21
153.747841
 31
0.0
  0
LINE
  5
12E5
100
AcDbEntity
  8
0
 62
     0
100
AcDbLine
 10
286.122829
 20
150.515608
 30
0.0
 11
281.122829
 21
155.515608
 31
0.0
  0
LINE
  5
12E6
100
AcDbEntity
  8
0
 62
     0
100
AcDbLine
 10
286.122829
 20
152.283375
 30
0.0
 11
281.122829
 21
157.283375
 31
0.0
  0
LINE
  5
12E7
100
AcDbEntity
  8
0
 62
     0
100
AcDbLine
 10
286.122829
 20
154.051142
 30
0.0
 11
281.839943
 21
158.334029
 31
0.0
  0
LINE
  5
12E8
100
AcDbEntity
  8
0
 62
     0
100
AcDbLine
 10
286.122829
 20
155.818909
 30
0.0
 11
283.60771
 21
158.334029
 31
0.0
  0
LINE
  5
12E9
100
AcDbEntity
  8
0
 62
     0
100
AcDbLine
 10
286.122829
 20
157.586676
 30
0.0
 11
285.375476
 21
158.334029
 31
0.0
  0
ENDBLK
  5
12EA
100
AcDbEntity
  8
0
100
AcDbBlockEnd
  0
ENDSEC
  0
SECTION
  2
ENTITIES
  0
INSERT
  5
82
100
AcDbEntity
  8
0
100
AcDbBlockReference
  2
C-BORDER
 10
0.0
 20
0.0
 30
0.0
 41
25.4
 42
25.4
 43
25.4
  0
LINE
  5
276
100
AcDbEntity
  8
CENTER
100
AcDbLine
 10
147.614301
 20
261.993585
 30
0.0
 11
319.63609
 21
261.993585
 31
0.0
1001
ACAD
1000
ASC_BOUNDS
1002
{
1070
    19
1005
0
1005
0
1005
0
1005
0
1005
0
1005
0
1005
0
1005
0
1005
0
1005
0
1005
0
1005
0
1005
0
1005
0
1005
0
1005
0
1005
0
1005
0
1005
0
1005
0
1005
0
1005
0
1005
0
1005
0
1005
0
1005
0
1005
0
1005
0
1005
0
1005
0
1005
0
1005
0
1005
0
1005
0
1005
0
1005
0
1005
0
1005
0
1005
0
1005
0
1005
0
1005
0
1005
0
1005
0
1005
0
1005
121D
1005
121D
1005
121D
1002
}
  0
LINE
  5
27F
100
AcDbEntity
  8
UPILEX
100
AcDbLine
 10
286.122829
 20
248.153585
 30
0.0
 11
286.122829
 21
293.553585
 31
0.0
1001
ACAD
1000
ASC_BOUNDS
1002
{
1070
    19
1005
0
1005
0
1005
0
1005
0
1005
0
1005
0
1005
0
1005
0
1005
0
1005
0
1005
0
1005
0
1005
0
1005
121D
1005
121D
1002
}
  0
LINE
  5
280
100
AcDbEntity
  8
UPILEX
100
AcDbLine
 10
261.362829
 20
247.523585
 30
0.0
 11
261.362829
 21
283.803585
 31
0.0
1001
ACAD
1000
ASC_BOUNDS
1002
{
1070
    19
1005
0
1005
0
1005
0
1005
0
1005
0
1005
0
1005
0
1005
0
1005
0
1005
0
1005
0
1005
0
1005
0
1005
121D
1005
121D
1002
}
  0
LINE
  5
282
100
AcDbEntity
  8
UPILEX
100
AcDbLine
 10
268.362829
 20
247.523585
 30
0.0
 11
261.362829
 21
247.523585
 31
0.0
1001
ACAD
1000
ASC_BOUNDS
1002
{
1070
    19
1005
121D
1002
}
  0
LINE
  5
283
100
AcDbEntity
  8
UPILEX
100
AcDbLine
 10
261.362829
 20
283.803585
 30
0.0
 11
268.362829
 21
283.803585
 31
0.0
1001
ACAD
1000
ASC_BOUNDS
1002
{
1070
    19
1005
121D
1002
}
  0
LINE
  5
284
100
AcDbEntity
  8
UPILEX
100
AcDbLine
 10
268.992829
 20
248.153585
 30
0.0
 11
286.122829
 21
248.153585
 31
0.0
1001
ACAD
1000
ASC_BOUNDS
1002
{
1070
    19
1005
121D
1002
}
  0
INSERT
  5
285
100
AcDbEntity
  8
CENTER
100
AcDbBlockReference
  2
POST-1
 10
304.326629
 20
253.280585
 30
0.0
  0
INSERT
  5
286
100
AcDbEntity
  8
CENTER
100
AcDbBlockReference
  2
POST-1
 10
304.326629
 20
271.980585
 30
0.0
  0
LINE
  5
287
100
AcDbEntity
  8
UPILEX
100
AcDbLine
 10
286.122829
 20
293.553585
 30
0.0
 11
278.112829
 21
293.553585
 31
0.0
1001
ACAD
1000
ASC_BOUNDS
1002
{
1070
    19
1005
121D
1002
}
  0
LINE
  5
288
100
AcDbEntity
  8
UPILEX
100
AcDbLine
 10
266.362829
 20
283.803585
 30
0.0
 11
266.362829
 21
247.523585
 31
0.0
1001
ACAD
1000
ASC_BOUNDS
1002
{
1070
    19
1005
0
1005
0
1005
0
1005
0
1005
0
1005
0
1005
0
1005
0
1005
0
1005
0
1005
0
1005
0
1005
0
1002
}
  0
LINE
  5
289
100
AcDbEntity
  8
UPILEX
100
AcDbLine
 10
281.122829
 20
248.153585
 30
0.0
 11
281.122829
 21
293.553585
 31
0.0
1001
ACAD
1000
ASC_BOUNDS
1002
{
1070
    19
1005
0
1005
0
1005
0
1005
0
1005
0
1005
0
1005
0
1005
0
1005
0
1005
0
1005
0
1005
0
1005
0
1002
}
  0
LINE
  5
2B4
100
AcDbEntity
  8
UPILEX
100
AcDbLine
 10
268.362829
 20
283.803585
 30
0.0
 11
278.112829
 21
293.553585
 31
0.0
  0
LINE
  5
2B5
100
AcDbEntity
  8
CENTER
100
AcDbLine
 10
143.457429
 20
144.514029
 30
0.0
 11
319.99429
 21
144.514029
 31
0.0
1001
ACAD
1000
ASC_BOUNDS
1002
{
1070
    19
1005
0
1005
0
1005
0
1005
0
1005
0
1005
0
1005
0
1005
0
1005
0
1005
0
1005
0
1005
0
1005
0
1005
0
1005
0
1005
0
1005
0
1005
0
1005
0
1005
0
1005
0
1005
0
1005
0
1005
0
1005
0
1005
0
1005
0
1005
0
1005
0
1005
0
1005
0
1005
0
1005
0
1005
0
1005
0
1002
}
  0
LINE
  5
2BA
100
AcDbEntity
  8
L1_
100
AcDbLine
 10
181.487829
 20
161.464029
 30
0.0
 11
266.362829
 21
161.464029
 31
0.0
  0
LINE
  5
2BB
100
AcDbEntity
  8
L1_
100
AcDbLine
 10
266.362829
 20
120.184029
 30
0.0
 11
181.487829
 21
120.184029
 31
0.0
  0
LINE
  5
2BE
100
AcDbEntity
  8
UPILEX
100
AcDbLine
 10
281.122829
 20
158.334029
 30
0.0
 11
281.122829
 21
112.934029
 31
0.0
1001
ACAD
1000
ASC_BOUNDS
1002
{
1070
    19
1005
0
1005
0
1005
0
1005
0
1005
0
1005
0
1005
0
1005
0
1005
0
1005
0
1005
1288
1002
}
  0
LINE
  5
2BF
100
AcDbEntity
  8
UPILEX
100
AcDbLine
 10
286.122829
 20
158.334029
 30
0.0
 11
286.122829
 21
112.934029
 31
0.0
1001
ACAD
1000
ASC_BOUNDS
1002
{
1070
    19
1005
0
1005
0
1005
0
1005
0
1005
0
1005
0
1005
0
1005
0
1005
0
1005
0
1005
1288
1002
}
  0
LINE
  5
2C1
100
AcDbEntity
  8
UPILEX
100
AcDbLine
 10
266.362829
 20
122.684029
 30
0.0
 11
266.362829
 21
158.964029
 31
0.0
1001
ACAD
1000
ASC_BOUNDS
1002
{
1070
    19
1005
0
1005
0
1005
0
1005
0
1005
0
1005
0
1005
0
1005
0
1005
0
1005
0
1005
1288
1002
}
  0
LINE
  5
2C3
100
AcDbEntity
  8
UPILEX
100
AcDbLine
 10
181.987829
 20
158.964029
 30
0.0
 11
181.987829
 21
122.684029
 31
0.0
1001
ACAD
1000
ASC_BOUNDS
1002
{
1070
    19
1005
0
1005
0
1005
0
1005
0
1005
0
1005
0
1005
0
1005
0
1005
0
1005
0
1005
1288
1002
}
  0
LINE
  5
2C4
100
AcDbEntity
  8
UPILEX
100
AcDbLine
 10
268.362829
 20
158.964029
 30
0.0
 11
181.987829
 21
158.964029
 31
0.0
1001
ACAD
1000
ASC_BOUNDS
1002
{
1070
    19
1005
1288
1002
}
  0
LINE
  5
2C5
100
AcDbEntity
  8
UPILEX
100
AcDbLine
 10
181.987829
 20
122.684029
 30
0.0
 11
268.362829
 21
122.684029
 31
0.0
1001
ACAD
1000
ASC_BOUNDS
1002
{
1070
    19
1005
1288
1002
}
  0
INSERT
  5
2C6
100
AcDbEntity
  8
CENTER
100
AcDbBlockReference
  2
POST-1
 10
303.922829
 20
153.207029
 30
0.0
 41
-1.0
 50
180.0
  0
INSERT
  5
2C7
100
AcDbEntity
  8
CENTER
100
AcDbBlockReference
  2
POST-1
 10
303.922829
 20
134.507029
 30
0.0
 41
-1.0
 50
180.0
  0
LINE
  5
2C8
100
AcDbEntity
  8
UPILEX
100
AcDbLine
 10
286.122829
 20
112.934029
 30
0.0
 11
277.709029
 21
112.934029
 31
0.0
1001
ACAD
1000
ASC_BOUNDS
1002
{
1070
    19
1005
1288
1002
}
  0
DIMENSION
  5
2E5
100
AcDbEntity
  8
TEXT
100
AcDbDimension
  2
*D16
 10
281.122829
 20
170.562336
 30
0.0
 11
297.435329
 21
170.562336
 31
0.0
 70
    32
  3
STANDARD
100
AcDbAlignedDimension
 13
266.362829
 23
161.464029
 33
0.0
 14
281.122829
 24
159.034029
 34
0.0
100
AcDbRotatedDimension
1001
ACAD
1000
DSTYLE
1002
{
1070
   140
1040
0.3
1070
   272
1070
     2
1070
    40
1040
7.5
1070
     3
1000
mm
1070
   287
1070
     0
1070
   271
1070
     2
1070
     4
1000
"
1070
   143
1040
0.03937
1070
   171
1070
     3
1070
   170
1070
     1
1002
}
  0
LINE
  5
2F3
100
AcDbEntity
  8
UPILEX
100
AcDbLine
 10
268.362829
 20
158.964029
 30
0.0
 11
268.992829
 21
158.334029
 31
0.0
  0
LINE
  5
2F4
100
AcDbEntity
  8
UPILEX
100
AcDbLine
 10
268.362829
 20
247.523585
 30
0.0
 11
268.992829
 21
248.153585
 31
0.0
  0
LINE
  5
2F9
100
AcDbEntity
  8
UPILEX
100
AcDbLine
 10
286.122829
 20
158.334029
 30
0.0
 11
268.992829
 21
158.334029
 31
0.0
1001
ACAD
1000
ASC_BOUNDS
1002
{
1070
    19
1005
1288
1002
}
  0
LINE
  5
2FA
100
AcDbEntity
  8
UPILEX
100
AcDbLine
 10
268.362829
 20
122.684029
 30
0.0
 11
277.709029
 21
112.934029
 31
0.0
  0
TEXT
  5
43E
100
AcDbEntity
  8
TEXT
100
AcDbText
 10
416.359335
 20
38.288169
 30
0.0
 40
3.0
  1
LAYER 1 FORWARD DETECTOR-HDI ASS'Y
100
AcDbText
  0
TEXT
  5
43F
100
AcDbEntity
  8
TEXT
100
AcDbText
 10
424.632676
 20
24.003265
 30
0.0
 40
3.0
  1
UPILEX
100
AcDbText
  0
TEXT
  5
440
100
AcDbEntity
  8
TEXT
100
AcDbText
 10
468.819839
 20
24.567144
 30
0.0
 40
3.0
  1
L1-UPI01
100
AcDbText
  0
TEXT
  5
441
100
AcDbEntity
  8
TEXT
100
AcDbText
 10
424.444646
 20
17.236732
 30
0.0
 40
3.0
  1
1=1
100
AcDbText
  0
TEXT
  5
442
100
AcDbEntity
  8
TEXT
100
AcDbText
 10
376.496873
 20
33.965106
 30
0.0
 40
3.0
  1
S. KYRE
100
AcDbText
  0
TEXT
  5
443
100
AcDbEntity
  8
TEXT
100
AcDbText
 10
400.188714
 20
33.777147
 30
0.0
 40
1.5
  1
04-24-96
100
AcDbText
  0
TEXT
  5
4D1
100
AcDbEntity
  8
TEXT
100
AcDbText
 10
223.8125
 20
89.4375
 30
0.0
 40
5.0
  1
LAYER 1 FORWARD
100
AcDbText
  0
TEXT
  5
4D2
100
AcDbEntity
  8
TEXT
100
AcDbText
 10
223.8125
 20
81.104167
 30
0.0
 40
5.0
  1
Z-SIDE
100
AcDbText
  0
TEXT
  5
4D3
100
AcDbEntity
  8
TEXT
100
AcDbText
 10
223.8125
 20
225.3125
 30
0.0
 40
5.0
  1
LAYER 1 FORWARD
100
AcDbText
  0
TEXT
  5
4D4
100
AcDbEntity
  8
TEXT
100
AcDbText
 10
223.8125
 20
216.979167
 30
0.0
 40
5.0
  1
PHI-SIDE
100
AcDbText
  0
TEXT
  5
4D6
100
AcDbEntity
  8
TEXT
100
AcDbText
 10
185.5
 20
338.5
 30
0.0
 40
5.0
  1
NOTE: HDI IS DRAWN IN EXTENDED POSITION
100
AcDbText
  0
LINE
  5
688
100
AcDbEntity
  8
TEXT
100
AcDbLine
 10
392.32062
 20
375.127405
 30
0.0
 11
392.32062
 21
351.0
 31
0.0
  0
LINE
  5
689
100
AcDbEntity
  8
TEXT
100
AcDbLine
 10
402.233031
 20
375.127405
 30
0.0
 11
402.233031
 21
351.0
 31
0.0
  0
LINE
  5
68B
100
AcDbEntity
  8
TEXT
100
AcDbLine
 10
471.829031
 20
375.127405
 30
0.0
 11
471.829031
 21
351.0
 31
0.0
  0
LINE
  5
68C
100
AcDbEntity
  8
TEXT
100
AcDbLine
 10
494.181031
 20
375.127405
 30
0.0
 11
494.181031
 21
351.0
 31
0.0
  0
TEXT
  5
68D
100
AcDbEntity
  8
TEXT
100
AcDbText
 10
396.215068
 20
371.173379
 30
0.0
 40
1.65
  1
01
100
AcDbText
  0
TEXT
  5
68E
100
AcDbEntity
  8
TEXT
100
AcDbText
 10
402.834875
 20
371.173379
 30
0.0
 40
1.65
  1
CHANGED UPILEX LENGTH BETWEEN DET. AND HDI
100
AcDbText
  0
TEXT
  5
68F
100
AcDbEntity
  8
TEXT
100
AcDbText
 10
475.211446
 20
371.173379
 30
0.0
 40
1.65
  1
12-01-95
100
AcDbText
  0
POLYLINE
  5
695
100
AcDbEntity
  8
L1_
100
AcDb2dPolyline
 66
     1
 10
0.0
 20
0.0
 30
0.0
 70
     1
  0
VERTEX
  5
696
100
AcDbEntity
  8
L1_
100
AcDbVertex
100
AcDb2dVertex
 10
223.962829
 20
120.184029
 30
0.0
  0
VERTEX
  5
697
100
AcDbEntity
  8
L1_
100
AcDbVertex
100
AcDb2dVertex
 10
223.962829
 20
161.484029
 30
0.0
  0
VERTEX
  5
698
100
AcDbEntity
  8
L1_
100
AcDbVertex
100
AcDb2dVertex
 10
266.362829
 20
161.484029
 30
0.0
  0
VERTEX
  5
699
100
AcDbEntity
  8
L1_
100
AcDbVertex
100
AcDb2dVertex
 10
266.362829
 20
120.184029
 30
0.0
  0
SEQEND
  5
69A
100
AcDbEntity
  8
L1_
  0
POLYLINE
  5
69B
100
AcDbEntity
  8
L1_
100
AcDb2dPolyline
 66
     1
 10
0.0
 20
0.0
 30
0.0
 70
     1
  0
VERTEX
  5
69C
100
AcDbEntity
  8
L1_
100
AcDbVertex
100
AcDb2dVertex
 10
223.887829
 20
120.184029
 30
0.0
  0
VERTEX
  5
69D
100
AcDbEntity
  8
L1_
100
AcDbVertex
100
AcDb2dVertex
 10
223.887829
 20
161.484029
 30
0.0
  0
VERTEX
  5
69E
100
AcDbEntity
  8
L1_
100
AcDbVertex
100
AcDb2dVertex
 10
181.487829
 20
161.484029
 30
0.0
  0
VERTEX
  5
69F
100
AcDbEntity
  8
L1_
100
AcDbVertex
100
AcDb2dVertex
 10
181.487829
 20
120.184029
 30
0.0
  0
SEQEND
  5
6A0
100
AcDbEntity
  8
L1_
  0
POLYLINE
  5
71D
100
AcDbEntity
  8
L1_
100
AcDb2dPolyline
 66
     1
 10
0.0
 20
0.0
 30
0.0
 70
     1
  0
VERTEX
  5
71E
100
AcDbEntity
  8
L1_
100
AcDbVertex
100
AcDb2dVertex
 10
223.887829
 20
245.023585
 30
0.0
  0
VERTEX
  5
71F
100
AcDbEntity
  8
L1_
100
AcDbVertex
100
AcDb2dVertex
 10
223.887829
 20
286.323585
 30
0.0
  0
VERTEX
  5
720
100
AcDbEntity
  8
L1_
100
AcDbVertex
100
AcDb2dVertex
 10
181.487829
 20
286.323585
 30
0.0
  0
VERTEX
  5
721
100
AcDbEntity
  8
L1_
100
AcDbVertex
100
AcDb2dVertex
 10
181.487829
 20
245.023585
 30
0.0
  0
SEQEND
  5
722
100
AcDbEntity
  8
L1_
  0
POLYLINE
  5
723
100
AcDbEntity
  8
L1_
100
AcDb2dPolyline
 66
     1
 10
0.0
 20
0.0
 30
0.0
 70
     1
1001
ACAD
1000
ASC_BOUNDS
1002
{
1070
    19
1005
121D
1005
121D
1002
}
  0
VERTEX
  5
724
100
AcDbEntity
  8
L1_
100
AcDbVertex
100
AcDb2dVertex
 10
223.962829
 20
245.023585
 30
0.0
  0
VERTEX
  5
725
100
AcDbEntity
  8
L1_
100
AcDbVertex
100
AcDb2dVertex
 10
223.962829
 20
286.323585
 30
0.0
  0
VERTEX
  5
726
100
AcDbEntity
  8
L1_
100
AcDbVertex
100
AcDb2dVertex
 10
266.362829
 20
286.323585
 30
0.0
  0
VERTEX
  5
727
100
AcDbEntity
  8
L1_
100
AcDbVertex
100
AcDb2dVertex
 10
266.362829
 20
245.023585
 30
0.0
  0
SEQEND
  5
728
100
AcDbEntity
  8
L1_
  0
TEXT
  5
7AE
100
AcDbEntity
  8
TEXT
100
AcDbText
 10
475.211446
 20
368.173379
 30
0.0
 40
1.65
  1
04-24-96
100
AcDbText
  0
TEXT
  5
7AF
100
AcDbEntity
  8
TEXT
100
AcDbText
 10
402.834875
 20
368.173379
 30
0.0
 40
1.65
  1
CHANGED DETECTORS TO 4 WAFER LAYOUT
100
AcDbText
  0
TEXT
  5
7B0
100
AcDbEntity
  8
TEXT
100
AcDbText
 10
396.215068
 20
368.173379
 30
0.0
 40
1.65
  1
02
100
AcDbText
  0
LINE
  5
9E3
100
AcDbEntity
  8
CENTER
100
AcDbLine
 10
154.682829
 20
129.216994
 30
0.0
 11
154.682829
 21
159.397825
 31
0.0
  0
TEXT
  5
9E4
100
AcDbEntity
  8
CENTER
100
AcDbText
 10
150.894526
 20
287.666357
 30
0.0
 40
5.0
  1
I.P.
100
AcDbText
  0
LINE
  5
A52
100
AcDbEntity
  8
CENTER
100
AcDbLine
 10
154.682829
 20
250.411894
 30
0.0
 11
154.682829
 21
281.064301
 31
0.0
  0
TEXT
  5
A53
100
AcDbEntity
  8
CENTER
100
AcDbText
 10
150.894526
 20
164.113579
 30
0.0
 40
5.0
  1
I.P.
100
AcDbText
  0
TEXT
  5
A54
100
AcDbEntity
  8
L1_
100
AcDbText
 10
190.026246
 20
276.348546
 30
0.0
 40
3.0
  1
LAYER 1 
100
AcDbText
  0
TEXT
  5
A55
100
AcDbEntity
  8
L1_
100
AcDbText
 10
190.026246
 20
271.348546
 30
0.0
 40
3.0
  1
FORWARD
100
AcDbText
  0
TEXT
  5
A56
100
AcDbEntity
  8
L1_
100
AcDbText
 10
190.026246
 20
266.348546
 30
0.0
 40
3.0
  1
PHI-SIDE
100
AcDbText
  0
TEXT
  5
A57
100
AcDbEntity
  8
L1_
100
AcDbText
 10
190.026246
 20
126.762203
 30
0.0
 40
3.0
  1
Z-SIDE
100
AcDbText
  0
TEXT
  5
A58
100
AcDbEntity
  8
L1_
100
AcDbText
 10
190.026246
 20
131.762203
 30
0.0
 40
3.0
  1
FORWARD
100
AcDbText
  0
TEXT
  5
A59
100
AcDbEntity
  8
L1_
100
AcDbText
 10
190.026246
 20
136.762203
 30
0.0
 40
3.0
  1
LAYER 1 
100
AcDbText
  0
TEXT
  5
A6E
100
AcDbEntity
  8
TEXT
 62
     1
100
AcDbText
 10
254.798056
 20
198.749986
 30
0.0
 40
7.5
  1
NOTE: UPILEX LENGTH UPDATED 12-01-95
100
AcDbText
  0
INSERT
  5
C8F
100
AcDbEntity
  8
TEXT
 62
     1
100
AcDbBlockReference
  2
L12T-HDI
 10
281.122829
 20
247.453585
 30
0.0
1001
ACAD
1000
ASC_BOUNDS
1002
{
1070
    19
1005
121D
1005
121D
1005
121D
1002
}
  0
INSERT
  5
D27
100
AcDbEntity
  8
TEXT
 62
     1
100
AcDbBlockReference
  2
L1-2-HDI
 10
281.122829
 20
112.234029
 30
0.0
  0
INSERT
  5
121D
100
AcDbEntity
  8
UPILEX
100
AcDbBlockReference
  2
*X24
 10
0.0
 20
0.0
 30
0.0
1001
ACAD
1000
HATCH
1002
{
1070
    19
1000
ANSI31
1040
10.0
1040
0.0
1000
ASC_BOUNDS
1070
     4
1070
     1
1070
     4
1005
283
1005
280
1005
276
1005
723
1070
     1
1070
     5
1005
C8F
1005
276
1005
280
1005
282
1005
723
1070
     1
1070
     3
1005
C8F
1005
284
1005
27F
1070
     1
1070
     4
1005
287
1005
C8F
1005
276
1005
27F
1000
ASC_SEEDPOINT
1011
282.899563
1021
282.697219
1031
0.0
1002
}
  0
DIMENSION
  5
1266
100
AcDbEntity
  8
TEXT
100
AcDbDimension
  2
*D25
 10
281.122829
 20
307.898256
 30
0.0
 11
298.942829
 21
307.898256
 31
0.0
 70
    32
  3
STANDARD
100
AcDbAlignedDimension
 13
266.362829
 23
286.323585
 33
0.0
 14
281.122829
 24
294.253585
 34
0.0
100
AcDbRotatedDimension
1001
ACAD
1000
DSTYLE
1002
{
1070
    40
1040
12.0
1070
     3
1000
mm
1070
   271
1070
     2
1070
     4
1000
"
1070
   143
1040
0.03937
1070
   171
1070
     3
1070
   170
1070
     1
1002
}
  0
TEXT
  5
1267
100
AcDbEntity
  8
TEXT
100
AcDbText
 10
396.215068
 20
365.164301
 30
0.0
 40
1.65
  1
03
100
AcDbText
  0
TEXT
  5
1268
100
AcDbEntity
  8
TEXT
100
AcDbText
 10
402.834875
 20
365.164301
 30
0.0
 40
1.65
  1
UPDATED READOUT CHIP (SIZE AND POSITION)
100
AcDbText
  0
TEXT
  5
1269
100
AcDbEntity
  8
TEXT
100
AcDbText
 10
475.211446
 20
365.164301
 30
0.0
 40
1.65
  1
09-27-96
100
AcDbText
  0
TEXT
  5
126A
100
AcDbEntity
  8
TEXT
100
AcDbText
 10
396.215068
 20
362.155221
 30
0.0
 40
1.65
  1
04
100
AcDbText
  0
TEXT
  5
126B
100
AcDbEntity
  8
TEXT
100
AcDbText
 10
402.834875
 20
362.155221
 30
0.0
 40
1.65
  1
UPDATED UPILEX LENGTH FOR NEW HDI POSITION
100
AcDbText
  0
TEXT
  5
126C
100
AcDbEntity
  8
TEXT
100
AcDbText
 10
475.211446
 20
362.155221
 30
0.0
 40
1.65
  1
10-03-96
100
AcDbText
  0
TEXT
  5
126D
100
AcDbEntity
  8
TEXT
100
AcDbText
 10
402.834875
 20
359.423488
 30
0.0
 40
1.65
  1
(AS IN DRAWING B0632D REV. A, 9/17/96)
100
AcDbText
  0
INSERT
  5
1288
100
AcDbEntity
  8
UPILEX
100
AcDbBlockReference
  2
*X26
 10
0.0
 20
0.0
 30
0.0
1001
ACAD
1000
HATCH
1002
{
1070
    19
1000
ANSI31
1040
10.0
1040
1.570796
1000
ASC_BOUNDS
1070
     2
1070
     1
1070
     4
1005
2F9
1005
2BE
1005
2C8
1005
2BF
1070
     1
1070
     4
1005
2C4
1005
2C3
1005
2C5
1005
2C1
1000
ASC_SEEDPOINT
1011
228.639264
1021
140.824029
1031
0.0
1002
}
  0
TEXT
  5
12EB
100
AcDbEntity
  8
TEXT
 62
     1
100
AcDbText
 10
294.415383
 20
186.441943
 30
0.0
 40
7.5
  1
UPILEX LENGHT UPDATED 10-03-96
100
AcDbText
  0
ENDSEC
  0
SECTION
  2
OBJECTS
  0
DICTIONARY
  5
C
100
AcDbDictionary
  3
ACAD_GROUP
350
D
  3
ACAD_MLINESTYLE
350
E
  0
DICTIONARY
  5
D
102
{ACAD_REACTORS
330
C
102
}
100
AcDbDictionary
  0
DICTIONARY
  5
E
102
{ACAD_REACTORS
330
C
102
}
100
AcDbDictionary
  3
STANDARD
350
13
  0
MLINESTYLE
  5
13
102
{ACAD_REACTORS
330
E
102
}
100
AcDbMlineStyle
  2
STANDARD
 70
     0
  3

 62
     0
 51
90.0
 52
90.0
 71
     2
 49
0.5
 62
   256
  6
BYLAYER
 49
-0.5
 62
   256
  6
BYLAYER
  0
ENDSEC
  0
EOF
