  0
SECTION
  2
HEADER
  9
$ACADVER
  1
AC1012
  9
$DWGCODEPAGE
  3
ansi_1252
  9
$INSBASE
 10
-68.820091
 20
-30.908315
 30
0.0
  9
$EXTMIN
 10
12.294053
 20
15.200044
 30
0.0
  9
$EXTMAX
 10
520.721906
 20
390.525
 30
0.0
  9
$LIMMIN
 10
0.0
 20
0.0
  9
$LIMMAX
 10
534.0
 20
407.0
  9
$ORTHOMODE
 70
     0
  9
$REGENMODE
 70
     1
  9
$FILLMODE
 70
     0
  9
$QTEXTMODE
 70
     0
  9
$MIRRTEXT
 70
     1
  9
$DRAGMODE
 70
     2
  9
$LTSCALE
 40
10.0
  9
$OSMODE
 70
     0
  9
$ATTMODE
 70
     1
  9
$TEXTSIZE
 40
3.0
  9
$TRACEWID
 40
0.05
  9
$TEXTSTYLE
  7
STANDARD
  9
$CLAYER
  8
TEXT
  9
$CELTYPE
  6
BYLAYER
  9
$CECOLOR
 62
   256
  9
$CELTSCALE
 40
1.0
  9
$DELOBJ
 70
     1
  9
$DISPSILH
 70
     0
  9
$DIMSCALE
 40
10.0
  9
$DIMASZ
 40
0.18
  9
$DIMEXO
 40
0.0625
  9
$DIMDLI
 40
0.38
  9
$DIMRND
 40
0.0
  9
$DIMDLE
 40
0.0
  9
$DIMEXE
 40
0.18
  9
$DIMTP
 40
0.0
  9
$DIMTM
 40
0.08
  9
$DIMTXT
 40
0.3
  9
$DIMCEN
 40
0.09
  9
$DIMTSZ
 40
0.0
  9
$DIMTOL
 70
     1
  9
$DIMLIM
 70
     0
  9
$DIMTIH
 70
     1
  9
$DIMTOH
 70
     1
  9
$DIMSE1
 70
     0
  9
$DIMSE2
 70
     0
  9
$DIMTAD
 70
     0
  9
$DIMZIN
 70
     0
  9
$DIMBLK
  1

  9
$DIMASO
 70
     1
  9
$DIMSHO
 70
     1
  9
$DIMPOST
  1
mm
  9
$DIMAPOST
  1
"
  9
$DIMALT
 70
     1
  9
$DIMALTD
 70
     3
  9
$DIMALTF
 40
0.03937
  9
$DIMLFAC
 40
1.0
  9
$DIMTOFL
 70
     0
  9
$DIMTVP
 40
0.0
  9
$DIMTIX
 70
     0
  9
$DIMSOXD
 70
     0
  9
$DIMSAH
 70
     0
  9
$DIMBLK1
  1

  9
$DIMBLK2
  1

  9
$DIMSTYLE
  2
STANDARD
  9
$DIMCLRD
 70
     0
  9
$DIMCLRE
 70
     0
  9
$DIMCLRT
 70
     0
  9
$DIMTFAC
 40
1.0
  9
$DIMGAP
 40
0.09
  9
$DIMJUST
 70
     0
  9
$DIMSD1
 70
     0
  9
$DIMSD2
 70
     0
  9
$DIMTOLJ
 70
     1
  9
$DIMTZIN
 70
     0
  9
$DIMALTZ
 70
     0
  9
$DIMALTTZ
 70
     0
  9
$DIMFIT
 70
     0
  9
$DIMUPT
 70
     1
  9
$DIMUNIT
 70
     2
  9
$DIMDEC
 70
     2
  9
$DIMTDEC
 70
     2
  9
$DIMALTU
 70
     2
  9
$DIMALTTD
 70
     3
  9
$DIMTXSTY
  7
STANDARD
  9
$DIMAUNIT
 70
     0
  9
$LUNITS
 70
     2
  9
$LUPREC
 70
     2
  9
$SKETCHINC
 40
0.1
  9
$FILLETRAD
 40
2.0
  9
$AUNITS
 70
     0
  9
$AUPREC
 70
     2
  9
$MENU
  1
c:/cim/acad
  9
$ELEVATION
 40
0.0
  9
$PELEVATION
 40
0.0
  9
$THICKNESS
 40
0.0
  9
$LIMCHECK
 70
     0
  9
$BLIPMODE
 70
     1
  9
$CHAMFERA
 40
0.0
  9
$CHAMFERB
 40
0.0
  9
$CHAMFERC
 40
0.0
  9
$CHAMFERD
 40
0.0
  9
$SKPOLY
 70
     0
  9
$TDCREATE
 40
2449877.706174537
  9
$TDUPDATE
 40
2450458.686610532
  9
$TDINDWG
 40
0.7538064236
  9
$TDUSRTIMER
 40
0.7538064236
  9
$USRTIMER
 70
     1
  9
$ANGBASE
 50
0.0
  9
$ANGDIR
 70
     0
  9
$PDMODE
 70
    34
  9
$PDSIZE
 40
5.0
  9
$PLINEWID
 40
0.0
  9
$COORDS
 70
     1
  9
$SPLFRAME
 70
     0
  9
$SPLINETYPE
 70
     6
  9
$SPLINESEGS
 70
     8
  9
$ATTDIA
 70
     0
  9
$ATTREQ
 70
     1
  9
$HANDLING
 70
     1
  9
$HANDSEED
  5
87F
  9
$SURFTAB1
 70
     6
  9
$SURFTAB2
 70
     6
  9
$SURFTYPE
 70
     6
  9
$SURFU
 70
     6
  9
$SURFV
 70
     6
  9
$UCSNAME
  2

  9
$UCSORG
 10
0.0
 20
0.0
 30
0.0
  9
$UCSXDIR
 10
1.0
 20
0.0
 30
0.0
  9
$UCSYDIR
 10
0.0
 20
1.0
 30
0.0
  9
$PUCSNAME
  2

  9
$PUCSORG
 10
0.0
 20
0.0
 30
0.0
  9
$PUCSXDIR
 10
1.0
 20
0.0
 30
0.0
  9
$PUCSYDIR
 10
0.0
 20
1.0
 30
0.0
  9
$USERI1
 70
     0
  9
$USERI2
 70
     0
  9
$USERI3
 70
     0
  9
$USERI4
 70
     0
  9
$USERI5
 70
     0
  9
$USERR1
 40
0.0
  9
$USERR2
 40
0.0
  9
$USERR3
 40
0.0
  9
$USERR4
 40
0.0
  9
$USERR5
 40
0.0
  9
$WORLDVIEW
 70
     1
  9
$SHADEDGE
 70
     3
  9
$SHADEDIF
 70
    70
  9
$TILEMODE
 70
     1
  9
$MAXACTVP
 70
    16
  9
$PINSBASE
 10
0.0
 20
0.0
 30
0.0
  9
$PLIMCHECK
 70
     0
  9
$PEXTMIN
 10
1.000000E+20
 20
1.000000E+20
 30
1.000000E+20
  9
$PEXTMAX
 10
-1.000000E+20
 20
-1.000000E+20
 30
-1.000000E+20
  9
$PLIMMIN
 10
0.0
 20
0.0
  9
$PLIMMAX
 10
12.0
 20
9.0
  9
$UNITMODE
 70
     0
  9
$VISRETAIN
 70
     0
  9
$PLINEGEN
 70
     0
  9
$PSLTSCALE
 70
     1
  9
$TREEDEPTH
 70
  3020
  9
$PICKSTYLE
 70
     1
  9
$CMLSTYLE
  2
STANDARD
  9
$CMLJUST
 70
     0
  9
$CMLSCALE
 40
1.0
  9
$SAVEIMAGES
 70
     0
  0
ENDSEC
  0
SECTION
  2
CLASSES
  0
CLASS
  1
OLEFRAME
  2
AcDbOleFrame
  3
""
 90
        0
280
     0
281
     1
  0
CLASS
  1
ACMESCOPE
  2
AcMeScope
  3
ACME_MODULE_NAME
 90
        0
280
     0
281
     0
  0
CLASS
  1
ACMECOMMANDHISTORY
  2
AcMeCommandHistory
  3
ACME_MODULE_NAME
 90
        0
280
     0
281
     0
  0
CLASS
  1
AcRfInsAdjusterMgr
  2
AcRfInsAdjusterMgr
  3
ACME_MODULE_NAME
 90
        0
280
     0
281
     0
  0
CLASS
  1
ACGREFMASTER
  2
AcGrefMaster
  3
"AcadRfServer"
 90
        0
280
     0
281
     0
  0
CLASS
  1
AmiMaster
  2
AmiMaster
  3
"AmiServices"
 90
        0
280
     0
281
     0
  0
CLASS
  1
ACASGREFMASTER
  2
AcAsGrefMaster
  3
"AutoSurfResolver"
 90
        0
280
     0
281
     0
  0
CLASS
  1
ADAPPL
  2
AcAdAppl
  3
"DesignerServices"
 90
        0
280
     0
281
     0
  0
CLASS
  1
DEPMGR
  2
AcAdDepMgr
  3
"DesignerServices"
 90
        0
280
     0
281
     0
  0
CLASS
  1
PARAMMGR
  2
AcAdParamMgr
  3
"DesignerServices"
 90
        0
280
     0
281
     0
  0
CLASS
  1
PARAMSCOPE
  2
AcAdParamScope
  3
"DesignerServices"
 90
        0
280
     0
281
     0
  0
CLASS
  1
"IM_SYSVAR_MAN"
  2
AcImSysVarManager
  3
"ADAM"
 90
        0
280
     0
281
     0
  0
CLASS
  1
SYSTEM_VAR_INT
  2
AcImIntSysVar
  3
"ADAM"
 90
        0
280
     0
281
     0
  0
CLASS
  1
SYSTEM_VAR_REAL
  2
AcImRealSysVar
  3
"ADAM"
 90
        0
280
     0
281
     0
  0
CLASS
  1
SYSTEM_VAR_STR
  2
AcImStrSysVar
  3
"ADAM"
 90
        0
280
     0
281
     0
  0
CLASS
  1
NAMEDAPPL
  2
AcAdNamedAppl
  3
"DesignerServices"
 90
        0
280
     0
281
     0
  0
CLASS
  1
ADPART
  2
AcAdPart
  3
"DesignerServices"
 90
        0
280
     0
281
     1
  0
CLASS
  1
ADBASE
  2
AcAdBase
  3
"DesignerServices"
 90
        0
280
     0
281
     0
  0
CLASS
  1
BODYID
  2
AcAdBodyId
  3
"DesignerServices"
 90
        0
280
     0
281
     0
  0
CLASS
  1
WORKPLANEDISPLAYMGR
  2
AcAdDisplayMgr
  3
"DesignerServices"
 90
        0
280
     0
281
     0
  0
CLASS
  1
ADHNTMPLT
  2
AdHoleNoteTemplateMgr
  3
"DesignerServices"
 90
        0
280
     0
281
     0
  0
CLASS
  1
AM_HNTEMPLATE_MGR_NAME
  2
AdHoleNoteTemplateMgrName
  3
"DesignerServices"
 90
        0
280
     0
281
     0
  0
CLASS
  1
AcAdGrefModule
  2
AcAdGrefModule
  3
AD_GREF_SERVICES_NSTR
 90
        0
280
     0
281
     0
  0
CLASS
  1
AM_DRAWING_MGR
  2
AcDmDwgMgr
  3
"Designer_Drawing_Mgmt"
 90
        0
280
     0
281
     0
  0
CLASS
  1
AM_DWG_DOCUMENT
  2
AcDmDwgDocument
  3
"Designer_Drawing_Mgmt"
 90
        0
280
     0
281
     0
  0
CLASS
  1
AM_DWG_SHEET
  2
AcDmSheet
  3
"Designer_Drawing_Mgmt"
 90
        0
280
     0
281
     0
  0
CLASS
  1
AM_VIEWDIMPARMAP
  2
AcDmViewDimParMap
  3
"Designer_Drawing_Mgmt"
 90
        0
280
     0
281
     0
  0
CLASS
  1
AM_DWGMGR_NAME
  2
AcDmDwgMgrName
  3
"Designer_Drawing_Mgmt"
 90
        0
280
     0
281
     0
  0
CLASS
  1
ACAMPROJECT
  2
AcAmProject
  3
"DesignerAssemblies"
 90
        0
280
     0
281
     0
  0
CLASS
  1
ACAMGRCOMPDEF
  2
AcAmGrCompDef
  3
"DesignerAssemblies"
 90
        0
280
     0
281
     0
  0
CLASS
  1
ACAMCOMPDEF
  2
AcAmCompDef
  3
"DesignerAssemblies"
 90
        0
280
     0
281
     0
  0
CLASS
  1
ACAMCOMPDEFMGR
  2
AcAmCompDefMgr
  3
"DesignerAssemblies"
 90
        0
280
     0
281
     0
  0
CLASS
  1
AMCONTEXTMGR
  2
AcAmContextMgr
  3
"DesignerAssemblies"
 90
        0
280
     0
281
     0
  0
CLASS
  1
AcAmContextModeler
  2
AcAmContextModeler
  3
"DesignerAssemblies"
 90
        0
280
     0
281
     0
  0
CLASS
  1
ACAMDRAWINGMAN
  2
AcAmDrawingMan
  3
"DesignerAssemblies"
 90
        0
280
     0
281
     0
  0
CLASS
  1
ASSYSVARS
  2
AcAsSysVars
  3
"AutoSurf"
 90
        0
280
     0
281
     0
  0
CLASS
  1
ASSTATICVARS
  2
AcAsStaticVars
  3
"AutoSurf"
 90
        0
280
     0
281
     0
  0
CLASS
  1
ASAPP
  2
AcAsAppObject
  3
"AutoSurf"
 90
        0
280
     0
281
     0
  0
CLASS
  1
AGDICTIONARY
  2
AgDictionary
  3
"AccelView"
 90
        1
280
     0
281
     0
  0
ENDSEC
  0
SECTION
  2
TABLES
  0
TABLE
  2
VPORT
  5
12
100
AcDbSymbolTable
 70
     2
  0
VPORT
  5
87E
100
AcDbSymbolTableRecord
100
AcDbViewportTableRecord
  2
*ACTIVE
 70
     0
 10
0.0
 20
0.0
 11
1.0
 21
1.0
 12
328.561717
 22
202.862522
 13
0.0
 23
0.0
 14
1.0
 24
1.0
 15
10.0
 25
10.0
 16
0.0
 26
0.0
 36
1.0
 17
0.0
 27
0.0
 37
0.0
 40
378.624425
 41
1.684575
 42
50.0
 43
0.0
 44
0.0
 50
0.0
 51
0.0
 71
     0
 72
   100
 73
     1
 74
     0
 75
     0
 76
     1
 77
     0
 78
     0
  0
ENDTAB
  0
TABLE
  2
LTYPE
  5
E
100
AcDbSymbolTable
 70
     6
  0
LTYPE
  5
F
100
AcDbSymbolTableRecord
100
AcDbLinetypeTableRecord
  2
BYBLOCK
 70
     0
  3

 72
    65
 73
     0
 40
0.0
  0
LTYPE
  5
9
100
AcDbSymbolTableRecord
100
AcDbLinetypeTableRecord
  2
BYLAYER
 70
     0
  3

 72
    65
 73
     0
 40
0.0
  0
LTYPE
  5
A
100
AcDbSymbolTableRecord
100
AcDbLinetypeTableRecord
  2
CONTINUOUS
 70
    64
  3
Solid line
 72
    65
 73
     0
 40
0.0
  0
LTYPE
  5
33
100
AcDbSymbolTableRecord
100
AcDbLinetypeTableRecord
  2
CENTER
 70
    64
  3
____ _ ____ _ ____ _ ____ _ ____ _ ____ _ ____ 
 72
    65
 73
     4
 40
2.0
 49
1.25
 74
     0
 49
-0.25
 74
     0
 49
0.25
 74
     0
 49
-0.25
 74
     0
  0
LTYPE
  5
35
100
AcDbSymbolTableRecord
100
AcDbLinetypeTableRecord
  2
HIDDEN
 70
    64
  3
__ __ __ __ __ __ __ __ __ __ __ __ __ __ __ __
 72
    65
 73
     2
 40
0.375
 49
0.25
 74
     0
 49
-0.125
 74
     0
  0
LTYPE
  5
822
100
AcDbSymbolTableRecord
100
AcDbLinetypeTableRecord
  2
PHANTOM2
 70
     0
  3
___ _ _ ___ _ _ ___ _ _ ___ _ _ ___ _ _ ___ _ _
 72
    65
 73
     6
 40
1.25
 49
0.625
 74
     0
 49
-0.125
 74
     0
 49
0.125
 74
     0
 49
-0.125
 74
     0
 49
0.125
 74
     0
 49
-0.125
 74
     0
  0
LTYPE
  5
84C
100
AcDbSymbolTableRecord
100
AcDbLinetypeTableRecord
  2
ASULTYPE
 70
     0
  3
Solid line
 72
    65
 73
     2
 40
3.0
 49
2.5
 74
     0
 49
0.5
 74
     0
  0
LTYPE
  5
84D
100
AcDbSymbolTableRecord
100
AcDbLinetypeTableRecord
  2
ASVLTYPE
 70
     0
  3
__ __ __ __ __ __ __ __ __ __ __ __ __ __ __ __ __ __ __ __ __
 72
    65
 73
     2
 40
0.75
 49
0.5
 74
     0
 49
-0.25
 74
     0
  0
ENDTAB
  0
TABLE
  2
LAYER
  5
B
100
AcDbSymbolTable
 70
    16
  0
LAYER
  5
8
100
AcDbSymbolTableRecord
100
AcDbLayerTableRecord
  2
0
 70
    64
 62
     7
  6
CONTINUOUS
  0
LAYER
  5
1B
100
AcDbSymbolTableRecord
100
AcDbLayerTableRecord
  2
KEVLAR
 70
    64
 62
     7
  6
CONTINUOUS
  0
LAYER
  5
32
100
AcDbSymbolTableRecord
100
AcDbLayerTableRecord
  2
CENTER
 70
    64
 62
     1
  6
CENTER
  0
LAYER
  5
42
100
AcDbSymbolTableRecord
100
AcDbLayerTableRecord
  2
DIM
 70
    64
 62
     3
  6
CONTINUOUS
  0
LAYER
  5
4C
100
AcDbSymbolTableRecord
100
AcDbLayerTableRecord
  2
DEFPOINTS
 70
    64
 62
     7
  6
CONTINUOUS
  0
LAYER
  5
109
100
AcDbSymbolTableRecord
100
AcDbLayerTableRecord
  2
TEXT
 70
    64
 62
     7
  6
CONTINUOUS
  0
LAYER
  5
145
100
AcDbSymbolTableRecord
100
AcDbLayerTableRecord
  2
BORDER
 70
    64
 62
     6
  6
CONTINUOUS
  0
LAYER
  5
830
100
AcDbSymbolTableRecord
100
AcDbLayerTableRecord
  2
AM_VIEWS
 70
    64
 62
     7
  6
CONTINUOUS
  0
LAYER
  5
831
100
AcDbSymbolTableRecord
100
AcDbLayerTableRecord
  2
AM_PARDIM
 70
     0
 62
     3
  6
CONTINUOUS
  0
LAYER
  5
832
100
AcDbSymbolTableRecord
100
AcDbLayerTableRecord
  2
AM_REFDIM
 70
     0
 62
     4
  6
CONTINUOUS
  0
LAYER
  5
833
100
AcDbSymbolTableRecord
100
AcDbLayerTableRecord
  2
AM_VIS
 70
     0
 62
     7
  6
CONTINUOUS
  0
LAYER
  5
834
100
AcDbSymbolTableRecord
100
AcDbLayerTableRecord
  2
AM_HID
 70
    64
 62
     7
  6
HIDDEN
  0
LAYER
  5
843
100
AcDbSymbolTableRecord
100
AcDbLayerTableRecord
  2
AM_TR
 70
     0
 62
     7
  6
CONTINUOUS
  0
LAYER
  5
844
100
AcDbSymbolTableRecord
100
AcDbLayerTableRecord
  2
AM_BM
 70
     0
 62
     7
  6
CONTINUOUS
  0
LAYER
  5
845
100
AcDbSymbolTableRecord
100
AcDbLayerTableRecord
  2
AM_BL
 70
     0
 62
     7
  6
CONTINUOUS
  0
LAYER
  5
855
100
AcDbSymbolTableRecord
100
AcDbLayerTableRecord
  2
ASHADE
 70
    68
 62
     7
  6
CONTINUOUS
  0
ENDTAB
  0
TABLE
  2
STYLE
  5
C
100
AcDbSymbolTable
 70
     4
  0
STYLE
  5
D
100
AcDbSymbolTableRecord
100
AcDbTextStyleTableRecord
  2
STANDARD
 70
    64
 40
0.0
 41
1.0
 50
0.0
 71
     0
 42
3.0
  3
txt
  4

  0
STYLE
  5
37
100
AcDbSymbolTableRecord
100
AcDbTextStyleTableRecord
  2
CIM_TB
 70
    64
 40
0.0
 41
1.0
 50
0.0
 71
     0
 42
0.2
  3
romans
  4

  0
STYLE
  5
146
100
AcDbSymbolTableRecord
100
AcDbTextStyleTableRecord
  2
ADESK2
 70
    64
 40
0.0
 41
1.0
 50
0.0
 71
     0
 42
0.065
  3
romans
  4

  0
STYLE
  5
852
100
AcDbSymbolTableRecord
100
AcDbTextStyleTableRecord
  2
ASHADE
 70
    64
 40
0.2
 41
1.0
 50
0.0
 71
     0
 42
3.0
  3
simplex
  4

  0
ENDTAB
  0
TABLE
  2
VIEW
  5
10
100
AcDbSymbolTable
 70
     0
  0
ENDTAB
  0
TABLE
  2
UCS
  5
11
100
AcDbSymbolTable
 70
     0
  0
ENDTAB
  0
TABLE
  2
APPID
  5
14
100
AcDbSymbolTable
 70
    11
  0
APPID
  5
15
100
AcDbSymbolTableRecord
100
AcDbRegAppTableRecord
  2
ACAD
 70
     0
  0
APPID
  5
31
100
AcDbSymbolTableRecord
100
AcDbRegAppTableRecord
  2
TB_S_MPD
 70
     0
  0
APPID
  5
82F
100
AcDbSymbolTableRecord
100
AcDbRegAppTableRecord
  2
AD_DRAW
 70
     0
  0
APPID
  5
847
100
AcDbSymbolTableRecord
100
AcDbRegAppTableRecord
  2
DESIGNERASSEMBLIES
 70
     0
  0
APPID
  5
848
100
AcDbSymbolTableRecord
100
AcDbRegAppTableRecord
  2
MCAD_NO_VIS
 70
     0
  0
APPID
  5
84E
100
AcDbSymbolTableRecord
100
AcDbRegAppTableRecord
  2
ASURF_PCURVE_APPNAME
 70
     0
  0
APPID
  5
853
100
AcDbSymbolTableRecord
100
AcDbRegAppTableRecord
  2
AVE_RENDER
 70
     0
  0
APPID
  5
854
100
AcDbSymbolTableRecord
100
AcDbRegAppTableRecord
  2
AVE_ENTITY_MATERIAL
 70
     0
  0
APPID
  5
861
100
AcDbSymbolTableRecord
100
AcDbRegAppTableRecord
  2
AVE_FINISH
 70
     0
  0
APPID
  5
862
100
AcDbSymbolTableRecord
100
AcDbRegAppTableRecord
  2
AVE_MATERIAL
 70
     0
  0
APPID
  5
863
100
AcDbSymbolTableRecord
100
AcDbRegAppTableRecord
  2
AVE_GLOBAL
 70
     0
  0
ENDTAB
  0
TABLE
  2
DIMSTYLE
  5
16
100
AcDbSymbolTable
 70
     2
  0
DIMSTYLE
105
1C
100
AcDbSymbolTableRecord
100
AcDbDimStyleTableRecord
  2
STANDARD
 70
     0
  3

  4

  5

  6

  7

 40
1.0
 41
0.18
 42
0.0625
 43
0.38
 44
0.18
 45
0.0
 46
0.0
 47
0.0
 48
0.0
140
0.18
141
0.09
142
0.0
143
25.4
144
1.0
145
0.0
146
1.0
147
0.09
 71
     0
 72
     0
 73
     1
 74
     1
 75
     0
 76
     0
 77
     0
 78
     0
170
     0
171
     2
172
     0
173
     0
174
     0
175
     0
176
     0
177
     0
178
     0
270
     2
271
     4
272
     4
273
     2
274
     2
340
D
275
     0
280
     0
281
     0
282
     0
283
     1
284
     0
285
     0
286
     0
287
     3
288
     0
  0
DIMSTYLE
105
76C
100
AcDbSymbolTableRecord
100
AcDbDimStyleTableRecord
  2
SU1
 70
     0
  3

  4

  5

  6

  7

 40
1.0
 41
0.18
 42
0.0625
 43
0.38
 44
0.18
 45
0.0
 46
0.0
 47
0.001
 48
0.0
140
0.18
141
0.09
142
0.0
143
25.4
144
1.0
145
0.0
146
1.0
147
0.09
 71
     0
 72
     0
 73
     1
 74
     1
 75
     0
 76
     0
 77
     0
 78
     0
170
     0
171
     2
172
     0
173
     0
174
     0
175
     0
176
     0
177
     0
178
     0
270
     2
271
     3
272
     3
273
     2
274
     2
340
D
275
     0
280
     0
281
     0
282
     0
283
     1
284
     0
285
     0
286
     0
287
     0
288
     0
  0
ENDTAB
  0
TABLE
  2
BLOCK_RECORD
  5
1
100
AcDbSymbolTable
 70
    13
  0
BLOCK_RECORD
  5
2
100
AcDbSymbolTableRecord
100
AcDbBlockTableRecord
  2
*MODEL_SPACE
  0
BLOCK_RECORD
  5
3
100
AcDbSymbolTableRecord
100
AcDbBlockTableRecord
  2
*PAPER_SPACE
  0
BLOCK_RECORD
  5
60
100
AcDbSymbolTableRecord
100
AcDbBlockTableRecord
  2
*D0
  0
BLOCK_RECORD
  5
98
100
AcDbSymbolTableRecord
100
AcDbBlockTableRecord
  2
*D1
  0
BLOCK_RECORD
  5
C2
100
AcDbSymbolTableRecord
100
AcDbBlockTableRecord
  2
*D2
  0
BLOCK_RECORD
  5
D0
100
AcDbSymbolTableRecord
100
AcDbBlockTableRecord
  2
*D3
  0
BLOCK_RECORD
  5
DE
100
AcDbSymbolTableRecord
100
AcDbBlockTableRecord
  2
*D4
  0
BLOCK_RECORD
  5
147
100
AcDbSymbolTableRecord
100
AcDbBlockTableRecord
  2
C-BORDER
  0
BLOCK_RECORD
  5
3B3
100
AcDbSymbolTableRecord
100
AcDbBlockTableRecord
  2
*D6
  0
BLOCK_RECORD
  5
617
100
AcDbSymbolTableRecord
100
AcDbBlockTableRecord
  2
*D7
  0
BLOCK_RECORD
  5
625
100
AcDbSymbolTableRecord
100
AcDbBlockTableRecord
  2
*D8
  0
BLOCK_RECORD
  5
64B
100
AcDbSymbolTableRecord
100
AcDbBlockTableRecord
  2
*D9
  0
BLOCK_RECORD
  5
83B
100
AcDbSymbolTableRecord
100
AcDbBlockTableRecord
  2
*U10
  0
BLOCK_RECORD
  5
856
100
AcDbSymbolTableRecord
100
AcDbBlockTableRecord
  2
AVE_RENDER
  0
BLOCK_RECORD
  5
864
100
AcDbSymbolTableRecord
100
AcDbBlockTableRecord
  2
AVE_GLOBAL
  0
ENDTAB
  0
ENDSEC
  0
SECTION
  2
BLOCKS
  0
BLOCK
  5
4
100
AcDbEntity
  8
0
100
AcDbBlockBegin
  2
*MODEL_SPACE
 70
     0
 10
0.0
 20
0.0
 30
0.0
  3
*MODEL_SPACE
  1

  0
ENDBLK
  5
5
100
AcDbEntity
  8
0
100
AcDbBlockEnd
  0
BLOCK
  5
6
100
AcDbEntity
 67
     1
  8
0
100
AcDbBlockBegin
  2
*PAPER_SPACE
 70
     0
 10
0.0
 20
0.0
 30
0.0
  3
*PAPER_SPACE
  1

  0
ENDBLK
  5
7
100
AcDbEntity
 67
     1
  8
0
100
AcDbBlockEnd
  0
BLOCK
  5
7E4
100
AcDbEntity
  8
0
100
AcDbBlockBegin
  2
*D0
 70
    65
 10
0.0
 20
0.0
 30
0.0
  3
*D0
  1

  0
LINE
  5
7E5
100
AcDbEntity
  8
0
  6
BYBLOCK
 62
     0
100
AcDbLine
 10
337.240325
 20
198.252448
 30
0.0
 11
349.318612
 21
198.252448
 31
0.0
  0
LINE
  5
7E6
100
AcDbEntity
  8
0
  6
BYBLOCK
 62
     0
100
AcDbLine
 10
337.240325
 20
204.674248
 30
0.0
 11
349.318612
 21
204.674248
 31
0.0
  0
LINE
  5
7E7
100
AcDbEntity
  8
0
  6
BYBLOCK
 62
     0
100
AcDbLine
 10
347.518612
 20
196.452448
 30
0.0
 11
347.518612
 21
194.652448
 31
0.0
  0
LINE
  5
7E8
100
AcDbEntity
  8
0
  6
BYBLOCK
 62
     0
100
AcDbLine
 10
347.518612
 20
206.474248
 30
0.0
 11
347.518612
 21
207.374248
 31
0.0
  0
LINE
  5
7E9
100
AcDbEntity
  8
0
  6
BYBLOCK
 62
     0
100
AcDbLine
 10
347.518612
 20
207.374248
 30
0.0
 11
349.318612
 21
207.374248
 31
0.0
  0
SOLID
  5
7EA
100
AcDbEntity
  8
0
  6
BYBLOCK
 62
     0
100
AcDbTrace
 10
347.218612
 20
196.452448
 30
0.0
 11
347.818612
 21
196.452448
 31
0.0
 12
347.518612
 22
198.252448
 32
0.0
 13
347.518612
 23
198.252448
 33
0.0
  0
SOLID
  5
7EB
100
AcDbEntity
  8
0
  6
BYBLOCK
 62
     0
100
AcDbTrace
 10
347.218612
 20
206.474248
 30
0.0
 11
347.818612
 21
206.474248
 31
0.0
 12
347.518612
 22
204.674248
 32
0.0
 13
347.518612
 23
204.674248
 33
0.0
  0
MTEXT
  5
7EC
100
AcDbEntity
  8
0
  6
BYBLOCK
 62
     0
100
AcDbMText
 10
386.318612
 20
207.374248
 30
0.0
 40
3.0
 41
0.0
 71
     5
 72
     1
  1
\A1;6.42mm\S 0.00mm^ -0.08mm;{\o\l\H7.200000;[}0.253"\S 0.000"^ -0.003";{\o\l\H7.200000;]}
  0
POINT
  5
7ED
100
AcDbEntity
  8
DEFPOINTS
  6
BYBLOCK
 62
     0
100
AcDbPoint
 10
336.615325
 20
198.252448
 30
0.0
  0
POINT
  5
7EE
100
AcDbEntity
  8
DEFPOINTS
  6
BYBLOCK
 62
     0
100
AcDbPoint
 10
336.615325
 20
204.674248
 30
0.0
  0
POINT
  5
7EF
100
AcDbEntity
  8
DEFPOINTS
  6
BYBLOCK
 62
     0
100
AcDbPoint
 10
347.518612
 20
204.674248
 30
0.0
  0
ENDBLK
  5
7F0
100
AcDbEntity
  8
0
100
AcDbBlockEnd
  0
BLOCK
  5
63F
100
AcDbEntity
  8
0
100
AcDbBlockBegin
  2
*D1
 70
    65
 10
0.0
 20
0.0
 30
0.0
  3
*D1
  1

  0
LINE
  5
640
100
AcDbEntity
  8
0
  6
BYBLOCK
 62
     0
100
AcDbLine
 10
222.541448
 20
200.806567
 30
0.0
 11
242.8154
 21
219.210625
 31
0.0
  0
LINE
  5
641
100
AcDbEntity
  8
0
  6
BYBLOCK
 62
     0
100
AcDbLine
 10
242.8154
 20
219.210625
 30
0.0
 11
244.6154
 21
219.210625
 31
0.0
  0
SOLID
  5
642
100
AcDbEntity
  8
0
  6
BYBLOCK
 62
     0
100
AcDbTrace
 10
222.339807
 20
201.028695
 30
0.0
 11
222.743089
 21
200.584439
 31
0.0
 12
221.208679
 22
199.596721
 32
0.0
 13
221.208679
 23
199.596721
 33
0.0
  0
MTEXT
  5
643
100
AcDbEntity
  8
0
  6
BYBLOCK
 62
     0
100
AcDbMText
 10
264.5154
 20
219.210625
 30
0.0
 40
3.0
 41
0.0
 71
     5
 72
     1
  1
\A1;R2.00mm[0.079"]
  0
LINE
  5
644
100
AcDbEntity
  8
0
  6
BYBLOCK
 62
     0
100
AcDbLine
 10
218.827825
 20
198.252448
 30
0.0
 11
220.627825
 21
198.252448
 31
0.0
  0
LINE
  5
645
100
AcDbEntity
  8
0
  6
BYBLOCK
 62
     0
100
AcDbLine
 10
219.727825
 20
197.352448
 30
0.0
 11
219.727825
 21
199.152448
 31
0.0
  0
POINT
  5
646
100
AcDbEntity
  8
DEFPOINTS
  6
BYBLOCK
 62
     0
100
AcDbPoint
 10
221.208679
 20
199.596721
 30
0.0
  0
POINT
  5
647
100
AcDbEntity
  8
DEFPOINTS
  6
BYBLOCK
 62
     0
100
AcDbPoint
 10
219.727825
 20
198.252448
 30
0.0
  0
ENDBLK
  5
648
100
AcDbEntity
  8
0
100
AcDbBlockEnd
  0
BLOCK
  5
70D
100
AcDbEntity
  8
0
100
AcDbBlockBegin
  2
*D2
 70
    65
 10
0.0
 20
0.0
 30
0.0
  3
*D2
  1

  0
LINE
  5
70E
100
AcDbEntity
  8
0
  6
BYBLOCK
 62
     0
100
AcDbLine
 10
220.227825
 20
196.727448
 30
0.0
 11
220.227825
 21
163.353558
 31
0.0
  0
LINE
  5
70F
100
AcDbEntity
  8
0
  6
BYBLOCK
 62
     0
100
AcDbLine
 10
336.615325
 20
197.627448
 30
0.0
 11
336.615325
 21
163.353558
 31
0.0
  0
LINE
  5
710
100
AcDbEntity
  8
0
  6
BYBLOCK
 62
     0
100
AcDbLine
 10
222.027825
 20
165.153558
 30
0.0
 11
285.956268
 21
165.153558
 31
0.0
  0
LINE
  5
711
100
AcDbEntity
  8
0
  6
BYBLOCK
 62
     0
100
AcDbLine
 10
334.815325
 20
165.153558
 30
0.0
 11
325.756268
 21
165.153558
 31
0.0
  0
SOLID
  5
712
100
AcDbEntity
  8
0
  6
BYBLOCK
 62
     0
100
AcDbTrace
 10
222.027825
 20
165.453558
 30
0.0
 11
222.027825
 21
164.853558
 31
0.0
 12
220.227825
 22
165.153558
 32
0.0
 13
220.227825
 23
165.153558
 33
0.0
  0
SOLID
  5
713
100
AcDbEntity
  8
0
  6
BYBLOCK
 62
     0
100
AcDbTrace
 10
334.815325
 20
165.453558
 30
0.0
 11
334.815325
 21
164.853558
 31
0.0
 12
336.615325
 22
165.153558
 32
0.0
 13
336.615325
 23
165.153558
 33
0.0
  0
MTEXT
  5
714
100
AcDbEntity
  8
0
  6
BYBLOCK
 62
     0
100
AcDbMText
 10
305.856268
 20
165.153558
 30
0.0
 40
3.0
 41
0.0
 71
     5
 72
     1
  1
\A1;116.39mm[4.582"]
  0
POINT
  5
715
100
AcDbEntity
  8
DEFPOINTS
  6
BYBLOCK
 62
     0
100
AcDbPoint
 10
220.227825
 20
197.352448
 30
0.0
  0
POINT
  5
716
100
AcDbEntity
  8
DEFPOINTS
  6
BYBLOCK
 62
     0
100
AcDbPoint
 10
336.615325
 20
198.252448
 30
0.0
  0
POINT
  5
717
100
AcDbEntity
  8
DEFPOINTS
  6
BYBLOCK
 62
     0
100
AcDbPoint
 10
336.615325
 20
165.153558
 30
0.0
  0
ENDBLK
  5
718
100
AcDbEntity
  8
0
100
AcDbBlockEnd
  0
BLOCK
  5
701
100
AcDbEntity
  8
0
100
AcDbBlockBegin
  2
*D3
 70
    65
 10
0.0
 20
0.0
 30
0.0
  3
*D3
  1

  0
LINE
  5
702
100
AcDbEntity
  8
0
  6
BYBLOCK
 62
     0
100
AcDbLine
 10
216.227825
 20
196.727448
 30
0.0
 11
216.227825
 21
152.593768
 31
0.0
  0
LINE
  5
703
100
AcDbEntity
  8
0
  6
BYBLOCK
 62
     0
100
AcDbLine
 10
336.615325
 20
197.627448
 30
0.0
 11
336.615325
 21
152.593768
 31
0.0
  0
LINE
  5
704
100
AcDbEntity
  8
0
  6
BYBLOCK
 62
     0
100
AcDbLine
 10
218.027825
 20
154.393768
 30
0.0
 11
290.82248
 21
154.393768
 31
0.0
  0
LINE
  5
705
100
AcDbEntity
  8
0
  6
BYBLOCK
 62
     0
100
AcDbLine
 10
334.815325
 20
154.393768
 30
0.0
 11
330.62248
 21
154.393768
 31
0.0
  0
SOLID
  5
706
100
AcDbEntity
  8
0
  6
BYBLOCK
 62
     0
100
AcDbTrace
 10
218.027825
 20
154.693768
 30
0.0
 11
218.027825
 21
154.093768
 31
0.0
 12
216.227825
 22
154.393768
 32
0.0
 13
216.227825
 23
154.393768
 33
0.0
  0
SOLID
  5
707
100
AcDbEntity
  8
0
  6
BYBLOCK
 62
     0
100
AcDbTrace
 10
334.815325
 20
154.693768
 30
0.0
 11
334.815325
 21
154.093768
 31
0.0
 12
336.615325
 22
154.393768
 32
0.0
 13
336.615325
 23
154.393768
 33
0.0
  0
MTEXT
  5
708
100
AcDbEntity
  8
0
  6
BYBLOCK
 62
     0
100
AcDbMText
 10
310.72248
 20
154.393768
 30
0.0
 40
3.0
 41
0.0
 71
     5
 72
     1
  1
\A1;120.39mm[4.740"]
  0
POINT
  5
709
100
AcDbEntity
  8
DEFPOINTS
  6
BYBLOCK
 62
     0
100
AcDbPoint
 10
216.227825
 20
197.352448
 30
0.0
  0
POINT
  5
70A
100
AcDbEntity
  8
DEFPOINTS
  6
BYBLOCK
 62
     0
100
AcDbPoint
 10
336.615325
 20
198.252448
 30
0.0
  0
POINT
  5
70B
100
AcDbEntity
  8
DEFPOINTS
  6
BYBLOCK
 62
     0
100
AcDbPoint
 10
336.615325
 20
154.393768
 30
0.0
  0
ENDBLK
  5
70C
100
AcDbEntity
  8
0
100
AcDbBlockEnd
  0
BLOCK
  5
6B8
100
AcDbEntity
  8
0
100
AcDbBlockBegin
  2
*D4
 70
    65
 10
0.0
 20
0.0
 30
0.0
  3
*D4
  1

  0
LINE
  5
6B9
100
AcDbEntity
  8
0
  6
BYBLOCK
 62
     0
100
AcDbLine
 10
184.790325
 20
197.627448
 30
0.0
 11
184.790325
 21
141.944892
 31
0.0
  0
LINE
  5
6BA
100
AcDbEntity
  8
0
  6
BYBLOCK
 62
     0
100
AcDbLine
 10
336.615325
 20
197.627448
 30
0.0
 11
336.615325
 21
141.944892
 31
0.0
  0
LINE
  5
6BB
100
AcDbEntity
  8
0
  6
BYBLOCK
 62
     0
100
AcDbLine
 10
186.590325
 20
143.744892
 30
0.0
 11
280.547724
 21
143.744892
 31
0.0
  0
LINE
  5
6BC
100
AcDbEntity
  8
0
  6
BYBLOCK
 62
     0
100
AcDbLine
 10
334.815325
 20
143.744892
 30
0.0
 11
320.347724
 21
143.744892
 31
0.0
  0
SOLID
  5
6BD
100
AcDbEntity
  8
0
  6
BYBLOCK
 62
     0
100
AcDbTrace
 10
186.590325
 20
144.044892
 30
0.0
 11
186.590325
 21
143.444892
 31
0.0
 12
184.790325
 22
143.744892
 32
0.0
 13
184.790325
 23
143.744892
 33
0.0
  0
SOLID
  5
6BE
100
AcDbEntity
  8
0
  6
BYBLOCK
 62
     0
100
AcDbTrace
 10
334.815325
 20
144.044892
 30
0.0
 11
334.815325
 21
143.444892
 31
0.0
 12
336.615325
 22
143.744892
 32
0.0
 13
336.615325
 23
143.744892
 33
0.0
  0
MTEXT
  5
6BF
100
AcDbEntity
  8
0
  6
BYBLOCK
 62
     0
100
AcDbMText
 10
300.447724
 20
143.744892
 30
0.0
 40
3.0
 41
0.0
 71
     5
 72
     1
  1
\A1;151.83mm[5.977"]
  0
POINT
  5
6C0
100
AcDbEntity
  8
DEFPOINTS
  6
BYBLOCK
 62
     0
100
AcDbPoint
 10
184.790325
 20
198.252448
 30
0.0
  0
POINT
  5
6C1
100
AcDbEntity
  8
DEFPOINTS
  6
BYBLOCK
 62
     0
100
AcDbPoint
 10
336.615325
 20
198.252448
 30
0.0
  0
POINT
  5
6C2
100
AcDbEntity
  8
DEFPOINTS
  6
BYBLOCK
 62
     0
100
AcDbPoint
 10
336.615325
 20
143.744892
 30
0.0
  0
ENDBLK
  5
6C3
100
AcDbEntity
  8
0
100
AcDbBlockEnd
  0
BLOCK
  5
17D
100
AcDbEntity
  8
TEXT
100
AcDbBlockBegin
  2
C-BORDER
 70
     0
 10
0.0
 20
0.0
 30
0.0
  3
C-BORDER
  1

  0
LINE
  5
76D
100
AcDbEntity
  8
TEXT
100
AcDbLine
 10
0.5
 20
14.875
 30
0.0
 11
3.0625
 21
14.875
 31
0.0
  0
LINE
  5
76E
100
AcDbEntity
  8
TEXT
100
AcDbLine
 10
3.0625
 20
14.875
 30
0.0
 11
3.0625
 21
15.375
 31
0.0
  0
CIRCLE
  5
76F
100
AcDbEntity
  8
TEXT
100
AcDbCircle
 10
1.177871
 20
15.111461
 30
0.0
 40
0.1875
  0
CIRCLE
  5
770
100
AcDbEntity
  8
TEXT
100
AcDbCircle
 10
1.177871
 20
15.111461
 30
0.0
 40
0.09375
  0
LINE
  5
771
100
AcDbEntity
  8
TEXT
  6
CENTER
100
AcDbLine
 10
0.943951
 20
15.111461
 30
0.0
 11
2.396621
 21
15.111461
 31
0.0
  0
LINE
  5
772
100
AcDbEntity
  8
TEXT
  6
CENTER
100
AcDbLine
 10
1.177871
 20
14.882779
 30
0.0
 11
1.177871
 21
15.350656
 31
0.0
  0
LINE
  5
773
100
AcDbEntity
  8
TEXT
100
AcDbLine
 10
1.646621
 20
15.205211
 30
0.0
 11
2.131263
 21
15.298961
 31
0.0
  0
LINE
  5
774
100
AcDbEntity
  8
TEXT
100
AcDbLine
 10
1.646621
 20
15.017711
 30
0.0
 11
2.131263
 21
14.923961
 31
0.0
  0
LINE
  5
775
100
AcDbEntity
  8
TEXT
100
AcDbLine
 10
1.646621
 20
15.017711
 30
0.0
 11
1.646621
 21
15.205211
 31
0.0
  0
LINE
  5
776
100
AcDbEntity
  8
TEXT
100
AcDbLine
 10
2.131263
 20
15.298961
 30
0.0
 11
2.131263
 21
14.923961
 31
0.0
  0
TEXT
  5
777
100
AcDbEntity
  8
TEXT
100
AcDbText
 10
0.6875
 20
14.689828
 30
0.0
 40
0.1
  1
THIRD ANGLE PROJECTION
100
AcDbText
  0
LINE
  5
778
100
AcDbEntity
  8
TEXT
100
AcDbLine
 10
3.0625
 20
14.875
 30
0.0
 11
3.0625
 21
14.625
 31
0.0
  0
LINE
  5
779
100
AcDbEntity
  8
TEXT
100
AcDbLine
 10
3.0625
 20
14.625
 30
0.0
 11
0.5
 21
14.625
 31
0.0
  0
TEXT
  5
77A
100
AcDbEntity
  8
TEXT
100
AcDbText
 10
15.40792
 20
1.861505
 30
0.0
 40
0.065
  1
  %%P 0.5%%D
  7
ADESK2
100
AcDbText
  0
TEXT
  5
77B
100
AcDbEntity
  8
TEXT
100
AcDbText
 10
15.40792
 20
1.966743
 30
0.0
 40
0.065
  1
ANGULAR
  7
ADESK2
100
AcDbText
  0
TEXT
  5
77C
100
AcDbEntity
  8
TEXT
100
AcDbText
 10
14.61466
 20
1.653744
 30
0.0
 40
0.065
  1
DO NOT SCALE DRAWING
  7
ADESK2
 72
     1
 11
15.229065
 21
1.653744
 31
0.0
100
AcDbText
  0
TEXT
  5
77D
100
AcDbEntity
  8
TEXT
100
AcDbText
 10
14.544023
 20
1.756267
 30
0.0
 40
0.065
  1
.XXX %%P .005
  7
ADESK2
100
AcDbText
  0
TEXT
  5
77E
100
AcDbEntity
  8
TEXT
100
AcDbText
 10
14.544023
 20
1.861505
 30
0.0
 40
0.065
  1
.XX  %%P .05
  7
ADESK2
100
AcDbText
  0
TEXT
  5
77F
100
AcDbEntity
  8
TEXT
100
AcDbText
 10
14.544023
 20
1.966743
 30
0.0
 40
0.065
  1
DECIMALS
  7
ADESK2
100
AcDbText
  0
TEXT
  5
780
100
AcDbEntity
  8
TEXT
100
AcDbText
 10
14.930374
 20
2.074613
 30
0.0
 40
0.065
  1
TOLERANCES
  7
ADESK2
 72
     1
 11
15.229065
 21
2.074613
 31
0.0
100
AcDbText
  0
TEXT
  5
781
100
AcDbEntity
  8
TEXT
100
AcDbText
 10
14.532636
 20
2.179851
 30
0.0
 40
0.065
  1
DIMENSIONS ARE IN INCHES
  7
ADESK2
 72
     1
 11
15.229065
 21
2.179851
 31
0.0
100
AcDbText
  0
TEXT
  5
782
100
AcDbEntity
  8
TEXT
100
AcDbText
 10
14.458351
 20
2.285089
 30
0.0
 40
0.065
  1
UNLESS OTHERWISE SPECIFIED:
  7
ADESK2
 72
     1
 11
15.229065
 21
2.285089
 31
0.0
100
AcDbText
  0
TEXT
  5
783
100
AcDbEntity
  8
BORDER
100
AcDbText
 10
16.916608
 20
2.075566
 30
0.0
 40
0.15
  1
HIGH ENERGY PHYSICS
100
AcDbText
  0
LINE
  5
784
100
AcDbEntity
  8
BORDER
100
AcDbLine
 10
0.5
 20
15.375
 30
0.0
 11
20.5
 21
15.375
 31
0.0
  0
TEXT
  5
785
100
AcDbEntity
  8
TEXT
100
AcDbText
 10
16.680137
 20
1.165354
 30
0.0
 40
0.075
  1
DIRECTORY
100
AcDbText
  0
TEXT
  5
786
100
AcDbEntity
  8
BORDER
100
AcDbText
 10
16.367704
 20
0.951962
 30
0.0
 40
0.15
  1
C
100
AcDbText
  0
LINE
  5
787
100
AcDbEntity
  8
BORDER
100
AcDbLine
 10
0.5
 20
0.625
 30
0.0
 11
20.5
 21
0.625
 31
0.0
  0
LINE
  5
788
100
AcDbEntity
  8
BORDER
100
AcDbLine
 10
0.5
 20
15.375
 30
0.0
 11
0.5
 21
0.625
 31
0.0
  0
LINE
  5
789
100
AcDbEntity
  8
BORDER
100
AcDbLine
 10
20.5
 20
0.625
 30
0.0
 11
20.5
 21
15.375
 31
0.0
  0
LINE
  5
78A
100
AcDbEntity
  8
BORDER
100
AcDbLine
 10
14.228025
 20
2.824147
 30
0.0
 11
20.500862
 21
2.824147
 31
0.0
  0
TEXT
  5
78B
100
AcDbEntity
  8
BORDER
100
AcDbText
 10
14.407029
 20
2.549228
 30
0.0
 40
0.15
  1
UNIVERSITY OF CALIFORNIA @ SANTA BARBARA
100
AcDbText
  0
TEXT
  5
78C
100
AcDbEntity
  8
TEXT
100
AcDbText
 10
14.297375
 20
1.479964
 30
0.0
 40
0.065
  1
DRAWN
  7
ADESK2
100
AcDbText
  0
LINE
  5
78D
100
AcDbEntity
  8
BORDER
100
AcDbLine
 10
14.229065
 20
0.625
 30
0.0
 11
14.229065
 21
2.824147
 31
0.0
  0
LINE
  5
78E
100
AcDbEntity
  8
BORDER
100
AcDbLine
 10
14.229065
 20
2.401501
 30
0.0
 11
20.500862
 21
2.401501
 31
0.0
  0
LINE
  5
78F
100
AcDbEntity
  8
TEXT
100
AcDbLine
 10
14.229065
 20
0.966501
 30
0.0
 11
16.229065
 21
0.966501
 31
0.0
  0
LINE
  5
790
100
AcDbEntity
  8
TEXT
100
AcDbLine
 10
14.229065
 20
1.281501
 30
0.0
 11
20.500862
 21
1.281501
 31
0.0
  0
LINE
  5
791
100
AcDbEntity
  8
TEXT
100
AcDbLine
 10
16.229065
 20
0.901501
 30
0.0
 11
20.500862
 21
0.901501
 31
0.0
  0
LINE
  5
792
100
AcDbEntity
  8
BORDER
100
AcDbLine
 10
16.229065
 20
1.901501
 30
0.0
 11
20.500862
 21
1.901501
 31
0.0
  0
LINE
  5
793
100
AcDbEntity
  8
BORDER
100
AcDbLine
 10
16.229065
 20
0.625
 30
0.0
 11
16.229065
 21
2.401501
 31
0.0
  0
LINE
  5
794
100
AcDbEntity
  8
TEXT
100
AcDbLine
 10
17.229065
 20
0.625
 30
0.0
 11
17.229065
 21
0.901501
 31
0.0
  0
LINE
  5
795
100
AcDbEntity
  8
TEXT
100
AcDbLine
 10
18.729065
 20
0.625
 30
0.0
 11
18.729065
 21
0.901501
 31
0.0
  0
LINE
  5
796
100
AcDbEntity
  8
TEXT
100
AcDbLine
 10
16.609065
 20
0.901501
 30
0.0
 11
16.609065
 21
1.281501
 31
0.0
  0
LINE
  5
797
100
AcDbEntity
  8
TEXT
100
AcDbLine
 10
17.729065
 20
0.901501
 30
0.0
 11
17.729065
 21
1.281501
 31
0.0
  0
LINE
  5
798
100
AcDbEntity
  8
TEXT
100
AcDbLine
 10
20.099065
 20
0.901501
 30
0.0
 11
20.099065
 21
1.281501
 31
0.0
  0
TEXT
  5
799
100
AcDbEntity
  8
TEXT
100
AcDbText
 10
16.281365
 20
0.744001
 30
0.0
 40
0.065
  1
SCALE
  7
ADESK2
100
AcDbText
  0
TEXT
  5
79A
100
AcDbEntity
  8
TEXT
100
AcDbText
 10
18.781865
 20
0.744001
 30
0.0
 40
0.065
  1
SHEET
  7
ADESK2
100
AcDbText
  0
TEXT
  5
79B
100
AcDbEntity
  8
TEXT
100
AcDbText
 10
16.316965
 20
1.167401
 30
0.0
 40
0.065
  1
SIZE
  7
ADESK2
100
AcDbText
  0
TEXT
  5
79C
100
AcDbEntity
  8
TEXT
100
AcDbText
 10
17.800065
 20
1.167401
 30
0.0
 40
0.065
  1
DWG NO.
  7
ADESK2
100
AcDbText
  0
TEXT
  5
79D
100
AcDbEntity
  8
TEXT
100
AcDbText
 10
20.179565
 20
1.167401
 30
0.0
 40
0.065
  1
REV
  7
ADESK2
100
AcDbText
  0
LINE
  5
79E
100
AcDbEntity
  8
TEXT
100
AcDbLine
 10
15.445694
 20
15.018795
 30
0.0
 11
20.5
 21
15.018795
 31
0.0
  0
LINE
  5
79F
100
AcDbEntity
  8
TEXT
100
AcDbLine
 10
15.445694
 20
14.768795
 30
0.0
 11
20.5
 21
14.768795
 31
0.0
  0
LINE
  5
7A0
100
AcDbEntity
  8
TEXT
100
AcDbLine
 10
15.445694
 20
15.328859
 30
0.0
 11
15.445694
 21
14.768795
 31
0.0
  0
LINE
  5
7A1
100
AcDbEntity
  8
TEXT
100
AcDbLine
 10
15.835946
 20
14.768795
 30
0.0
 11
15.835946
 21
15.018795
 31
0.0
  0
LINE
  5
7A2
100
AcDbEntity
  8
TEXT
100
AcDbLine
 10
18.575946
 20
14.768795
 30
0.0
 11
18.575946
 21
15.018795
 31
0.0
  0
LINE
  5
7A3
100
AcDbEntity
  8
TEXT
100
AcDbLine
 10
19.455946
 20
14.768795
 30
0.0
 11
19.455946
 21
15.018795
 31
0.0
  0
TEXT
  5
7A4
100
AcDbEntity
  8
TEXT
100
AcDbText
 10
17.666146
 20
15.101295
 30
0.0
 40
0.065
  1
REVISIONS
  7
ADESK2
100
AcDbText
  0
TEXT
  5
7A5
100
AcDbEntity
  8
TEXT
100
AcDbText
 10
15.536046
 20
14.859095
 30
0.0
 40
0.065
  1
REV
  7
ADESK2
100
AcDbText
  0
TEXT
  5
7A6
100
AcDbEntity
  8
TEXT
100
AcDbText
 10
16.837946
 20
14.859095
 30
0.0
 40
0.065
  1
DESCRIPTION
  7
ADESK2
100
AcDbText
  0
TEXT
  5
7A7
100
AcDbEntity
  8
TEXT
100
AcDbText
 10
18.903646
 20
14.859095
 30
0.0
 40
0.065
  1
DATE
  7
ADESK2
100
AcDbText
  0
TEXT
  5
7A8
100
AcDbEntity
  8
TEXT
100
AcDbText
 10
19.697346
 20
14.859095
 30
0.0
 40
0.065
  1
APPROVED
  7
ADESK2
100
AcDbText
  0
LINE
  5
7A9
100
AcDbEntity
  8
TEXT
100
AcDbLine
 10
14.229065
 20
1.591501
 30
0.0
 11
16.229065
 21
1.591501
 31
0.0
  0
TEXT
  5
7AA
100
AcDbEntity
  8
TEXT
100
AcDbText
 10
14.309065
 20
1.171501
 30
0.0
 40
0.065
  1
CHECKED
  7
ADESK2
100
AcDbText
  0
TEXT
  5
7AB
100
AcDbEntity
  8
TEXT
100
AcDbText
 10
14.309065
 20
0.856501
 30
0.0
 40
0.065
  1
DESIGN
  7
ADESK2
100
AcDbText
  0
LINE
  5
7AC
100
AcDbEntity
  8
TEXT
100
AcDbLine
 10
15.729049
 20
1.591501
 30
0.0
 11
15.729049
 21
0.625
 31
0.0
  0
TEXT
  5
7AD
100
AcDbEntity
  8
TEXT
100
AcDbText
 10
15.852468
 20
1.474951
 30
0.0
 40
0.065
  1
DATE
  7
ADESK2
100
AcDbText
  0
TEXT
  5
7AE
100
AcDbEntity
  8
TEXT
100
AcDbText
 10
19.612036
 20
0.744377
 30
0.0
 40
0.065
  1
OF
  7
ADESK2
100
AcDbText
  0
ENDBLK
  5
17E
100
AcDbEntity
  8
TEXT
100
AcDbBlockEnd
  0
BLOCK
  5
6D1
100
AcDbEntity
  8
0
100
AcDbBlockBegin
  2
*D6
 70
    65
 10
0.0
 20
0.0
 30
0.0
  3
*D6
  1

  0
LINE
  5
6D2
100
AcDbEntity
  8
0
  6
BYBLOCK
 62
     0
100
AcDbLine
 10
173.173576
 20
205.299248
 30
0.0
 11
173.173576
 21
233.745706
 31
0.0
  0
LINE
  5
6D3
100
AcDbEntity
  8
0
  6
BYBLOCK
 62
     0
100
AcDbLine
 10
336.615325
 20
205.299248
 30
0.0
 11
336.615325
 21
233.745706
 31
0.0
  0
LINE
  5
6D4
100
AcDbEntity
  8
0
  6
BYBLOCK
 62
     0
100
AcDbLine
 10
174.973576
 20
231.945706
 30
0.0
 11
234.494451
 21
231.945706
 31
0.0
  0
LINE
  5
6D5
100
AcDbEntity
  8
0
  6
BYBLOCK
 62
     0
100
AcDbLine
 10
334.815325
 20
231.945706
 30
0.0
 11
275.294451
 21
231.945706
 31
0.0
  0
SOLID
  5
6D6
100
AcDbEntity
  8
0
  6
BYBLOCK
 62
     0
100
AcDbTrace
 10
174.973576
 20
232.245706
 30
0.0
 11
174.973576
 21
231.645706
 31
0.0
 12
173.173576
 22
231.945706
 32
0.0
 13
173.173576
 23
231.945706
 33
0.0
  0
SOLID
  5
6D7
100
AcDbEntity
  8
0
  6
BYBLOCK
 62
     0
100
AcDbTrace
 10
334.815325
 20
232.245706
 30
0.0
 11
334.815325
 21
231.645706
 31
0.0
 12
336.615325
 22
231.945706
 32
0.0
 13
336.615325
 23
231.945706
 33
0.0
  0
MTEXT
  5
6D8
100
AcDbEntity
  8
0
  6
BYBLOCK
 62
     0
100
AcDbMText
 10
254.894451
 20
231.945706
 30
0.0
 40
3.0
 41
0.0
 71
     5
 72
     1
  1
\A1;163.44mm[6.435"]
  0
POINT
  5
6D9
100
AcDbEntity
  8
DEFPOINTS
  6
BYBLOCK
 62
     0
100
AcDbPoint
 10
173.173576
 20
204.674248
 30
0.0
  0
POINT
  5
6DA
100
AcDbEntity
  8
DEFPOINTS
  6
BYBLOCK
 62
     0
100
AcDbPoint
 10
336.615325
 20
204.674248
 30
0.0
  0
POINT
  5
6DB
100
AcDbEntity
  8
DEFPOINTS
  6
BYBLOCK
 62
     0
100
AcDbPoint
 10
336.615325
 20
231.945706
 30
0.0
  0
ENDBLK
  5
6DC
100
AcDbEntity
  8
0
100
AcDbBlockEnd
  0
BLOCK
  5
6F5
100
AcDbEntity
  8
0
100
AcDbBlockBegin
  2
*D7
 70
    65
 10
0.0
 20
0.0
 30
0.0
  3
*D7
  1

  0
LINE
  5
6F6
100
AcDbEntity
  8
0
  6
BYBLOCK
 62
     0
100
AcDbLine
 10
305.177825
 20
196.727448
 30
0.0
 11
305.177825
 21
185.536086
 31
0.0
  0
LINE
  5
6F7
100
AcDbEntity
  8
0
  6
BYBLOCK
 62
     0
100
AcDbLine
 10
336.615325
 20
197.627448
 30
0.0
 11
336.615325
 21
185.536086
 31
0.0
  0
LINE
  5
6F8
100
AcDbEntity
  8
0
  6
BYBLOCK
 62
     0
100
AcDbLine
 10
303.377825
 20
187.336086
 30
0.0
 11
301.577825
 21
187.336086
 31
0.0
  0
LINE
  5
6F9
100
AcDbEntity
  8
0
  6
BYBLOCK
 62
     0
100
AcDbLine
 10
338.415325
 20
187.336086
 30
0.0
 11
342.215325
 21
187.336086
 31
0.0
  0
SOLID
  5
6FA
100
AcDbEntity
  8
0
  6
BYBLOCK
 62
     0
100
AcDbTrace
 10
303.377825
 20
187.636086
 30
0.0
 11
303.377825
 21
187.036086
 31
0.0
 12
305.177825
 22
187.336086
 32
0.0
 13
305.177825
 23
187.336086
 33
0.0
  0
SOLID
  5
6FB
100
AcDbEntity
  8
0
  6
BYBLOCK
 62
     0
100
AcDbTrace
 10
338.415325
 20
187.636086
 30
0.0
 11
338.415325
 21
187.036086
 31
0.0
 12
336.615325
 22
187.336086
 32
0.0
 13
336.615325
 23
187.336086
 33
0.0
  0
MTEXT
  5
6FC
100
AcDbEntity
  8
0
  6
BYBLOCK
 62
     0
100
AcDbMText
 10
360.615325
 20
187.336086
 30
0.0
 40
3.0
 41
0.0
 71
     5
 72
     1
  1
\A1;31.44mm[1.238"]
  0
POINT
  5
6FD
100
AcDbEntity
  8
DEFPOINTS
  6
BYBLOCK
 62
     0
100
AcDbPoint
 10
305.177825
 20
197.352448
 30
0.0
  0
POINT
  5
6FE
100
AcDbEntity
  8
DEFPOINTS
  6
BYBLOCK
 62
     0
100
AcDbPoint
 10
336.615325
 20
198.252448
 30
0.0
  0
POINT
  5
6FF
100
AcDbEntity
  8
DEFPOINTS
  6
BYBLOCK
 62
     0
100
AcDbPoint
 10
336.615325
 20
187.336086
 30
0.0
  0
ENDBLK
  5
700
100
AcDbEntity
  8
0
100
AcDbBlockEnd
  0
BLOCK
  5
6E9
100
AcDbEntity
  8
0
100
AcDbBlockBegin
  2
*D8
 70
    65
 10
0.0
 20
0.0
 30
0.0
  3
*D8
  1

  0
LINE
  5
6EA
100
AcDbEntity
  8
0
  6
BYBLOCK
 62
     0
100
AcDbLine
 10
301.177825
 20
196.727448
 30
0.0
 11
301.177825
 21
175.699263
 31
0.0
  0
LINE
  5
6EB
100
AcDbEntity
  8
0
  6
BYBLOCK
 62
     0
100
AcDbLine
 10
336.615325
 20
197.627448
 30
0.0
 11
336.615325
 21
175.699263
 31
0.0
  0
LINE
  5
6EC
100
AcDbEntity
  8
0
  6
BYBLOCK
 62
     0
100
AcDbLine
 10
299.377825
 20
177.499263
 30
0.0
 11
297.577825
 21
177.499263
 31
0.0
  0
LINE
  5
6ED
100
AcDbEntity
  8
0
  6
BYBLOCK
 62
     0
100
AcDbLine
 10
338.415325
 20
177.499263
 30
0.0
 11
341.715325
 21
177.499263
 31
0.0
  0
SOLID
  5
6EE
100
AcDbEntity
  8
0
  6
BYBLOCK
 62
     0
100
AcDbTrace
 10
299.377825
 20
177.799263
 30
0.0
 11
299.377825
 21
177.199263
 31
0.0
 12
301.177825
 22
177.499263
 32
0.0
 13
301.177825
 23
177.499263
 33
0.0
  0
SOLID
  5
6EF
100
AcDbEntity
  8
0
  6
BYBLOCK
 62
     0
100
AcDbTrace
 10
338.415325
 20
177.799263
 30
0.0
 11
338.415325
 21
177.199263
 31
0.0
 12
336.615325
 22
177.499263
 32
0.0
 13
336.615325
 23
177.499263
 33
0.0
  0
MTEXT
  5
6F0
100
AcDbEntity
  8
0
  6
BYBLOCK
 62
     0
100
AcDbMText
 10
360.615325
 20
177.499263
 30
0.0
 40
3.0
 41
0.0
 71
     5
 72
     1
  1
\A1;35.44mm[1.395"]
  0
POINT
  5
6F1
100
AcDbEntity
  8
DEFPOINTS
  6
BYBLOCK
 62
     0
100
AcDbPoint
 10
301.177825
 20
197.352448
 30
0.0
  0
POINT
  5
6F2
100
AcDbEntity
  8
DEFPOINTS
  6
BYBLOCK
 62
     0
100
AcDbPoint
 10
336.615325
 20
198.252448
 30
0.0
  0
POINT
  5
6F3
100
AcDbEntity
  8
DEFPOINTS
  6
BYBLOCK
 62
     0
100
AcDbPoint
 10
336.615325
 20
177.499263
 30
0.0
  0
ENDBLK
  5
6F4
100
AcDbEntity
  8
0
100
AcDbBlockEnd
  0
BLOCK
  5
719
100
AcDbEntity
  8
0
100
AcDbBlockBegin
  2
*D9
 70
    65
 10
0.0
 20
0.0
 30
0.0
  3
*D9
  1

  0
LINE
  5
71A
100
AcDbEntity
  8
0
  6
BYBLOCK
 62
     0
100
AcDbLine
 10
215.602825
 20
200.252448
 30
0.0
 11
162.251576
 21
200.252448
 31
0.0
  0
LINE
  5
71B
100
AcDbEntity
  8
0
  6
BYBLOCK
 62
     0
100
AcDbLine
 10
184.165325
 20
198.252448
 30
0.0
 11
162.251576
 21
198.252448
 31
0.0
  0
LINE
  5
71C
100
AcDbEntity
  8
0
  6
BYBLOCK
 62
     0
100
AcDbLine
 10
164.051576
 20
202.052448
 30
0.0
 11
164.051576
 21
203.852448
 31
0.0
  0
LINE
  5
71D
100
AcDbEntity
  8
0
  6
BYBLOCK
 62
     0
100
AcDbLine
 10
164.051576
 20
196.452448
 30
0.0
 11
164.051576
 21
194.652448
 31
0.0
  0
LINE
  5
71E
100
AcDbEntity
  8
0
  6
BYBLOCK
 62
     0
100
AcDbLine
 10
164.051576
 20
194.652448
 30
0.0
 11
162.251576
 21
194.652448
 31
0.0
  0
SOLID
  5
71F
100
AcDbEntity
  8
0
  6
BYBLOCK
 62
     0
100
AcDbTrace
 10
163.751576
 20
202.052448
 30
0.0
 11
164.351576
 21
202.052448
 31
0.0
 12
164.051576
 22
200.252448
 32
0.0
 13
164.051576
 23
200.252448
 33
0.0
  0
SOLID
  5
720
100
AcDbEntity
  8
0
  6
BYBLOCK
 62
     0
100
AcDbTrace
 10
163.751576
 20
196.452448
 30
0.0
 11
164.351576
 21
196.452448
 31
0.0
 12
164.051576
 22
198.252448
 32
0.0
 13
164.051576
 23
198.252448
 33
0.0
  0
MTEXT
  5
721
100
AcDbEntity
  8
0
  6
BYBLOCK
 62
     0
100
AcDbMText
 10
145.351576
 20
194.652448
 30
0.0
 40
3.0
 41
0.0
 71
     5
 72
     1
  1
\A1;2.00mm[0.079"]
  0
POINT
  5
722
100
AcDbEntity
  8
DEFPOINTS
  6
BYBLOCK
 62
     0
100
AcDbPoint
 10
216.227825
 20
200.252448
 30
0.0
  0
POINT
  5
723
100
AcDbEntity
  8
DEFPOINTS
  6
BYBLOCK
 62
     0
100
AcDbPoint
 10
184.790325
 20
198.252448
 30
0.0
  0
POINT
  5
724
100
AcDbEntity
  8
DEFPOINTS
  6
BYBLOCK
 62
     0
100
AcDbPoint
 10
164.051576
 20
198.252448
 30
0.0
  0
ENDBLK
  5
725
100
AcDbEntity
  8
0
100
AcDbBlockEnd
  0
BLOCK
  5
83C
100
AcDbEntity
  8
TEXT
100
AcDbBlockBegin
  2
*U10
 70
     1
 10
0.0
 20
0.0
 30
0.0
  3
*U10
  1

  0
ENDBLK
  5
83D
100
AcDbEntity
  8
TEXT
100
AcDbBlockEnd
  0
BLOCK
  5
857
100
AcDbEntity
  8
ASHADE
100
AcDbBlockBegin
  2
AVE_RENDER
 70
    64
 10
0.0
 20
0.0
 30
0.0
  3
AVE_RENDER
  1
AVE_RENDER
  0
ENDBLK
  5
858
100
AcDbEntity
  8
0
100
AcDbBlockEnd
  0
BLOCK
  5
865
100
AcDbEntity
  8
ASHADE
100
AcDbBlockBegin
  2
AVE_GLOBAL
 70
    64
 10
0.0
 20
0.0
 30
0.0
  3
AVE_GLOBAL
  1
AVE_GLOBAL
  0
ENDBLK
  5
866
100
AcDbEntity
  8
0
100
AcDbBlockEnd
  0
ENDSEC
  0
SECTION
  2
ENTITIES
  0
LINE
  5
1E
100
AcDbEntity
  8
KEVLAR
100
AcDbLine
 10
173.173576
 20
204.674248
 30
0.0
 11
184.790325
 21
198.252448
 31
0.0
1001
ACAD
1000
ASC_BOUNDS
1002
{
1070
    19
1005
0
1002
}
  0
LINE
  5
1F
100
AcDbEntity
  8
KEVLAR
100
AcDbLine
 10
220.227825
 20
200.252448
 30
0.0
 11
216.227825
 21
200.252448
 31
0.0
1001
ACAD
1000
ASC_BOUNDS
1002
{
1070
    19
1002
}
  0
LINE
  5
22
100
AcDbEntity
  8
KEVLAR
100
AcDbLine
 10
214.227825
 20
198.252448
 30
0.0
 11
184.790325
 21
198.252448
 31
0.0
1001
ACAD
1000
ASC_BOUNDS
1002
{
1070
    19
1002
}
  0
ARC
  5
23
100
AcDbEntity
  8
KEVLAR
100
AcDbCircle
 10
220.227825
 20
198.252448
 30
0.0
 40
2.0
100
AcDbArc
 50
0.0
 51
90.0
1001
ACAD
1000
ASC_BOUNDS
1002
{
1070
    19
1002
}
  0
ARC
  5
24
100
AcDbEntity
  8
KEVLAR
100
AcDbCircle
 10
216.227825
 20
198.252448
 30
0.0
 40
2.0
100
AcDbArc
 50
90.0
 51
180.0
1001
ACAD
1000
ASC_BOUNDS
1002
{
1070
    19
1002
}
  0
LINE
  5
28
100
AcDbEntity
  8
KEVLAR
100
AcDbLine
 10
299.177825
 20
198.252448
 30
0.0
 11
222.227825
 21
198.252448
 31
0.0
1001
ACAD
1000
ASC_BOUNDS
1002
{
1070
    19
1002
}
  0
LINE
  5
2B
100
AcDbEntity
  8
KEVLAR
100
AcDbLine
 10
336.615325
 20
204.674248
 30
0.0
 11
336.615325
 21
198.252448
 31
0.0
1001
ACAD
1000
ASC_BOUNDS
1002
{
1070
    19
1002
}
  0
LINE
  5
2C
100
AcDbEntity
  8
KEVLAR
100
AcDbLine
 10
173.173576
 20
204.674248
 30
0.0
 11
336.615325
 21
204.674248
 31
0.0
1001
ACAD
1000
ASC_BOUNDS
1002
{
1070
    19
1002
}
  0
DIMENSION
  5
6D
100
AcDbEntity
  8
DIM
100
AcDbDimension
  2
*D0
 10
347.518612
 20
204.674248
 30
0.0
 11
386.318612
 21
207.374248
 31
0.0
 70
   160
  3
STANDARD
100
AcDbAlignedDimension
 13
336.615325
 23
198.252448
 33
0.0
 14
336.615325
 24
204.674248
 34
0.0
 50
90.0
100
AcDbRotatedDimension
1001
ACAD
1000
DSTYLE
1002
{
1070
   288
1070
     1
1070
   140
1040
0.3
1070
    71
1070
     1
1070
    48
1040
0.08
1070
   272
1070
     2
1070
    40
1040
10.0
1070
     3
1000
mm
1070
   287
1070
     0
1070
   271
1070
     2
1070
     4
1000
"
1070
   274
1070
     3
1070
   143
1040
0.03937
1070
   171
1070
     3
1070
   170
1070
     1
1002
}
  0
LINE
  5
7C
100
AcDbEntity
  8
CENTER
  6
CONTINUOUS
100
AcDbLine
 10
219.327825
 20
198.252448
 30
0.0
 11
221.127825
 21
198.252448
 31
0.0
  0
LINE
  5
7D
100
AcDbEntity
  8
CENTER
  6
CONTINUOUS
100
AcDbLine
 10
220.227825
 20
197.352448
 30
0.0
 11
220.227825
 21
199.152448
 31
0.0
  0
LINE
  5
7E
100
AcDbEntity
  8
CENTER
  6
CONTINUOUS
100
AcDbLine
 10
215.327825
 20
198.252448
 30
0.0
 11
217.127825
 21
198.252448
 31
0.0
  0
LINE
  5
7F
100
AcDbEntity
  8
CENTER
  6
CONTINUOUS
100
AcDbLine
 10
216.227825
 20
197.352448
 30
0.0
 11
216.227825
 21
199.152448
 31
0.0
  0
DIMENSION
  5
A3
100
AcDbEntity
  8
DIM
100
AcDbDimension
  2
*D1
 10
220.227825
 20
198.252448
 30
0.0
 11
265.0154
 21
219.210625
 31
0.0
 12
0.5
 22
0.0
 32
0.0
 70
   164
  3
STANDARD
100
AcDbRadialDimension
 15
221.708679
 25
199.596721
 35
0.0
 40
0.0
1001
ACAD
1000
DSTYLE
1002
{
1070
   288
1070
     1
1070
   140
1040
0.3
1070
   272
1070
     2
1070
    40
1040
10.0
1070
     3
1000
mm
1070
   271
1070
     2
1070
     4
1000
"
1070
   143
1040
0.03937
1070
   171
1070
     3
1070
   170
1070
     1
1002
}
  0
DIMENSION
  5
CF
100
AcDbEntity
  8
DIM
100
AcDbDimension
  2
*D2
 10
336.615325
 20
165.153558
 30
0.0
 11
305.856268
 21
165.153558
 31
0.0
 70
   160
  3
STANDARD
100
AcDbAlignedDimension
 13
220.227825
 23
197.352448
 33
0.0
 14
336.615325
 24
198.252448
 34
0.0
100
AcDbRotatedDimension
1001
ACAD
1000
DSTYLE
1002
{
1070
   288
1070
     1
1070
   140
1040
0.3
1070
   272
1070
     2
1070
    40
1040
10.0
1070
     3
1000
mm
1070
   271
1070
     2
1070
     4
1000
"
1070
   143
1040
0.03937
1070
   171
1070
     3
1070
   170
1070
     1
1002
}
  0
DIMENSION
  5
DD
100
AcDbEntity
  8
DIM
100
AcDbDimension
  2
*D3
 10
336.615325
 20
154.393768
 30
0.0
 11
310.72248
 21
154.393768
 31
0.0
 70
   160
  3
STANDARD
100
AcDbAlignedDimension
 13
216.227825
 23
197.352448
 33
0.0
 14
336.615325
 24
198.252448
 34
0.0
100
AcDbRotatedDimension
1001
ACAD
1000
DSTYLE
1002
{
1070
   288
1070
     1
1070
   140
1040
0.3
1070
   272
1070
     2
1070
    40
1040
10.0
1070
     3
1000
mm
1070
   271
1070
     2
1070
     4
1000
"
1070
   143
1040
0.03937
1070
   171
1070
     3
1070
   170
1070
     1
1002
}
  0
DIMENSION
  5
EB
100
AcDbEntity
  8
DIM
100
AcDbDimension
  2
*D4
 10
336.615325
 20
143.744892
 30
0.0
 11
300.447724
 21
143.744892
 31
0.0
 70
   160
  3
STANDARD
100
AcDbAlignedDimension
 13
184.790325
 23
198.252448
 33
0.0
 14
336.615325
 24
198.252448
 34
0.0
100
AcDbRotatedDimension
1001
ACAD
1000
DSTYLE
1002
{
1070
   288
1070
     1
1070
   140
1040
0.3
1070
   272
1070
     2
1070
    40
1040
10.0
1070
     3
1000
mm
1070
   271
1070
     2
1070
     4
1000
"
1070
   143
1040
0.03937
1070
   171
1070
     3
1070
   170
1070
     1
1002
}
  0
TEXT
  5
1ED
100
AcDbEntity
  8
TEXT
100
AcDbText
 10
436.722699
 20
38.446327
 30
0.0
 40
3.0
  1
LAYER 1 SUPPORT RIB
100
AcDbText
  0
TEXT
  5
1EE
100
AcDbEntity
  8
TEXT
100
AcDbText
 10
476.856209
 20
25.499055
 30
0.0
 40
3.0
  1
L1-RIB01
100
AcDbText
  0
TEXT
  5
1EF
100
AcDbEntity
  8
TEXT
100
AcDbText
 10
423.223246
 20
23.857852
 30
0.0
 40
3.0
  1
C:\B-FAC
100
AcDbText
  0
TEXT
  5
1F0
100
AcDbEntity
  8
TEXT
100
AcDbText
 10
424.135371
 20
16.928326
 30
0.0
 40
3.0
  1
1=1
100
AcDbText
  0
TEXT
  5
1F1
100
AcDbEntity
  8
TEXT
100
AcDbText
 10
377.434559
 20
33.705073
 30
0.0
 40
3.0
  1
S. KYRE
100
AcDbText
  0
TEXT
  5
1F3
100
AcDbEntity
  8
TEXT
100
AcDbText
 10
400.60254
 20
33.705073
 30
0.0
 40
1.5
  1
01-26-96
100
AcDbText
  0
LINE
  5
331
100
AcDbEntity
  8
TEXT
100
AcDbLine
 10
12.294053
 20
15.200044
 30
0.0
 11
12.794053
 21
15.825044
 31
0.0
  0
INSERT
  5
332
100
AcDbEntity
  8
TEXT
100
AcDbBlockReference
  2
C-BORDER
 10
0.0
 20
0.0
 30
0.0
 41
25.4
 42
25.4
 43
25.4
  0
DIMENSION
  5
3C0
100
AcDbEntity
  8
DIM
100
AcDbDimension
  2
*D6
 10
336.615325
 20
231.945706
 30
0.0
 11
254.894451
 21
231.945706
 31
0.0
 70
    32
  3
STANDARD
100
AcDbAlignedDimension
 13
173.173576
 23
204.674248
 33
0.0
 14
336.615325
 24
204.674248
 34
0.0
100
AcDbRotatedDimension
1001
ACAD
1000
DSTYLE
1002
{
1070
   140
1040
0.3
1070
   272
1070
     2
1070
    40
1040
10.0
1070
     3
1000
mm
1070
   287
1070
     0
1070
   271
1070
     2
1070
     4
1000
"
1070
   143
1040
0.03937
1070
   171
1070
     3
1070
   170
1070
     1
1002
}
  0
ARC
  5
5EB
100
AcDbEntity
  8
KEVLAR
100
AcDbCircle
 10
301.177825
 20
198.252448
 30
0.0
 40
2.0
100
AcDbArc
 50
90.0
 51
180.0
1001
ACAD
1000
ASC_BOUNDS
1002
{
1070
    19
1002
}
  0
ARC
  5
5EC
100
AcDbEntity
  8
KEVLAR
100
AcDbCircle
 10
305.177825
 20
198.252448
 30
0.0
 40
2.0
100
AcDbArc
 50
0.0
 51
90.0
1001
ACAD
1000
ASC_BOUNDS
1002
{
1070
    19
1002
}
  0
LINE
  5
5ED
100
AcDbEntity
  8
KEVLAR
100
AcDbLine
 10
305.177825
 20
200.252448
 30
0.0
 11
301.177825
 21
200.252448
 31
0.0
1001
ACAD
1000
ASC_BOUNDS
1002
{
1070
    19
1002
}
  0
LINE
  5
5EE
100
AcDbEntity
  8
KEVLAR
100
AcDbLine
 10
307.177825
 20
198.252448
 30
0.0
 11
336.615325
 21
198.252448
 31
0.0
  0
LINE
  5
613
100
AcDbEntity
  8
CENTER
  6
CONTINUOUS
100
AcDbLine
 10
300.277825
 20
198.252448
 30
0.0
 11
302.077825
 21
198.252448
 31
0.0
  0
LINE
  5
614
100
AcDbEntity
  8
CENTER
  6
CONTINUOUS
100
AcDbLine
 10
304.277825
 20
198.252448
 30
0.0
 11
306.077825
 21
198.252448
 31
0.0
  0
LINE
  5
615
100
AcDbEntity
  8
CENTER
  6
CONTINUOUS
100
AcDbLine
 10
305.177825
 20
197.352448
 30
0.0
 11
305.177825
 21
199.152448
 31
0.0
  0
LINE
  5
616
100
AcDbEntity
  8
CENTER
  6
CONTINUOUS
100
AcDbLine
 10
301.177825
 20
197.352448
 30
0.0
 11
301.177825
 21
199.152448
 31
0.0
  0
DIMENSION
  5
624
100
AcDbEntity
  8
DIM
100
AcDbDimension
  2
*D7
 10
336.615325
 20
187.336086
 30
0.0
 11
360.615325
 21
187.336086
 31
0.0
 70
   160
  3
STANDARD
100
AcDbAlignedDimension
 13
305.177825
 23
197.352448
 33
0.0
 14
336.615325
 24
198.252448
 34
0.0
100
AcDbRotatedDimension
1001
ACAD
1000
DSTYLE
1002
{
1070
   288
1070
     1
1070
   140
1040
0.3
1070
   272
1070
     2
1070
    40
1040
10.0
1070
     3
1000
mm
1070
   287
1070
     0
1070
   271
1070
     2
1070
     4
1000
"
1070
   143
1040
0.03937
1070
   171
1070
     3
1070
   170
1070
     1
1002
}
  0
DIMENSION
  5
632
100
AcDbEntity
  8
DIM
100
AcDbDimension
  2
*D8
 10
336.615325
 20
177.499263
 30
0.0
 11
360.615325
 21
177.499263
 31
0.0
 70
   160
  3
STANDARD
100
AcDbAlignedDimension
 13
301.177825
 23
197.352448
 33
0.0
 14
336.615325
 24
198.252448
 34
0.0
100
AcDbRotatedDimension
1001
ACAD
1000
DSTYLE
1002
{
1070
   288
1070
     1
1070
   140
1040
0.3
1070
   272
1070
     2
1070
    40
1040
10.0
1070
     3
1000
mm
1070
   287
1070
     0
1070
   271
1070
     2
1070
     4
1000
"
1070
   143
1040
0.03937
1070
   171
1070
     3
1070
   170
1070
     1
1002
}
  0
TEXT
  5
64A
100
AcDbEntity
  8
DIM
100
AcDbText
 10
245.483088
 20
212.741661
 30
0.0
 40
3.0
  1
4X
100
AcDbText
  0
DIMENSION
  5
659
100
AcDbEntity
  8
DIM
100
AcDbDimension
  2
*D9
 10
164.051576
 20
198.252448
 30
0.0
 11
145.351576
 21
194.652448
 31
0.0
 70
   160
  3
STANDARD
100
AcDbAlignedDimension
 13
216.227825
 23
200.252448
 33
0.0
 14
184.790325
 24
198.252448
 34
0.0
 50
90.0
100
AcDbRotatedDimension
1001
ACAD
1000
DSTYLE
1002
{
1070
   288
1070
     1
1070
   140
1040
0.3
1070
   272
1070
     2
1070
    40
1040
10.0
1070
     3
1000
mm
1070
   287
1070
     0
1070
   271
1070
     2
1070
     4
1000
"
1070
   143
1040
0.03937
1070
   171
1070
     3
1070
   170
1070
     1
1002
}
  0
LINE
  5
7AF
100
AcDbEntity
  8
TEXT
100
AcDbLine
 10
392.32062
 20
375.127405
 30
0.0
 11
392.32062
 21
348.0
 31
0.0
  0
LINE
  5
7B0
100
AcDbEntity
  8
TEXT
100
AcDbLine
 10
471.829031
 20
375.127405
 30
0.0
 11
471.829031
 21
348.0
 31
0.0
  0
LINE
  5
7B2
100
AcDbEntity
  8
TEXT
100
AcDbLine
 10
494.181031
 20
375.127405
 30
0.0
 11
494.181031
 21
348.0
 31
0.0
  0
LINE
  5
7B3
100
AcDbEntity
  8
TEXT
100
AcDbLine
 10
402.233031
 20
375.127405
 30
0.0
 11
402.233031
 21
348.0
 31
0.0
  0
TEXT
  5
7C4
100
AcDbEntity
  8
TEXT
100
AcDbText
 10
395.0
 20
371.0
 30
0.0
 40
2.0
  1
01
100
AcDbText
  0
TEXT
  5
7C5
100
AcDbEntity
  8
TEXT
100
AcDbText
 10
395.0
 20
367.666667
 30
0.0
 40
2.0
  1
02
100
AcDbText
  0
TEXT
  5
7C6
100
AcDbEntity
  8
TEXT
100
AcDbText
 10
395.0
 20
360.927052
 30
0.0
 40
2.0
  1
03
100
AcDbText
  0
TEXT
  5
7C7
100
AcDbEntity
  8
TEXT
100
AcDbText
 10
405.0
 20
371.0
 30
0.0
 40
2.0
  1
NEW DETECTOR LENGTH
100
AcDbText
  0
TEXT
  5
7C8
100
AcDbEntity
  8
TEXT
100
AcDbText
 10
405.0
 20
367.666667
 30
0.0
 40
2.0
  1
8.5mm CLEARANCE FROM END OF DET 
100
AcDbText
  0
TEXT
  5
7C9
100
AcDbEntity
  8
TEXT
100
AcDbText
 10
405.0
 20
364.333333
 30
0.0
 40
2.0
  1
TO RIB
100
AcDbText
  0
TEXT
  5
7CA
100
AcDbEntity
  8
TEXT
100
AcDbText
 10
405.0
 20
361.0
 30
0.0
 40
2.0
  1
NEW DETECTOR LENGTH, CHANGE
100
AcDbText
  0
TEXT
  5
7CB
100
AcDbEntity
  8
TEXT
100
AcDbText
 10
405.0
 20
357.666667
 30
0.0
 40
2.0
  1
CLEARANCE TO 9.0mm
100
AcDbText
  0
TEXT
  5
7CC
100
AcDbEntity
  8
TEXT
100
AcDbText
 10
476.0
 20
371.0
 30
0.0
 40
2.0
  1
11-13-95
100
AcDbText
  0
TEXT
  5
7CD
100
AcDbEntity
  8
TEXT
100
AcDbText
 10
476.0
 20
367.666667
 30
0.0
 40
2.0
  1
11-13-95
100
AcDbText
  0
TEXT
  5
7CE
100
AcDbEntity
  8
TEXT
100
AcDbText
 10
476.0
 20
361.0
 30
0.0
 40
2.0
  1
01-26-96
100
AcDbText
  0
MTEXT
  5
7F5
100
AcDbEntity
  8
TEXT
100
AcDbMText
 10
90.0
 20
126.0
 30
0.0
 40
4.0
 41
167.0
 71
     1
 72
     1
  3
{MATERIAL: }\P{041mm [0.016"] thick kevlar-epoxy-composite}\P\P{LAMINATE SCHEDULE:}\P{cloth:  4 layers Kevlar 29 (0.004" thick ea.)}\P{ 1.7 oz/sq. yd. plain weave}\P{epoxy: heat resistant laminating epoxy}\P{ Ciba-Geigy RP4005R/RP1500H}\P{cure: 24 hr
  1
s at room temp. @ 20psi}\P{ 2 hrs postcure at 66°C}\P\P{LASER CUTTING:}\P{use fixture L1-RIB11}\P
  0
ACAD_ZOMBIE_ENTITY
  5
80F
100
AcDbEntity
  8
TEXT
100
AcDbZombieEntity
 90
      498
 91
      516
 92
        8
310
0800000000000000
 93
       97
310
D2800000002029040000780280
330
810
330
811
330
812
330
813
330
810
 94
        0
  0
TEXT
  5
84F
100
AcDbEntity
  8
TEXT
100
AcDbText
 10
513.0
 20
24.0
 30
0.0
 40
3.0
  1
03
100
AcDbText
  0
INSERT
  5
859
100
AcDbEntity
  8
ASHADE
 62
     1
100
AcDbBlockReference
  2
AVE_RENDER
 10
0.0
 20
0.0
 30
0.0
1001
AVE_RENDER
1002
{
1070
     6
1000
Pref
1070
    30
1070
    20
1070
     1
1070
     0
1000

1070
    10
1070
     1
1070
    30
1040
1.0
1070
     1
1040
0.3
1040
0.7
1040
0.0
1040
10.0
1010
-1.0
1020
-1.0
1030
-1.0
1040
0.3
1070
    49
1070
     0
1070
     0
1010
1.0
1020
1.0
1030
1.0
1040
45.0
1070
     1
1070
     0
1000
WCS
1040
0.0
1002
}
  0
INSERT
  5
85A
100
AcDbEntity
  8
ASHADE
 62
     3
100
AcDbBlockReference
  2
AVE_RENDER
 10
0.0
 20
0.0
 30
0.0
1001
AVE_RENDER
1002
{
1070
     0
1000
Full Opt
1070
     0
1070
     1
1070
     1
1070
     1
1070
     0
1070
     0
1070
     0
1070
     1
1070
     1
1040
0.0001
1040
0.0001
1002
}
  0
INSERT
  5
85B
100
AcDbEntity
  8
ASHADE
 62
     4
100
AcDbBlockReference
  2
AVE_RENDER
 10
0.0
 20
0.0
 30
0.0
1001
AVE_RENDER
1002
{
1070
     0
1000
Quick Opt
1070
     0
1070
     1
1070
     1
1070
     1
1070
     0
1070
     0
1070
     1
1002
}
  0
INSERT
  5
85C
100
AcDbEntity
  8
ASHADE
 62
     5
100
AcDbBlockReference
  2
AVE_RENDER
 10
0.0
 20
0.0
 30
0.0
1001
AVE_RENDER
1002
{
1070
     1
1000
Scanl Opt
1070
     2
1070
     0
1070
     2
1040
2.0
1040
4.0
1070
     0
1070
     1
1070
     0
1040
0.03
1002
}
  0
INSERT
  5
85D
100
AcDbEntity
  8
ASHADE
 62
     6
100
AcDbBlockReference
  2
AVE_RENDER
 10
0.0
 20
0.0
 30
0.0
1001
AVE_RENDER
1002
{
1070
     2
1000
Raytr Opt
1070
     2
1070
     0
1070
     2
1040
2.0
1040
4.0
1070
     0
1070
     1
1070
     1
1040
0.03
1070
     3
1040
0.03
1002
}
  0
INSERT
  5
85E
100
AcDbEntity
  8
ASHADE
 62
     7
100
AcDbBlockReference
  2
AVE_RENDER
 10
0.0
 20
0.0
 30
0.0
1001
AVE_RENDER
1002
{
1070
     0
1000
RFile Opt
1070
     5
1070
   640
1070
   480
1070
 10000
1070
     3
1070
    32
1070
    24
1070
     0
1070
     0
1070
     0
1070
     1
1070
     0
1070
     0
1070
     0
1002
}
  0
INSERT
  5
85F
100
AcDbEntity
  8
ASHADE
 62
     8
100
AcDbBlockReference
  2
AVE_RENDER
 10
0.0
 20
0.0
 30
0.0
1001
AVE_RENDER
1002
{
1070
     0
1000
Fog Opt
1070
     0
1070
     0
1040
0.0
1040
1.0
1040
0.0
1040
1.0
1010
0.5
1020
0.5
1030
0.5
1002
}
  0
INSERT
  5
860
100
AcDbEntity
  8
ASHADE
 62
     9
100
AcDbBlockReference
  2
AVE_RENDER
 10
0.0
 20
0.0
 30
0.0
1001
AVE_RENDER
1002
{
1070
     0
1000
BG Opt
1070
     0
1070
     1
1010
0.0
1020
0.0
1030
0.0
1010
1.0
1020
0.0
1030
0.0
1010
0.0
1020
1.0
1030
0.0
1010
0.0
1020
0.0
1030
1.0
1040
0.5
1040
0.33
1040
0.0
1000

1070
     1
1000

1070
     1
1070
     1
1040
1.0
1040
1.0
1040
0.0
1040
0.0
1070
     0
1002
}
  0
INSERT
  5
867
100
AcDbEntity
  8
ASHADE
 62
     1
100
AcDbBlockReference
  2
AVE_GLOBAL
 10
0.0
 20
0.0
 30
0.0
1001
AVE_MATERIAL
1002
{
1000
*GLOBAL*
1000
1
1000
Global finish.
1002
{
1002
}
1002
{
1070
    63
1002
{
1002
{
1010
-1.0
1020
-1.0
1030
-1.0
1002
}
1040
0.1
1000

1040
0.0
1002
{
1002
}
1040
0.0
1002
{
1002
}
1040
0.0
1002
}
1002
{
1002
{
1010
-1.0
1020
-1.0
1030
-1.0
1002
}
1040
0.7
1000

1040
0.0
1002
{
1002
}
1040
0.0
1002
{
1002
}
1040
0.0
1002
}
1002
{
1002
{
1010
-1.0
1020
-1.0
1030
-1.0
1002
}
1040
0.2
1000

1040
0.0
1002
{
1002
}
1040
0.0
1002
{
1002
}
1040
0.0
1002
}
1002
{
1070
     0
1002
{
1070
     1
1002
{
1040
1.0
1040
1.0
1000

1040
0.0
1002
{
1002
}
1040
0.0
1002
{
1002
}
1040
0.0
1002
}
1002
}
1040
1.0
1040
0.0
1040
0.0
1002
}
1002
{
1040
1.0
1040
1.0
1000

1040
0.0
1002
{
1002
}
1040
0.0
1002
{
1002
}
1040
0.0
1002
}
1002
{
1040
0.5
1040
1.0
1000

1040
0.0
1002
{
1002
}
1040
0.0
1002
{
1002
}
1040
0.0
1002
}
1002
{
1070
     0
1040
0.0
1002
{
1002
}
1040
1.0
1002
{
1002
}
1040
0.0
1002
}
1002
{
1040
0.0
1002
{
1002
{
1010
0.0
1020
0.0
1030
0.0
1002
}
1040
1.0
1000

1040
0.0
1002
{
1002
}
1040
0.0
1002
{
1002
}
1040
0.0
1002
}
1002
}
1002
{
1002
{
1070
     1
1002
{
1040
0.0
1040
1.0
1000

1040
0.0
1002
{
1002
}
1040
0.0
1002
{
1002
}
1040
0.0
1002
}
1002
}
1040
0.0
1002
{
1002
}
1010
1.0
1020
0.0
1030
0.0
1010
0.0
1020
1.0
1030
0.0
1010
0.0
1020
0.0
1030
1.0
1070
     0
1002
}
1002
{
1002
{
1040
1.0
1040
1.0
1002
{
1070
     1
1002
{
1040
1.0
1040
1.0
1000

1040
0.0
1002
{
1002
}
1040
0.0
1002
{
1002
}
1040
0.0
1002
}
1002
}
1002
}
1070
     0
1040
0.0
1002
{
1002
}
1002
}
1002
{
1002
}
1002
}
1002
{
1071
        3
1070
     3
1070
     0
1002
{
1070
     2
1070
     0
1070
     0
1040
0.0
1002
}
1070
     0
1070
     2
1002
{
1002
}
1002
}
1002
{
1040
8030.0
1040
190.300003
1040
0.305
1040
228.0
1040
545.0
1040
14.0
1040
17.4
1040
0.456
1002
}
1002
}
  0
ENDSEC
  0
SECTION
  2
OBJECTS
  0
DICTIONARY
  5
1A
100
AcDbDictionary
  3
ACAD_GROUP
350
18
  3
ACAD_MLINESTYLE
350
19
  3
ACASAPPOBJECT
350
84B
  3
ACASGREF_MASTER
350
7FF
  3
ACCELVIEW
350
868
  3
ACDMSYSVARMGR
350
81B
  3
ACGREF_MASTER
350
7FD
  3
ACME_COMMAND_HISTORY
350
7FB
  3
ACME_SCOPE_NAME
350
7FA
  3
AD_APPL
350
80E
  3
AD_DRAWMGR_NAME
350
82E
  3
AD_GREF_MODULE
350
816
  3
AD_HOLENOTE_REPOSITORY
350
815
  3
ADSYSVARMGR
350
804
  3
AMI_MASTER
350
7FE
  3
AUTOCAD_ASSEMBLIES_PROJECT
350
83A
  3
DESIGNER_ASSEMBLIES_SYSVARS
350
835
  0
DICTIONARY
  5
18
102
{ACAD_REACTORS
330
1A
102
}
100
AcDbDictionary
  0
DICTIONARY
  5
19
102
{ACAD_REACTORS
330
1A
102
}
100
AcDbDictionary
  3
STANDARD
350
1D
  0
ACAD_ZOMBIE_OBJECT
  5
84B
102
{ACAD_REACTORS
330
1A
102
}
100
AcDbZombieObject
 90
      499
 91
      537
 93
        2
310
90
360
849
 94
        0
  0
ACAD_ZOMBIE_OBJECT
  5
7FF
102
{ACAD_REACTORS
330
1A
102
}
100
AcDbZombieObject
 90
      499
 91
      506
 93
       34
310
0100004040
 94
        0
  0
ACAD_ZOMBIE_OBJECT
  5
868
102
{ACAD_REACTORS
330
1A
102
}
100
AcDbZombieObject
 90
      499
 91
      538
 93
       12
310
90B4
330
80F
330
84F
330
859
330
85A
330
85B
330
85C
330
85D
330
85E
330
85F
330
860
330
867
 94
        0
  0
ACAD_ZOMBIE_OBJECT
  5
81B
102
{ACAD_REACTORS
330
1A
102
}
100
AcDbZombieObject
 90
      499
 91
      511
 93
      176
310
4C5114810100000000000000000000000000000000004F
330
81C
330
81D
330
81E
330
81F
330
820
330
821
330
823
330
824
330
825
330
826
330
827
330
828
330
829
330
82A
330
82B
330
82C
330
82D
 94
        0
  0
ACAD_ZOMBIE_OBJECT
  5
7FD
102
{ACAD_REACTORS
330
1A
102
}
100
AcDbZombieObject
 90
      499
 91
      504
 93
      114
310
01000040C000000000000000000000
 94
        0
  0
ACAD_ZOMBIE_OBJECT
  5
7FB
102
{ACAD_REACTORS
330
1A
102
}
100
AcDbZombieObject
 90
      499
 91
      502
 93
     3078
310
4780504554E444F805044F50454E80508554E444546494E4580508554E444546494E458050A4D454E55554E4C4F4144805084D454E554C4F41448050C41445F434F4E56455254523140805084E202D20554E444F014213880B4815539113C050C414D4C54595045434845434B40C05084E202D20554E444F014253880B4813
310
10565154805084E202D20554E444F014111D492512014191561413D49520140D39155E01421553911151925391601421553911151925391601429351539555539313D05120142135153955313D05120143105117D0D3D395915495148C502014213880B4815539113C05084E202D20554E444F01431053531516541150D211
310
50D2D03014213880B4815539113C05094E202D204C41594552014213880B4815539113C0505505552474580505505552474580505505552474580505455241534580506524544524157805055055524745805055055524745805055055524745805055055524745805064558504F5254805034E45578050451554954805045
310
15549548
 94
        0
  0
ACAD_ZOMBIE_OBJECT
  5
7FA
102
{ACAD_REACTORS
330
1A
102
}
100
AcDbZombieObject
 90
      499
 91
      501
 93
      456
310
0101004093100000000000000000000000000000000000000000000000000000000000000000000000000000000000000000000000000901000B
360
800
360
801
360
802
360
803
360
805
360
806
360
807
360
808
360
809
360
80A
360
80B
360
80C
360
80D
360
810
360
811
360
812
360
813
360
814
360
817
360
818
360
819
360
81A
360
81C
360
81D
360
81E
360
81F
360
820
360
821
360
823
360
824
360
825
360
826
360
827
360
828
360
829
360
82A
360
82B
360
82C
360
82D
360
836
360
837
360
838
360
839
360
83E
360
83F
360
840
360
841
360
842
360
846
330
80F
 94
        0
  0
ACAD_ZOMBIE_OBJECT
  5
80E
102
{ACAD_REACTORS
330
1A
102
}
100
AcDbZombieObject
 90
      499
 91
      515
 93
       42
310
000100004340
330
800
 94
        0
  0
ACAD_ZOMBIE_OBJECT
  5
82E
102
{ACAD_REACTORS
330
1A
102
}
100
AcDbZombieObject
 90
      499
 91
      527
 93
       42
310
000100004400
330
817
 94
        0
  0
ACAD_ZOMBIE_OBJECT
  5
816
102
{ACAD_REACTORS
330
1A
102
}
100
AcDbZombieObject
 90
      499
 91
      522
 93
      114
310
000000428000000000000000000000
 94
        0
  0
ACAD_ZOMBIE_OBJECT
  5
815
102
{ACAD_REACTORS
330
1A
102
}
100
AcDbZombieObject
 90
      499
 91
      521
 93
        8
310
0033
330
814
 94
        0
  0
ACAD_ZOMBIE_OBJECT
  5
804
102
{ACAD_REACTORS
330
1A
102
}
100
AcDbZombieObject
 90
      499
 91
      511
 93
      104
310
9094410100000000000000000000
330
805
330
806
330
807
330
808
330
809
330
80A
330
80B
330
80C
330
80D
 94
        0
  0
ACAD_ZOMBIE_OBJECT
  5
7FE
102
{ACAD_REACTORS
330
1A
102
}
100
AcDbZombieObject
 90
      499
 91
      505
 93
       34
310
0100004054
 94
        0
  0
ACAD_ZOMBIE_OBJECT
  5
83A
102
{ACAD_REACTORS
330
1A
102
}
100
AcDbZombieObject
 90
      499
 91
      528
 93
       58
310
0100004180000000
330
840
330
846
330
841
 94
        0
  0
ACAD_ZOMBIE_OBJECT
  5
835
102
{ACAD_REACTORS
330
1A
102
}
100
AcDbZombieObject
 90
      499
 91
      511
 93
       64
310
904441010000000000
330
836
330
837
330
838
330
839
 94
        0
  0
MLINESTYLE
  5
1D
102
{ACAD_REACTORS
330
19
102
}
100
AcDbMlineStyle
  2
STANDARD
 70
     0
  3

 62
     0
 51
90.0
 52
90.0
 71
     2
 49
0.5
 62
   256
  6
BYLAYER
 49
-0.5
 62
   256
  6
BYLAYER
  0
ACAD_ZOMBIE_OBJECT
  5
849
100
AcDbZombieObject
 90
      499
 91
      535
 93
      720
310
9064D2E312E313607014B7269BC41100000000000000E03F1EC52B91F85EA10FE1EC52B91F85EA10FD034153471EC52B91F85EA10FC000000FC83D797414650540C000000000000E03F3F2A7C749358940FC000000FC83D797414F
 94
        0
  0
ACAD_ZOMBIE_OBJECT
  5
800
100
AcDbZombieObject
 90
      499
 91
      507
 93
      280
310
000000000000014119185D1940506462E312E3136014119185D1940506462E312E313600
330
7FA
330
801
330
802
330
804
330
80F
 94
        0
  0
ACAD_ZOMBIE_OBJECT
  5
801
100
AcDbZombieObject
 90
      499
 91
      508
 93
      120
310
00009024410100000092080002A6A600
330
7FA
330
811
330
810
330
0
 94
        0
  0
ACAD_ZOMBIE_OBJECT
  5
802
100
AcDbZombieObject
 90
      499
 91
      509
 93
       46
310
000000009208
330
7FA
330
0
330
803
 94
        0
  0
ACAD_ZOMBIE_OBJECT
  5
803
100
AcDbZombieObject
 90
      499
 91
      510
 93
       22
310
0000A8
330
7FA
 94
        0
  0
ACAD_ZOMBIE_OBJECT
  5
805
100
AcDbZombieObject
 90
      499
 91
      512
 93
      124
310
00000142905350D3D39114D414D69050
330
7FA
 94
        0
  0
ACAD_ZOMBIE_OBJECT
  5
806
100
AcDbZombieObject
 90
      499
 91
      512
 93
      124
310
000001429053549553115353D1115010
330
7FA
 94
        0
  0
ACAD_ZOMBIE_OBJECT
  5
807
100
AcDbZombieObject
 90
      499
 91
      512
 93
      108
310
00000142105354D2D353D1115010
330
7FA
 94
        0
  0
ACAD_ZOMBIE_OBJECT
  5
808
100
AcDbZombieObject
 90
      499
 91
      512
 93
      140
310
000001435053511253511254D41353D11160
330
7FA
 94
        0
  0
ACAD_ZOMBIE_OBJECT
  5
809
100
AcDbZombieObject
 90
      499
 91
      513
 93
      180
310
00000142905354D2D05391D513D3000000000000010400
330
7FA
 94
        0
  0
ACAD_ZOMBIE_OBJECT
  5
80A
100
AcDbZombieObject
 90
      499
 91
      514
 93
      164
310
00000142505354D2D4D516531140505434F4E542A0
330
7FA
 94
        0
  0
ACAD_ZOMBIE_OBJECT
  5
80B
100
AcDbZombieObject
 90
      499
 91
      512
 93
      108
310
00000142105350D3511112535010
330
7FA
 94
        0
  0
ACAD_ZOMBIE_OBJECT
  5
80C
100
AcDbZombieObject
 90
      499
 91
      514
 93
      116
310
000001425053541054919253114060
330
7FA
 94
        0
  0
ACAD_ZOMBIE_OBJECT
  5
80D
100
AcDbZombieObject
 90
      499
 91
      512
 93
      100
310
00000142105350D3D35414D5A0
330
7FA
 94
        0
  0
ACAD_ZOMBIE_OBJECT
  5
810
100
AcDbZombieObject
 90
      499
 91
      517
 93
      164
310
000092090148200A00000440000FFFFFFFF0000000
330
7FA
330
811
330
801
330
80F
 94
        0
  0
ACAD_ZOMBIE_OBJECT
  5
811
100
AcDbZombieObject
 90
      499
 91
      518
 93
       82
310
000040520802482A800000
330
7FA
330
810
330
801
330
80F
 94
        0
  0
ACAD_ZOMBIE_OBJECT
  5
812
100
AcDbZombieObject
 90
      499
 91
      510
 93
       22
310
0000A8
330
7FA
 94
        0
  0
ACAD_ZOMBIE_OBJECT
  5
813
100
AcDbZombieObject
 90
      499
 91
      519
 93
       38
310
000000920A
330
7FA
330
0
 94
        0
  0
ACAD_ZOMBIE_OBJECT
  5
814
100
AcDbZombieObject
 90
      499
 91
      520
 93
     3196
310
0000419208050A544852555F4452494C4C0142D09312539117D1149253130050A544852555F43424F52450142D09312539117D0D093D4914050A544852555F4353494E4B0142D09312539117D0D4D25392D0648201459EC94958C8094950535112504815121493D551D20B9F4051C7B252563202525414D444941205820252
310
5414D44455020444545507D014F5EC94958C8094950535112504815121493D551D20B9F57141ED0D093D49148094958C80949505350D112504816080949505350D091115408111151541F405437B252563202525414D4449412058202525414D44455020444545507D5C507B43424F524520252563202525414D4344494120
310
58202525414D434244455020444545507D014EDEC94958C8094950535112504815121493D551D20B9F57141ED0D4D25392C8094958C80949505350D112504816080949505350D4D05391C949591F405417B252563202525414D4449412058202525414D44455020444545507D5C507B4353494E4B20252563202525414D434
310
449412058202525414D4353414E472525647D0
330
7FA
 94
        0
  0
ACAD_ZOMBIE_OBJECT
  5
817
100
AcDbZombieObject
 90
      499
 91
      523
 93
      308
310
0000014119185D1940507442E312E313663014119185D1940507442E312E313663405010000000
330
7FA
330
818
330
81A
330
81B
 94
        0
  0
ACAD_ZOMBIE_OBJECT
  5
818
100
AcDbZombieObject
 90
      499
 91
      524
 93
       56
310
0000901441010000
330
7FA
330
819
 94
        0
  0
ACAD_ZOMBIE_OBJECT
  5
819
100
AcDbZombieObject
 90
      499
 91
      525
 93
       40
310
0000A4410100
330
7FA
 94
        0
  0
ACAD_ZOMBIE_OBJECT
  5
81A
100
AcDbZombieObject
 90
      499
 91
      526
 93
       68
310
0000A44101920A4820
330
7FA
 94
        0
  0
ACAD_ZOMBIE_OBJECT
  5
81C
100
AcDbZombieObject
 90
      499
 91
      512
 93
      108
310
000001421053521310D05310D010
330
7FA
 94
        0
  0
ACAD_ZOMBIE_OBJECT
  5
81D
100
AcDbZombieObject
 90
      499
 91
      512
 93
      124
310
000001429053541493D2951654115013
330
7FA
 94
        0
  0
ACAD_ZOMBIE_OBJECT
  5
81E
100
AcDbZombieObject
 90
      499
 91
      512
 93
      124
310
00000142905354915554D15112535010
330
7FA
 94
        0
  0
ACAD_ZOMBIE_OBJECT
  5
81F
100
AcDbZombieObject
 90
      499
 91
      512
 93
      132
310
00000143105354D150D51253D391125366
330
7FA
 94
        0
  0
ACAD_ZOMBIE_OBJECT
  5
820
100
AcDbZombieObject
 90
      499
 91
      512
 93
      124
310
00000142905355941093D49111549010
330
7FA
 94
        0
  0
ACAD_ZOMBIE_OBJECT
  5
821
100
AcDbZombieObject
 90
      499
 91
      514
 93
      180
310
00000142905352125113151654114050648494444454E1
330
7FA
 94
        0
  0
ACAD_ZOMBIE_OBJECT
  5
823
100
AcDbZombieObject
 90
      499
 91
      514
 93
      196
310
00000142905354D150D315165411405085048414E544F4D320
330
7FA
 94
        0
  0
ACAD_ZOMBIE_OBJECT
  5
824
100
AcDbZombieObject
 90
      499
 91
      512
 93
      108
310
00000142105354D51114D0D51020
330
7FA
 94
        0
  0
ACAD_ZOMBIE_OBJECT
  5
825
100
AcDbZombieObject
 90
      499
 91
      512
 93
      108
310
00000142105354D5111510541021
330
7FA
 94
        0
  0
ACAD_ZOMBIE_OBJECT
  5
826
100
AcDbZombieObject
 90
      499
 91
      512
 93
      108
310
00000142105354D5111115131020
330
7FA
 94
        0
  0
ACAD_ZOMBIE_OBJECT
  5
827
100
AcDbZombieObject
 90
      499
 91
      513
 93
      148
310
00000141905350D310D34295C8FC2F528BC3F4
330
7FA
 94
        0
  0
ACAD_ZOMBIE_OBJECT
  5
828
100
AcDbZombieObject
 90
      499
 91
      513
 93
      156
310
00000141D05350D311D05402B8716D9CEF7C33F0
330
7FA
 94
        0
  0
ACAD_ZOMBIE_OBJECT
  5
829
100
AcDbZombieObject
 90
      499
 91
      513
 93
      164
310
00000142105350D313D4D2150295C8FC2F528BC3F0
330
7FA
 94
        0
  0
ACAD_ZOMBIE_OBJECT
  5
82A
100
AcDbZombieObject
 90
      499
 91
      512
 93
      100
310
00000141D05350D31410549010
330
7FA
 94
        0
  0
ACAD_ZOMBIE_OBJECT
  5
82B
100
AcDbZombieObject
 90
      499
 91
      512
 93
      100
310
0000014210535590539254D222
330
7FA
 94
        0
  0
ACAD_ZOMBIE_OBJECT
  5
82C
100
AcDbZombieObject
 90
      499
 91
      513
 93
      188
310
00000142D0535312539155121250D2C295C8FC2F5289C3F0
330
7FA
 94
        0
  0
ACAD_ZOMBIE_OBJECT
  5
82D
100
AcDbZombieObject
 90
      499
 91
      514
 93
      164
310
00000142105350D3151654114050643454E5445520
330
7FA
 94
        0
  0
ACAD_ZOMBIE_OBJECT
  5
836
100
AcDbZombieObject
 90
      499
 91
      512
 93
      132
310
00000142D05050555513D4D3D315915010
330
7FA
 94
        0
  0
ACAD_ZOMBIE_OBJECT
  5
837
100
AcDbZombieObject
 90
      499
 91
      512
 93
      156
310
00000143905050555513D054D4D1535093115010
330
7FA
 94
        0
  0
ACAD_ZOMBIE_OBJECT
  5
838
100
AcDbZombieObject
 90
      499
 91
      512
 93
      148
310
00000143505055925155D49154D513D4915010
330
7FA
 94
        0
  0
ACAD_ZOMBIE_OBJECT
  5
839
100
AcDbZombieObject
 90
      499
 91
      512
 93
      124
310
00000142D050525394D15495105094E0
330
7FA
 94
        0
  0
ACAD_ZOMBIE_OBJECT
  5
83E
100
AcDbZombieObject
 90
      499
 91
      529
 93
       32
310
0000000000
330
7FA
340
83B
330
83F
330
83B
 94
        0
  0
ACAD_ZOMBIE_OBJECT
  5
83F
100
AcDbZombieObject
 90
      499
 91
      530
 93
      143
310
00000142130C4B5492508C0C50400522080C
330
7FA
330
83E
 94
        0
  0
ACAD_ZOMBIE_OBJECT
  5
840
100
AcDbZombieObject
 90
      499
 91
      531
 93
       72
310
000000A44101A4410100
330
7FA
330
83F
 94
        0
  0
ACAD_ZOMBIE_OBJECT
  5
841
100
AcDbZombieObject
 90
      499
 91
      532
 93
       80
310
0000901441010000000000
330
7FA
330
842
330
842
330
842
330
842
 94
        0
  0
ACAD_ZOMBIE_OBJECT
  5
842
100
AcDbZombieObject
 90
      499
 91
      533
 93
      173
310
00000000406AAAAAAAAAAAAAAAAA806A44101A441010
330
7FA
330
841
330
83F
 94
        0
  0
ACAD_ZOMBIE_OBJECT
  5
846
100
AcDbZombieObject
 90
      499
 91
      534
 93
       26
310
00008000
330
7FA
330
0
 94
        0
  0
ENDSEC
  0
EOF
